osu file format v14

[General]
AudioFilename: audio.mp3
AudioLeadIn: 0
PreviewTime: 72670
Countdown: 1
SampleSet: Soft
StackLeniency: 0.4
Mode: 0
LetterboxInBreaks: 0
WidescreenStoryboard: 1

[Editor]
Bookmarks: 185252,187889,239318
DistanceSpacing: 1
BeatDivisor: 4
GridSize: 32
TimelineZoom: 1.7

[Metadata]
Title:Hoshi ga Matataku Konna Yoru ni
TitleUnicode:星が瞬くこんな夜に
Artist:supercell
ArtistUnicode:supercell
Creator:Yukiyo
Version:Insane
Source:魔法使いの夜
Tags:today is a beautiful day ryo yanagi nagi atalanta Mahoutsukai no Type-Moon
BeatmapID:1761536
BeatmapSetID:840787

[Difficulty]
HPDrainRate:5.2
CircleSize:4
OverallDifficulty:7.6
ApproachRate:9
SliderMultiplier:1.76
SliderTickRate:1

[Events]
//Background and Video events
0,0,"Konachan.com - 259924 sample.jpg",0,0
//Break Periods
2,169617,179367
2,219538,224208
//Storyboard Layer 0 (Background)
//Storyboard Layer 1 (Fail)
//Storyboard Layer 2 (Pass)
//Storyboard Layer 3 (Foreground)
//Storyboard Sound Samples

[TimingPoints]
-458,400,4,2,1,40,1,0
1142,-166.666666666667,4,2,1,40,0,0
17142,-172.413793103448,4,2,1,40,0,0
21568,329.67032967033,4,2,1,80,1,0
21568,-111.111111111111,4,2,1,80,0,0
21726,329.67032967033,4,2,1,80,1,0
21726,-111.111111111111,4,2,1,80,0,0
32275,-125,4,2,1,60,0,0
53374,-142.857142857143,4,2,1,70,0,0
62605,-111.111111111111,4,2,1,70,0,0
63923,-166.666666666666,4,2,1,70,0,0
68539,-333.333333333333,4,2,1,80,0,0
71176,-111.111111111111,4,2,1,80,0,0
73154,-666.666666666667,4,2,1,80,0,0
74473,-100,4,2,1,100,0,1
90297,-125,4,2,1,80,0,0
95572,-111.111111111111,4,2,1,60,0,0
105791,-133.333333333333,4,2,1,60,0,0
106121,329.67032967033,4,2,1,60,1,0
106121,-125,4,2,1,60,0,0
127220,329.67032967033,4,2,1,60,1,0
127220,-166.666666666667,4,2,1,60,0,0
137769,-142.857142857143,4,2,1,60,0,0
142384,-333.333333333332,4,2,1,60,0,0
145022,-111.111111111111,4,2,1,60,0,0
147000,-125,4,2,1,60,0,0
147989,-333.333333333332,4,2,1,100,0,0
148318,-100,4,2,1,100,0,1
164143,-125,4,2,1,80,0,0
169418,-250,4,2,1,60,0,0
178154,-222.222222222222,4,2,1,60,0,0
178484,-200,4,2,1,60,0,0
178813,-181.818181818182,4,2,1,60,0,0
179143,-166.666666666667,4,2,1,60,0,0
179473,-142.857142857143,4,2,1,60,0,0
179967,-125,4,2,1,60,0,0
185241,-333.333333333333,4,2,1,50,0,0
187055,-1000,4,2,1,50,0,0
187879,-133.333333333333,4,2,1,80,0,0
189198,-133.333333333333,4,2,1,80,0,0
189693,-133.333333333333,4,2,1,80,0,0
192494,-111.111111111111,4,2,1,80,0,0
206330,329.67032967033,4,2,1,80,1,0
206330,-111.111111111111,4,2,1,80,0,0
211622,329.67032967033,4,2,1,80,1,0
211622,-111.111111111111,4,2,1,80,0,0
224808,-142.857142857143,4,2,1,80,0,0
228764,-100,4,2,1,80,0,0
230083,-100,4,2,1,100,0,1
235358,-111.111111111111,4,2,1,60,0,0
240629,329.67032967033,4,2,1,60,1,0
240629,-111.111111111111,4,2,1,60,0,0
245907,379.746835443038,4,2,1,60,1,0
247425,400,4,2,1,60,1,0
248225,422.535211267606,4,2,1,60,1,0
248833,422.535211267606,4,2,1,60,1,0
249070,500,4,2,1,60,1,0
249570,-100,4,2,1,60,0,0
249820,-90.9090909090909,4,2,1,60,0,0
250070,545.454545454546,4,2,1,60,1,0
250070,-83.3333333333333,4,2,1,60,0,0
250342,-76.9230769230769,4,2,1,60,0,0
250615,-71.4285714285714,4,2,1,60,0,0
250888,-66.6666666666667,4,2,1,60,0,0
252251,631.578947368421,4,2,1,60,1,0
252882,705.882352941175,4,2,1,60,1,0
253587,-1000,4,2,1,60,0,0
254999,705.882352941175,4,2,1,60,1,0
264528,-100,4,2,1,5,0,0

[Colours]
Combo1 : 138,138,198
Combo2 : 0,112,166
Combo3 : 130,130,255

[HitObjects]
103,21,942,5,2,0:0:0:0:
103,21,1142,2,0,P|132:64|142:115,1,105.599996777344,2|2,0:0|0:0,0:0:0:0:
26,219,1942,2,0,P|36:167|65:124,1,105.599996777344,2|2,0:0|0:0,0:0:0:0:
231,189,2742,6,0,L|125:197,1,105.599996777344,2|2,0:0|0:0,0:0:0:0:
301,101,3542,2,0,L|195:92,1,105.599996777344,2|2,0:0|0:0,0:0:0:0:
369,43,4142,5,2,0:0:0:0:
369,43,4342,2,0,P|386:92|378:143,1,105.599996777344,2|2,0:0|0:0,0:0:0:0:
471,158,5142,2,0,P|453:207|461:258,1,105.599996777344,2|2,0:0|0:0,0:0:0:0:
405,326,5942,6,0,L|280:307,1,105.599996777344,2|2,0:0|0:0,0:0:0:0:
221,367,6542,2,0,L|346:348,1,105.599996777344,2|2,0:0|0:0,0:0:0:0:
345,274,7142,2,0,L|292:266,1,52.7999983886719,2|0,0:0|0:0,0:0:0:0:
114,268,7542,6,0,P|161:289|213:285,1,105.599996777344,2|2,0:0|0:0,0:0:0:0:
216,129,8342,2,0,P|163:125|116:146,1,105.599996777344,2|2,0:0|0:0,0:0:0:0:
305,135,9142,6,0,L|333:11,1,105.599996777344,2|2,0:0|0:0,0:0:0:0:
305,249,9942,2,0,L|333:373,1,105.599996777344,2|2,0:0|0:0,0:0:0:0:
507,244,10742,6,0,B|453:238|453:238|386:259,1,105.599996777344,2|2,0:0|0:0,0:0:0:0:
404,130,11542,2,0,B|453:146|453:146|507:140,1,105.599996777344,2|2,0:0|0:0,0:0:0:0:
344,60,12342,6,0,P|316:104|315:156,1,105.599996777344,2|2,0:0|0:0,0:0:0:0:
168,324,13142,2,0,P|195:279|196:227,1,105.599996777344,2|2,0:0|0:0,0:0:0:0:
143,146,13742,5,2,0:0:0:0:
143,146,13942,2,0,L|22:161,1,105.599996777344,2|2,0:0|0:0,0:0:0:0:
162,45,14742,2,0,L|283:60,1,105.599996777344,2|2,0:0|0:0,0:0:0:0:
322,232,15542,6,0,B|335:172|335:172|321:129,1,105.599996777344,2|2,0:0|0:0,0:0:0:0:
190,205,16342,2,0,B|177:265|177:265|190:307,1,105.599996777344,2|2,0:0|0:0,0:0:0:0:
307,369,16942,5,2,0:0:0:0:
307,369,17142,1,2,0:0:0:0:
256,192,17242,12,0,21342,0:0:0:0:
173,46,21568,5,8,0:0:0:0:
173,46,21650,1,8,0:0:0:0:
173,46,21726,2,0,L|81:54,1,79.1999975830079,4|0,3:2|0:0,0:0:0:0:
1,127,22055,2,0,L|93:135,1,79.1999975830079,0|0,3:0|0:0,0:0:0:0:
226,178,22385,2,0,P|204:145|169:127,1,79.1999975830079,0|0,3:0|0:0,0:0:0:0:
87,223,22715,2,0,P|108:255|143:273,1,79.1999975830079,0|0,3:0|0:0,0:0:0:0:
246,251,23044,6,0,P|181:293|168:369,1,158.399995166016,0|0,3:0|3:0,0:0:0:0:
330,287,23539,2,0,P|326:210|267:161,1,158.399995166016,0|0,0:0|0:0,0:0:0:0:
257,345,24033,2,0,P|286:370|324:380,1,79.1999975830079,0|8,3:0|0:0,0:0:0:0:
406,361,24280,1,8,0:0:0:0:
421,346,24363,6,0,L|428:246,1,79.1999975830079,4|0,3:2|0:0,0:0:0:0:
347,163,24693,2,0,L|352:242,1,79.1999975830079,0|0,3:0|0:0,0:0:0:0:
419,119,25022,2,0,P|392:89|355:76,1,79.1999975830079,0|0,3:0|0:0,0:0:0:0:
234,179,25352,2,0,P|272:171|302:145,1,79.1999975830079,0|0,3:0|0:0,0:0:0:0:
228,15,25682,6,0,L|237:93,1,79.1999975830079,0|0,3:0|0:0,0:0:0:0:
140,260,26011,2,0,L|158:102,1,158.399995166016,8|0,3:3|3:0,0:0:0:0:
49,181,26506,2,0,L|68:339,1,158.399995166016,4|8,0:3|0:0,0:0:0:0:
163,360,26918,1,8,0:0:0:0:
175,342,27000,6,0,P|221:323|272:335,1,79.1999975830079,4|0,3:2|0:0,0:0:0:0:
355,263,27330,2,0,P|309:244|258:256,1,79.1999975830079,0|0,3:0|0:0,0:0:0:0:
417,320,27660,2,0,P|436:285|438:246,1,79.1999975830079,0|0,3:0|0:0,0:0:0:0:
264,237,27989,2,0,P|244:202|242:163,1,79.1999975830079,0|0,3:0|0:0,0:0:0:0:
465,119,28319,6,0,B|408:172|408:172|327:168,1,158.399995166016,0|0,3:0|3:0,0:0:0:0:
284,66,28813,2,0,B|341:13|341:13|421:16,1,158.399995166016,0|0,0:0|0:0,0:0:0:0:
249,140,29308,2,0,L|162:121,1,79.1999975830079,0|8,3:0|0:0,0:0:0:0:
57,74,29555,5,8,0:0:0:0:
42,88,29638,2,0,L|61:185,1,79.1999975830079,4|0,3:2|0:0,0:0:0:0:
137,261,29967,2,0,L|152:183,1,79.1999975830079,0|0,3:0|0:0,0:0:0:0:
218,44,30297,2,0,L|233:121,1,79.1999975830079,0|0,3:0|0:0,0:0:0:0:
303,262,30627,2,0,L|318:184,1,79.1999975830079,0|0,3:0|0:0,0:0:0:0:
460,91,30956,6,0,P|400:105|355:90,1,79.1999975830079,0|0,3:0|0:0,0:0:0:0:
252,0,31286,2,0,P|294:44|303:91,1,79.1999975830079,0|0,3:0|0:0,0:0:0:0:
268,220,31616,2,0,P|285:161|321:129,1,79.1999975830079,0|0,3:0|0:0,0:0:0:0:
455,204,31945,2,0,P|437:262|401:294,1,79.1999975830079,0|0,3:0|0:0,0:0:0:0:
280,307,32275,6,0,L|350:311,1,70.4,6|2,3:2|0:0,0:0:0:0:
268,220,32605,2,0,L|338:224,1,70.4,2|2,0:0|0:0,0:0:0:0:
264,137,32934,2,0,L|334:141,1,70.4,2|2,0:0|0:0,0:0:0:0:
252,50,33264,2,0,L|322:54,1,70.4,2|2,0:0|0:0,0:0:0:0:
403,21,33594,6,0,P|408:56|400:90,1,70.4,2|2,0:0|0:0,0:0:0:0:
334,141,33923,1,2,0:0:0:0:
253,134,34088,2,0,P|218:134|185:148,1,70.4,2|0,0:0|0:0,0:0:0:0:
133,209,34418,1,2,0:0:0:0:
129,291,34583,2,0,L|139:374,1,70.4,2|0,0:0|0:0,0:0:0:0:
49,222,34912,6,0,L|40:291,1,70.4,0|2,0:0|0:0,0:0:0:0:
133,193,35242,2,0,L|124:262,1,70.4,0|2,0:0|0:0,0:0:0:0:
222,164,35572,2,0,L|213:233,1,70.4,2|2,0:0|0:0,0:0:0:0:
306,135,35901,2,0,L|297:204,1,70.4,2|0,0:0|0:0,0:0:0:0:
261,321,36231,6,0,P|284:295|316:281,1,70.4,2|0,0:0|0:0,0:0:0:0:
398,272,36561,1,2,0:0:0:0:
475,244,36726,2,0,P|496:204|496:150,1,70.4,2|0,0:0|0:0,0:0:0:0:
480,102,37055,1,2,0:0:0:0:
423,45,37220,2,0,P|391:30|356:29,1,70.4,0|2,0:0|0:0,0:0:0:0:
229,121,37550,6,0,P|298:131|363:106,2,140.8,2|0|0,0:0|0:0|0:0,0:0:0:0:
164,82,38374,1,0,0:0:0:0:
98,37,38539,2,0,P|63:29|29:34,1,70.4,2|0,0:0|0:0,0:0:0:0:
27,214,38868,6,0,P|77:171|62:106,2,140.8,2|0|0,0:0|0:0|0:0,0:0:0:0:
18,294,39693,1,0,0:0:0:0:
164,273,39857,2,0,P|129:266|95:275,1,70.4,2|0,0:0|0:0,0:0:0:0:
217,361,40187,6,0,B|297:367|297:367|352:343,2,140.8,2|0|0,0:0|0:0|0:0,0:0:0:0:
146,324,41011,1,0,0:0:0:0:
228,214,41176,2,0,L|216:298,1,70.4,2|0,0:0|0:0,0:0:0:0:
157,164,41506,6,0,P|218:131|285:146,2,140.8,2|0|0,0:0|0:0|0:0,0:0:0:0:
228,214,42330,1,0,0:0:0:0:
313,221,42495,2,0,L|382:211,1,70.4,0|8,0:0|0:0,0:0:0:0:
461,151,42742,1,8,0:0:0:0:
473,145,42824,6,0,L|461:227,1,70.4,0|2,3:0|0:0,0:0:0:0:
392,97,43154,2,0,L|380:179,1,70.4,2|2,3:2|0:0,0:0:0:0:
309,52,43484,2,0,L|297:134,1,70.4,2|2,3:2|0:2,0:0:0:0:
228,4,43813,2,0,L|216:86,1,70.4,2|2,3:2|0:2,0:0:0:0:
155,166,44143,6,0,P|187:152|222:152,1,70.4,2|2,3:2|0:2,0:0:0:0:
298,178,44473,1,2,3:2:0:0:
341,247,44638,2,0,P|345:281|338:316,1,70.4,2|0,0:2|3:2,0:0:0:0:
250,358,44967,2,0,P|242:323|247:288,1,70.4,2|0,0:2|3:2,0:0:0:0:
145,241,45297,5,0,0:2:0:0:
145,241,45462,2,0,P|162:283|161:329,1,70.4,0|2,3:2|0:2,0:0:0:0:
79,182,45791,2,0,P|62:224|63:270,1,70.4,2|2,3:2|0:2,0:0:0:0:
142,93,46121,2,0,P|159:135|158:181,1,70.4,2|2,3:2|0:2,0:0:0:0:
73,31,46451,2,0,P|56:73|57:119,1,70.4,2|2,3:2|0:2,0:0:0:0:
239,68,46780,6,0,P|204:75|170:70,1,70.4,2|2,3:2|0:2,0:0:0:0:
286,2,47110,1,2,3:2:0:0:
268,148,47275,2,0,P|302:155|336:150,1,70.4,2|0,0:2|3:2,0:0:0:0:
448,78,47605,2,0,P|413:70|379:75,1,70.4,2|0,0:2|3:2,0:0:0:0:
400,201,47934,5,0,0:2:0:0:
400,201,48099,2,0,L|383:340,2,140.8,2|0|0,3:2|3:2|3:2,0:0:0:0:
411,120,48923,1,0,0:2:0:0:
482,220,49088,2,0,P|463:257|435:277,1,70.4,2|0,3:2|0:2,0:0:0:0:
223,275,49418,6,0,P|289:254|357:269,2,140.8,2|0|0,3:2|3:2|3:2,0:0:0:0:
169,337,50242,1,0,0:2:0:0:
72,256,50407,2,0,P|108:253|142:260,1,70.4,2|0,3:2|0:2,0:0:0:0:
232,127,50736,6,0,B|209:185|209:185|224:275,2,140.8,2|0|0,3:2|3:2|3:2,0:0:0:0:
276,63,51561,1,0,0:2:0:0:
361,173,51726,2,0,L|293:191,1,70.4,2|0,3:2|0:2,0:0:0:0:
356,82,52055,5,2,3:2:0:0:
422,227,52220,1,8,0:2:0:0:
279,179,52385,1,0,3:2:0:0:
279,179,52550,1,8,0:2:0:0:
331,348,52715,5,8,0:2:0:0:
344,225,52879,1,8,0:2:0:0:
288,369,53044,1,8,0:2:0:0:
288,369,53374,6,0,P|231:348|169:350,1,123.199996240234,2|0,3:2|3:2,0:0:0:0:
0,298,54033,2,0,P|57:277|119:279,1,123.199996240234,0|2,3:2|3:2,0:0:0:0:
215,202,54693,6,0,L|194:323,1,123.199996240234,2|0,3:2|3:2,0:0:0:0:
283,135,55187,2,0,L|293:195,1,61.5999981201172,2|0,0:2|3:2,0:0:0:0:
377,82,55517,2,0,L|366:142,1,61.5999981201172,2|0,0:2|3:2,0:0:0:0:
368,222,55846,1,2,0:2:0:0:
302,52,56011,6,0,P|241:42|180:49,1,123.199996240234,0|0,3:2|3:2,0:0:0:0:
0,38,56671,2,0,P|58:55|111:87,1,123.199996240234,0|2,3:2|3:2,0:0:0:0:
170,138,57165,1,2,0:2:0:0:
212,204,57330,2,0,P|225:233|230:263,1,61.5999981201172,2|0,3:2|0:0,0:0:0:0:
313,145,57660,1,0,3:2:0:0:
313,145,57824,2,0,P|300:173|295:203,1,61.5999981201172,2|0,0:2|3:2,0:0:0:0:
378,91,58154,2,0,P|390:119|395:149,1,61.5999981201172,2|0,0:2|3:2,0:0:0:0:
390,346,58484,5,2,0:2:0:0:
390,346,58649,2,0,P|364:291|381:233,1,123.199996240234,0|0,3:2|3:2,0:0:0:0:
192,155,59308,2,0,P|252:159|294:203,1,123.199996240234,0|0,3:2|3:2,0:0:0:0:
218,353,59967,6,0,B|195:290|195:290|211:235,1,123.199996240234,0|0,3:2|3:2,0:0:0:0:
300,86,60627,2,0,B|316:140|316:140|293:203,1,123.199996240234,0|2,3:2|3:2,0:0:0:0:
140,206,61121,5,2,0:2:0:0:
140,206,61286,2,0,L|-3:217,1,123.199996240234,2|0,3:2|3:2,0:0:0:0:
293,100,61945,2,0,L|150:89,1,123.199996240234,0|0,3:2|3:2,0:0:0:0:
326,193,62605,5,0,3:2:0:0:
272,17,62769,1,8,0:2:0:0:
272,17,63099,5,0,3:2:0:0:
405,192,63264,2,0,P|401:218|390:242,2,52.7999983886719,8|4|4,0:3|0:3|0:3,0:0:0:0:
468,262,63594,2,0,P|471:288|482:312,2,52.7999983886719,8|4|4,0:3|0:3|0:3,0:0:0:0:
400,328,63923,6,0,L|335:338,1,52.7999983886719,2|0,0:0|0:0,0:0:0:0:
339,255,64253,2,0,L|286:246,1,52.7999983886719,0|0,0:0|0:0,0:0:0:0:
308,166,64583,2,0,L|243:176,1,52.7999983886719,0|0,0:0|0:0,0:0:0:0:
247,93,64912,2,0,L|194:84,1,52.7999983886719,2|0,0:0|0:0,0:0:0:0:
25,134,65242,6,0,P|76:141|123:118,1,105.599996777344,2|0,0:0|0:0,0:0:0:0:
63,55,65736,1,0,0:0:0:0:
91,188,65901,2,0,L|80:254,1,52.7999983886719,0|0,0:0|0:0,0:0:0:0:
160,254,66231,2,0,L|168:306,1,52.7999983886719,2|0,0:0|0:0,0:0:0:0:
284,193,66561,6,0,P|254:236|249:288,1,105.599996777344,2|0,0:0|0:0,0:0:0:0:
295,359,67055,1,0,0:0:0:0:
394,278,67220,2,0,P|368:272|341:273,1,52.7999983886719,0|0,0:0|0:0,0:0:0:0:
430,361,67550,2,0,P|455:366|482:365,1,52.7999983886719,2|0,0:0|0:0,0:0:0:0:
470,176,67879,6,0,L|483:294,1,105.599996777344,2|0,0:0|0:0,0:0:0:0:
331,119,68539,6,0,L|322:40,1,79.1999975830079,0|2,0:0|0:0,0:0:0:0:
314,2,69198,5,12,0:0:0:0:
186,92,69363,1,0,3:0:0:0:
231,13,69528,1,0,3:0:0:0:
255,208,69693,5,8,0:0:0:0:
163,84,69857,1,0,3:0:0:0:
176,174,70022,1,0,3:0:0:0:
411,116,70187,5,8,0:0:0:0:
241,109,70352,1,0,3:0:0:0:
325,148,70517,1,0,3:0:0:0:
153,88,70682,5,8,0:0:0:0:
256,220,70846,1,0,3:0:0:0:
244,97,71011,1,0,3:0:0:0:
172,239,71176,6,0,P|168:279|173:318,1,79.1999975830079,8|0,0:0|3:0,0:0:0:0:
338,318,71506,2,0,P|343:279|339:239,1,79.1999975830079,8|0,0:0|3:0,0:0:0:0:
213,114,71835,5,8,0:0:0:0:
254,243,72000,1,8,0:0:0:0:
311,66,72165,1,8,0:0:0:0:
180,200,72330,1,8,0:0:0:0:
161,38,72495,1,8,0:0:0:0:
266,191,72660,1,8,0:0:0:0:
205,30,72824,1,8,0:0:0:0:
138,198,72989,1,8,0:0:0:0:
342,13,73154,5,2,3:2:0:0:
306,40,74473,6,0,P|383:80|431:152,1,176,6|8,3:2|0:2,0:0:0:0:
419,240,74967,1,2,0:2:0:0:
299,135,75132,2,0,P|217:105|131:119,1,176,2|8,3:2|0:0,0:0:0:0:
56,161,75627,1,2,0:2:0:0:
119,292,75791,6,0,P|161:303|205:305,1,88,2|0,3:2|3:2,0:0:0:0:
290,269,76121,1,10,0:2:0:0:
198,139,76286,2,0,L|211:242,1,88,2|0,3:2|0:2,0:0:0:0:
312,12,76616,2,0,L|299:115,1,88,2|8,3:2|0:2,0:0:0:0:
290,179,76945,1,2,0:2:0:0:
52,109,77110,6,0,B|120:141|120:141|218:119,1,176,0|8,3:2|0:2,0:0:0:0:
128,49,77605,1,2,0:2:0:0:
221,140,77769,2,0,P|231:226|199:307,1,176,2|8,3:2|0:0,0:0:0:0:
119,347,78264,1,2,0:2:0:0:
262,237,78429,6,0,P|305:244|343:265,1,88,2|0,3:2|3:2,0:0:0:0:
417,321,78758,1,10,0:2:0:0:
483,171,78923,2,0,P|439:178|401:199,1,88,2|0,3:2|0:2,0:0:0:0:
254,74,79253,2,0,P|304:145|323:230,1,176,2|0,3:2|0:2,0:0:0:0:
99,288,79747,6,0,B|161:266|211:318|271:288,1,176,2|8,3:2|0:2,0:0:0:0:
224,213,80242,1,2,0:2:0:0:
60,204,80407,2,0,P|9:271|34:352,1,176,2|8,3:2|0:0,0:0:0:0:
122,374,80901,1,2,0:2:0:0:
139,189,81066,6,0,L|124:92,1,88,2|0,3:2|3:2,0:0:0:0:
113,22,81396,1,10,0:2:0:0:
215,130,81561,2,0,L|312:145,1,88,2|0,3:2|0:2,0:0:0:0:
392,40,81890,2,0,L|295:55,1,88,2|8,3:2|0:2,0:0:0:0:
206,94,82220,1,2,0:2:0:0:
308,218,82385,6,0,P|328:279|324:333,1,88,2|0,3:2|3:2,0:0:0:0:
213,374,82715,2,0,P|217:330|233:289,1,88,10|2,0:2|0:2,0:0:0:0:
420,311,83044,2,0,L|323:323,1,88,2|0,3:2|3:2,0:0:0:0:
419,199,83374,2,0,L|516:211,1,88,10|2,0:2|0:2,0:0:0:0:
507,304,83704,5,10,0:2:0:0:
388,75,83868,1,10,0:2:0:0:
356,308,84363,5,10,0:2:0:0:
469,32,84528,1,10,0:2:0:0:
264,68,85022,6,0,B|163:56|163:56|69:78,1,176,6|8,3:2|0:2,0:0:0:0:
15,112,85517,1,2,0:2:0:0:
146,158,85682,2,0,P|166:207|159:335,1,176,2|8,3:2|0:0,0:0:0:0:
64,355,86176,1,2,0:2:0:0:
205,254,86341,6,0,P|254:260|303:296,1,88,2|0,3:2|3:2,0:0:0:0:
337,343,86671,1,10,0:2:0:0:
442,206,86835,2,0,P|399:211|361:232,1,88,2|0,3:2|0:2,0:0:0:0:
236,132,87165,2,0,P|271:157|294:194,1,88,2|8,3:2|0:2,0:0:0:0:
232,265,87495,1,2,0:2:0:0:
148,127,87660,6,0,P|193:55|277:56,1,176,2|8,3:2|0:2,0:0:0:0:
341,122,88154,1,2,0:2:0:0:
192,200,88319,2,0,P|187:286|224:365,1,176,2|8,3:2|0:0,0:0:0:0:
314,379,88813,1,2,0:2:0:0:
151,295,88978,2,0,L|28:316,1,88,2|0,3:2|3:2,0:0:0:0:
0,261,89308,1,10,0:2:0:0:
192,200,89473,2,0,L|278:214,1,88,2|0,3:2|0:2,0:0:0:0:
237,294,89802,1,2,3:2:0:0:
112,126,89967,1,8,0:2:0:0:
102,218,90132,1,2,0:2:0:0:
190,80,90297,6,0,P|226:83|260:76,2,70.4,6|0|0,3:2|0:0|0:0,0:0:0:0:
109,47,90791,1,2,3:2:0:0:
120,131,90956,2,0,P|86:143|51:145,2,70.4,10|0|0,0:2|0:0|0:0,0:0:0:0:
90,47,91451,1,2,3:2:0:0:
200,157,91616,6,0,L|212:239,1,70.4,2|0,3:2|0:0,0:0:0:0:
111,291,91945,1,2,0:0:0:0:
111,291,92110,2,0,L|121:221,1,70.4,2|8,3:2|0:0,0:0:0:0:
331,278,92440,2,0,P|261:281|195:257,1,140.8,2|2,0:0|3:2,0:0:0:0:
371,169,92934,2,0,P|390:199|401:233,1,70.4,2|0,3:2|0:0,0:0:0:0:
302,135,93264,2,0,P|283:164|272:198,1,70.4,2|0,0:0|3:0,0:0:0:0:
173,81,93594,2,0,P|191:110|202:144,1,70.4,10|0,0:0|0:0,0:0:0:0:
116,19,93923,2,0,P|97:48|86:82,1,70.4,2|2,0:0|3:2,0:0:0:0:
75,168,94253,5,6,3:2:0:0:
80,176,95242,6,0,P|93:226|122:270,1,105.6,4|0,0:3|0:0,0:0:0:0:
171,280,95572,6,0,L|177:369,1,79.1999975830079,4|0,3:2|0:0,0:0:0:0:
250,252,95901,2,0,L|256:341,1,79.1999975830079,0|0,3:0|0:0,0:0:0:0:
329,224,96231,2,0,L|335:313,1,79.1999975830079,0|0,3:0|0:0,0:0:0:0:
408,196,96561,2,0,L|414:285,1,79.1999975830079,0|0,3:0|0:0,0:0:0:0:
486,185,96890,6,0,P|471:148|441:123,1,79.1999975830079,0|0,3:0|0:0,0:0:0:0:
359,122,97220,1,0,3:0:0:0:
282,92,97385,2,0,P|251:52|243:5,1,79.1999975830079,0|0,0:0|3:0,0:0:0:0:
163,37,97715,1,0,0:0:0:0:
75,25,97879,2,0,P|62:62|37:92,1,79.1999975830079,0|8,3:0|0:0,0:0:0:0:
28,194,98127,5,8,0:0:0:0:
45,207,98209,2,0,L|141:197,1,79.1999975830079,4|0,3:2|0:0,0:0:0:0:
110,124,98539,2,0,L|206:114,1,79.1999975830079,0|0,3:0|0:0,0:0:0:0:
136,276,98868,2,0,L|232:266,1,79.1999975830079,0|0,3:0|0:0,0:0:0:0:
201,193,99198,2,0,L|297:183,1,79.1999975830079,0|0,3:0|0:0,0:0:0:0:
360,79,99528,6,0,P|347:116|351:155,1,79.1999975830079,0|0,3:0|0:0,0:0:0:0:
449,64,99857,2,0,P|401:3|324:2,1,158.399995166016,8|0,3:3|3:0,0:0:0:0:
199,79,100352,2,0,B|285:78,1,79.1999975830079,4|0,0:3|3:0,0:0:0:0:
109,30,100682,5,8,0:0:0:0:
109,30,100764,1,8,0:0:0:0:
109,30,100846,2,0,L|115:120,1,79.1999975830079,4|0,3:2|0:0,0:0:0:0:
26,69,101176,2,0,L|20:159,1,79.1999975830079,0|0,3:0|0:0,0:0:0:0:
187,162,101506,2,0,L|193:252,1,79.1999975830079,0|0,3:0|0:0,0:0:0:0:
104,201,101835,2,0,L|98:291,1,79.1999975830079,0|0,3:0|0:0,0:0:0:0:
315,324,102165,6,0,P|237:312|162:336,1,158.399995166016,0|0,3:0|3:0,0:0:0:0:
1,233,102660,2,0,P|75:257|153:245,1,158.399995166016,0|0,0:0|0:0,0:0:0:0:
227,200,103154,1,0,3:0:0:0:
157,130,103319,5,8,0:0:0:0:
157,130,103401,1,8,0:0:0:0:
157,130,103484,2,0,L|145:38,1,79.1999975830079,4|0,3:2|0:0,0:0:0:0:
238,144,103813,2,0,L|226:52,1,79.1999975830079,0|0,3:0|0:0,0:0:0:0:
318,152,104143,2,0,L|306:60,1,79.1999975830079,0|0,3:0|0:0,0:0:0:0:
400,169,104473,2,0,L|388:77,1,79.1999975830079,0|0,3:0|0:0,0:0:0:0:
476,127,104802,6,0,P|484:166|476:205,1,79.1999975830079,0|0,3:0|0:0,0:0:0:0:
398,209,105132,2,0,P|381:244|353:271,1,79.1999975830079,0|0,3:0|0:0,0:0:0:0:
281,233,105462,2,0,P|251:258|213:270,1,79.1999975830079,0|0,3:0|0:0,0:0:0:0:
161,206,105791,6,0,P|111:209|66:192,1,99.0000037765504,4|0,0:3|0:0,0:0:0:0:
30,174,106121,6,0,L|8:261,1,70.4,4|2,3:2|0:2,0:0:0:0:
105,329,106450,2,0,L|87:260,1,70.4,2|2,3:2|0:2,0:0:0:0:
124,112,106780,2,0,L|102:199,1,70.4,2|0,3:2|0:0,0:0:0:0:
183,301,107110,2,0,L|165:232,1,70.4,2|2,3:2|0:2,0:0:0:0:
198,156,107439,6,0,P|246:175|297:172,1,70.4,2|2,3:2|0:2,0:0:0:0:
341,155,107769,1,2,3:2:0:0:
388,90,107934,2,0,P|430:84|478:91,1,70.4,2|0,0:2|3:2,0:0:0:0:
392,240,108263,2,0,P|356:241|322:236,1,70.4,2|0,0:2|3:2,0:0:0:0:
260,177,108593,5,0,0:2:0:0:
259,177,108758,2,0,P|271:144|273:108,1,70.4,0|2,3:2|0:2,0:0:0:0:
195,122,109088,2,0,P|185:88|166:58,1,70.4,2|2,3:2|0:2,0:0:0:0:
105,113,109417,2,0,P|78:90|45:77,1,70.4,2|2,3:2|0:2,0:0:0:0:
69,188,109747,2,0,P|34:184|0:192,1,70.4,2|2,3:2|0:2,0:0:0:0:
48,278,110077,6,0,L|58:353,1,70.4,2|0,3:2|0:2,0:0:0:0:
143,239,110406,1,2,3:2:0:0:
143,239,110571,2,0,L|133:314,1,70.4,2|0,0:2|3:2,0:0:0:0:
221,184,110901,2,0,L|231:259,1,70.4,2|0,0:2|3:2,0:0:0:0:
251,362,111230,5,0,0:2:0:0:
251,361,111395,2,0,P|313:331|383:327,2,140.8,2|0|0,3:2|3:2|3:2,0:0:0:0:
166,366,112219,1,0,0:2:0:0:
145,272,112384,2,0,P|180:277|213:289,1,70.4,2|0,3:2|0:2,0:0:0:0:
60,308,112714,6,0,B|57:246|57:246|64:226|64:226|62:168,2,140.8,2|0|0,3:2|3:2|3:2,0:0:0:0:
138,275,113538,1,0,0:2:0:0:
169,206,113703,2,0,L|172:127,1,70.4,2|0,3:2|0:2,0:0:0:0:
326,72,114033,6,0,B|258:39|258:39|165:59,2,140.8,2|0|0,3:2|3:2|3:2,0:0:0:0:
376,142,114857,1,0,0:2:0:0:
259,199,115022,2,0,L|256:120,1,70.4,2|0,3:2|0:2,0:0:0:0:
338,228,115351,6,0,P|347:281|406:367,2,140.8,2|0|0,3:2|3:2|3:2,0:0:0:0:
358,144,116175,1,0,0:2:0:0:
421,220,116340,1,4,3:3:0:0:
259,279,116505,5,0,0:0:0:0:
259,279,116588,1,0,0:2:0:0:
259,279,116670,2,0,L|165:291,1,70.4,0|2,3:2|0:2,0:0:0:0:
113,298,117000,1,2,3:2:0:0:
145,217,117164,1,2,0:2:0:0:
159,369,117329,2,0,P|125:381|90:381,1,70.4,2|2,3:2|0:2,0:0:0:0:
39,241,117659,2,0,P|65:263|82:294,1,70.4,2|2,3:2|0:2,0:0:0:0:
169,150,117989,6,0,P|142:172|125:203,1,70.4,2|0,3:2|0:2,0:0:0:0:
221,225,118318,1,2,3:2:0:0:
321,146,118483,2,0,L|233:152,1,70.4,2|0,0:2|3:2,0:0:0:0:
346,228,118813,2,0,L|434:234,1,70.4,2|0,0:2|3:2,0:0:0:0:
412,83,119142,5,0,0:2:0:0:
412,83,119307,2,0,L|407:153,1,70.4,0|2,3:2|0:2,0:0:0:0:
314,28,119637,2,0,L|318:98,1,70.4,2|2,3:2|0:2,0:0:0:0:
328,186,119967,1,2,3:2:0:0:
400,96,120131,1,2,0:2:0:0:
250,147,120296,2,0,P|242:181|245:216,1,70.4,2|2,3:2|0:2,0:0:0:0:
325,338,120626,6,0,P|327:303|320:268,1,70.4,2|0,3:2|0:2,0:0:0:0:
245,216,120956,1,2,3:2:0:0:
172,312,121121,2,0,L|260:302,1,70.4,2|0,0:2|3:2,0:0:0:0:
150,225,121450,2,0,L|62:215,1,70.4,2|0,0:2|3:2,0:0:0:0:
4,205,121780,1,2,0:2:0:0:
135,145,121945,6,0,P|166:98|178:4,2,140.8,2|0|0,3:2|3:2|3:2,0:0:0:0:
59,145,122769,1,0,0:2:0:0:
202,92,122934,2,0,L|287:103,1,70.4,2|0,3:2|0:2,0:0:0:0:
411,171,123263,6,0,L|256:181,2,140.8,2|0|0,3:2|3:2|3:2,0:0:0:0:
495,156,124088,1,0,0:2:0:0:
431,95,124252,2,0,P|430:60|440:27,1,70.4,2|0,3:2|0:2,0:0:0:0:
503,174,124582,6,0,P|522:220|511:313,2,140.8,2|0|0,3:2|3:2|3:2,0:0:0:0:
412,172,125406,1,0,0:2:0:0:
362,260,125571,2,0,L|461:250,1,70.4,2|0,3:2|0:2,0:0:0:0:
318,191,125901,6,0,B|262:216|262:216|151:209,1,140.8,2|0,3:2|3:2,0:0:0:0:
62,193,126395,1,8,0:2:0:0:
118,79,126560,2,0,L|132:159,1,70.4,0|0,3:2|3:2,0:0:0:0:
0,22,126890,1,8,0:2:0:0:
0,22,127220,6,0,L|111:38,1,105.599996777344,4|0,3:2|3:0,0:0:0:0:
183,84,127879,2,0,L|287:68,1,105.599996777344,0|2,3:0|3:2,0:0:0:0:
390,34,128538,6,0,P|365:85|360:150,1,105.599996777344,2|0,3:2|3:0,0:0:0:0:
441,143,129033,2,0,P|458:178|463:211,1,52.7999983886719,2|0,0:2|3:0,0:0:0:0:
385,218,129362,2,0,P|368:253|363:286,1,52.7999983886719,2|0,0:2|3:0,0:0:0:0:
467,363,129692,5,2,0:2:0:0:
467,363,129857,2,0,B|405:337|405:337|367:343,1,105.599996777344,0|0,3:0|3:0,0:0:0:0:
195,284,130516,2,0,B|257:310|257:310|294:303,1,105.599996777344,0|2,3:0|3:2,0:0:0:0:
197,200,131176,6,0,P|146:213|112:252,1,105.599996777344,2|0,3:2|3:0,0:0:0:0:
18,152,131670,2,0,P|39:169|54:191,1,52.7999983886719,2|0,0:2|3:0,0:0:0:0:
156,97,132000,2,0,P|135:113|120:135,1,52.7999983886719,2|0,0:2|3:0,0:0:0:0:
243,123,132329,5,2,0:2:0:0:
243,123,132494,2,0,L|352:113,1,105.599996777344,0|0,3:0|3:0,0:0:0:0:
497,201,133154,2,0,L|390:192,1,105.599996777344,0|0,3:0|3:0,0:0:0:0:
290,298,133813,6,0,P|290:238|311:174,1,105.599996777344,0|0,3:0|3:0,0:0:0:0:
186,363,134472,2,0,P|186:303|165:239,1,105.599996777344,2|0,3:2|3:0,0:0:0:0:
79,210,134967,1,2,0:2:0:0:
79,210,135132,6,0,B|50:169|50:169|46:98,1,105.599996777344,2|0,3:2|3:0,0:0:0:0:
200,0,135791,2,0,B|229:41|229:41|233:112,1,105.599996777344,0|0,3:0|3:0,0:0:0:0:
215,237,136450,5,0,3:0:0:0:
148,98,136615,1,8,0:0:0:0:
148,98,136945,1,8,0:0:0:0:
309,180,137110,2,0,L|374:171,2,35.1999989257813,8|4|4,0:3|0:3|0:3,0:0:0:0:
395,242,137439,2,0,L|430:243,2,35.1999989257813,8|4|4,0:3|0:3|0:3,0:0:0:0:
485,170,137769,6,0,L|497:93,1,61.5999981201172,6|0,0:0|0:0,0:0:0:0:
408,133,138099,2,0,L|417:72,1,61.5999981201172,0|0,0:0|0:0,0:0:0:0:
331,95,138428,2,0,L|340:34,1,61.5999981201172,0|0,0:0|0:0,0:0:0:0:
251,60,138758,2,0,L|260:0,1,61.5999981201172,2|0,0:0|0:0,0:0:0:0:
142,21,139088,6,0,L|161:142,1,123.199996240234,2|0,0:0|0:0,0:0:0:0:
180,222,139582,1,0,0:0:0:0:
83,127,139747,2,0,L|73:187,1,61.5999981201172,0|0,0:0|0:0,0:0:0:0:
0,245,140077,2,0,L|9:305,1,61.5999981201172,2|2,0:0|0:0,0:0:0:0:
161,299,140406,6,0,P|130:293|100:296,1,61.5999981201172,2|0,0:0|0:0,0:0:0:0:
241,257,140736,2,0,P|219:235|192:219,1,61.5999981201172,0|0,0:0|0:0,0:0:0:0:
332,263,141066,2,0,P|326:232|313:204,1,61.5999981201172,0|0,0:0|0:0,0:0:0:0:
402,315,141395,2,0,P|414:287|420:256,1,61.5999981201172,2|0,0:0|0:0,0:0:0:0:
370,64,141725,6,0,P|370:125|392:182,1,123.199996240234,2|0,0:0|0:0,0:0:0:0:
252,0,142384,6,0,P|256:39|245:76,1,79.1999975830079,0|0,0:0|0:0,0:0:0:0:
192,139,143044,5,12,0:2:0:0:
168,15,143209,1,0,3:0:0:0:
216,166,143373,1,0,3:0:0:0:
61,59,143538,5,8,0:0:0:0:
175,93,143703,1,0,3:0:0:0:
35,76,143868,1,0,3:0:0:0:
194,18,144033,5,12,0:0:0:0:
120,155,144198,1,0,3:0:0:0:
224,23,144362,1,0,3:0:0:0:
219,223,144527,5,8,0:0:0:0:
169,82,144692,1,0,3:0:0:0:
247,228,144857,1,0,3:0:0:0:
96,162,145022,2,0,P|58:149|18:148,1,79.1999975830079,8|0,0:0|3:0,0:0:0:0:
255,261,145351,2,0,P|292:273|332:274,1,79.1999975830079,8|0,0:0|3:0,0:0:0:0:
481,217,145681,5,8,0:0:0:0:
399,332,145846,1,8,0:0:0:0:
338,195,146011,1,8,0:0:0:0:
316,362,146176,1,8,0:0:0:0:
403,249,146340,1,8,0:0:0:0:
227,354,146505,1,8,0:0:0:0:
257,175,146670,1,8,0:0:0:0:
325,274,146835,1,8,0:0:0:0:
154,297,147000,6,0,L|65:318,1,70.4,8|0,0:0|3:0,0:0:0:0:
0,154,147329,2,0,P|29:197|39:249,1,105.6,8|0,0:0|0:0,0:0:0:0:
117,234,147659,2,0,L|126:181,1,35.2,8|8,0:0|0:0,0:0:0:0:
195,175,147824,2,0,L|186:122,1,35.2,8|8,0:0|0:0,0:0:0:0:
176,60,147989,5,0,3:2:0:0:
176,60,148318,6,0,B|246:36|286:90|363:51,1,176,6|8,3:2|0:2,0:0:0:0:
436,32,148813,1,2,0:2:0:0:
350,133,148978,2,0,P|338:218|373:298,1,176,2|8,3:2|0:0,0:0:0:0:
433,354,149472,1,2,0:2:0:0:
511,215,149637,6,0,P|468:216|428:234,1,88,2|0,3:2|3:2,0:0:0:0:
373,298,149967,1,10,0:2:0:0:
262,208,150132,2,0,P|305:208|345:226,1,88,2|0,3:2|0:2,0:0:0:0:
462,89,150461,2,0,P|426:114|404:151,1,88,2|8,3:2|0:2,0:0:0:0:
381,236,150791,1,2,0:2:0:0:
365,70,150956,6,0,P|285:36|198:41,1,176,0|8,3:2|0:2,0:0:0:0:
102,62,151450,1,2,0:2:0:0:
159,283,151615,2,0,B|184:226|184:226|167:113,1,176,2|8,3:2|0:0,0:0:0:0:
86,152,152110,1,2,0:2:0:0:
220,224,152274,2,0,L|321:238,1,88,2|0,3:2|3:2,0:0:0:0:
391,249,152604,1,10,0:2:0:0:
451,153,152769,2,0,L|363:165,1,88,2|0,3:2|0:2,0:0:0:0:
295,323,153099,2,0,L|307:235,1,88,2|8,3:2|0:2,0:0:0:0:
262,143,153428,1,0,0:2:0:0:
197,348,153593,6,0,P|211:262|187:170,1,176,2|8,3:2|0:2,0:0:0:0:
127,130,154088,1,2,0:2:0:0:
21,42,154252,2,0,B|87:4|120:76|190:34,1,176,2|8,3:2|0:0,0:0:0:0:
266,0,154747,1,2,0:2:0:0:
224,113,154912,6,0,P|220:156|226:200,1,88,2|0,3:2|3:2,0:0:0:0:
271,268,155241,1,10,0:2:0:0:
404,184,155406,2,0,P|360:178|316:182,1,88,2|0,3:2|0:2,0:0:0:0:
420,316,155736,2,0,P|463:321|507:317,1,88,2|8,3:2|0:2,0:0:0:0:
479,232,156066,1,2,0:2:0:0:
324,347,156230,6,0,P|282:360|238:359,1,88,2|0,3:2|3:2,0:0:0:0:
105,293,156560,1,10,0:2:0:0:
210,366,156725,1,2,0:2:0:0:
147,212,156890,2,0,L|140:115,1,88,2|0,3:2|3:2,0:0:0:0:
240,15,157220,2,0,L|233:102,1,88,10|2,0:2|0:2,0:0:0:0:
68,176,157549,5,10,0:2:0:0:
337,119,157714,1,10,0:2:0:0:
36,98,158209,5,10,0:2:0:0:
342,192,158373,1,10,0:2:0:0:
95,313,158868,6,0,P|142:278|264:275,1,176,6|8,3:2|0:2,0:0:0:0:
336,322,159362,1,2,0:2:0:0:
472,236,159527,2,0,B|491:175|491:175|463:66,1,176,2|8,3:2|0:0,0:0:0:0:
413,2,160022,1,2,0:2:0:0:
306,110,160187,6,0,P|257:133|197:127,1,88,2|0,3:2|3:2,0:0:0:0:
144,109,160516,1,10,0:2:0:0:
3,166,160681,2,0,P|52:189|112:183,1,88,2|0,3:2|0:2,0:0:0:0:
245,260,161011,2,0,P|195:237|161:187,1,88,2|8,3:2|0:2,0:0:0:0:
144,133,161340,1,2,0:2:0:0:
306,153,161505,6,0,P|366:168|487:159,1,176,2|8,3:2|0:2,0:0:0:0:
422,82,162000,1,2,0:2:0:0:
212,70,162165,2,0,P|227:156|213:242,1,176,2|8,3:2|0:0,0:0:0:0:
159,314,162659,1,2,0:2:0:0:
63,191,162824,2,0,L|43:96,1,88,2|0,3:2|3:2,0:0:0:0:
29,26,163154,1,10,0:2:0:0:
213,108,163318,2,0,L|126:89,1,88,2|0,3:2|0:2,0:0:0:0:
261,20,163648,2,0,L|347:1,1,88,2|8,3:2|0:2,0:0:0:0:
439,12,163978,1,2,0:2:0:0:
349,117,164143,6,0,P|325:165|321:205,2,70.4,6|0|0,3:2|0:0|0:0,0:0:0:0:
433,104,164637,1,2,3:2:0:0:
411,184,164802,2,0,P|418:237|438:272,2,70.4,10|0|0,0:2|0:0|0:0,0:0:0:0:
504,207,165296,1,2,3:2:0:0:
489,318,165461,6,0,P|441:304|340:314,1,140.8,2|2,3:2|0:0,0:0:0:0:
189,348,165956,2,0,P|222:357|257:360,1,70.4,2|8,3:2|0:0,0:0:0:0:
335,242,166285,2,0,P|312:269|285:291,1,70.4,2|0,0:0|0:0,0:0:0:0:
203,265,166615,1,2,3:2:0:0:
121,176,166780,6,0,L|125:246,1,70.4,2|0,3:2|0:0,0:0:0:0:
39,123,167110,2,0,L|34:193,1,70.4,2|0,0:0|3:0,0:0:0:0:
132,64,167439,2,0,L|136:134,1,70.4,10|0,0:0|0:0,0:0:0:0:
237,3,167769,2,0,L|232:73,1,70.4,2|2,0:0|3:2,0:0:0:0:
226,160,168099,5,6,3:2:0:0:
256,192,168181,12,2,169417,0:0:0:0:
203,34,179967,6,0,P|145:72|114:134,1,140.8,4|0,3:2|0:0,0:0:0:0:
147,223,180461,1,0,3:0:0:0:
113,42,180626,1,8,0:0:0:0:
113,42,181121,6,0,L|205:34,1,70.4,8|0,0:0|0:0,0:0:0:0:
268,23,181450,1,0,3:0:0:0:
190,120,181615,2,0,L|260:126,1,70.4,0|0,3:0|0:0,0:0:0:0:
354,137,181945,1,8,0:0:0:0:
354,137,182439,5,8,0:0:0:0:
314,228,182604,2,0,P|310:300|337:382,1,140.8,0|0,3:0|0:0,0:0:0:0:
413,384,183099,1,0,3:0:0:0:
228,276,183263,1,8,0:0:0:0:
228,276,183758,2,0,L|138:289,1,70.4,8|0,0:0|0:0,0:0:0:0:
75,299,184088,1,0,3:0:0:0:
172,203,184252,2,0,L|102:192,1,70.4,0|0,3:0|0:0,0:0:0:0:
25,177,184582,1,8,0:0:0:0:
135,59,184912,1,4,0:0:0:0:
290,92,185241,6,0,P|367:107|440:78,1,158.399995166016,2|0,0:0|0:0,0:0:0:0:
263,15,186560,2,0,L|257:173,1,158.399995166016,2|0,0:0|0:0,0:0:0:0:
250,314,187879,5,8,3:2:0:0:
189,209,188044,1,8,0:2:0:0:
280,296,188209,1,8,3:2:0:0:
318,195,188373,1,8,0:2:0:0:
192,294,188538,1,8,3:2:0:0:
389,238,188703,1,8,0:2:0:0:
251,144,188868,1,8,3:2:0:0:
309,278,189033,1,8,0:2:0:0:
421,145,189198,6,0,P|431:114|436:71,1,66.0000025177003,8|8,3:2|0:2,0:0:0:0:
425,7,189527,1,8,3:2:0:0:
326,157,189692,2,0,P|330:189|340:221,1,66.0000025177003,8|8,0:2|3:2,0:0:0:0:
414,273,190022,1,8,0:2:0:0:
354,85,190187,1,8,3:2:0:0:
354,85,190516,5,12,0:0:0:0:
203,113,190681,1,0,3:0:0:0:
319,64,190846,1,0,3:0:0:0:
123,67,191011,5,8,0:0:0:0:
241,89,191176,1,0,3:0:0:0:
101,91,191340,1,0,3:0:0:0:
227,3,191505,5,12,0:0:0:0:
193,164,191670,1,0,3:0:0:0:
181,24,191835,1,0,3:0:0:0:
271,213,192000,5,8,0:0:0:0:
243,100,192165,1,0,3:0:0:0:
235,233,192329,1,0,3:0:0:0:
315,132,192494,2,0,L|406:114,1,79.1999975830079,8|0,0:0|3:0,0:0:0:0:
220,253,192824,2,0,L|124:237,1,79.1999975830079,8|0,0:0|3:0,0:0:0:0:
55,226,193154,5,4,3:2:0:0:
55,226,193318,1,0,3:0:0:0:
186,348,193483,1,8,0:0:0:0:
215,347,193566,1,8,0:0:0:0:
244,343,193648,1,8,0:0:0:0:
272,332,193730,1,8,0:0:0:0:
298,317,193813,1,8,0:0:0:0:
342,240,193978,1,8,0:3:0:0:
239,171,194143,2,0,L|260:261,1,79.1999975830079,4|4,0:3|0:3,0:0:0:0:
329,138,194472,6,0,L|341:60,2,52.7999983886719,8|4|4,0:3|0:3|0:3,0:0:0:0:
252,86,194802,2,0,L|240:8,2,52.7999983886719,8|4|4,0:3|0:3|0:3,0:0:0:0:
163,135,195132,2,0,L|97:149,2,52.7999983886719,2|2|2,0:0|0:0|0:0,0:0:0:0:
85,63,195461,2,0,L|33:52,2,52.7999983886719,2|2|2,0:0|0:0|0:0,0:0:0:0:
26,146,195791,6,0,L|33:224,1,79.1999975830079,0|0,3:0|0:0,0:0:0:0:
152,362,196121,2,0,L|159:283,1,79.1999975830079,8|0,0:0|0:0,0:0:0:0:
191,129,196450,2,0,P|192:169|206:206,1,79.1999975830079,0|0,3:0|3:0,0:0:0:0:
364,48,196780,2,0,P|362:87|348:124,1,79.1999975830079,8|0,0:0|0:0,0:0:0:0:
187,38,197110,6,0,L|289:50,1,79.1999975830079,0|0,3:0|3:0,0:0:0:0:
392,202,197439,2,0,L|290:214,1,79.1999975830079,8|0,0:0|3:0,0:0:0:0:
199,146,197769,1,0,0:0:0:0:
284,293,197934,1,0,3:0:0:0:
291,105,198099,1,8,0:0:0:0:
190,238,198263,1,0,0:0:0:0:
393,284,198428,5,0,3:0:0:0:
393,284,198593,1,0,3:0:0:0:
411,159,198923,5,0,3:0:0:0:
411,159,199088,1,0,3:0:0:0:
304,78,199417,5,0,3:2:0:0:
304,78,199582,1,0,3:0:0:0:
144,77,199912,5,0,3:0:0:0:
144,77,200077,1,0,3:2:0:0:
36,177,200406,5,0,3:0:0:0:
36,177,200571,1,0,3:0:0:0:
120,318,200901,5,0,3:0:0:0:
120,318,201066,2,0,L|226:315,1,79.1999975830079,4|0,3:2|0:0,0:0:0:0:
304,230,201395,2,0,L|198:227,1,79.1999975830079,8|0,0:0|0:0,0:0:0:0:
366,293,201725,2,0,P|387:260|391:221,1,79.1999975830079,0|0,3:0|3:0,0:0:0:0:
210,209,202055,2,0,P|188:176|184:137,1,79.1999975830079,8|0,0:0|0:0,0:0:0:0:
380,88,202384,6,0,L|296:103,1,79.1999975830079,0|0,3:0|3:0,0:0:0:0:
145,19,202714,2,0,L|229:34,1,79.1999975830079,8|0,0:0|3:0,0:0:0:0:
325,82,203044,1,0,0:0:0:0:
166,140,203209,1,0,3:0:0:0:
243,15,203373,1,8,0:0:0:0:
256,187,203538,1,0,0:0:0:0:
100,72,203703,5,0,3:0:0:0:
100,72,203868,1,0,3:0:0:0:
63,250,204198,5,0,3:0:0:0:
63,250,204362,1,0,3:0:0:0:
247,356,204692,5,0,3:0:0:0:
247,356,204857,1,0,3:0:0:0:
489,242,205187,5,0,3:0:0:0:
489,242,205351,1,0,3:0:0:0:
373,281,205516,1,0,0:0:0:0:
420,162,205681,1,0,3:0:0:0:
449,320,205846,1,0,3:0:0:0:
339,195,206011,2,0,P|326:157|327:118,1,79.1999975830079,12|0,0:0|3:0,0:0:0:0:
430,30,206330,6,0,P|359:64|282:53,1,158.399995166016,4|8,3:2|0:0,0:0:0:0:
210,17,206824,1,0,0:0:0:0:
52,116,206989,2,0,L|209:96,1,158.399995166016,0|8,3:0|0:0,0:0:0:0:
289,57,207483,1,0,0:0:0:0:
202,169,207648,6,0,P|204:211|221:258,1,79.1999975830079,0|0,3:0|3:0,0:0:0:0:
256,323,207978,1,8,0:0:0:0:
360,205,208143,2,0,P|358:246|341:293,1,79.1999975830079,0|0,3:0|0:0,0:0:0:0:
277,130,208472,2,0,P|346:166|425:169,1,158.399995166016,0|0,3:0|0:0,0:0:0:0:
512,96,208967,6,0,L|493:253,1,158.399995166016,0|8,3:0|0:0,0:0:0:0:
479,335,209461,1,0,0:0:0:0:
262,287,209626,2,0,P|339:267|418:268,1,158.399995166016,0|8,3:0|0:0,0:0:0:0:
339,364,210121,1,0,0:0:0:0:
192,349,210286,6,0,L|113:339,1,79.1999975830079,0|0,3:0|3:0,0:0:0:0:
34,319,210615,1,8,0:0:0:0:
237,254,210780,2,0,L|315:244,1,79.1999975830079,0|0,3:0|0:0,0:0:0:0:
500,169,211110,2,0,L|342:149,1,158.399995166016,0|0,3:0|0:0,0:0:0:0:
253,39,211622,5,12,0:0:0:0:
304,170,211786,1,0,3:0:0:0:
362,36,211951,5,8,0:0:0:0:
192,110,212116,1,0,3:0:0:0:
384,138,212281,6,0,P|431:127|481:126,1,79.1999975830079,8|0,0:0|3:0,0:0:0:0:
323,273,212611,2,0,P|276:262|226:261,1,79.1999975830079,8|0,0:0|3:0,0:0:0:0:
61,278,212940,5,8,0:0:0:0:
216,192,213105,1,0,3:0:0:0:
138,350,213270,5,8,0:0:0:0:
51,178,213435,1,0,3:0:0:0:
226,278,213600,6,0,P|245:341|246:373,1,79.1999975830079,8|8,0:0|3:0,0:0:0:0:
327,135,213929,2,0,P|308:198|307:230,1,79.1999975830079,8|0,0:0|3:0,0:0:0:0:
356,53,214259,6,0,B|288:29|268:87|202:74,1,158.399995166016,12|0,0:2|3:0,0:0:0:0:
125,47,214753,1,0,3:0:0:0:
13,123,214918,2,0,P|54:155|88:271,1,158.399995166016,8|0,0:0|3:0,0:0:0:0:
81,338,215413,1,0,3:0:0:0:
205,241,215578,6,0,P|269:249|360:230,1,158.399995166016,8|0,0:0|3:0,0:0:0:0:
443,184,216072,1,0,3:0:0:0:
346,0,216237,2,0,P|337:78|360:153,1,158.399995166016,8|0,0:0|3:0,0:0:0:0:
441,106,216731,1,0,3:0:0:0:
265,40,216896,6,0,P|227:28|187:28,1,79.1999975830079,8|0,0:0|3:0,0:0:0:0:
0,183,217226,2,0,P|37:194|77:194,1,79.1999975830079,8|0,0:0|3:0,0:0:0:0:
55,11,217556,2,0,L|67:110,1,79.1999975830079,8|0,0:0|3:0,0:0:0:0:
196,246,217885,2,0,L|208:147,1,79.1999975830079,8|0,0:0|3:0,0:0:0:0:
138,111,218215,5,8,0:0:0:0:
151,261,218380,1,8,0:0:0:0:
235,84,218545,1,8,0:0:0:0:
272,246,218709,1,8,0:0:0:0:
74,227,218874,1,8,0:0:0:0:
294,147,219039,1,8,0:0:0:0:
203,339,219204,1,8,0:0:0:0:
177,336,224808,6,0,L|251:323,1,61.5999981201172,2|0,3:2|0:0,0:0:0:0:
153,261,225138,2,0,L|227:248,1,61.5999981201172,0|2,3:0|0:0,0:0:0:0:
129,188,225468,2,0,L|203:175,1,61.5999981201172,2|0,3:2|0:0,0:0:0:0:
105,114,225797,2,0,L|179:101,1,61.5999981201172,0|2,3:0|0:0,0:0:0:0:
40,59,226127,6,0,P|23:116|47:171,1,123.199996240234,2|2,3:2|3:2,0:0:0:0:
145,185,226622,2,0,P|126:210|118:240,1,61.5999981201172,2|0,0:0|3:0,0:0:0:0:
206,120,226951,2,0,P|224:144|232:174,1,61.5999981201172,2|0,0:0|3:0,0:0:0:0:
235,258,227281,1,2,0:0:0:0:
312,173,227446,6,0,L|399:166,1,61.5999981201172,2|0,3:2|0:0,0:0:0:0:
495,233,227775,2,0,L|408:226,1,61.5999981201172,2|0,3:2|0:0,0:0:0:0:
321,290,228105,2,0,L|408:283,1,61.5999981201172,2|0,3:2|0:0,0:0:0:0:
512,348,228435,2,0,L|425:341,1,61.5999981201172,2|0,3:2|0:0,0:0:0:0:
252,331,228764,6,0,P|231:323|209:321,1,44,8|0,0:0|0:0,0:0:0:0:
84,324,228929,2,0,P|31:343|-13:381,1,88,8|0,0:0|0:0,0:0:0:0:
322,291,229424,6,0,P|309:273|292:258,1,44,8|0,0:0|0:0,0:0:0:0:
188,188,229589,2,0,P|133:173|75:179,1,88,8|0,0:0|0:0,0:0:0:0:
10,188,229918,1,0,0:0:0:0:
167,88,230083,6,0,P|249:117|335:103,1,176,6|8,3:2|0:2,0:0:0:0:
410,48,230578,1,2,0:2:0:0:
353,177,230742,2,0,B|330:242|401:283|357:353,1,176,2|8,3:2|0:0,0:0:0:0:
266,372,231237,1,2,0:2:0:0:
172,274,231402,6,0,L|262:284,1,88,2|0,3:2|3:2,0:0:0:0:
358,301,231731,1,10,0:2:0:0:
455,208,231896,2,0,L|365:218,1,88,2|0,3:2|0:2,0:0:0:0:
274,77,232226,2,0,L|264:164,1,88,2|8,3:2|0:2,0:0:0:0:
250,248,232556,1,2,0:2:0:0:
130,19,232720,6,0,P|168:97|180:184,1,176,2|8,3:2|0:2,0:0:0:0:
66,166,233215,1,2,0:2:0:0:
200,286,233380,2,0,B|282:291|282:291|380:248,1,176,2|8,3:2|0:0,0:0:0:0:
451,195,233874,1,2,0:2:0:0:
390,80,234039,6,0,P|369:119|363:162,1,88,2|0,3:2|3:2,0:0:0:0:
367,253,234369,1,10,0:2:0:0:
261,16,234534,2,0,P|282:54|288:97,1,88,2|0,3:2|0:2,0:0:0:0:
180,241,234863,2,0,P|185:197|207:159,1,88,2|8,3:2|0:2,0:0:0:0:
294,219,235193,1,2,0:2:0:0:
145,317,235358,6,0,L|38:324,2,79.1999975830079,6|0|0,3:2|0:0|0:0,0:0:0:0:
247,303,235852,1,2,3:2:0:0:
81,248,236017,2,0,L|-26:255,2,79.1999975830079,10|0|0,0:2|0:0|0:0,0:0:0:0:
183,234,236512,1,2,3:2:0:0:
168,50,236676,6,0,P|140:122|155:199,1,158.399995166016,2|2,3:2|0:0,0:0:0:0:
315,128,237171,2,0,L|216:136,1,79.1999975830079,2|8,3:2|0:0,0:0:0:0:
347,230,237501,2,0,L|426:237,1,79.1999975830079,2|0,0:0|0:0,0:0:0:0:
410,143,237830,1,2,3:2:0:0:
252,218,237995,2,0,P|247:257|254:296,1,79.1999975830079,2|0,3:2|0:0,0:0:0:0:
424,338,238325,2,0,P|430:299|426:259,1,79.1999975830079,2|0,0:0|3:0,0:0:0:0:
306,119,238654,1,10,0:0:0:0:
353,226,238819,1,0,0:0:0:0:
405,59,238984,1,2,0:0:0:0:
332,213,239149,1,2,3:2:0:0:
248,28,239314,5,6,3:2:0:0:
248,28,240629,6,0,L|169:34,1,79.1999975830079,0|0,3:0|0:0,0:0:0:0:
24,98,240958,2,0,L|102:104,1,79.1999975830079,8|0,0:0|0:0,0:0:0:0:
180,112,241288,1,0,3:0:0:0:
90,24,241453,1,0,3:0:0:0:
138,181,241618,2,0,P|178:193|219:182,1,79.1999975830079,8|0,0:0|0:0,0:0:0:0:
324,58,241947,6,0,P|294:86|283:127,1,79.1999975830079,0|0,3:0|0:0,0:0:0:0:
405,197,242277,2,0,P|433:169|444:132,1,79.1999975830079,8|0,0:0|0:0,0:0:0:0:
415,53,242607,1,0,3:0:0:0:
364,127,242771,1,0,3:0:0:0:
501,215,242936,2,0,L|496:296,1,79.1999975830079,8|0,0:0|0:0,0:0:0:0:
383,384,243266,6,0,L|373:225,1,158.399995166016,0|8,3:0|0:0,0:0:0:0:
367,138,243760,1,0,0:0:0:0:
137,195,243925,2,0,P|214:207|292:193,1,158.399995166016,0|8,3:0|0:0,0:0:0:0:
290,106,244420,1,0,0:0:0:0:
112,112,244585,2,0,P|74:124|39:143,1,79.1999975830079,0|0,3:0|0:0,0:0:0:0:
5,215,244914,1,0,3:0:0:0:
198,194,245079,2,0,P|235:205|270:224,1,79.1999975830079,0|0,3:0|3:0,0:0:0:0:
327,297,245409,1,0,3:0:0:0:
125,240,245574,1,0,3:0:0:0:
125,239,245907,6,0,P|164:162|154:76,1,176,4|0,3:2|0:0,0:0:0:0:
109,7,246476,1,0,3:0:0:0:
238,41,246666,2,0,L|327:46,1,88,8|0,0:0|3:0,0:0:0:0:
448,52,247236,5,0,3:0:0:0:
448,52,247425,2,0,B|399:104|473:158|415:230,1,176,4|0,3:2|0:0,0:0:0:0:
383,288,248025,1,0,3:0:0:0:
303,218,248225,2,0,L|200:228,1,88,8|0,0:0|3:0,0:0:0:0:
49,200,248647,2,0,L|152:210,1,78,0|0,0:0|3:0,0:0:0:0:
268,292,249070,5,4,3:2:0:0:
56,382,249570,6,0,L|13:384,1,44,0|0,3:0|0:0,0:0:0:0:
84,308,249820,2,0,L|34:306,1,48.4000014770508,0|0,3:0|0:0,0:0:0:0:
129,234,250070,2,0,L|70:225,1,52.7999983886719,0|0,3:0|0:0,0:0:0:0:
178,164,250342,2,0,L|111:149,1,57.1999973815919,0|0,3:0|0:0,0:0:0:0:
239,106,250615,2,0,L|179:86,1,61.5999981201172,0|0,3:0|0:0,0:0:0:0:
315,55,250888,2,0,L|252:28,1,66.0000025177003,8|0,0:2|0:0,0:0:0:0:
180,3,251160,1,0,0:0:0:0:
97,30,252251,6,0,P|134:73|166:166,1,132,2|0,0:0|0:0,0:0:0:0:
285,140,252882,2,0,P|248:183|216:276,1,132,2|0,0:0|0:0,0:0:0:0:
201,335,253587,5,2,0:0:0:0:
256,192,254999,5,6,0:0:0:0:
256,192,255175,12,0,264528,0:0:0:0:
