osu file format v14

[General]
AudioFilename: 03 Hero.mp3
AudioLeadIn: 0
PreviewTime: 106367
Countdown: 0
SampleSet: Soft
StackLeniency: 0.7
Mode: 0
LetterboxInBreaks: 1
WidescreenStoryboard: 0

[Editor]
Bookmarks: 79684,246660
DistanceSpacing: 0.5
BeatDivisor: 3
GridSize: 8
TimelineZoom: 1

[Metadata]
Title:Hero
TitleUnicode:ヒーロー
Artist:supercell
ArtistUnicode:supercell
Creator:Pizza Kun
Version:Insane
Source:
Tags:ryo nagi Today Is A Beautiful Day Aoharu
BeatmapID:325950
BeatmapSetID:128818

[Difficulty]
HPDrainRate:7
CircleSize:4
OverallDifficulty:7
ApproachRate:9
SliderMultiplier:1.9
SliderTickRate:1

[Events]
//Background and Video events
0,0,"BG.jpg",0,0
//Break Periods
2,46908,50176
2,86236,94175
2,130955,134221
2,174319,184360
2,223104,229117
2,247534,249444
//Storyboard Layer 0 (Background)
//Storyboard Layer 1 (Fail)
//Storyboard Layer 2 (Pass)
//Storyboard Layer 3 (Foreground)
//Storyboard Sound Samples

[TimingPoints]
607,338.983050847458,4,1,0,70,1,0
11454,-133.333333333333,4,2,2,70,0,0
22301,-125,4,2,2,70,0,0
31793,-125,4,2,2,20,0,0
32132,-125,4,2,2,40,0,0
32471,-125,4,2,2,60,0,0
32979,-125,4,2,2,70,0,0
33149,-100,4,2,2,70,0,0
41454,-100,4,2,2,20,0,0
42640,-100,4,2,2,30,0,0
43996,-100,4,2,2,40,0,0
44674,-100,4,2,2,50,0,0
45352,-100,4,2,2,60,0,0
45691,-76.9230769230769,4,2,2,70,0,0
52132,-76.9230769230769,4,2,1,70,0,1
67047,-100,4,2,1,70,0,0
67053,338.983050847458,4,2,1,70,1,0
73832,-100,4,2,1,70,0,1
84680,-100,4,2,1,70,0,0
84764,-100,4,2,1,5,0,0
95527,-100,4,2,1,70,0,0
103653,338.783050847458,4,2,1,70,1,0
115849,-100,4,2,1,40,0,0
116187,-100,4,2,1,50,0,0
116526,-100,4,2,1,60,0,0
116865,-100,4,2,1,70,0,0
125504,-100,4,2,1,10,0,0
126012,-100,4,2,1,20,0,0
126690,-100,4,2,1,30,0,0
127367,-100,4,2,1,40,0,0
128045,-100,4,2,1,50,0,0
128722,-100,4,2,1,60,0,0
129400,-100,4,2,1,70,0,0
136176,-76.9230769230769,4,2,1,70,0,1
151082,-100,4,2,1,70,0,0
157858,-90.9090909090909,4,2,1,70,0,0
172764,-90.9090909090909,4,2,1,40,0,0
172934,-90.9090909090909,4,2,1,45,0,0
173103,-90.9090909090909,4,2,1,50,0,0
173272,-90.9090909090909,4,2,1,55,0,0
173442,-90.9090909090909,4,2,1,60,0,0
173611,-90.9090909090909,4,2,1,65,0,0
173781,-90.9090909090909,4,2,1,70,0,0
174119,-133.333333333333,4,2,1,70,0,0
184960,-100,4,2,1,70,0,0
195801,-83.3333333333333,4,2,1,70,0,1
222942,338.783050847458,4,2,2,70,1,1
222942,-100,4,2,1,70,0,0
229717,-100,4,2,1,5,0,0
233783,-100,4,2,1,70,0,0
242083,-100,4,2,1,20,0,0
242591,-100,4,2,1,30,0,0
243268,-100,4,2,1,40,0,0
243946,-100,4,2,1,45,0,0
244624,-100,4,2,1,50,0,0
245301,-100,4,2,1,55,0,0
245979,-100,4,2,1,60,0,0
246656,-100,4,2,1,70,0,0
252754,-76.9230769230769,4,2,1,70,0,1
267661,-100,4,2,1,70,0,0
274437,-100,4,2,1,70,0,1
280365,-76.9230769230769,4,2,1,70,0,1
285278,-100,4,2,1,70,0,1
289343,-100,4,2,1,40,0,1
289682,-100,4,2,1,50,0,1
290021,-100,4,2,1,60,0,1
290359,-100,4,2,1,70,0,1
290529,-100,4,2,1,70,0,0

[Colours]
Combo1 : 173,209,191
Combo2 : 5,135,64

[HitObjects]
72,192,11454,6,0,P|80:240|112:272,1,71.2500027179719,4|0,0:0|0:0,0:0:0:0:
176,296,11793,1,0,0:0:0:0:
224,216,11962,1,2,0:0:0:0:
280,288,12132,1,0,0:0:0:0:
368,240,12640,5,0,0:0:0:0:
368,240,12810,2,0,P|408:200|376:120,1,142.500005435944,2|0,0:0|0:0,0:0:0:0:
304,80,13318,2,0,P|224:104|160:72,1,142.500005435944,2|0,0:0|0:0,0:0:0:0:
16,192,13827,1,2,0:0:0:0:
104,176,13996,1,0,0:0:0:0:
120,272,14166,6,0,P|168:248|192:216,1,71.2500027179719,2|0,0:0|0:0,0:0:0:0:
256,176,14505,1,2,0:0:0:0:
256,312,14674,1,0,0:0:0:0:
312,240,14844,2,0,P|344:288|344:312,1,71.2500027179719,2|0,0:0|0:0,0:0:0:0:
256,312,15183,2,0,P|224:264|224:240,1,71.2500027179719,2|0,0:0|0:0,0:0:0:0:
256,176,15522,6,0,P|296:152|328:152,2,71.2500027179719,2|2|0,0:0|0:0|0:0,0:0:0:0:
160,176,16030,1,0,0:0:0:0:
208,96,16200,1,2,0:0:0:0:
312,240,16539,1,0,0:0:0:0:
256,312,16708,5,0,0:0:0:0:
256,312,16793,1,0,0:0:0:0:
256,312,16878,2,0,P|208:320|160:312,1,71.2500027179719,2|0,0:0|0:0,0:0:0:0:
104,264,17217,1,0,0:0:0:0:
240,216,17386,1,2,0:0:0:0:
160,176,17556,2,0,P|128:160|80:152,1,71.2500027179719,0|0,0:0|0:0,0:0:0:0:
208,96,17895,2,0,P|240:112|288:120,1,71.2500027179719,0|0,0:0|0:0,0:0:0:0:
352,56,18234,6,0,P|352:104|432:136,1,142.500005435944,2|0,0:0|0:0,0:0:0:0:
480,64,18742,1,2,0:0:0:0:
496,200,18912,2,0,P|464:240|368:240,1,142.500005435944
136,112,19759,6,0,P|184:104|160:16,1,142.500005435944,2|0,0:0|0:0,0:0:0:0:
88,40,20268,1,2,0:0:0:0:
24,104,20437,1,0,0:0:0:0:
184,184,20607,1,2,0:0:0:0:
120,248,20776,1,0,0:0:0:0:
80,168,20945,6,0,P|40:208|48:296,1,142.500005435944,2|0,0:0|0:0,0:0:0:0:
232,264,21623,2,0,P|272:224|272:160,1,106.875004076958,2|0,0:0|0:0,0:0:0:0:
272,144,21962,1,2,0:0:0:0:
464,104,22301,6,0,P|480:144|480:184,1,76,2|0,0:0|0:0,0:0:0:0:
400,240,22640,2,0,L|400:160,1,76,0|2,0:0|0:0,0:0:0:0:
336,104,22979,2,0,P|320:144|320:184,1,76,2|0,0:0|0:0,0:0:0:0:
400,240,23318,1,0,0:0:0:0:
328,312,23488,5,0,0:0:0:0:
328,312,23573,1,0,0:0:0:0:
328,312,23657,2,0,P|288:304|248:312,1,76,2|0,0:0|0:0,0:0:0:0:
160,344,23996,1,2,0:0:0:0:
96,192,24166,1,0,0:0:0:0:
240,232,24335,1,2,0:0:0:0:
240,232,24844,5,0,0:0:0:0:
224,136,25013,2,0,L|144:136,1,76,2|0,0:0|0:0,0:0:0:0:
272,232,25352,2,0,L|352:232,1,76
192,112,25691,2,0,L|112:112,1,76,0|2,0:0|0:0,0:0:0:0:
304,264,26030,2,0,L|384:264,1,76
192,216,26369,6,0,P|176:272|240:344,1,152,2|0,0:0|0:0,0:0:0:0:
328,168,26878,1,2,0:0:0:0:
328,168,26962,1,2,0:0:0:0:
328,168,27047,2,0,P|336:112|320:80,1,76,0|2,0:0|0:0,0:0:0:0:
240,56,27386,2,0,P|232:112|248:144,1,76,0|2,0:0|0:0,0:0:0:0:
192,216,27725,5,0,0:0:0:0:
96,192,27895,2,0,P|56:200|16:192,2,76,2|0|0,0:0|0:0|0:0,0:0:0:0:
160,112,28403,1,0,0:0:0:0:
128,280,28573,1,2,0:0:0:0:
352,112,28742,1,0,0:0:0:0:
384,280,28912,1,0,0:0:0:0:
256,232,29081,6,0,P|248:304|256:384,1,152,2|0,0:0|0:0,0:0:0:0:
256,152,29759,2,0,P|264:80|256:0,1,152,2|0,0:0|0:0,0:0:0:0:
64,240,30607,6,0,P|104:256|184:192,1,152,2|0,0:0|0:0,0:0:0:0:
96,144,31115,1,2,0:0:0:0:
256,160,31284,1,0,0:0:0:0:
192,88,31454,2,0,P|232:64|272:64,1,76,0|2,0:0|0:0,0:0:0:0:
384,72,31793,5,8,0:0:0:0:
384,219,31962,1,8,0:0:0:0:
470,100,32132,1,8,0:0:0:0:
328,144,32301,1,8,0:0:0:0:
480,192,32471,5,8,0:0:0:0:
264,256,32640,1,8,0:0:0:0:
480,314,32810,1,8,0:0:0:0:
296,112,32979,5,8,0:0:0:0:
296,112,33064,1,8,0:0:0:0:
296,112,33149,2,0,P|208:80|112:112,1,190,4|8,0:0|0:0,0:0:0:0:
32,216,33657,2,0,P|104:232|216:184,1,190
209,190,34166,1,8,0:0:0:0:
432,120,34335,5,2,0:0:0:0:
432,120,34420,1,0,0:0:0:0:
432,120,34505,2,0,P|408:176|424:208,1,95
504,296,34844,1,8,0:0:0:0:
320,304,35013,1,2,0:0:0:0:
320,304,35098,1,0,0:0:0:0:
320,304,35183,2,0,P|264:320|224:304,1,95
209,190,35522,1,8,0:0:0:0:
280,48,35691,5,2,0:0:0:0:
280,48,35776,1,0,0:0:0:0:
280,48,35861,2,0,P|288:96|264:144,1,95
184,48,36200,1,8,0:0:0:0:
112,192,36369,1,2,0:0:0:0:
112,192,36454,1,0,0:0:0:0:
112,192,36539,2,0,P|104:144|128:96,1,95
209,190,36878,1,8,0:0:0:0:
280,48,37047,1,0,0:0:0:0:
416,176,37217,6,0,B|400:224|400:224|352:232,1,95
209,190,37556,2,0,B|232:144|232:144|274:136,1,95,8|0,0:0|0:0,0:0:0:0:
256,304,37895,1,0,0:0:0:0:
72,192,38064,1,0,0:0:0:0:
209,190,38234,2,0,P|200:136|168:96,1,95,8|0,0:0|0:0,0:0:0:0:
72,192,38573,6,0,L|32:288,1,95,8|0,0:0|0:0,0:0:0:0:
256,304,38912,2,0,L|216:208,1,95,8|0,0:0|0:0,0:0:0:0:
440,200,39251,2,0,L|408:296,1,95,8|0,0:0|0:0,0:0:0:0:
272,104,39590,2,0,L|376:88,1,95,8|0,0:0|0:0,0:0:0:0:
256,304,39929,6,0,L|152:320,1,95,8|0,0:0|0:0,0:0:0:0:
56,96,40268,2,0,L|152:120,1,95,8|0,0:0|0:0,0:0:0:0:
256,224,40607,2,0,L|160:200,1,95,8|0,0:0|0:0,0:0:0:0:
272,104,40945,1,8,0:0:0:0:
424,304,41284,5,4,0:0:0:0:
440,208,41454,1,8,0:0:0:0:
352,248,41623,1,8,0:0:0:0:
496,272,41793,1,8,0:0:0:0:
368,168,41962,1,8,0:0:0:0:
344,328,42132,1,8,0:0:0:0:
256,280,42301,2,8,P|216:288|176:336,1,95
256,368,42640,5,8,0:0:0:0:
184,148,42810,1,8,0:0:0:0:
371,284,42979,1,8,0:0:0:0:
140,284,43149,1,8,0:0:0:0:
327,148,43318,1,8,0:0:0:0:
256,368,43488,1,8,0:0:0:0:
416,192,43657,1,8,0:0:0:0:
96,192,43827,1,8,0:0:0:0:
256,56,43996,5,8,0:0:0:0:
256,192,44166,1,8,0:0:0:0:
288,46,44335,1,8,0:0:0:0:
223,201,44505,1,8,0:0:0:0:
316,65,44674,1,8,0:0:0:0:
195,182,44844,1,8,0:0:0:0:
368,128,45013,1,8,0:0:0:0:
144,128,45183,1,8,0:0:0:0:
256,24,45352,5,8,0:0:0:0:
384,272,45522,1,8,0:0:0:0:
128,272,45691,1,8,0:0:0:0:
256,96,45861,1,8,0:0:0:0:
328,216,46030,1,8,0:0:0:0:
184,216,46200,1,8,0:0:0:0:
256,176,46369,1,8,0:0:0:0:
256,176,46708,5,12,0:0:0:0:
288,48,50776,5,2,0:0:0:0:
224,200,50945,1,0,0:0:0:0:
304,40,51454,5,2,0:0:0:0:
240,216,51623,1,0,0:0:0:0:
160,288,52132,6,0,P|256:352|360:280,1,246.999988693238,4|8,0:0|0:0,0:0:0:0:
408,160,52640,1,0,0:0:0:0:
312,136,52810,2,0,P|360:248|488:216,1,246.999988693238,0|8,0:0|0:0,0:0:0:0:
408,160,53318,6,0,B|360:120|286:142|286:142|208:168|160:152,1,246.999988693238
56,80,53827,2,0,P|32:152|48:200,1,123.499994346619,8|0,0:0|0:0,0:0:0:0:
128,288,54166,1,0,0:0:0:0:
256,192,54335,1,8,0:0:0:0:
256,192,54420,1,8,0:0:0:0:
256,192,54505,1,8,0:0:0:0:
384,288,54674,1,0,0:0:0:0:
477,162,54844,6,0,P|367:114|256:160,1,246.999988693238,4|8,0:0|0:0,0:0:0:0:
256,320,55352,1,0,0:0:0:0:
256,160,55522,2,0,P|144:114|34:162,1,246.999988693238,0|8,0:0|0:0,0:0:0:0:
168,304,56030,6,0,P|256:232|344:312,1,246.999988693238
256,320,56539,1,8,0:0:0:0:
256,192,56708,1,8,0:0:0:0:
256,160,56793,1,8,0:0:0:0:
256,128,56878,2,0,P|320:112|376:128,1,123.499994346619
256,192,57217,2,0,P|192:208|136:192,1,123.499994346619,8|0,0:0|0:0,0:0:0:0:
136,48,57556,6,0,P|256:24|376:48,1,246.999988693238,4|8,0:0|0:0,0:0:0:0:
376,272,58064,2,0,P|256:296|136:272,1,246.999988693238,0|0,0:0|0:0,0:0:0:0:
40,144,58573,1,8,0:0:0:0:
168,88,58742,2,0,P|256:160|344:88,1,246.999988693238
256,48,59251,1,8,0:0:0:0:
120,32,59420,2,0,P|96:96|136:152,1,123.499994346619
224,232,59759,1,0,0:0:0:0:
110,367,59929,2,0,P|71:324|96:272,1,123.499994346619,8|0,0:0|0:0,0:0:0:0:
256,344,60268,6,0,B|320:320|376:344|376:344|368:288|416:224,1,246.999988693238,4|8,0:0|0:0,0:0:0:0:
464,96,60776,1,0,0:0:0:0:
352,24,60945,2,0,B|312:64|320:144|352:176|352:176|320:208|264:184,1,246.999988693238,0|8,0:0|0:0,0:0:0:0:
88,112,61454,1,0,0:0:0:0:
216,72,61623,5,8,0:0:0:0:
216,72,61708,1,8,0:0:0:0:
216,72,61793,1,8,0:0:0:0:
184,208,61962,1,0,0:0:0:0:
48,240,62132,1,8,0:0:0:0:
48,240,62217,1,8,0:0:0:0:
48,240,62301,1,8,0:0:0:0:
136,344,62471,1,0,0:0:0:0:
320,296,62640,5,8,0:0:0:0:
360,287,62724,1,8,0:0:0:0:
402,290,62809,1,8,0:0:0:0:
440,303,62894,1,8,0:0:0:0:
480,320,62979,6,0,P|512:200|464:88,1,246.999988693238,12|8,0:0|0:0,0:0:0:0:
344,32,63488,1,0,0:0:0:0:
200,120,63657,2,0,P|256:144|312:120,1,123.499994346619,0|0,0:0|0:0,0:0:0:0:
168,32,63996,1,8,0:0:0:0:
45,90,64166,2,0,P|0:203|32:320,1,246.999988693238,0|0,0:0|0:0,0:0:0:0:
200,264,64674,2,0,P|256:240|312:264,1,123.499994346619,8|0,0:0|0:0,0:0:0:0:
200,344,65013,2,0,P|144:320|120:264,1,123.499994346619
200,120,65352,1,8,0:0:0:0:
328,168,65522,1,0,0:0:0:0:
312,40,65691,6,0,B|248:40|248:40|224:32|224:32|168:32|168:32|144:40|144:40|64:40,1,246.999988693238,4|8,0:0|0:0,0:0:0:0:
64,192,66200,2,0,P|176:240|288:200,1,246.999988693238
368,112,66708,1,8,0:0:0:0:
200,120,66878,1,0,0:0:0:0:
304,288,67047,1,12,0:0:0:0:
304,288,67730,6,0,P|240:304|160:280,2,142.5,8|0|0,0:0|0:0|0:0,0:0:0:0:
384,216,68408,2,0,P|344:192|288:184,1,95,4|0,0:0|0:0,0:0:0:0:
192,176,68747,1,0,0:0:0:0:
256,96,68917,1,2,0:0:0:0:
256,96,69002,1,0,0:0:0:0:
256,96,69086,1,0,0:0:0:0:
160,48,69256,1,0,0:0:0:0:
96,136,69425,2,0,P|48:144|0:128,1,95
160,48,69764,6,0,P|232:16|312:32,1,142.5,2|0,0:0|0:0,0:0:0:0:
336,40,70103,1,0,0:0:0:0:
256,96,70273,1,0,0:0:0:0:
344,144,70442,2,0,P|400:160|480:136,2,142.5,2|0|2,0:0|0:0|0:0,0:0:0:0:
256,200,71120,6,0,B|288:240|336:248|336:248|328:296|280:328,1,190
192,272,71629,1,2,0:0:0:0:
96,320,71798,2,0,B|53:291|45:243|45:243|93:235|125:195,1,190
200,120,72307,1,2,0:0:0:0:
112,64,72476,5,0,0:0:0:0:
208,16,72646,2,0,P|256:24|296:72,1,95,2|0,0:0|0:0,0:0:0:0:
344,144,72985,1,8,0:0:0:0:
352,152,73069,1,8,0:0:0:0:
360,160,73154,2,0,P|408:184|448:176,1,95
464,72,73493,2,0,P|416:48|376:56,1,95,0|8,0:0|0:0,0:0:0:0:
344,144,73832,6,0,P|304:192|256:200,1,95,4|0,0:0|0:0,0:0:0:0:
168,208,74171,1,8,0:0:0:0:
56,135,74341,2,0,P|74:92|112:64,1,95,4|0,0:0|0:0,0:0:0:0:
56,240,74680,1,8,0:0:0:0:
216,40,74849,1,0,0:0:0:0:
168,320,75019,5,8,0:0:0:0:
208,336,75103,1,8,0:0:0:0:
248,320,75188,2,0,P|296:304|344:328,1,95,4|0,0:0|0:0,0:0:0:0:
335,319,75442,1,8,0:0:0:0:
335,319,75527,1,8,0:0:0:0:
256,152,75697,1,8,0:0:0:0:
456,248,75866,1,8,0:0:0:0:
456,136,76036,2,0,P|424:96|384:72,1,95
256,16,76375,1,8,0:0:0:0:
256,152,76544,6,0,P|216:184|128:168,1,142.5,4|8,0:0|0:0,0:0:0:0:
104,152,76883,1,8,0:0:0:0:
256,16,77053,2,0,P|328:40|376:144,1,190,0|8,0:0|0:0,0:0:0:0:
360,248,77561,1,0,0:0:0:0:
337,277,77645,1,0,0:0:0:0:
301,288,77730,1,0,0:0:0:0:
266,275,77815,1,0,0:0:0:0:
240,256,77900,2,8,L|200:224,2,47.5
184,112,78239,1,8,0:0:0:0:
88,160,78408,6,8,L|80:208,1,47.5
96,72,78578,2,8,L|104:24,1,47.5,0|0,2:0|2:0,2:0:0:0:
184,112,78747,2,8,L|176:160,1,47.5,0|0,2:0|2:0,2:0:0:0:
226,43,78916,1,8,0:0:0:0:
262,55,79001,1,8,0:0:0:0:
290,80,79086,1,8,0:0:0:0:
308,114,79171,1,8,0:0:0:0:
312,152,79256,6,0,P|312:200|432:216,1,190,4|8,0:0|0:0,0:0:0:0:
248,88,79764,2,0,P|224:144|248:272,1,190,4|8,0:0|0:0,0:0:0:0:
184,32,80273,2,0,P|152:80|136:216,1,190,4|8,0:0|0:0,0:0:0:0:
424,224,80781,2,0,P|419:129|374:47,1,190,4|8,0:0|0:0,0:0:0:0:
304,296,81290,2,0,P|336:336|392:352,1,95,4|0,0:0|0:0,0:0:0:0:
248,232,81629,2,0,P|224:272|224:320,1,95,8|0,0:0|0:0,0:0:0:0:
328,216,81968,6,0,P|304:168|184:176,1,190,4|8,0:0|0:0,0:0:0:0:
104,248,82476,1,0,0:0:0:0:
56,160,82646,2,0,P|40:104|56:64,1,95
128,112,82985,1,8,0:0:0:0:
256,24,83154,1,8,0:0:0:0:
256,24,83239,1,8,0:0:0:0:
256,24,83324,1,8,0:0:0:0:
384,112,83493,1,0,0:0:0:0:
256,224,83663,1,8,0:0:0:0:
280,120,83832,5,8,0:0:0:0:
288,128,83917,1,8,0:0:0:0:
296,136,84002,2,0,L|344:184,2,63.3333333333333,8|8|8,0:0|0:0|0:0,0:0:0:0:
149,171,84341,2,0,P|135:142|127:111,2,63.3333333333333,8|8|8,0:0|0:0|0:0,0:0:0:0:
256,224,84680,1,4,0:0:0:0:
256,192,84764,12,0,86036,0:0:0:0:
256,192,95527,6,0,B|288:168|351:191|351:191|424:216|448:192,1,190,2|0,0:0|0:0,0:0:0:0:
432,96,96036,1,0,0:0:0:0:
328,104,96205,2,0,P|336:56|368:16,2,95,2|0|0,0:0|0:0|0:0,0:0:0:0:
224,96,96714,1,0,0:0:0:0:
160,16,96883,6,0,P|112:0|72:16,1,95,2|0,0:0|0:0,0:0:0:0:
8,96,97222,1,0,0:0:0:0:
72,176,97391,2,0,P|104:224|240:232,1,190,2|0,0:0|0:0,0:0:0:0:
256,224,97815,1,0,0:0:0:0:
280,200,97900,1,2,0:0:0:0:
336,88,98069,1,0,0:0:0:0:
464,144,98239,5,2,0:0:0:0:
384,192,98408,1,0,0:0:0:0:
256,224,98578,1,2,0:0:0:0:
336,272,98747,1,0,0:0:0:0:
384,192,98917,1,2,0:0:0:0:
304,144,99086,1,0,0:0:0:0:
176,176,99256,1,2,0:0:0:0:
256,224,99425,1,0,0:0:0:0:
184,88,99595,6,0,P|88:96|40:176,1,190,2|0,0:0|0:0,0:0:0:0:
48,272,100103,1,2,0:0:0:0:
136,328,100273,2,0,P|184:360|240:352,1,95
312,320,100612,1,0,0:0:0:0:
304,216,100781,5,0,0:0:0:0:
336,224,100866,1,0,0:0:0:0:
376,232,100951,2,0,P|400:192|392:128,1,95,0|2,0:0|0:0,0:0:0:0:
360,48,101290,1,0,0:0:0:0:
280,120,101459,1,0,0:0:0:0:
216,40,101629,2,0,P|168:48|144:88,1,95,2|0,0:0|0:0,0:0:0:0:
136,192,101968,2,0,P|184:184|208:144,1,95,2|0,0:0|0:0,0:0:0:0:
80,128,102307,6,0,P|56:176|136:280,1,190,2|0,0:0|0:0,0:0:0:0:
256,336,102815,1,0,0:0:0:0:
400,280,102985,2,0,P|466:218|445:130,1,190,2|0,0:0|0:0,0:0:0:0:
344,72,103493,1,0,0:0:0:0:
256,192,103653,1,0,0:0:0:0:
344,152,103822,6,0,P|352:208|328:256,2,95,2|0|0,0:0|0:0|0:0,0:0:0:0:
256,94,104330,2,0,P|210:104|176:136,1,95,2|0,0:0|0:0,0:0:0:0:
120,224,104669,1,0,0:0:0:0:
80,128,104838,1,0,0:0:0:0:
176,136,105008,2,0,P|196:208|172:328,1,190,2|0,0:0|0:0,0:0:0:0:
340,312,105685,2,0,P|319:220|339:128,1,190,2|0,0:0|0:0,0:0:0:0:
408,48,106193,5,0,0:0:0:0:
440,56,106278,1,0,0:0:0:0:
472,80,106363,2,0,P|504:112|504:176,1,95,2|0,0:0|0:0,0:0:0:0:
472,256,106702,1,2,0:0:0:0:
416,152,106871,1,0,0:0:0:0:
344,224,107040,2,0,B|336:240|336:240|288:240|256:288|272:336|272:336|232:336,1,190
128,336,107549,1,0,0:0:0:0:
192,256,107718,6,0,P|216:216|200:168,1,95,2|0,0:0|0:0,0:0:0:0:
48,176,108057,2,0,P|35:220|59:260,1,95
128,176,108395,2,0,P|136:120|176:80,1,95,2|0,0:0|0:0,0:0:0:0:
256,48,108734,1,0,0:0:0:0:
320,128,108904,5,0,0:0:0:0:
352,144,108988,1,0,0:0:0:0:
384,160,109073,2,0,P|424:200|432:240,1,95,2|0,0:0|0:0,0:0:0:0:
328,248,109412,1,2,0:0:0:0:
384,352,109581,1,0,0:0:0:0:
256,240,109751,1,2,0:0:0:0:
256,344,109920,1,0,0:0:0:0:
184,248,110089,1,2,0:0:0:0:
128,352,110259,1,0,0:0:0:0:
120,208,110428,6,0,P|160:176|208:176,1,95
328,248,110767,1,0,0:0:0:0:
256,328,110936,1,0,0:0:0:0:
256,328,111021,1,0,0:0:0:0:
256,328,111106,2,0,P|248:280|208:256,1,95,2|0,0:0|0:0,0:0:0:0:
64,256,111445,2,0,P|25:281|19:327,1,95,0|2,0:0|0:0,0:0:0:0:
136,304,111783,6,0,L|136:208,1,95,0|2,0:0|0:0,0:0:0:0:
136,104,112122,2,0,P|184:88|240:112,1,95
312,160,112461,1,0,0:0:0:0:
312,160,112630,1,2,0:0:0:0:
384,96,112800,2,0,P|336:64|288:64,1,95
312,160,113138,6,0,P|360:200|400:200,1,95,2|0,0:0|0:0,0:0:0:0:
496,192,113477,1,0,0:0:0:0:
440,280,113647,1,0,0:0:0:0:
408,296,113731,1,0,0:0:0:0:
376,312,113816,2,0,L|272:312,1,95,2|0,0:0|0:0,0:0:0:0:
144,232,114155,2,0,L|240:232,1,95
112,312,114494,1,0,0:0:0:0:
56,168,114663,5,2,0:0:0:0:
56,168,114832,2,0,P|32:208|32:256,1,95
168,144,115171,1,2,0:0:0:0:
96,72,115341,1,0,0:0:0:0:
200,56,115510,2,0,P|248:64|296:56,1,95
392,24,115849,5,10,0:0:0:0:
496,144,116018,1,8,0:0:0:0:
336,160,116187,1,8,0:0:0:0:
416,112,116357,1,8,0:0:0:0:
456,312,116526,1,8,0:0:0:0:
272,272,116696,1,10,0:0:0:0:
256,8,116865,1,8,0:0:0:0:
100,143,117034,5,8,0:0:0:0:
112,160,117119,1,8,0:0:0:0:
124,175,117204,2,0,P|213:206|304:184,1,190,12|8,0:0|0:0,0:0:0:0:
416,112,117712,1,0,0:0:0:0:
416,208,117881,2,0,P|472:192|496:160,1,95
304,184,118220,1,8,0:0:0:0:
424,336,118390,1,0,0:0:0:0:
424,336,118474,1,0,0:0:0:0:
424,336,118559,6,0,P|384:352|320:336,1,95
160,272,118898,2,0,P|200:256|264:272,1,95,8|0,0:0|0:0,0:0:0:0:
250,263,119152,1,0,0:0:0:0:
250,263,119237,1,0,0:0:0:0:
104,352,119406,1,0,0:0:0:0:
16,272,119575,6,0,P|32:216|64:176,1,95,8|0,0:0|0:0,0:0:0:0:
128,112,119914,1,0,0:0:0:0:
160,272,120083,1,0,0:0:0:0:
224,184,120253,2,0,P|272:184|312:208,1,95,8|0,0:0|0:0,0:0:0:0:
376,288,120592,1,0,0:0:0:0:
216,352,120761,1,0,0:0:0:0:
152,192,120930,2,0,P|168:136|208:112,1,95,8|0,0:0|0:0,0:0:0:0:
312,88,121269,5,0,0:0:0:0:
104,24,121439,1,0,0:0:0:0:
48,120,121608,2,0,P|32:168|48:208,1,95,8|0,0:0|0:0,0:0:0:0:
112,304,121947,1,0,0:0:0:0:
224,184,122116,1,0,0:0:0:0:
250,263,122286,2,0,P|296:232|312:192,1,95,8|0,0:0|0:0,0:0:0:0:
296,72,122624,6,0,P|248:96|208:104,1,95,8|0,0:0|0:0,0:0:0:0:
32,192,122963,2,0,P|80:216|128:224,1,95,8|0,0:0|0:0,0:0:0:0:
320,304,123302,2,0,P|280:336|232:352,1,95,8|0,0:0|0:0,0:0:0:0:
376,176,123641,2,0,P|432:184|472:208,1,95,8|0,0:0|0:0,0:0:0:0:
224,184,123979,6,0,P|176:160|136:128,1,95,8|0,0:0|0:0,0:0:0:0:
400,32,124318,2,0,P|448:56|488:88,1,95,8|0,0:0|0:0,0:0:0:0:
112,352,124657,2,0,P|64:328|24:296,1,95,8|0,0:0|0:0,0:0:0:0:
256,64,124996,2,0,P|296:104|304:152,1,95,8|0,0:0|0:0,0:0:0:0:
304,248,125335,5,4,0:0:0:0:
160,264,125504,1,8,0:0:0:0:
224,184,125673,1,8,0:0:0:0:
240,336,125843,1,8,0:0:0:0:
304,248,126012,2,8,P|352:232|400:248,1,95
472,320,126351,1,8,0:0:0:0:
352,160,126520,1,8,0:0:0:0:
352,320,126690,5,8,0:0:0:0:
472,160,126859,1,8,0:0:0:0:
304,248,127029,1,8,0:0:0:0:
416,88,127198,1,8,0:0:0:0:
208,248,127367,1,8,0:0:0:0:
96,88,127537,1,8,0:0:0:0:
256,176,127706,1,8,0:0:0:0:
256,24,127875,1,8,0:0:0:0:
120,224,128045,5,8,0:0:0:0:
392,224,128214,1,8,0:0:0:0:
96,88,128384,1,8,0:0:0:0:
416,88,128553,1,8,0:0:0:0:
256,320,128722,1,8,0:0:0:0:
168,80,128892,1,8,0:0:0:0:
344,304,129061,1,8,0:0:0:0:
344,80,129231,1,8,0:0:0:0:
120,224,129400,5,8,0:0:0:0:
392,224,129569,1,8,0:0:0:0:
184,168,129739,1,8,0:0:0:0:
328,168,129908,1,8,0:0:0:0:
256,320,130078,1,8,0:0:0:0:
200,248,130247,1,8,0:0:0:0:
312,248,130416,1,8,0:0:0:0:
256,192,130755,5,12,0:0:0:0:
408,56,134821,5,8,0:0:0:0:
304,192,134990,1,0,0:0:0:0:
104,328,135498,5,8,0:0:0:0:
208,192,135667,1,0,0:0:0:0:
264,256,136176,6,0,P|376:216|328:120,1,246.999988693238,4|8,0:0|0:0,0:0:0:0:
208,88,136684,1,0,0:0:0:0:
80,120,136853,2,0,P|45:224|152:252,1,246.999988693238,0|8,0:0|0:0,0:0:0:0:
240,152,137361,2,0,P|272:56|152:40,1,246.999988693238
80,120,137870,2,0,P|24:96|16:40,1,123.499994346619,8|0,0:0|0:0,0:0:0:0:
208,88,138208,1,0,0:0:0:0:
256,256,138378,1,0,0:0:0:0:
304,88,138547,5,8,0:0:0:0:
342,73,138632,1,8,0:0:0:0:
383,73,138717,1,8,0:0:0:0:
420,88,138801,1,8,0:0:0:0:
456,112,138886,6,0,P|496:160|392:272,1,246.999988693238,12|8,0:0|0:0,0:0:0:0:
256,176,139394,1,0,0:0:0:0:
116,272,139564,2,0,P|16:218|56:112,1,246.999988693238,0|8,0:0|0:0,0:0:0:0:
160,64,140072,2,0,B|208:120|208:120|232:104|256:96|280:104|304:120|304:120|352:64,1,246.999988693238
256,16,140580,5,8,0:0:0:0:
256,176,140749,1,8,0:0:0:0:
256,176,140834,1,8,0:0:0:0:
256,176,140919,1,8,0:0:0:0:
416,192,141088,1,0,0:0:0:0:
256,320,141257,1,8,0:0:0:0:
376,304,141427,1,0,0:0:0:0:
136,304,141596,6,0,P|80:264|96:104,1,246.999988693238,4|8,0:0|0:0,0:0:0:0:
168,192,142104,2,0,P|256:264|344:192,1,246.999988693238
256,96,142613,1,8,0:0:0:0:
96,103,142782,2,0,P|40:64|40:0,1,123.499994346619
168,16,143121,1,0,0:0:0:0:
168,192,143290,1,8,0:0:0:0:
256,96,143460,2,0,P|312:56|312:-7,1,123.499994346619
168,16,143798,1,0,0:0:0:0:
96,104,143968,1,8,0:0:0:0:
168,192,144137,5,0,0:0:0:0:
168,192,144306,2,0,B|208:160|287:196|287:196|368:232|416:192,1,246.999988693238,4|8,0:0|0:0,0:0:0:0:
464,96,144815,1,0,0:0:0:0:
403,200,144984,2,0,B|408:240|408:240|384:264|384:264|416:304|392:368|392:368|360:344|320:352,1,246.999988693238,0|8,0:0|0:0,0:0:0:0:
256,288,145492,1,0,0:0:0:0:
112,336,145662,5,8,0:0:0:0:
112,336,145746,1,8,0:0:0:0:
112,336,145831,1,8,0:0:0:0:
168,192,146000,1,0,0:0:0:0:
56,64,146170,5,8,0:0:0:0:
56,64,146254,1,8,0:0:0:0:
56,64,146339,1,8,0:0:0:0:
256,40,146509,1,0,0:0:0:0:
464,128,146678,5,8,0:0:0:0:
453,163,146763,1,8,0:0:0:0:
430,193,146847,1,8,0:0:0:0:
397,211,146932,1,8,0:0:0:0:
360,216,147017,6,0,B|288:208|240:176|240:176|248:256|152:272,1,246.999988693238,4|8,0:0|0:0,0:0:0:0:
56,272,147525,1,0,0:0:0:0:
168,192,147694,2,0,P|136:136|80:112,1,123.499994346619
168,24,148033,1,8,0:0:0:0:
336,32,148202,2,0,B|336:88|296:120|248:120|248:120|288:168|288:224,1,246.999988693238,0|0,0:0|0:0,0:0:0:0:
280,344,148711,1,8,0:0:0:0:
400,272,148880,5,8,0:0:0:0:
400,272,148965,1,8,0:0:0:0:
400,272,149049,1,8,0:0:0:0:
280,344,149219,1,0,0:0:0:0:
160,311,149388,2,0,P|151:251|168:192,1,123.499994346619,8|0,0:0|0:0,0:0:0:0:
312,144,149727,6,0,P|368:184|448:64,1,246.999988693238,4|8,0:0|0:0,0:0:0:0:
61,69,150235,2,0,P|93:175|200:144,1,246.999988693238,4|0,0:0|0:0,0:0:0:0:
256,32,150743,1,8,0:0:0:0:
256,256,150913,1,0,0:0:0:0:
256,136,151082,1,8,0:0:0:0:
152,80,151760,5,8,0:0:0:0:
256,256,151986,1,0,0:0:0:0:
368,80,152211,1,0,0:0:0:0:
192,160,152437,6,0,B|208:200|208:200|232:184|256:176|280:184|304:200|304:200|328:160,1,190,4|2,0:0|0:0,0:0:0:0:
256,96,152945,1,0,0:0:0:0:
192,160,153115,2,0,P|144:168|88:144,1,95,0|2,0:0|0:0,0:0:0:0:
88,144,153369,1,0,0:0:0:0:
76,136,153454,1,0,0:0:0:0:
16,192,153623,1,0,0:0:0:0:
72,272,153792,6,0,P|120:264|176:288,1,95,2|0,0:0|0:0,0:0:0:0:
296,352,154131,2,0,P|248:360|192:336,1,95
256,264,154470,2,0,P|336:264|384:320,2,142.5,2|0|2,0:0|0:0|0:0,0:0:0:0:
240,168,155148,6,0,P|296:160|336:128,1,95,4|0,0:0|0:0,0:0:0:0:
392,72,155486,1,0,0:0:0:0:
256,72,155656,1,2,0:0:0:0:
256,72,155740,1,2,0:0:0:0:
256,72,155825,1,0,0:0:0:0:
240,168,155994,1,0,0:0:0:0:
152,128,156164,1,0,0:0:0:0:
168,32,156333,1,2,0:0:0:0:
64,96,156503,6,0,P|48:144|48:192,1,95,0|8,0:0|0:0,0:0:0:0:
56,216,156757,1,8,0:0:0:0:
72,248,156841,1,8,0:0:0:0:
176,336,157011,1,8,0:0:0:0:
192,304,157096,1,8,0:0:0:0:
208,272,157180,1,8,0:0:0:0:
336,336,157350,1,0,0:0:0:0:
456,256,157519,2,0,P|408:240|368:256,1,95,8|0,0:0|0:0,0:0:0:0:
304,176,157858,6,0,B|328:144|400:136|400:136|368:96|400:40,1,209.000006378174,4|8,0:0|0:0,0:0:0:0:
304,80,158366,2,0,B|280:88|256:104|256:104|232:88|208:80,1,104.500003189087
112,40,158705,1,0,0:0:0:0:
48,128,158874,1,8,0:0:0:0:
39,165,158959,1,8,0:0:0:0:
42,204,159044,1,8,0:0:0:0:
55,240,159128,1,8,0:0:0:0:
78,270,159213,6,0,P|128:320|216:312,1,156.750004783631,4|8,0:0|0:0,0:0:0:0:
240,296,159552,1,8,0:0:0:0:
376,192,159721,1,8,0:0:0:0:
368,224,159806,1,8,0:0:0:0:
360,256,159890,1,8,0:0:0:0:
256,192,160060,1,0,0:0:0:0:
328,88,160229,1,8,0:0:0:0:
408,184,160399,1,8,0:0:0:0:
256,192,160568,5,8,0:0:0:0:
256,192,160653,1,8,0:0:0:0:
256,192,160737,1,8,0:0:0:0:
256,192,160822,1,8,0:0:0:0:
256,192,160907,1,8,0:0:0:0:
256,192,160992,1,8,0:0:0:0:
256,192,161076,1,8,0:0:0:0:
256,192,161161,1,8,0:0:0:0:
256,192,161246,5,0,0:0:0:0:
233,222,161330,1,0,0:0:0:0:
201,242,161415,1,0,0:0:0:0:
163,244,161500,1,0,0:0:0:0:
128,229,161585,2,0,L|80:200,1,52.2500015945435
136,304,161754,2,0,L|192:288,1,52.2500015945435
176,192,161923,5,8,0:0:0:0:
181,160,162008,1,8,0:0:0:0:
199,134,162093,1,8,0:0:0:0:
225,117,162177,1,8,0:0:0:0:
257,112,162262,1,0,0:0:0:0:
287,119,162347,1,0,0:0:0:0:
313,138,162431,1,8,0:0:0:0:
328,166,162516,1,8,0:0:0:0:
331,197,162601,5,8,0:0:0:0:
339,228,162685,1,8,0:0:0:0:
360,252,162770,1,8,0:0:0:0:
389,265,162855,1,8,0:0:0:0:
420,263,162940,1,8,0:0:0:0:
448,248,163024,1,8,0:0:0:0:
464,224,163109,5,8,0:0:0:0:
472,200,163194,1,8,0:0:0:0:
472,176,163278,2,0,P|464:120|328:96,1,209.000006378174,4|8,0:0|0:0,0:0:0:0:
176,288,163786,2,0,P|256:352|328:288,1,209.000006378174,4|8,0:0|0:0,0:0:0:0:
161,90,164295,2,0,P|63:85|24:176,1,209.000006378174,4|8,0:0|0:0,0:0:0:0:
176,216,164803,2,0,P|256:160|336:224,1,209.000006378174,4|8,0:0|0:0,0:0:0:0:
176,288,165311,2,0,P|120:264|104:224,1,104.500003189087,4|0,0:0|0:0,0:0:0:0:
407,226,165650,2,0,P|384:271|336:288,1,104.500003189087,0|8,0:0|0:0,0:0:0:0:
256,232,165989,6,0,B|216:176|249:121|249:121|288:48|232:24,1,209.000006378174,4|0,0:0|0:0,0:0:0:0:
152,80,166497,1,12,0:0:0:0:
352,104,166666,2,0,P|376:56|352:16,1,104.500003189087
152,80,167005,2,0,P|128:128|152:168,1,104.500003189087,8|0,0:0|0:0,0:0:0:0:
256,232,167344,5,0,0:0:0:0:
352,104,167513,1,12,0:0:0:0:
448,232,167682,1,0,0:0:0:0:
352,336,167852,1,8,0:0:0:0:
352,336,167937,1,8,0:0:0:0:
352,336,168021,1,8,0:0:0:0:
256,184,168191,1,0,0:0:0:0:
160,336,168360,1,0,0:0:0:0:
72,184,168529,1,0,0:0:0:0:
200,56,168699,6,0,P|256:40|304:56,1,104.500003189087,8|0,0:0|0:0,0:0:0:0:
298,52,169038,1,0,0:0:0:0:
208,248,169207,2,0,P|158:264|109:251,1,104.500003189087,8|0,0:0|0:0,0:0:0:0:
109,251,169546,1,0,0:0:0:0:
312,152,169715,6,0,P|368:136|416:152,1,104.500003189087,8|0,0:0|0:0,0:0:0:0:
410,148,170054,1,0,0:0:0:0:
288,344,170223,6,0,P|232:360|184:344,1,104.500003189087,8|0,0:0|0:0,0:0:0:0:
189,347,170562,1,0,0:0:0:0:
40,72,170732,2,0,P|96:56|144:72,1,104.500003189087,8|0,0:0|0:0,0:0:0:0:
384,240,171070,2,0,P|328:256|280:240,1,104.500003189087,8|0,0:0|0:0,0:0:0:0:
296,64,171409,6,0,P|416:56|480:128,1,209.000006378174,4|8,0:0|0:0,0:0:0:0:
288,344,171917,2,0,P|168:352|104:280,1,209.000006378174,4|8,0:0|0:0,0:0:0:0:
88,80,172425,2,0,P|144:64|192:80,1,104.500003189087,8|0,0:0|0:0,0:0:0:0:
256,192,172764,5,8,0:0:0:0:
176,160,172934,1,8,0:0:0:0:
336,160,173103,1,8,0:0:0:0:
176,232,173272,1,8,0:0:0:0:
336,232,173442,1,8,0:0:0:0:
256,96,173611,1,8,0:0:0:0:
256,288,173781,1,8,0:0:0:0:
256,288,174119,5,4,0:0:0:0:
256,192,184960,6,0,B|232:168|161:192|161:192|88:216|64:192,1,190,4|0,0:0|0:0,0:0:0:0:
16,96,185469,1,0,0:0:0:0:
112,40,185638,2,0,P|168:32|208:0,2,95,8|0|0,0:0|0:0|0:0,0:0:0:0:
160,120,186146,2,0,P|256:96|344:120,1,190,8|0,0:0|0:0,0:0:0:0:
432,192,186654,1,0,0:0:0:0:
80,192,186993,1,8,0:0:0:0:
312,240,187501,5,0,0:0:0:0:
192,240,187671,2,0,P|200:288|232:328,2,95,8|0|0,0:0|0:0|0:0,0:0:0:0:
256,144,188179,1,0,0:0:0:0:
328,72,188348,2,0,P|376:56|424:88,1,95,8|0,0:0|0:0,0:0:0:0:
496,144,188687,1,0,0:0:0:0:
368,136,188856,1,0,0:0:0:0:
256,144,189026,6,0,P|240:96|240:48,1,95
176,168,189365,2,0,P|192:216|192:264,1,95
96,176,189703,2,0,P|104:128|152:96,1,95,8|0,0:0|0:0,0:0:0:0:
256,144,190042,1,0,0:0:0:0:
344,264,190212,1,8,0:0:0:0:
376,248,190296,1,8,0:0:0:0:
408,232,190381,6,0,P|432:192|424:144,1,95,8|0,0:0|0:0,0:0:0:0:
86,145,190720,2,0,P|80:192|104:232,1,95,8|0,0:0|0:0,0:0:0:0:
304,64,191059,2,0,P|256:48|208:64,1,95,8|0,0:0|0:0,0:0:0:0:
208,320,191397,2,0,P|256:336|304:320,1,95,8|0,0:0|0:0,0:0:0:0:
384,104,191736,6,0,P|344:144|304:160,1,95,8|0,0:0|0:0,0:0:0:0:
128,280,192075,2,0,P|168:240|208:224,1,95,8|0,0:0|0:0,0:0:0:0:
309,158,192414,1,8,0:0:0:0:
256,320,192583,1,0,0:0:0:0:
202,158,192752,1,8,0:0:0:0:
256,232,192922,1,0,0:0:0:0:
256,80,193091,5,8,0:0:0:0:
279,59,193175,1,8,0:0:0:0:
308,46,193260,1,8,0:0:0:0:
340,44,193345,1,0,0:0:0:0:
371,52,193429,1,0,0:0:0:0:
397,69,193514,1,0,0:0:0:0:
417,94,193599,1,0,0:0:0:0:
428,124,193683,1,0,0:0:0:0:
432,160,193769,2,0,L|436:221,1,47.5
336,160,193938,2,0,L|328:104,1,47.5,8|0,0:0|0:0,0:0:0:0:
256,232,194108,6,0,L|224:272,3,47.5,8|0|8|8,0:0|0:0|0:0|0:0,0:0:0:0:
192,311,194446,1,8,0:0:0:0:
159,329,194530,1,8,0:0:0:0:
121,335,194615,1,8,0:0:0:0:
84,330,194700,1,8,0:0:0:0:
50,313,194784,1,8,0:0:0:0:
23,286,194869,1,8,0:0:0:0:
6,253,194954,1,8,0:0:0:0:
0,216,195038,1,8,0:0:0:0:
5,178,195123,5,8,0:0:0:0:
22,144,195208,1,0,0:0:0:0:
49,118,195292,1,0,0:0:0:0:
83,101,195377,1,0,0:0:0:0:
120,88,195463,1,8,0:0:0:0:
152,88,195547,5,8,0:0:0:0:
152,88,195632,1,8,0:0:0:0:
152,88,195717,1,8,0:0:0:0:
152,88,195801,2,0,P|254:132|374:84,1,227.999993041992,4|8,0:0|0:0,0:0:0:0:
464,16,196310,1,0,0:0:0:0:
504,120,196479,2,0,P|512:176|480:224,1,113.999996520996
336,272,196818,2,0,P|360:216|408:192,1,113.999996520996,8|0,0:0|0:0,0:0:0:0:
424,328,197157,6,0,P|384:360|320:368,2,113.999996520996,0|0|8,0:0|0:0|0:0,0:0:0:0:
336,272,197665,2,0,B|288:240|217:271|217:271|144:304|104:264,1,227.999993041992
40,192,198173,2,0,P|96:160|152:168,1,113.999996520996,8|0,0:0|0:0,0:0:0:0:
256,184,198512,6,0,P|304:144|296:88,1,113.999996520996,0|0,0:0|0:0,0:0:0:0:
184,88,198851,1,8,0:0:0:0:
256,184,199020,1,0,0:0:0:0:
280,208,199105,1,0,0:0:0:0:
312,232,199189,2,0,P|376:240|424:232,1,113.999996520996
480,120,199528,1,8,0:0:0:0:
424,231,199697,6,0,B|400:288|416:336|416:336|368:312|288:336,1,227.999993041992
256,184,200206,1,8,0:0:0:0:
87,152,200375,2,0,B|112:96|96:48|96:48|144:72|224:48,1,227.999993041992
328,32,200883,1,8,0:0:0:0:
256,184,201053,1,0,0:0:0:0:
448,160,201222,5,4,0:0:0:0:
448,160,201391,1,0,0:0:0:0:
408,264,201561,1,8,0:0:0:0:
408,264,201730,1,0,0:0:0:0:
256,112,201900,5,0,0:0:0:0:
104,264,202069,1,0,0:0:0:0:
104,264,202238,1,8,0:0:0:0:
64,160,202408,1,0,0:0:0:0:
64,160,202577,5,0,0:0:0:0:
256,184,202747,1,0,0:0:0:0:
198,276,202916,2,0,L|160:168,1,113.999996520996,8|0,0:0|0:0,0:0:0:0:
352,168,203255,2,0,L|314:276,1,113.999996520996
256,112,203594,1,8,0:0:0:0:
256,320,203763,1,0,0:0:0:0:
256,88,203932,6,0,P|304:48|368:48,1,113.999996520996,4|0,0:0|0:0,0:0:0:0:
464,48,204271,1,8,0:0:0:0:
352,168,204440,2,0,P|376:224|488:152,1,227.999993041992
256,88,204949,1,0,0:0:0:0:
168,256,205118,5,0,0:0:0:0:
168,256,205203,1,0,0:0:0:0:
168,256,205287,1,8,0:0:0:0:
168,256,205372,1,8,0:0:0:0:
168,256,205457,2,0,P|120:224|104:168,1,113.999996520996,4|0,0:0|0:0,0:0:0:0:
216,160,205796,2,8,L|192:104,1,56.9999982604981
216,160,205965,2,0,P|272:200|280:256,1,113.999996520996
256,352,206304,1,12,0:0:0:0:
392,288,206473,1,0,0:0:0:0:
281,241,206643,6,0,P|328:184|376:168,1,113.999996520996,4|0,0:0|0:0,0:0:0:0:
472,128,206981,1,8,0:0:0:0:
336,48,207151,1,0,0:0:0:0:
416,40,207320,2,0,P|408:88|344:128,1,113.999996520996
153,126,207659,2,0,P|107:94|96:40,1,113.999996520996,8|0,0:0|0:0,0:0:0:0:
256,16,207998,2,0,B|272:40|255:78|255:78|240:120|256:144,1,113.999996520996
256,240,208336,1,8,0:0:0:0:
256,240,208506,1,0,0:0:0:0:
200,344,208675,2,0,P|256:360|312:344,1,113.999996520996
256,240,209014,2,0,P|201:226|147:242,1,113.999996520996
56,312,209353,5,8,0:0:0:0:
32,282,209438,1,0,0:0:0:0:
19,246,209522,1,0,0:0:0:0:
18,208,209607,1,0,0:0:0:0:
29,172,209692,1,8,0:0:0:0:
50,141,209776,1,0,0:0:0:0:
80,120,209861,2,0,P|104:104|136:96,1,56.9999982604981
224,152,210030,2,0,P|264:160|296:152,1,56.9999982604981,8|0,0:0|0:0,0:0:0:0:
376,96,210200,2,0,P|432:128|456:176,1,113.999996520996,8|2,0:0|0:0,0:0:0:0:
256,240,210539,6,0,P|184:248|240:352,1,227.999993041992,4|0,0:0|0:0,0:0:0:0:
384,352,211047,2,0,P|400:304|392:240,1,113.999996520996,8|0,0:0|0:0,0:0:0:0:
264,129,211386,2,0,P|248:183|256:240,1,113.999996520996
328,88,211724,2,0,P|288:56|224:64,1,113.999996520996,8|0,0:0|0:0,0:0:0:0:
72,232,212063,6,0,P|48:168|56:112,1,113.999996520996,12|0,0:0|0:0,0:0:0:0:
144,192,212402,1,0,0:0:0:0:
235,123,212571,2,0,P|238:180|216:232,1,113.999996520996,12|0,0:0|0:0,0:0:0:0:
136,320,212910,1,0,0:0:0:0:
324,234,213079,2,0,P|270:218|216:232,1,113.999996520996,12|0,0:0|0:0,0:0:0:0:
368,336,213418,1,0,0:0:0:0:
464,176,213588,2,0,P|416:144|352:136,1,113.999996520996,12|0,0:0|0:0,0:0:0:0:
216,232,213926,1,0,0:0:0:0:
256,40,214096,2,0,P|200:24|144:48,1,113.999996520996,12|0,0:0|0:0,0:0:0:0:
216,232,214435,2,0,P|272:248|328:224,1,113.999996520996,12|0,0:0|0:0,0:0:0:0:
152,120,214773,6,0,P|120:168|112:224,1,113.999996520996,12|0,0:0|0:0,0:0:0:0:
256,328,215112,1,0,0:0:0:0:
360,120,215282,2,0,P|392:168|400:224,1,113.999996520996,12|0,0:0|0:0,0:0:0:0:
256,40,215620,1,0,0:0:0:0:
72,104,215790,2,0,P|104:56|160:40,1,113.999996520996,12|0,0:0|0:0,0:0:0:0:
256,192,216128,1,0,0:0:0:0:
440,104,216298,2,0,P|408:56|352:40,1,113.999996520996,12|0,0:0|0:0,0:0:0:0:
256,240,216637,1,0,0:0:0:0:
72,104,216806,2,0,P|40:152|32:216,1,113.999996520996,12|0,0:0|0:0,0:0:0:0:
480,206,217145,2,0,P|471:150|440:104,1,113.999996520996,12|0,0:0|0:0,0:0:0:0:
280,40,217484,5,12,0:0:0:0:
246,48,217568,1,0,0:0:0:0:
219,69,217653,1,0,0:0:0:0:
203,99,217738,1,0,0:0:0:0:
200,134,217822,1,0,0:0:0:0:
213,166,217907,1,0,0:0:0:0:
232,200,217992,2,0,L|272:240,1,56.9999982604981,12|0,0:0|0:0,0:0:0:0:
200,247,218161,5,0,0:0:0:0:
169,263,218246,1,0,0:0:0:0:
134,266,218330,1,0,0:0:0:0:
101,258,218415,1,0,0:0:0:0:
72,240,218500,2,0,L|24:208,1,56.9999982604981,12|0,0:0|0:0,0:0:0:0:
128,197,218669,5,0,0:0:0:0:
146,168,218754,1,0,0:0:0:0:
155,134,218838,1,0,0:0:0:0:
156,100,218923,1,0,0:0:0:0:
148,66,219008,2,0,L|128:8,1,56.9999982604981,12|0,0:0|0:0,0:0:0:0:
219,69,219178,5,0,0:0:0:0:
252,88,219262,1,0,0:0:0:0:
289,97,219347,1,0,0:0:0:0:
326,96,219432,1,0,0:0:0:0:
368,88,219516,2,0,L|424:72,3,56.9999982604981,12|0|0|0,0:0|0:0|0:0|0:0,0:0:0:0:
408,192,219855,2,0,L|352:168,3,56.9999982604981,12|0|0|0,0:0|0:0|0:0|0:0,0:0:0:0:
312,232,220194,5,12,0:0:0:0:
339,262,220278,1,0,0:0:0:0:
342,304,220363,1,0,0:0:0:0:
318,337,220448,1,8,0:0:0:0:
278,349,220533,2,8,L|216:320,1,56.9999982604981
192,216,220702,2,0,L|256:248,1,56.9999982604981,12|0,0:0|0:0,0:0:0:0:
136,288,220871,5,0,0:0:0:0:
103,267,220955,1,8,0:0:0:0:
82,236,221040,1,8,0:0:0:0:
73,199,221125,1,8,0:0:0:0:
80,162,221210,2,8,L|96:104,1,56.9999982604981,12|0,0:0|0:0,0:0:0:0:
192,80,221380,2,0,L|208:144,1,56.9999982604981
306,135,221549,6,8,L|320:80,1,56.9999982604981,0|0,0:0|0:0,0:0:0:0:
416,104,221719,2,0,L|431:159,1,56.9999982604981,12|0,0:0|0:0,0:0:0:0:
448,264,221888,1,8,0:0:0:0:
424,302,221972,1,8,0:0:0:0:
389,331,222057,1,8,0:0:0:0:
346,345,222142,1,8,0:0:0:0:
300,343,222227,6,8,L|232:328,1,56.9999982604981,12|0,0:0|0:0,0:0:0:0:
192,216,222396,6,0,L|260:231,1,56.9999982604981,8|8,0:0|0:0,0:0:0:0:
306,135,222565,2,8,L|248:120,1,56.9999982604981,12|8,0:0|0:0,0:0:0:0:
416,104,222735,2,8,L|471:117,1,56.9999982604981
264,16,222904,1,12,0:0:0:0:
256,192,229717,12,0,232427,0:0:0:0:
160,136,233783,6,0,L|200:232,1,95,4|0,0:0|0:0,0:0:0:0:
315,223,234121,2,0,L|352:136,1,95,8|0,0:0|0:0,0:0:0:0:
256,104,234460,1,0,0:0:0:0:
256,296,234630,1,0,0:0:0:0:
304,216,234799,2,0,P|256:208|200:224,1,95,8|0,0:0|0:0,0:0:0:0:
112,272,235138,5,0,0:0:0:0:
256,296,235307,1,0,0:0:0:0:
160,136,235476,2,0,P|112:128|64:136,1,95,8|0,0:0|0:0,0:0:0:0:
112,208,235815,1,0,0:0:0:0:
112,56,235985,1,0,0:0:0:0:
352,136,236154,2,0,P|400:144|448:136,1,95,8|0,0:0|0:0,0:0:0:0:
400,64,236493,5,0,0:0:0:0:
400,216,236662,1,0,0:0:0:0:
256,72,236832,2,0,P|248:120|256:168,1,95,8|0,0:0|0:0,0:0:0:0:
344,312,237170,1,0,0:0:0:0:
400,216,237340,1,0,0:0:0:0:
256,280,237509,2,0,P|208:288|160:280,1,95,8|0,0:0|0:0,0:0:0:0:
144,272,237763,1,0,0:0:0:0:
128,264,237848,1,0,0:0:0:0:
192,192,238017,5,0,0:0:0:0:
256,104,238187,2,0,P|209:96|162:103,1,95,8|0,0:0|0:0,0:0:0:0:
144,112,238441,1,0,0:0:0:0:
128,120,238526,1,0,0:0:0:0:
64,192,238695,1,0,0:0:0:0:
208,336,238864,2,0,P|256:352|304:336,1,95,8|0,0:0|0:0,0:0:0:0:
304,48,239203,6,0,P|256:32|208:48,1,95,8|0,0:0|0:0,0:0:0:0:
320,192,239542,2,0,P|368:208|416:192,1,95,8|0,0:0|0:0,0:0:0:0:
192,192,239881,2,0,P|144:176|96:192,1,95,8|0,0:0|0:0,0:0:0:0:
368,136,240219,2,0,L|448:80,1,95,8|0,0:0|0:0,0:0:0:0:
144,248,240558,6,0,L|64:304,1,95,8|0,0:0|0:0,0:0:0:0:
256,104,240897,2,0,L|256:0,1,95,8|0,0:0|0:0,0:0:0:0:
256,280,241236,2,0,L|256:384,1,95,8|0,0:0|0:0,0:0:0:0:
304,192,241575,2,0,P|256:176|208:192,1,95,8|0,0:0|0:0,0:0:0:0:
144,248,241913,5,4,0:0:0:0:
368,248,242083,1,8,0:0:0:0:
256,280,242252,1,8,0:0:0:0:
256,104,242422,1,8,0:0:0:0:
160,144,242591,5,8,0:0:0:0:
352,144,242760,1,8,0:0:0:0:
256,104,242930,1,8,0:0:0:0:
256,192,243099,1,8,0:0:0:0:
96,160,243268,5,8,0:0:0:0:
416,160,243438,1,8,0:0:0:0:
256,344,243607,1,8,0:0:0:0:
368,248,243777,1,8,0:0:0:0:
144,248,243946,5,8,0:0:0:0:
352,64,244115,1,8,0:0:0:0:
160,64,244285,1,8,0:0:0:0:
256,264,244454,1,8,0:0:0:0:
80,80,244624,5,8,0:0:0:0:
432,80,244793,1,8,0:0:0:0:
96,160,244962,1,8,0:0:0:0:
416,160,245132,1,8,0:0:0:0:
160,64,245301,5,8,0:0:0:0:
368,248,245471,1,8,0:0:0:0:
352,64,245640,1,8,0:0:0:0:
144,248,245809,1,8,0:0:0:0:
256,32,245979,5,8,0:0:0:0:
448,240,246148,1,8,0:0:0:0:
64,240,246318,1,8,0:0:0:0:
336,144,246487,1,8,0:0:0:0:
176,144,246656,5,8,0:0:0:0:
256,272,246826,1,8,0:0:0:0:
256,176,246995,1,8,0:0:0:0:
256,176,247334,5,4,0:0:0:0:
448,88,250044,6,8,L|464:40,2,47.5
256,232,250552,1,0,0:0:0:0:
64,88,250722,2,8,L|48:40,2,47.5
256,280,251230,1,0,0:0:0:0:
336,112,251399,6,8,P|344:80|336:40,2,63.3333333333333,8|8|8,0:0|0:0|0:0,0:0:0:0:
256,72,251738,2,8,L|256:8,2,63.3333333333333
176,112,252077,2,0,P|168:80|176:40,2,63.3333333333333
256,152,252416,2,0,P|240:176|208:200,1,63.3333333333333
176,288,252670,1,0,0:0:0:0:
256,352,252754,6,0,P|360:352|440:240,1,246.999988693238,4|8,0:0|0:0,0:0:0:0:
328,192,253263,1,0,0:0:0:0:
439,139,253432,2,0,P|374:39|256:32,1,246.999988693238,0|8,0:0|0:0,0:0:0:0:
224,128,253940,2,0,B|256:168|328:192|328:192|256:216|216:264,1,246.999988693238
144,352,254448,5,8,0:0:0:0:
184,192,254618,1,8,0:0:0:0:
184,192,254702,1,8,0:0:0:0:
184,192,254787,1,8,0:0:0:0:
32,264,254956,1,0,0:0:0:0:
80,152,255126,2,0,P|80:112|16:64,1,123.499994346619,8|0,0:0|0:0,0:0:0:0:
136,16,255465,6,0,P|256:56|368:16,1,246.999988693238,4|8,0:0|0:0,0:0:0:0:
472,88,255973,1,0,0:0:0:0:
360,144,256142,2,0,B|376:184|416:216|472:216|472:216|496:256|448:312,1,246.999988693238,0|8,0:0|0:0,0:0:0:0:
272,312,256650,2,0,B|224:256|248:216|248:216|304:216|344:184|360:144,1,246.999988693238
248,80,257159,2,0,B|224:112|224:144|224:144|184:152|176:208,1,123.499994346619,8|0,0:0|0:0,0:0:0:0:
192,336,257497,2,0,B|168:304|168:272|168:272|128:264|120:208,1,123.499994346619
81,118,257836,1,8,0:0:0:0:
113,92,257921,1,8,0:0:0:0:
145,65,258006,1,8,0:0:0:0:
176,40,258090,1,8,0:0:0:0:
200,16,258175,6,0,P|280:8|296:144,1,246.999988693238,4|8,0:0|0:0,0:0:0:0:
200,224,258683,2,0,P|248:280|392:216,1,246.999988693238
248,80,259191,1,8,0:0:0:0:
152,160,259361,2,0,B|112:192|112:240|136:272|136:272|128:288,2,123.499994346619
200,224,259869,1,8,0:0:0:0:
72,104,260038,2,0,P|136:64|192:72,2,123.499994346619
304,80,260546,1,8,0:0:0:0:
176,8,260716,1,0,0:0:0:0:
72,104,260885,6,0,B|56:176|64:224|64:224|128:224|160:304,1,246.999988693238,4|8,0:0|0:0,0:0:0:0:
256,168,261393,1,0,0:0:0:0:
354,297,261563,6,0,B|384:224|448:224|448:224|456:176|440:104,1,246.999988693238,0|8,0:0|0:0,0:0:0:0:
344,24,262071,5,0,0:0:0:0:
256,168,262240,1,8,0:0:0:0:
256,168,262325,1,8,0:0:0:0:
256,168,262410,1,8,0:0:0:0:
168,24,262579,5,0,0:0:0:0:
80,128,262749,1,8,0:0:0:0:
80,128,262833,1,8,0:0:0:0:
80,128,262918,1,8,0:0:0:0:
168,256,263087,1,0,0:0:0:0:
256,128,263257,1,8,0:0:0:0:
296,122,263341,1,8,0:0:0:0:
335,135,263426,1,8,0:0:0:0:
362,164,263511,1,8,0:0:0:0:
384,200,263595,6,0,P|376:288|248:264,1,246.999988693238,4|8,0:0|0:0,0:0:0:0:
256,128,264104,1,0,0:0:0:0:
168,40,264273,2,0,P|96:32|0:168,1,246.999988693238,0|8,0:0|0:0,0:0:0:0:
136,192,264781,2,0,P|256:152|368:192,1,246.999988693238
464,264,265289,2,0,P|416:320|400:376,1,123.499994346619,8|0,0:0|0:0,0:0:0:0:
256,304,265628,2,0,L|256:176,1,123.499994346619
48,264,265967,2,0,P|96:320|112:376,1,123.499994346619,8|0,0:0|0:0,0:0:0:0:
192,272,266306,6,0,P|288:240|304:360,1,246.999988693238,4|8,0:0|0:0,0:0:0:0:
184,344,266814,2,0,P|120:288|240:216,1,246.999988693238
336,240,267322,1,8,0:0:0:0:
200,128,267491,1,0,0:0:0:0:
336,16,267661,1,12,0:0:0:0:
200,240,268338,6,0,P|256:280|312:232,2,142.5,8|0|0,0:0|0:0|0:0,0:0:0:0:
200,128,269016,6,0,P|256:64|304:136,1,190,4|0,0:0|0:0,0:0:0:0:
256,192,269524,1,2,0:0:0:0:
144,192,269694,2,0,P|136:272|232:304,1,190,0|0,0:0|0:0,0:0:0:0:
312,272,270202,1,2,0:0:0:0:
384,216,270371,2,0,P|432:200|472:216,1,95
471,215,270625,1,2,0:0:0:0:
471,215,270710,1,2,0:0:0:0:
432,304,270879,1,0,0:0:0:0:
312,272,271049,2,0,P|256:256|168:280,2,142.5,2|0|2,0:0|0:0|0:0,0:0:0:0:
384,216,271726,6,0,P|328:184|192:176,1,190,2|0,0:0|0:0,0:0:0:0:
104,128,272234,1,2,0:0:0:0:
104,128,272319,1,2,0:0:0:0:
104,128,272404,2,0,P|144:96|200:104,1,95
256,32,272743,1,0,0:0:0:0:
326,97,272912,2,0,P|372:97|408:128,1,95,2|0,0:0|0:0,0:0:0:0:
336,192,273251,5,8,0:0:0:0:
336,192,273335,1,8,0:0:0:0:
336,192,273420,1,8,0:0:0:0:
256,136,273590,1,0,0:0:0:0:
176,192,273759,1,0,0:0:0:0:
176,192,273928,1,0,0:0:0:0:
256,248,274098,2,0,P|216:280|168:288,1,95,8|0,0:0|0:0,0:0:0:0:
256,136,274437,6,0,P|304:112|400:136,1,142.5,4|8,0:0|0:0,0:0:0:0:
408,144,274775,1,8,0:0:0:0:
176,192,274945,2,0,P|152:136|224:40,1,190
312,32,275453,1,8,0:0:0:0:
256,136,275622,1,0,0:0:0:0:
336,216,275792,6,0,P|304:272|232:296,1,142.5,4|8,0:0|0:0,0:0:0:0:
208,288,276130,1,8,0:0:0:0:
256,136,276300,1,0,0:0:0:0:
176,192,276469,1,8,0:0:0:0:
256,40,276639,1,0,0:0:0:0:
400,144,276808,1,8,0:0:0:0:
400,144,276893,1,8,0:0:0:0:
400,144,276977,1,8,0:0:0:0:
400,144,277062,1,8,0:0:0:0:
400,144,277147,6,8,L|440:120,1,47.5
376,48,277316,2,8,L|336:72,1,47.5
296,200,277486,2,8,L|336:176,1,47.5
272,104,277655,2,8,L|232:128,1,47.5
192,264,277824,2,8,L|232:240,1,47.5
168,168,277994,2,8,L|128:192,1,47.5
80,280,278163,5,0,0:0:0:0:
90,316,278248,1,0,0:0:0:0:
114,345,278333,1,0,0:0:0:0:
148,361,278417,1,0,0:0:0:0:
192,368,278502,6,8,L|240:368,1,47.5
304,272,278671,2,8,L|256:288,1,47.5
360,336,278841,2,8,L|400:296,1,47.5
400,176,279010,2,0,L|352:208,1,47.5
472,232,279179,5,0,0:0:0:0:
484,202,279264,1,0,0:0:0:0:
487,171,279349,1,0,0:0:0:0:
481,140,279434,1,0,0:0:0:0:
466,112,279518,1,0,0:0:0:0:
443,90,279603,1,0,0:0:0:0:
415,76,279688,1,0,0:0:0:0:
384,70,279772,1,0,0:0:0:0:
344,80,279857,6,0,P|256:112|168:72,1,190,4|8,0:0|0:0,0:0:0:0:
15,192,280365,2,0,P|135:167|256:192,1,246.999988693238,4|8,0:0|0:0,0:0:0:0:
376,344,280873,2,0,P|312:368|184:344,1,185.249991519928,4|8,0:0|0:0,0:0:0:0:
160,328,281212,1,8,0:0:0:0:
256,192,281382,2,0,P|312:160|224:48,1,246.999988693238,4|8,0:0|0:0,0:0:0:0:
128,112,281890,2,0,P|64:88|32:40,1,123.499994346619,12|0,0:0|0:0,0:0:0:0:
128,272,282229,2,0,P|64:296|32:344,1,123.499994346619,12|0,0:0|0:0,0:0:0:0:
256,352,282567,6,0,B|256:288|224:264|224:264|144:208|208:120,1,246.999988693238,4|0,0:0|0:0,0:0:0:0:
256,192,283075,1,8,0:0:0:0:
256,32,283245,2,0,B|256:96|288:120|288:120|368:176|304:264,1,246.999988693238,4|8,0:0|0:0,0:0:0:0:
64,280,283922,2,0,P|40:224|72:176,1,123.499994346619,0|8,0:0|0:0,0:0:0:0:
184,232,284261,1,0,0:0:0:0:
144,112,284431,1,8,0:0:0:0:
144,112,284515,1,8,0:0:0:0:
144,112,284600,2,0,P|208:128|264:112,1,123.499994346619
390,241,284939,2,0,P|331:224|272:240,1,123.499994346619
352,336,285278,6,0,P|410:352|448:336,1,95,4|0,0:0|0:0,0:0:0:0:
480,256,285616,2,0,P|488:208|464:160,1,95,8|0,0:0|0:0,0:0:0:0:
392,112,285955,1,0,0:0:0:0:
392,112,286125,1,0,0:0:0:0:
352,32,286294,2,0,P|400:24|448:40,1,95,8|0,0:0|0:0,0:0:0:0:
392,112,286633,6,0,P|344:120|296:104,1,95
216,72,286971,1,8,0:0:0:0:
256,192,287141,1,0,0:0:0:0:
176,288,287310,2,0,P|160:240|176:192,1,95
340,198,287649,2,0,P|351:243|336:288,1,95,8|0,0:0|0:0,0:0:0:0:
176,288,287988,5,0,0:0:0:0:
176,144,288157,1,0,0:0:0:0:
344,144,288327,1,8,0:0:0:0:
344,288,288496,1,0,0:0:0:0:
128,213,288665,1,0,0:0:0:0:
228,59,288835,1,0,0:0:0:0:
408,176,289004,1,8,0:0:0:0:
308,329,289174,1,0,0:0:0:0:
176,144,289343,5,8,0:0:0:0:
408,176,289512,1,8,0:0:0:0:
128,213,289682,1,8,0:0:0:0:
400,104,289851,1,8,0:0:0:0:
96,288,290021,1,8,0:0:0:0:
256,48,290190,1,8,0:0:0:0:
256,336,290359,1,8,0:0:0:0:
256,192,290529,1,8,0:0:0:0:
