osu file format v12

[General]
AudioFilename: 03 Hero.mp3
AudioLeadIn: 0
PreviewTime: 106367
Countdown: 0
SampleSet: Soft
StackLeniency: 0.7
Mode: 0
LetterboxInBreaks: 1
WidescreenStoryboard: 0

[Editor]
DistanceSpacing: 0.8
BeatDivisor: 4
GridSize: 4

[Metadata]
Title:Hero
TitleUnicode:ヒーロー
Artist:supercell
ArtistUnicode:supercell
Creator:Pizza Kun
Version:Easy
Source:
Tags:ryo nagi Today Is A Beautiful Day Aoharu
BeatmapID:325948
BeatmapSetID:128818

[Difficulty]
HPDrainRate:1
CircleSize:2
OverallDifficulty:2
ApproachRate:2
SliderMultiplier:0.7
SliderTickRate:1

[Events]
//Background and Video events
0,0,"BG.jpg",0,0
//Break Periods
2,46908,49216
2,86205,93967
2,130955,133261
2,174319,183400
2,223105,229512
2,247534,249839
//Storyboard Layer 0 (Background)
//Storyboard Layer 1 (Fail)
//Storyboard Layer 2 (Pass)
//Storyboard Layer 3 (Foreground)
//Storyboard Sound Samples
//Background Colour Transformations
3,100,163,162,255

[TimingPoints]
607,338.983050847458,4,1,0,70,1,0
11454,-100,4,2,0,70,0,0
33149,-100,4,2,1,70,0,0
33827,-100,4,2,0,70,0,0
34166,-100,4,2,1,70,0,0
35183,-100,4,2,0,70,0,0
35522,-100,4,2,1,70,0,0
52132,-100,4,2,1,70,0,1
52810,-100,4,2,0,70,0,1
53149,-100,4,2,1,70,0,1
55522,-100,4,2,0,70,0,1
55861,-100,4,2,1,70,0,1
58234,-100,4,2,0,70,0,1
58573,-100,4,2,1,70,0,1
63657,-100,4,2,0,70,0,1
63996,-100,4,2,1,70,0,1
66369,-100,4,2,0,70,0,1
66708,-100,4,2,1,70,0,1
67047,-100,4,2,1,70,0,0
67053,338.983050847458,4,2,1,70,1,0
67730,-100,4,2,1,70,0,0
68069,-100,4,2,2,70,0,0
68408,-100,4,2,1,70,0,0
69764,-100,4,2,0,70,0,0
73154,-100,4,2,1,70,0,0
73832,-100,4,2,1,70,0,1
79934,-100,4,2,2,70,0,1
80103,-100,4,2,1,70,0,1
84680,-100,4,2,1,70,0,0
95527,-100,4,2,0,70,0,0
103653,338.783050847458,4,2,1,70,1,0
103653,-100,4,2,0,70,0,0
117204,-100,4,2,1,70,0,0
117881,-100,4,2,0,70,0,0
118220,-100,4,2,1,70,0,0
119237,-100,4,2,0,70,0,0
119564,-100,4,2,1,70,0,0
136176,-100,4,2,1,70,0,1
136853,-100,4,2,0,70,0,1
137192,-100,4,2,1,70,0,1
139564,-100,4,2,0,70,0,1
139902,-100,4,2,1,70,0,1
142274,-100,4,2,0,70,0,1
142951,-100,4,2,1,70,0,1
144306,-100,4,2,0,70,0,1
144645,-100,4,2,1,70,0,1
147694,-100,4,2,0,70,0,1
148033,-100,4,2,1,70,0,1
150405,-100,4,2,0,70,0,1
150743,-100,4,2,1,70,0,1
151082,-100,4,2,1,70,0,0
152437,-100,4,2,0,70,0,0
162770,-100,4,2,1,70,0,0
185299,-100,4,2,0,70,0,0
185638,-100,4,2,1,70,0,0
185977,-100,4,2,0,70,0,0
186993,-100,4,2,1,70,0,0
187332,-100,4,2,0,70,0,0
188348,-100,4,2,1,70,0,0
188687,-100,4,2,0,70,0,0
189703,-100,4,2,1,70,0,0
195801,-100,4,2,1,70,0,1
196479,-100,4,2,0,70,0,1
196818,-100,4,2,1,70,0,1
201900,-100,4,2,0,70,0,1
202238,-100,4,2,1,70,0,1
204610,-100,4,2,0,70,0,1
204949,-100,4,2,1,70,0,1
210708,-100,4,2,0,70,0,1
211386,-100,4,2,1,70,0,1
212402,-100,4,2,0,70,0,1
212571,-100,4,2,1,70,0,1
213418,-100,4,2,0,70,0,1
213588,-100,4,2,1,70,0,1
215112,-100,4,2,0,70,0,1
215282,-100,4,2,1,70,0,1
216128,-100,4,2,0,70,0,1
216298,-100,4,2,1,70,0,1
222942,338.783050847458,4,2,2,70,1,1
222942,-100,4,2,1,70,0,0
231072,-100,4,2,1,5,0,0
233783,-100,4,2,1,70,0,0
234460,-100,4,2,0,70,0,0
234799,-100,4,2,1,70,0,0
235815,-100,4,2,0,70,0,0
236154,-100,4,2,1,70,0,0
251484,-100,4,2,0,10,0,0
252754,-100,4,2,1,70,0,1
256142,-100,4,2,0,70,0,1
256481,-100,4,2,1,70,0,1
264273,-100,4,2,0,70,0,1
264612,-100,4,2,1,70,0,1
266983,-100,4,2,0,70,0,1
267322,-100,4,2,1,70,0,1
267661,-100,4,2,1,70,0,0
270710,-100,4,2,0,70,0,0
271387,-100,4,2,1,70,0,0
273081,-100,4,2,0,70,0,0
274098,-100,4,2,1,70,0,0
274437,-100,4,2,1,70,0,1
281890,-100,4,2,2,70,0,1
282229,-100,4,2,1,70,0,1
283245,-100,4,2,0,70,0,1
283584,-100,4,2,1,70,0,1
286633,-100,4,2,0,70,0,1
286971,-100,4,2,1,70,0,1
290529,-100,4,2,1,70,0,0

[Colours]
Combo1 : 173,209,191
Combo2 : 5,135,64

[HitObjects]
160,240,11454,2,0,P|256:328|344:240,2,280,4|0|2,0:0|0:0|0:0,0:0:0:0:
256,176,14844,1,0,0:0:0:0:
176,96,15522,2,0,P|112:64|56:96,1,140,2|0,0:0|0:0,0:0:0:0:
56,208,16878,6,0,B|96:248|48:328|48:328|120:280|192:312,1,280,2|2,0:0|0:0,0:0:0:0:
256,216,18912,1,0,0:0:0:0:
321,311,19590,2,0,B|392:280|464:328|464:328|416:248|456:208,1,280,2|0,0:0|0:0,0:0:0:0:
496,104,21623,1,0,0:0:0:0:
392,56,22301,6,0,P|336:80|256:48,1,140,4|0,0:0|0:0,0:0:0:0:
120,152,23657,2,0,P|176:128|256:160,1,140,2|0,0:0|0:0,0:0:0:0:
328,232,25013,2,0,P|368:264|448:232,2,140,2|0|2,0:0|0:0|0:0,0:0:0:0:
256,320,27047,1,2,0:0:0:0:
184,232,27725,6,0,P|144:264|64:232,2,140,2|0|2,0:0|0:0|0:0,0:0:0:0:
256,144,29759,1,0,0:0:0:0:
128,64,30437,2,0,P|256:16|392:72,1,280,2|0,0:0|0:0,0:0:0:0:
456,152,32471,1,2,0:0:0:0:
416,256,33149,6,0,P|392:312|392:360,2,105,4|0|8,0:0|0:0|0:0,0:0:0:0:
328,200,34505,2,0,B|328:136|328:136|256:176|184:136|184:136|184:200,1,280
184,256,36200,1,8,0:0:0:0:
72,260,36878,1,8,0:0:0:0:
20,156,37556,1,8,0:0:0:0:
48,120,37895,6,0,P|96:72|176:72,1,140,0|4,0:0|0:0,0:0:0:0:
256,136,39251,1,8,0:0:0:0:
347,67,39929,2,0,P|415:71|464:120,1,140,8|8,0:0|0:0,0:0:0:0:
368,168,41284,6,0,B|368:216|368:216|360:224|360:224|376:224|376:224|368:232|368:232|368:288,1,140,4|8,0:0|0:0,0:0:0:0:
256,309,42640,2,8,B|256:261|256:261|264:253|264:253|248:253|248:253|256:245|256:245|256:192,1,140
144,168,43996,2,8,B|144:216|144:216|152:224|152:224|136:224|136:224|144:232|144:232|144:288,1,140
256,192,45352,1,8,0:0:0:0:
256,192,45437,12,4,46708,0:0:0:0:
256,200,50776,5,2,0:0:0:0:
256,312,51454,5,8,0:0:0:0:
168,240,52132,6,0,P|176:144|336:144,1,280,4|0,0:0|0:0,0:0:0:0:
360,176,53827,1,8,0:0:0:0:
432,320,54505,1,8,0:0:0:0:
384,296,54844,6,0,B|328:264|244:290|244:290|160:320|96:288,1,280,4|0,0:0|0:0,0:0:0:0:
64,256,56539,1,8,0:0:0:0:
128,24,57217,1,8,0:0:0:0:
152,64,57556,6,0,B|176:104|224:104|256:152|256:152|288:104|336:104|368:64,1,280,4|0,0:0|0:0,0:0:0:0:
400,40,59251,1,8,0:0:0:0:
480,232,59929,1,8,0:0:0:0:
448,256,60268,2,0,B|392:272|352:248|328:216|328:216|312:216,1,140,4|0,0:0|0:0,0:0:0:0:
188,216,61623,2,0,B|184:216|184:216|160:248|120:272|64:256,1,140,4|0,0:0|0:0,0:0:0:0:
96,152,62979,6,0,P|216:104|304:216,1,280,4|0,0:0|0:0,0:0:0:0:
272,256,64674,1,8,0:0:0:0:
412,280,65352,1,8,0:0:0:0:
404,224,65691,2,0,P|436:168|468:144,2,105,0|0|8,0:0|0:0|0:0,0:0:0:0:
372,268,67047,1,12,0:0:0:0:
256,192,67730,6,0,B|208:176|208:176|160:200|160:200|128:184,1,140,8|12,0:0|0:0,0:0:0:0:
48,104,69086,1,0,0:0:0:0:
144,48,69764,2,0,P|184:64|280:48,1,140,2|0,0:0|0:0,0:0:0:0:
392,56,71120,2,0,P|368:112|384:192,1,140,2|0,0:0|0:0,0:0:0:0:
416,296,72476,2,0,P|352:320|280:296,1,140,2|0,0:0|0:0,0:0:0:0:
256,192,73832,12,8,76205,0:0:0:0:
256,192,76544,12,12,79256,0:0:0:0:
252,192,79764,6,0,P|204:176|140:192,1,105
200,304,80781,2,0,P|256:328|304:312,1,105,8|8,0:0|0:0,0:0:0:0:
344,288,81629,1,8,0:0:0:0:
376,240,81968,2,0,B|400:176|400:176|400:96,1,140,4|0,0:0|0:0,0:0:0:0:
256,56,83324,2,0,B|232:80|252:122|252:122|280:176|256:208,1,140,4|0,0:0|0:0,0:0:0:0:
200,280,84680,1,12,0:0:0:0:
256,192,95527,6,0,B|256:248|256:248|288:280|336:248,1,140,2|0,0:0|0:0,0:0:0:0:
360,144,96883,2,0,B|360:88|360:88|328:56|280:88,1,140,2|0,0:0|0:0,0:0:0:0:
176,128,98239,1,2,0:0:0:0:
96,208,98917,1,0,0:0:0:0:
72,96,99595,2,0,P|96:56|192:24,1,140,2|0,0:0|0:0,0:0:0:0:
232,32,100612,1,0,0:0:0:0:
288,40,100951,6,0,B|336:64|432:32|432:32|392:112|432:160,1,280,2|2,0:0|0:0,0:0:0:0:
368,248,102985,1,0,0:0:0:0:
280,176,103653,6,0,B|256:216|248:264|272:304|272:304|200:360|128:312,1,280
104,272,105346,1,0,0:0:0:0:
96,216,105685,1,2,0:0:0:0:
104,160,106024,1,0,0:0:0:0:
112,104,106363,6,0,B|112:48|112:48|168:64|208:48,1,140,2|0,0:0|0:0,0:0:0:0:
317,52,107718,2,0,B|344:64|400:48|400:48|400:104,1,140,2|0,0:0|0:0,0:0:0:0:
320,184,109073,2,0,P|256:160|192:184,2,140,2|0|2,0:0|0:0|0:0,0:0:0:0:
256,280,111106,1,0,0:0:0:0:
360,320,111783,6,0,B|400:312|456:328|456:328|448:280|464:216|464:216|440:200|392:192,1,280,2|0,0:0|0:0,0:0:0:0:
256,192,113816,1,0,0:0:0:0:
113,193,114494,2,0,B|72:200|48:216|48:216|64:280|56:328|56:328|112:312|152:320,1,280,2|2,0:0|0:0,0:0:0:0:
208,328,116187,1,0,0:0:0:0:
260,304,116526,1,2,0:0:0:0:
256,248,116865,1,0,0:0:0:0:
215,199,117204,6,0,P|193:153|198:102,2,105,4|0|8,0:0|0:0|0:0,0:0:0:0:
296,199,118559,2,0,P|318:153|312:102,2,105,0|0|8,0:0|0:0|0:0,0:0:0:0:
264,312,119914,2,0,P|232:328|136:280,1,140
116,240,120930,1,8,0:0:0:0:
104,184,121269,2,0,P|104:120|152:64,1,140
208,48,122286,1,8,0:0:0:0:
264,48,122624,6,8,P|288:80|256:168,1,140
208,200,123641,1,8,0:0:0:0:
200,264,123979,2,8,P|248:296|336:296,1,140
364,256,124996,1,8,0:0:0:0:
424,248,125335,2,0,P|456:184|424:120,1,140,4|0,0:0|0:0,0:0:0:0:
328,168,126690,2,0,P|288:120|304:40,1,140
256,192,128045,12,12,130755,0:0:0:0:
256,192,134821,5,8,0:0:0:0:
368,192,135498,1,8,0:0:0:0:
392,80,136176,6,0,P|256:104|112:80,1,280,4|0,0:0|0:0,0:0:0:0:
64,64,137870,1,8,0:0:0:0:
64,320,138547,1,8,0:0:0:0:
117,302,138886,2,0,P|254:279|391:303,1,280
440,320,140580,1,8,0:0:0:0:
296,188,141257,1,8,0:0:0:0:
336,192,141596,6,0,P|392:184|312:72,1,280,4|0,0:0|0:0,0:0:0:0:
256,96,143290,1,8,0:0:0:0:
198,70,143629,2,0,P|89:113|176:192,1,280
256,272,145662,2,0,B|256:312|256:312|248:320|248:320|264:320|264:320|256:328|256:328|256:360,2,105,8|8|8,0:0|0:0|0:0,0:0:0:0:
256,216,147017,6,0,B|336:248|392:208|392:208|360:144|408:80,1,280,4|0,0:0|0:0,0:0:0:0:
448,40,148711,1,8,0:0:0:0:
272,80,149388,1,8,0:0:0:0:
224,56,149727,2,0,P|160:56|128:240,1,280,4|4,0:0|0:0,0:0:0:0:
256,272,151760,5,2,0:0:0:0:
256,136,152437,2,0,B|256:180|256:180|320:184|360:232|368:312|296:352,1,280,4|0,0:0|0:0,0:0:0:0:
160,344,154470,6,0,P|112:312|104:232,1,140,2|4,0:0|0:0,0:0:0:0:
144,104,155825,1,0,0:0:0:0:
256,184,156503,2,0,B|256:144|256:144|264:104|256:72|256:72|256:40,2,140,2|0|4,0:0|0:0|0:0,0:0:0:0:
256,240,158197,6,0,P|360:280|440:220,1,210,0|4,0:0|0:0,0:0:0:0:
340,172,159890,1,4,0:0:0:0:
256,192,160568,12,8,162770,0:0:0:0:
416,104,163278,6,0,L|344:192,1,105,4|8,0:0|0:0,0:0:0:0:
272,120,164295,2,0,L|240:224,1,105,4|8,0:0|0:0,0:0:0:0:
176,304,165311,2,0,L|96:304,1,70,4|8,0:0|0:0,0:0:0:0:
32,304,165989,6,0,P|8:240|24:168,1,140,8|8,0:0|0:0,0:0:0:0:
128,80,167344,2,0,P|152:144|136:216,1,140,8|8,0:0|0:0,0:0:0:0:
40,88,168699,6,0,P|48:40|96:0,1,105,4|0,0:0|0:0,0:0:0:0:
216,72,169715,2,0,P|208:120|160:160,1,105,4|0,0:0|0:0,0:0:0:0:
64,184,170732,1,8,0:0:0:0:
64,256,171070,1,8,0:0:0:0:
256,192,171409,12,4,174119,0:0:0:0:
56,104,184960,6,0,B|96:64|192:96|192:96|288:128|336:96,1,280,4|0,0:0|0:0,0:0:0:0:
400,96,186654,1,0,0:0:0:0:
456,152,186993,2,0,P|480:216|456:296,1,140,8|4,0:0|0:0,0:0:0:0:
328,256,188348,6,0,P|264:216|208:240,1,140,8|0,0:0|0:0,0:0:0:0:
160,288,189365,1,0,0:0:0:0:
104,336,189703,1,8,0:0:0:0:
48,208,190381,6,8,L|48:136,1,70
136,80,191059,2,8,L|136:152,1,70
224,208,191736,2,8,L|224:136,1,70
312,80,192414,2,8,L|312:152,1,70
256,192,193091,12,4,195801,0:0:0:0:
264,144,196140,6,0,P|288:256|264:360,1,210,8|0,0:0|0:0,0:0:0:0:
200,336,197495,1,8,0:0:0:0:
136,320,197834,1,0,0:0:0:0:
80,280,198173,1,8,0:0:0:0:
64,208,198512,6,0,P|128:208|144:144,1,140
120,80,199528,1,8,0:0:0:0:
192,64,199867,2,0,P|224:96|304:64,1,140
376,56,200883,1,8,0:0:0:0:
440,88,201222,6,0,B|472:120|441:220|441:220|408:320|456:368,1,280,4|0,0:0|0:0,0:0:0:0:
344,344,202916,1,8,0:0:0:0:
240,344,203255,2,0,L|160:344,1,70,0|8,0:0|0:0,0:0:0:0:
72,344,203932,6,0,B|33:307|66:207|66:207|97:107|65:75,1,280,0|8,0:0|0:0,0:0:0:0:
256,40,205966,1,8,0:0:0:0:
184,160,206643,6,0,P|256:192|320:160,1,140,4|0,0:0|0:0,0:0:0:0:
368,128,207659,1,8,0:0:0:0:
432,152,207997,2,0,P|448:192|408:280,1,140
344,264,209014,1,8,0:0:0:0:
272,256,209353,2,0,B|240:232|185:262|185:262|136:288|88:264,1,175,0|4,0:0|0:0,0:0:0:0:
56,224,210539,2,0,P|104:144|56:88,1,175,4|0,0:0|0:0,0:0:0:0:
224,40,212063,6,8,B|224:144|224:144,1,105
320,184,213079,2,8,B|320:80|320:80,1,105
416,112,214096,2,8,B|416:192|416:192,1,70
416,256,214773,2,8,L|304:256,1,105
224,344,215790,2,8,L|329:344,1,105
224,256,216806,2,0,L|152:256,1,70,8|8,0:0|0:0,0:0:0:0:
256,192,217484,12,4,222905,0:0:0:0:
256,192,231072,12,0,232427,0:0:0:0:
256,192,233783,6,0,P|304:208|360:192,2,105,4|0|8,0:0|0:0|0:0,0:0:0:0:
200,152,235138,2,0,P|152:136|96:152,2,105,0|0|8,0:0|0:0|0:0,0:0:0:0:
200,224,236493,2,0,P|192:272|264:328,1,140
384,328,237848,2,0,P|440:291|438:224,1,140
376,96,239203,6,8,L|232:96,1,140
152,96,240219,1,8,0:0:0:0:
152,184,240558,2,8,L|296:184,1,140
384,184,241575,1,8,0:0:0:0:
256,192,241913,12,4,247334,0:0:0:0:
48,192,251399,6,0,L|200:192,1,140,8|0,0:0|0:0,0:0:0:0:
392,192,252754,6,0,P|432:152|400:80,1,140,12|0,0:0|0:0,0:0:0:0:
264,56,254110,2,0,P|224:96|256:168,1,140
312,208,255126,1,8,0:0:0:0:
352,264,255465,6,0,P|256:344|168:248,1,280,4|0,0:0|0:0,0:0:0:0:
184,184,257159,1,8,0:0:0:0:
56,112,257836,5,8,0:0:0:0:
56,176,258175,2,0,P|32:224|56:312,2,140,4|0|0,0:0|0:0|0:0,0:0:0:0:
188,104,260208,1,0,0:0:0:0:
304,40,260885,2,0,P|328:80|312:168,1,140,4|0,0:0|0:0,0:0:0:0:
196,232,262240,2,0,P|172:192|188:104,1,140,8|8,0:0|0:0,0:0:0:0:
256,136,263257,1,8,0:0:0:0:
320,104,263595,6,0,P|400:136|312:264,1,280,4|0,0:0|0:0,0:0:0:0:
272,256,265289,1,8,0:0:0:0:
168,168,265967,1,8,0:0:0:0:
104,192,266306,2,0,P|24:184|72:40,1,280,4|4,0:0|0:0,0:0:0:0:
240,64,268338,6,0,P|240:132|291:177,1,140,0|8,0:0|0:0,0:0:0:0:
424,224,269693,1,2,0:0:0:0:
304,288,270371,2,0,B|264:312|163:284|163:284|64:256|16:296,1,280
32,144,272404,1,0,0:0:0:0:
136,56,273081,6,0,P|208:88|256:56,1,140,2|0,0:0|0:0,0:0:0:0:
328,56,274098,1,8,0:0:0:0:
400,56,274437,2,0,L|400:200,1,140
280,272,275792,2,0,L|128:272,1,140
256,192,277147,12,4,279858,0:0:0:0:
448,192,280365,6,0,P|400:208|344:192,1,105
256,136,281382,2,0,P|176:112|88:136,1,175,0|8,0:0|0:0,0:0:0:0:
56,200,282567,2,0,P|56:264|240:296,1,280,4|0,0:0|0:0,0:0:0:0:
248,168,284600,1,8,0:0:0:0:
168,56,285278,6,0,P|96:80|56:136,1,140,4|0,0:0|0:0,0:0:0:0:
56,200,286294,2,8,P|112:232|184:200,1,140
248,168,287310,2,0,L|320:160,1,70,0|8,0:0|0:0,0:0:0:0:
256,192,287988,12,8,290528,0:0:0:0:
