osu file format v14

[General]
AudioFilename: Supercell - Hero.mp3
AudioLeadIn: 0
PreviewTime: 51465
Countdown: 0
SampleSet: Soft
StackLeniency: 0.7
Mode: 0
LetterboxInBreaks: 0
WidescreenStoryboard: 0

[Editor]
DistanceSpacing: 2.5
BeatDivisor: 4
GridSize: 4
TimelineZoom: 1.2

[Metadata]
Title:Hero (Cut Ver.)
TitleUnicode:Hero (Cut Ver.)
Artist:supercell
ArtistUnicode:supercell
Creator:-Inyafaze-
Version:Hero
Source:
Tags:today is a beautiful day yanaginagi ryo
BeatmapID:870679
BeatmapSetID:379254

[Difficulty]
HPDrainRate:7
CircleSize:4
OverallDifficulty:8
ApproachRate:9.2
SliderMultiplier:1.6
SliderTickRate:1

[Events]
//Background and Video events
0,0,"map bg.jpg",0,0
//Break Periods
//Storyboard Layer 0 (Background)
//Storyboard Layer 1 (Fail)
//Storyboard Layer 2 (Pass)
//Storyboard Layer 3 (Foreground)
//Storyboard Sound Samples

[TimingPoints]
492,338.696020321761,4,2,1,40,1,0
11668,338.696020321761,4,2,1,40,1,0
33006,-100,4,2,1,65,0,0
44183,-100,4,2,1,90,0,0
47062,-100,4,2,1,40,0,0
51635,-83.3333333333333,4,2,1,100,0,0
52311,-83.3333333333333,4,2,1,100,0,1
67892,-83.3333333333333,4,2,1,50,0,1
73989,-83.3333333333333,4,2,1,70,0,1
79407,-83.3333333333333,4,2,1,90,0,0
80424,339.996020321761,4,2,1,100,1,0
80424,-83.3333333333333,4,2,1,100,0,0
84843,340.496020321761,4,2,1,100,1,0
84843,-100,4,2,1,50,0,0

[Colours]
Combo1 : 255,255,128
Combo2 : 128,0,255
Combo3 : 255,128,0
Combo4 : 255,0,0

[HitObjects]
104,104,492,5,2,0:0:0:0:
200,160,661,1,0,0:0:0:0:
100,208,830,2,0,L|4:152,1,80
130,119,1169,2,0,L|226:175,1,80
164,268,1508,1,2,0:0:0:0:
224,96,1846,5,2,0:0:0:0:
328,140,2016,1,0,0:0:0:0:
296,248,2185,2,0,L|256:176,1,80
364,208,2524,2,0,L|404:280,1,80
312,344,2862,1,2,0:0:0:0:
96,56,3201,5,2,0:0:0:0:
192,116,3370,1,0,0:0:0:0:
232,220,3540,2,0,P|232:284|224:316,1,80
140,228,3878,2,0,P|134:188|136:148,1,80
216,68,4217,1,2,0:0:0:0:
424,160,4556,6,0,L|400:256,1,80,2|0,0:0|0:0,0:0:0:0:
296,212,4895,1,0,0:0:0:0:
256,108,5064,1,0,0:0:0:0:
160,164,5233,2,0,L|136:68,1,80
232,24,5572,1,2,0:0:0:0:
224,336,5911,6,0,P|264:336|312:320,1,80,2|0,0:0|0:0,0:0:0:0:
308,212,6249,1,0,0:0:0:0:
204,256,6419,1,0,0:0:0:0:
308,212,6588,2,0,P|324:172|324:124,1,80
292,28,6927,1,2,0:0:0:0:
168,56,7265,5,2,0:0:0:0:
140,164,7435,1,0,0:0:0:0:
160,272,7604,2,0,P|216:296|264:288,1,80
320,220,7943,2,0,P|264:196|216:204,1,80
160,272,8282,1,2,0:0:0:0:
392,144,8620,6,0,P|400:192|392:232,1,80,2|0,0:0|0:0,0:0:0:0:
284,240,8959,1,0,0:0:0:0:
184,192,9128,1,0,0:0:0:0:
228,88,9298,2,0,P|276:88|314:103,1,80
392,172,9636,1,2,0:0:0:0:
244,300,9975,6,0,L|132:300,1,80,2|0,0:0|0:0,0:0:0:0:
92,212,10314,2,0,L|167:183,1,80
248,108,10652,2,0,L|169:92,1,80
264,32,10991,1,2,0:0:0:0:
232,336,11330,6,0,B|200:304|200:264,1,80,2|0,0:0|0:0,0:0:0:0:
384,160,11668,6,0,B|448:240|384:328,1,160,8|0,0:0|0:0,0:0:0:0:
232,336,12176,1,0,0:0:0:0:
108,224,12345,2,0,P|108:160|120:136,1,80
284,128,12685,1,8,0:0:0:0:
412,232,12853,1,0,0:0:0:0:
252,280,13022,2,0,L|329:299,1,80,8|0,0:0|0:0,0:0:0:0:
428,160,13361,1,0,0:0:0:0:
428,160,13531,6,0,L|350:140,1,80
200,220,13870,1,0,0:0:0:0:
256,60,14039,2,0,P|320:60|360:76,1,80,8|0,0:0|0:0,0:0:0:0:
348,304,14377,5,8,0:0:0:0:
452,172,14546,1,0,0:0:0:0:
284,168,14716,1,0,0:0:0:0:
420,268,14885,1,0,0:0:0:0:
364,112,15054,1,0,0:0:0:0:
292,264,15224,1,0,0:0:0:0:
436,180,15393,2,0,P|454:132|438:88,1,80,8|0,0:0|0:0,0:0:0:0:
396,240,15732,2,0,P|378:288|394:332,1,80,8|0,0:0|0:0,0:0:0:0:
216,288,16071,2,0,L|128:268,1,80
224,124,16410,2,0,P|280:172|312:260,1,160,0|8,0:0|0:0,0:0:0:0:
112,112,17088,6,0,L|192:120,1,80,8|0,0:0|0:0,0:0:0:0:
400,240,17426,2,0,L|320:248,1,80
176,160,17765,1,0,0:0:0:0:
324,84,17934,1,0,0:0:0:0:
320,247,18104,1,8,0:0:0:0:
236,104,18273,1,0,0:0:0:0:
396,156,18442,1,8,0:0:0:0:
236,204,18612,1,0,0:0:0:0:
324,60,18781,2,0,P|364:72|396:92,1,80
460,248,19120,2,0,B|376:300|288:268,1,160,0|8,0:0|0:0,0:0:0:0:
120,136,19797,6,0,P|152:160|200:168,2,80,8|0|0,0:0|0:0|0:0,0:0:0:0:
264,44,20305,1,0,0:0:0:0:
340,196,20475,1,0,0:0:0:0:
196,280,20644,1,0,0:0:0:0:
116,132,20813,2,0,L|116:44,1,80,8|0,0:0|0:0,0:0:0:0:
260,112,21152,2,0,B|380:128|380:128|348:160,1,160,8|0,0:0|0:0,0:0:0:0:
172,228,21829,2,0,B|52:212|52:212|84:180,1,160,0|8,0:0|0:0,0:0:0:0:
79,184,22253,1,0,0:0:0:0:
80,185,22337,1,0,0:0:0:0:
232,72,22507,6,0,P|264:96|288:136,1,80,8|0,0:0|0:0,0:0:0:0:
200,272,22845,1,0,0:0:0:0:
164,108,23015,1,0,0:0:0:0:
316,180,23184,2,0,P|326:218|320:264,1,80
171,185,23523,2,0,P|160:146|166:100,1,80,8|0,0:0|0:0,0:0:0:0:
320,48,23862,5,8,0:0:0:0:
356,212,24031,1,0,0:0:0:0:
200,148,24200,1,0,0:0:0:0:
364,116,24370,2,0,L|444:172,1,80
388,324,24708,1,0,0:0:0:0:
224,292,24878,2,0,L|144:252,1,80,8|0,0:0|0:0,0:0:0:0:
152,256,25216,5,8,0:0:0:0:
256,124,25386,1,0,0:0:0:0:
308,284,25555,1,0,0:0:0:0:
148,336,25724,1,0,0:0:0:0:
216,184,25894,1,0,0:0:0:0:
380,220,26063,1,0,0:0:0:0:
260,336,26232,2,0,P|228:304|220:264,1,80,8|0,0:0|0:0,0:0:0:0:
224,104,26571,5,8,0:0:0:0:
376,320,26910,1,0,0:0:0:0:
224,216,27079,1,0,0:0:0:0:
224,216,27164,1,0,0:0:0:0:
224,216,27248,1,0,0:0:0:0:
300,64,27418,1,0,0:0:0:0:
364,220,27587,1,8,0:0:0:0:
224,124,27757,1,0,0:0:0:0:
392,116,27926,6,0,P|440:164|448:196,1,80,8|0,0:0|0:0,0:0:0:0:
372,324,28265,1,0,0:0:0:0:
328,164,28434,1,0,0:0:0:0:
272,320,28603,1,0,0:0:0:0:
416,236,28773,1,0,0:0:0:0:
288,128,28942,1,8,0:0:0:0:
208,276,29111,1,0,0:0:0:0:
368,332,29281,6,0,P|444:336|484:260,1,160,8|0,0:0|0:0,0:0:0:0:
340,192,29958,2,0,P|365:117|329:39,1,160,0|8,0:0|0:0,0:0:0:0:
136,160,30634,6,0,P|72:176|40:208,1,80,8|0,0:0|0:0,0:0:0:0:
160,292,30973,2,0,P|224:276|256:244,1,80
234,268,31312,1,0,0:0:0:0:
344,140,31482,1,0,0:0:0:0:
184,88,31652,1,8,0:0:0:0:
296,212,31821,1,0,0:0:0:0:
284,44,31990,5,8,0:0:0:0:
176,172,32160,1,0,0:0:0:0:
272,308,32329,2,0,P|344:300|376:276,1,80
416,140,32668,1,0,0:0:0:0:
248,136,32837,1,0,0:0:0:0:
340,276,33006,1,8,0:0:0:0:
344,44,33176,1,8,0:0:0:0:
344,44,33260,1,8,0:0:0:0:
344,44,33344,6,0,P|264:36|232:52,1,80,10|0,0:0|0:0,0:0:0:0:
80,200,33683,1,8,0:0:0:0:
276,352,33852,1,0,0:0:0:0:
416,148,34022,1,2,0:0:0:0:
180,224,34192,1,2,0:0:0:0:
416,148,34360,2,0,P|392:92|352:52,1,80,8|0,0:0|0:0,0:0:0:0:
180,224,34699,2,0,P|204:280|244:320,1,80,2|0,0:0|0:0,0:0:0:0:
460,348,35038,1,8,0:0:0:0:
328,136,35208,1,0,0:0:0:0:
180,336,35377,1,2,0:0:0:0:
404,228,35547,1,2,0:0:0:0:
160,192,35716,1,8,0:0:0:0:
348,352,35884,1,0,0:0:0:0:
468,136,36054,6,0,P|492:88|492:40,1,80,2|0,0:0|0:0,0:0:0:0:
292,204,36392,2,0,P|236:220|188:204,1,80,8|0,0:0|0:0,0:0:0:0:
418,75,36731,2,0,P|474:59|522:75,1,80,2|2,0:0|0:0,0:0:0:0:
424,300,37070,1,8,0:0:0:0:
280,100,37239,1,0,0:0:0:0:
424,300,37408,6,0,P|376:332|256:316,1,160,2|8,0:0|0:0,0:0:0:0:
276,156,38087,2,0,P|197:146|128:184,1,160,2|8,0:0|0:0,0:0:0:0:
216,304,38595,1,0,0:0:0:0:
360,120,38764,5,12,0:0:0:0:
376,304,38933,1,0,0:0:0:0:
256,164,39103,5,8,0:0:0:0:
444,240,39272,1,0,0:0:0:0:
264,284,39442,5,8,0:0:0:0:
400,160,39611,1,0,0:0:0:0:
232,200,39780,5,8,0:0:0:0:
440,300,39950,1,0,0:0:0:0:
224,328,40119,5,12,0:0:0:0:
440,208,40288,1,0,0:0:0:0:
184,216,40458,5,8,0:0:0:0:
388,352,40627,1,0,0:0:0:0:
160,304,40796,5,8,0:0:0:0:
348,140,40966,1,0,0:0:0:0:
100,124,41135,1,8,0:0:0:0:
320,232,41304,1,0,0:0:0:0:
352,80,41474,6,0,P|416:96|472:184,1,160,12|0,0:0|0:0,0:0:0:0:
320,232,41982,1,0,0:0:0:0:
192,328,42151,2,0,P|128:312|72:224,1,160,8|0,0:0|0:0,0:0:0:0:
320,232,42659,1,0,0:0:0:0:
208,120,42828,5,8,0:0:0:0:
424,220,42997,1,0,0:0:0:0:
284,24,43166,1,8,0:0:0:0:
272,320,43336,1,0,0:0:0:0:
460,92,43505,1,8,0:0:0:0:
188,212,43674,1,0,0:0:0:0:
432,272,43844,1,8,0:0:0:0:
244,44,44013,1,0,0:0:0:0:
344,328,44182,5,8,0:0:0:0:
80,212,44352,1,8,0:0:0:0:
348,180,44522,1,8,0:0:0:0:
88,356,44691,1,8,0:0:0:0:
208,80,44861,1,8,0:0:0:0:
452,224,45030,1,8,0:0:0:0:
176,308,45199,1,8,0:0:0:0:
324,48,45369,1,8,0:0:0:0:
448,316,45538,1,8,0:0:0:0:
152,216,45707,1,8,0:0:0:0:
436,88,45876,1,8,0:0:0:0:
328,356,46046,1,8,0:0:0:0:
216,92,46215,1,8,0:0:0:0:
488,192,46385,1,8,0:0:0:0:
256,352,46553,2,0,L|256:188,1,160,0|4,0:0|0:0,0:0:0:0:
192,112,47062,5,0,0:0:0:0:
72,220,47232,2,0,L|160:220,1,80
272,112,47570,2,0,L|176:112,1,80
360,208,47908,2,0,L|264:208,1,80
176,328,48247,2,0,L|188:164,1,160
176,328,49264,6,0,L|184:216,1,80
192,120,49602,1,0,0:0:0:0:
312,168,49771,1,0,0:0:0:0:
372,280,49940,2,0,L|259:274,1,80
176,328,50280,2,0,P|144:272|176:160,1,160
240,80,50788,1,0,0:0:0:0:
328,312,50957,5,8,0:0:0:0:
116,116,51127,1,8,0:0:0:0:
124,336,51635,5,8,0:0:0:0:
240,80,51804,1,8,0:0:0:0:
412,284,51972,2,0,P|408:344|300:300,1,191.999994140625,0|12,0:0|0:0,0:0:0:0:
156,160,52481,5,0,0:0:0:0:
316,52,52651,2,0,L|420:84,1,95.9999970703126,10|0,0:0|0:0,0:0:0:0:
112,176,52989,5,2,0:0:0:0:
300,128,53159,1,2,0:0:0:0:
384,300,53328,2,0,L|288:324,1,95.9999970703126,8|0,0:0|0:0,0:0:0:0:
176,168,53667,5,2,0:0:0:0:
64,324,53836,1,0,0:0:0:0:
244,260,54005,2,0,P|292:220|292:180,1,95.9999970703126,8|0,0:0|0:0,0:0:0:0:
120,108,54344,5,2,0:0:0:0:
244,260,54514,1,2,0:0:0:0:
428,204,54683,2,0,P|457:168|463:121,1,95.9999970703126,8|0,0:0|0:0,0:0:0:0:
276,172,55022,6,0,P|281:125|311:89,1,95.9999970703126,2|0,0:0|0:0,0:0:0:0:
368,272,55360,1,8,0:0:0:0:
180,312,55530,1,0,0:0:0:0:
152,136,55699,2,0,B|200:112|200:112|244:148,1,95.9999970703126,2|2,0:0|0:0,0:0:0:0:
100,276,56038,1,8,0:0:0:0:
232,138,56207,1,0,0:0:0:0:
336,300,56376,1,2,0:0:0:0:
168,208,56546,1,0,0:0:0:0:
344,152,56715,6,0,B|360:200|360:200|328:256,1,95.9999970703126,8|0,0:0|0:0,0:0:0:0:
248,340,56968,1,0,0:0:0:0:
248,340,57053,2,0,B|296:356|296:356|344:332,1,95.9999970703126,2|2,0:0|0:0,0:0:0:0:
480,208,57391,1,8,0:0:0:0:
336,76,57562,5,0,0:0:0:0:
336,76,57645,1,0,0:0:0:0:
336,76,57731,1,2,0:0:0:0:
168,168,57900,1,0,0:0:0:0:
336,260,58069,6,0,B|379:287|379:287|404:236,1,95.9999970703126,8|0,0:0|0:0,0:0:0:0:
448,60,58408,1,2,0:0:0:0:
312,192,58577,1,2,0:0:0:0:
148,96,58746,2,0,P|218:106|248:126,1,95.9999970703126,8|0,0:0|0:0,0:0:0:0:
332,332,59086,1,2,0:0:0:0:
238,118,59254,1,0,0:0:0:0:
440,256,59424,1,8,0:0:0:0:
200,304,59593,2,0,P|149:332|92:309,2,95.9999970703126,0|2|2,0:0|0:0|0:0,0:0:0:0:
136,144,60102,6,0,P|184:112|248:120,1,95.9999970703126,8|0,0:0|0:0,0:0:0:0:
396,192,60441,1,2,0:0:0:0:
212,240,60610,1,0,0:0:0:0:
376,336,60779,1,8,0:0:0:0:
452,160,60949,1,0,0:0:0:0:
272,224,61118,1,2,0:0:0:0:
460,264,61287,1,2,0:0:0:0:
336,116,61457,1,8,0:0:0:0:
316,304,61625,1,0,0:0:0:0:
172,224,61795,5,8,0:0:0:0:
172,224,61879,1,8,0:0:0:0:
172,224,61964,1,8,0:0:0:0:
304,84,62134,1,8,0:0:0:0:
432,176,62304,1,8,0:0:0:0:
440,192,62388,1,8,0:0:0:0:
444,212,62473,1,8,0:0:0:0:
444,232,62558,1,8,0:0:0:0:
440,252,62642,1,8,0:0:0:0:
220,160,62812,2,0,P|262:138|309:139,1,95.9999970703126,8|0,0:0|0:0,0:0:0:0:
328,320,63149,6,0,P|272:344|200:320,1,95.9999970703126,6|0,0:0|0:0,0:0:0:0:
144,172,63489,1,8,0:0:0:0:
320,92,63658,1,0,0:0:0:0:
272,280,63828,1,2,0:0:0:0:
196,104,63997,1,2,0:0:0:0:
384,140,64166,2,0,P|432:156|460:204,1,95.9999970703126,8|0,0:0|0:0,0:0:0:0:
308,316,64505,5,2,0:0:0:0:
272,128,64674,1,0,0:0:0:0:
416,252,64844,1,8,0:0:0:0:
224,240,65013,1,0,0:0:0:0:
400,316,65182,1,2,0:0:0:0:
212,352,65352,1,2,0:0:0:0:
400,316,65521,2,0,P|448:268|440:204,1,95.9999970703126,8|0,0:0|0:0,0:0:0:0:
192,224,65860,6,0,P|144:176|152:112,1,95.9999970703126,2|0,0:0|0:0,0:0:0:0:
304,48,66199,1,8,0:0:0:0:
372,228,66368,1,0,0:0:0:0:
204,136,66537,1,2,0:0:0:0:
396,136,66707,1,2,0:0:0:0:
232,232,66876,1,8,0:0:0:0:
384,32,67045,1,0,0:0:0:0:
384,32,67130,1,0,0:0:0:0:
384,32,67214,2,0,B|372:76|424:88|448:100|448:100|472:168|440:196,1,191.999994140625
120,344,67891,6,0,P|184:292|192:272,1,95.9999970703126,4|0,0:0|0:0,0:0:0:0:
172,232,68145,1,0,0:0:0:0:
128,204,68230,2,0,P|116:122|124:102,1,95.9999970703126,8|0,0:0|0:0,0:0:0:0:
224,84,68568,5,2,0:0:0:0:
324,48,68739,1,0,0:0:0:0:
392,128,68908,2,0,P|384:184|344:224,1,95.9999970703126,8|0,0:0|0:0,0:0:0:0:
248,256,69247,5,2,0:0:0:0:
176,144,69416,1,2,0:0:0:0:
308,168,69585,1,8,0:0:0:0:
180,212,69755,1,0,0:0:0:0:
248,96,69923,1,2,0:0:0:0:
332,200,70094,2,0,L|372:296,2,95.9999970703126,0|8|0,0:0|0:0|0:0,0:0:0:0:
296,72,70602,5,2,0:0:0:0:
192,156,70771,1,2,0:0:0:0:
192,160,70856,1,0,0:0:0:0:
192,164,70940,1,8,0:0:0:0:
256,284,71110,2,0,B|304:308|304:308|320:244,1,95.9999970703126,0|2,0:0|0:0,0:0:0:0:
304,132,71448,1,0,0:0:0:0:
396,232,71618,1,8,0:0:0:0:
428,104,71786,1,0,0:0:0:0:
320,328,71955,2,0,P|256:352|136:280,1,191.999994140625,2|8,0:0|0:0,0:0:0:0:
88,180,72463,1,0,0:0:0:0:
264,64,72633,5,0,0:0:0:0:
344,260,72802,1,8,0:0:0:0:
152,148,72971,1,8,0:0:0:0:
376,148,73141,1,0,0:0:0:0:
168,260,73310,1,0,0:0:0:0:
276,124,73480,1,8,0:0:0:0:
392,276,73649,1,8,0:0:0:0:
244,348,73818,1,0,0:0:0:0:
168,176,73989,6,0,P|216:136|264:128,1,95.9999970703126
488,280,74327,1,8,0:0:0:0:
260,196,74497,1,0,0:0:0:0:
492,132,74666,1,0,0:0:0:0:
372,344,74834,6,8,L|364:292,1,47.9999985351563
267,243,75004,2,8,L|259:191,1,47.9999985351563
192,112,75173,2,8,L|184:60,1,47.9999985351563
96,20,75342,1,8,0:0:0:0:
116,248,75512,5,8,0:0:0:0:
116,248,75596,1,8,0:0:0:0:
116,248,75682,1,8,0:0:0:0:
336,272,75850,5,8,0:0:0:0:
144,156,76020,2,8,L|108:120,1,47.9999985351563
240,72,76190,2,8,L|288:100,1,47.9999985351563
284,232,76358,2,8,L|248:196,1,47.9999985351563
352,36,76528,2,8,L|400:64,1,47.9999985351563
488,204,76697,5,8,0:0:0:0:
328,352,76866,1,8,0:0:0:0:
344,304,76951,1,8,0:0:0:0:
360,260,77036,1,8,0:0:0:0:
440,48,77206,6,8,B|392:32|392:32|312:64,1,95.9999970703126
272,212,77545,1,8,0:0:0:0:
240,248,77630,1,8,0:0:0:0:
196,264,77714,1,8,0:0:0:0:
148,256,77799,1,8,0:0:0:0:
112,228,77884,1,8,0:0:0:0:
92,184,77968,1,8,0:0:0:0:
96,136,78053,2,8,P|144:88|176:72,1,95.9999970703126
408,52,78392,6,8,L|384:-4,1,47.9999985351563
328,156,78561,2,8,L|304:88,1,47.9999985351563
192,156,78729,1,8,0:0:0:0:
176,180,78813,1,8,0:0:0:0:
164,208,78898,1,8,0:0:0:0:
156,236,78983,1,8,0:0:0:0:
152,264,79068,2,8,L|136:368,1,95.9999970703126
388,256,79407,5,12,0:0:0:0:
72,232,79576,1,8,0:0:0:0:
376,144,79745,1,8,0:0:0:0:
108,312,79915,1,8,0:0:0:0:
404,204,80084,1,8,0:0:0:0:
92,160,80253,1,8,0:0:0:0:
280,56,80424,5,12,0:0:0:0:
324,368,80593,1,8,0:0:0:0:
184,96,80763,5,8,0:0:0:0:
444,308,80933,1,8,0:0:0:0:
136,184,81103,5,8,0:0:0:0:
468,236,81273,1,8,0:0:0:0:
360,48,81443,5,12,0:0:0:0:
208,336,81613,1,8,0:0:0:0:
84,36,81783,1,12,0:0:0:0:
368,192,81953,1,8,0:0:0:0:
128,336,82123,6,0,P|72:320|112:208,1,191.999994140625,4|8,0:0|0:0,0:0:0:0:
304,152,82633,1,0,0:0:0:0:
472,280,82803,2,0,P|424:320|384:328,1,95.9999970703126
304,216,83143,2,0,P|241:216|205:235,1,95.9999970703126,8|8,0:0|0:0,0:0:0:0:
136,336,83483,1,8,0:0:0:0:
336,264,83653,1,8,0:0:0:0:
216,88,83823,1,8,0:0:0:0:
104,308,83993,6,8,L|116:248,1,47.9999985351563
204,148,84163,2,8,L|216:208,1,47.9999985351563
240,356,84333,2,8,L|248:296,1,47.9999985351563
340,112,84503,2,8,L|352:176,1,47.9999985351563
404,360,84673,2,8,L|412:308,1,47.9999985351563
452,116,84843,6,0,P|376:96|304:132,1,160,12|8,0:0|0:0,0:0:0:0:
216,312,85523,2,0,P|292:332|364:296,1,160,0|8,0:0|0:0,0:0:0:0:
396,216,86034,1,0,0:0:0:0:
388,128,86204,1,0,0:0:0:0:
316,80,86375,2,0,P|260:84|212:116,1,80,0|8,0:0|0:0,0:0:0:0:
160,216,86885,2,0,P|108:228|36:160,1,160,0|8,0:0|0:0,0:0:0:0:
188,328,87566,6,0,L|364:364,1,160,0|8,0:0|0:0,0:0:0:0:
360,172,88247,2,0,L|184:140,1,160,0|8,0:0|0:0,0:0:0:0:
172,228,88758,1,0,0:0:0:0:
220,304,88928,1,0,0:0:0:0:
296,348,89099,2,0,L|368:296,1,80,0|8,0:0|0:0,0:0:0:0:
280,80,89609,2,0,P|247:177|280:243,1,160,0|8,0:0|0:0,0:0:0:0:
368,248,90120,5,0,0:0:0:0:
420,132,90290,1,0,0:0:0:0:
288,192,90461,1,0,0:0:0:0:
432,200,90631,1,8,0:0:0:0:
228,80,90971,2,0,P|160:80|76:136,1,160,0|8,0:0|0:0,0:0:0:0:
188,224,91482,5,0,0:0:0:0:
316,156,91652,1,0,0:0:0:0:
172,136,91823,1,0,0:0:0:0:
276,236,91993,1,8,0:0:0:0:
320,84,92333,2,0,P|380:68|484:108,1,160,0|8,0:0|0:0,0:0:0:0:
376,208,92844,5,0,0:0:0:0:
244,268,93014,1,0,0:0:0:0:
328,152,93185,1,0,0:0:0:0:
344,296,93355,1,8,0:0:0:0:
216,168,93695,2,0,P|212:100|300:20,1,160,0|8,0:0|0:0,0:0:0:0:
344,232,94206,5,0,0:0:0:0:
244,128,94376,1,0,0:0:0:0:
236,272,94547,1,0,0:0:0:0:
324,160,94717,1,8,0:0:0:0:
136,200,95057,2,0,P|100:276|124:344,1,160
