osu file format v14

[General]
AudioFilename: audio.mp3
AudioLeadIn: 0
PreviewTime: 222784
Countdown: 0
SampleSet: Soft
StackLeniency: 0.7
Mode: 0
LetterboxInBreaks: 0
WidescreenStoryboard: 0

[Editor]
Bookmarks: 90065,168648,233714,268982
DistanceSpacing: 0.7
BeatDivisor: 4
GridSize: 4
TimelineZoom: 1.6

[Metadata]
Title:Hero
TitleUnicode:ヒーロー
Artist:supercell
ArtistUnicode:supercell
Creator:Big Sis
Version:Villain
Source:
Tags:Today Is a Beautiful Day japanese jpop j-pop pop rock jrock j-rock yanaginagi nagi yanagi やなぎなぎ alevi nakaronix god haachama vaporfly red crewmate
BeatmapID:4036856
BeatmapSetID:1949846

[Difficulty]
HPDrainRate:4.4
CircleSize:4
OverallDifficulty:8.6
ApproachRate:9.2
SliderMultiplier:1.74
SliderTickRate:1

[Events]
//Background and Video events
0,0,"100388825_p9.png",0,0
//Break Periods
2,90265,94915
//Storyboard Layer 0 (Background)
//Storyboard Layer 1 (Fail)
//Storyboard Layer 2 (Pass)
//Storyboard Layer 3 (Foreground)
//Storyboard Layer 4 (Overlay)
//Storyboard Sound Samples

[TimingPoints]
235,326.086956521739,4,2,1,50,1,0
235,-142.857142857143,4,2,1,50,0,0
561,339.366515837104,4,2,1,50,1,0
561,-142.857142857143,4,2,1,50,0,0
1579,339.366515837104,4,2,1,50,1,0
1579,-142.857142857143,4,2,1,50,0,0
11420,339.943342776204,4,2,1,50,1,0
11420,-125,4,2,1,50,0,0
15499,327.868852459016,4,2,1,50,1,0
16154,350.877192982456,4,2,1,50,1,0
16154,-125,4,2,1,50,0,0
16855,337.078651685393,4,2,1,50,1,0
17192,331.491712707182,4,2,1,50,1,0
17523,-125,4,2,1,50,0,0
18186,342.857142857143,4,2,1,50,1,0
18186,-125,4,2,1,50,0,0
19214,348.837209302326,4,2,1,50,1,0
19214,-125,4,2,1,50,0,0
19562,337.078651685393,4,2,1,50,1,0
19562,-125,4,2,1,50,0,0
21921,354.505169867061,4,2,1,50,1,0
21921,-125,4,2,1,50,0,0
22275,338.983050847458,4,2,1,50,1,0
22275,-111.111111111111,4,2,1,50,0,0
24647,335.195530726257,4,2,1,50,1,0
24647,-111.111111111111,4,2,1,50,0,0
25652,344.827586206897,4,2,1,50,1,0
25652,-111.111111111111,4,2,1,50,0,0
26341,339.943342776204,4,2,1,50,1,0
26341,-111.111111111111,4,2,1,50,0,0
27700,326.086956521739,4,2,1,50,1,0
28026,337.078651685393,4,2,1,50,1,0
28363,-111.111111111111,4,2,1,50,0,0
29711,340.909090909091,4,2,1,50,1,0
29711,-111.111111111111,4,2,1,50,0,0
31756,335.195530726257,4,2,1,50,1,0
31756,-111.111111111111,4,2,1,50,0,0
32091,344.827586206897,4,2,1,50,1,0
32091,-111.111111111111,4,2,1,50,0,0
32780,311.688311688312,4,2,1,50,1,0
32935,-100,4,2,1,60,0,0
33091,338.983050847458,4,2,1,60,1,0
38514,-100,4,2,1,70,0,0
41226,339.462517680339,4,2,1,60,1,0
43941,-100,4,2,1,70,0,0
45299,-100,4,2,1,80,0,0
45978,338.983050847458,4,2,1,80,1,0
46486,-100,4,2,1,60,0,0
46655,348.837209302326,4,2,1,40,1,0
47352,338.983050847458,4,2,1,40,1,0
47352,-142.857142857143,4,2,1,40,0,0
48029,338.983050847458,4,2,1,40,1,0
48029,-142.857142857143,4,2,1,40,0,0
51079,310.880829015544,4,2,1,40,1,0
51389,349.854227405248,4,2,1,40,1,0
52088,335.195530726257,4,2,1,40,1,0
52088,-90.9090909090909,4,2,1,80,0,0
54099,344.827586206897,4,2,1,80,1,0
54099,-90.9090909090909,4,2,1,80,0,0
54788,331.491712707182,4,2,1,80,1,0
54788,-90.9090909090909,4,2,1,80,0,0
55119,337.078651685393,4,2,1,80,1,0
55119,-90.9090909090909,4,2,1,80,0,0
56467,343.839541547278,4,2,1,80,1,0
56467,-90.9090909090909,4,2,1,80,0,0
56810,341.880341880342,4,2,1,80,1,0
56810,-90.9090909090909,4,2,1,80,0,0
57493,335.195530726257,4,2,1,80,1,0
57493,-90.9090909090909,4,2,1,80,0,0
57828,337.078651685393,4,2,1,80,1,0
57996,-90.9090909090909,4,2,1,80,0,0
58502,342.857142857143,4,2,1,80,1,0
58844,337.078651685393,4,2,1,80,1,0
58844,-90.9090909090909,4,2,1,80,0,0
59855,350.877192982456,4,2,1,80,1,0
59855,-90.9090909090909,4,2,1,80,0,0
60205,338.983050847458,4,2,1,80,1,0
60205,-90.9090909090909,4,2,1,80,0,0
61560,341.394025604552,4,2,1,80,1,0
62584,-90.9090909090909,4,2,1,80,0,0
62925,337.078651685393,4,2,1,80,1,0
62925,-90.9090909090909,4,2,1,80,0,0
64610,342.857142857143,4,2,1,80,1,0
64610,-90.9090909090909,4,2,1,80,0,0
65638,337.078651685393,4,2,1,80,1,0
65638,-90.9090909090909,4,2,1,80,0,0
66986,-90.9090909090909,4,2,1,70,0,0
68166,419.58041958042,4,2,1,70,1,0
68375,322.58064516129,4,2,1,60,1,0
69020,338.983050847458,4,2,1,60,1,0
69697,342.857142857143,4,2,1,60,1,0
71411,333.333333333333,4,2,1,60,1,0
72077,337.078651685393,4,2,1,60,1,0
73425,334.261838440111,4,2,1,60,1,0
73759,338.983050847458,4,2,1,60,1,0
73759,-90.9090909090909,4,2,1,80,0,0
77826,335.195530726257,4,2,1,80,1,0
78161,317.460317460317,4,2,1,80,1,0
78478,337.078651685393,4,2,1,80,1,0
78646,-90.9090909090909,4,2,1,80,0,0
79152,355.029585798817,4,2,1,80,1,0
79152,-90.9090909090909,4,2,1,80,0,0
79507,359.281437125748,4,2,1,80,1,0
79686,339.462517680339,4,2,1,80,1,0
79686,-90.9090909090909,4,2,1,80,0,0
80195,348.837209302326,4,2,1,80,1,0
80195,-90.9090909090909,4,2,1,80,0,0
80543,338.983050847458,4,2,1,80,1,0
80712,-90.9090909090909,4,2,1,80,0,0
81051,334.261838440111,4,2,1,80,1,0
81719,358.208955223881,4,2,1,80,1,0
81898,334.9148758024,4,2,1,80,1,0
81898,-90.9090909090909,4,2,1,80,0,0
82567,372.670807453416,4,2,1,80,1,0
82567,-90.9090909090909,4,2,1,80,0,0
82939,314.13612565445,4,2,1,80,1,0
83253,338.983050847458,4,2,1,80,1,0
83591,337.742752603434,4,2,1,80,1,0
84266,-90.9090909090909,4,2,1,80,0,0
84604,338.983050847458,4,2,1,60,1,0
84942,355.029585798817,4,2,1,60,1,0
85297,335.195530726257,4,2,1,60,1,0
85971,339.462517680339,4,2,1,60,1,0
86480,331.491712707182,4,2,1,60,1,0
86645,355.029585798817,4,2,1,60,1,0
87355,326.086956521739,4,2,1,60,1,0
88007,340.909090909091,4,2,1,60,1,0
89882,366.97247706422,4,2,1,60,1,0
90065,331.491712707182,4,2,1,60,1,0
91390,327.868852459016,4,2,1,70,1,0
91717,336.605890603086,4,2,1,70,1,0
92053,361.44578313253,4,2,1,70,1,0
92414,337.078651685393,4,2,1,70,1,0
92751,339.943342776204,4,2,1,70,1,0
94110,341.880341880342,4,2,1,70,1,0
95135,350.877192982456,4,2,1,70,1,0
95485,312.5,4,2,1,70,1,0
95485,-125,4,2,1,50,0,0
95797,338.983050847458,4,2,1,50,1,0
95797,-125,4,2,1,50,0,0
96813,340.909090909091,4,2,1,50,1,0
96813,-125,4,2,1,50,0,0
99881,333.055786844296,4,2,1,50,1,0
99881,-125,4,2,1,50,0,0
100880,338.983050847458,4,2,1,50,1,0
100880,-125,4,2,1,50,0,0
102066,363.636363636364,4,2,1,50,1,0
102247,327.868852459016,4,2,1,50,1,0
102247,-125,4,2,1,50,0,0
102902,354.295837023915,4,2,1,50,1,0
103256,-125,4,2,1,50,0,0
103610,312.5,4,2,1,50,1,0
103922,340.909090909091,4,2,1,50,1,0
103922,-125,4,2,1,50,0,0
104603,333.333333333333,4,2,1,50,1,0
104936,337.078651685393,4,2,1,50,1,0
104936,-125,4,2,1,50,0,0
105947,345.821325648415,4,2,1,50,1,0
105947,-125,4,2,1,50,0,0
106292,344.827586206897,4,2,1,50,1,0
106292,-125,4,2,1,50,0,0
108016,315.789473684211,4,2,1,50,1,0
108016,-125,4,2,1,50,0,0
108331,327.868852459016,4,2,1,50,1,0
108331,-125,4,2,1,50,0,0
108658,345.821325648415,4,2,1,50,1,0
109003,338.983050847458,4,2,1,50,1,0
109003,-125,4,2,1,50,0,0
111036,342.368045649073,4,2,1,50,1,0
111036,-125,4,2,1,50,0,0
111720,338.983050847458,4,2,1,50,1,0
112058,-125,4,2,1,50,0,0
115787,337.078651685393,4,2,1,50,1,0
115787,-125,4,2,1,50,0,0
116966,-125,4,2,1,60,0,0
117135,338.983050847458,4,2,1,60,1,0
117135,-111.111111111111,4,2,1,60,0,0
122558,-111.111111111111,4,2,1,70,0,0
125947,377.358490566038,4,2,1,60,1,0
126135,340.909090909091,4,2,1,60,1,0
126646,344.827586206897,4,2,1,60,1,0
127335,320.855614973262,4,2,1,60,1,0
127335,-111.111111111111,4,2,1,60,0,0
127816,377.358490566038,4,2,1,60,1,0
128004,333.333333333333,4,2,1,60,1,0
128004,-111.111111111111,4,2,1,70,0,0
128670,337.078651685393,4,2,1,70,1,0
129344,-100,4,2,1,80,0,0
130692,357.142857142857,4,2,1,40,1,0
130692,-250.000000000001,4,2,1,40,0,0
131406,337.078651685393,4,2,1,40,1,0
132080,-166.666666666667,4,2,1,40,0,0
133428,338.983050847458,4,2,1,40,1,0
133428,-125,4,2,1,40,0,0
134783,-125,4,2,1,60,0,0
135800,313.31592689295,4,2,1,80,1,0
136113,338.983050847458,4,2,1,80,1,0
136113,-90.9090909090909,4,2,1,80,0,0
136451,-100,4,2,1,80,0,0
139163,344.827586206897,4,2,1,80,1,0
140197,335.195530726257,4,2,1,80,1,0
141537,339.943342776204,4,2,1,80,1,0
144256,342.857142857143,4,2,1,80,1,0
145284,317.460317460317,4,2,1,80,1,0
145601,361.44578313253,4,2,1,80,1,0
145962,346.820809248555,4,2,1,80,1,0
146308,329.67032967033,4,2,1,80,1,0
146637,322.58064516129,4,2,1,80,1,0
146959,338.983050847458,4,2,1,80,1,0
148314,346.820809248555,4,2,1,80,1,0
149701,333.333333333333,4,2,1,80,1,0
150367,342.857142857143,4,2,1,80,1,0
151052,329.67032967033,4,2,1,70,1,0
151711,339.943342776204,4,2,1,70,1,0
152390,339.462517680339,4,2,1,70,1,0
152390,-125,4,2,1,60,0,0
154426,-111.111111111111,4,2,1,60,0,0
155105,336.605890603086,4,2,1,60,1,0
155105,-111.111111111111,4,2,1,60,0,0
157461,342.857142857143,4,2,1,60,1,0
157803,338.983050847458,4,2,1,80,1,0
157803,-90.9090909090909,4,2,1,80,0,0
161531,331.491712707182,4,2,1,80,1,0
161862,342.857142857143,4,2,1,80,1,0
163233,338.409475465313,4,2,1,80,1,0
163233,-100,4,2,1,80,0,0
163740,-90.9090909090909,4,2,1,80,0,0
164248,-83.3333333333333,4,2,1,80,0,0
164755,-90.9090909090909,4,2,1,80,0,0
165263,335.195530726257,4,2,1,80,1,0
165933,337.078651685393,4,2,1,80,1,0
167281,326.086956521739,4,2,1,80,1,0
167607,359.281437125748,4,2,1,80,1,0
168325,323.450134770889,4,2,1,80,1,0
168648,337.078651685393,4,2,1,80,1,0
169996,339.943342776204,4,2,1,80,1,0
171865,292.682926829268,4,2,1,80,1,0
172011,346.820809248555,4,2,1,80,1,0
172704,343.544231319782,4,2,1,60,1,0
172704,-100,4,2,1,70,0,0
173734,-166.666666666667,4,2,1,80,0,0
174078,338.983050847458,4,2,1,50,1,0
174078,-125,4,2,1,50,0,0
178315,320.855614973262,4,2,1,50,1,0
178475,348.837209302326,4,2,1,50,1,0
178475,-125,4,2,1,50,0,0
178649,340.909090909091,4,2,1,50,1,0
178819,344.827586206897,4,2,1,50,1,0
178819,-125,4,2,1,50,0,0
179508,338.028169014084,4,2,1,50,1,0
179508,-125,4,2,1,50,0,0
183564,359.281437125748,4,2,1,50,1,0
184102,300,4,2,1,50,1,0
184252,335.195530726257,4,2,1,50,1,0
184922,344.827586206897,4,2,1,60,1,0
185611,338.983050847458,4,2,1,60,1,0
186288,338.028169014084,4,2,1,60,1,0
188992,342.857142857143,4,2,1,60,1,0
189677,331.95020746888,4,2,1,60,1,0
190340,338.983050847458,4,2,1,80,1,0
192712,333.333333333333,4,2,1,80,1,0
193045,335.195530726257,4,2,1,80,1,0
194050,344.827586206897,4,2,1,80,1,0
194394,340.909090909091,4,2,1,80,1,0
194734,365.853658536585,4,2,1,80,1,0
195099,331.491712707182,4,2,1,80,1,0
195761,338.983050847458,4,2,1,80,1,0
195761,-90.9090909090909,4,2,1,70,0,0
205761,368.098159509202,4,2,1,70,1,0
205761,-90.9090909090909,4,2,1,70,0,0
205945,329.218106995885,4,2,1,70,1,0
206603,339.943342776204,4,2,1,70,1,0
206603,-90.9090909090909,4,2,1,70,0,0
210002,337.078651685393,4,2,1,70,1,0
210339,-90.9090909090909,4,2,1,70,0,0
211350,330.123796423659,4,2,1,70,1,0
211680,-90.9090909090909,4,2,1,70,0,0
212010,350.877192982456,4,2,1,80,1,0
212536,338.983050847458,4,2,1,80,1,0
213383,338.983050847458,4,2,1,80,1,0
214060,352.941176470588,4,2,1,80,1,0
214060,-90.9090909090909,4,2,1,80,0,0
214412,328.767123287671,4,2,1,80,1,0
214412,-90.9090909090909,4,2,1,80,0,0
214740,333.333333333333,4,2,1,80,1,0
215073,385.852090032154,4,2,1,80,1,0
215265,335.195530726257,4,2,1,80,1,0
215265,-90.9090909090909,4,2,1,80,0,0
216605,332.409972299169,4,2,1,80,1,0
216771,-90.9090909090909,4,2,1,80,0,0
217103,344.827586206897,4,2,1,80,1,0
217103,-90.9090909090909,4,2,1,80,0,0
217447,338.983050847458,4,2,1,70,1,0
217785,-90.9090909090909,4,2,1,70,0,0
220835,327.868852459016,4,2,1,80,1,0
221490,350.877192982456,4,2,1,80,1,0
221840,340.909090909091,4,2,1,80,1,0
222521,349.854227405248,4,2,1,80,1,0
222870,341.880341880342,4,2,1,40,1,0
222870,-142.857142857143,4,2,1,40,0,0
227998,310.880829015544,4,2,1,40,1,0
228308,339.462517680339,4,2,1,40,1,0
228308,-142.857142857143,4,2,1,40,0,0
232381,-333.333333333333,4,2,1,40,0,0
233399,315.789473684211,4,2,1,60,1,0
233714,342.857142857143,4,2,1,60,1,0
233714,-125,4,2,1,60,0,0
235428,338.028169014084,4,2,1,60,1,0
236442,338.028169014084,4,2,1,60,1,0
236442,-111.111111111111,4,2,1,60,0,0
238470,333.333333333333,4,2,1,60,1,0
238803,347.826086956522,4,2,1,60,1,0
239150,338.983050847458,4,2,1,70,1,0
240336,325.20325203252,4,2,1,70,1,0
240498,338.983050847458,4,2,1,70,1,0
241684,326.086956521739,4,2,1,70,1,0
241847,340.425531914894,4,2,1,60,1,0
244570,337.078651685393,4,2,1,70,1,0
245918,-100,4,2,1,80,0,0
246592,346.820809248555,4,2,1,80,1,0
247112,-100,4,2,1,60,0,0
247285,342.857142857143,4,2,1,40,1,0
247970,-166.666666666667,4,2,1,40,0,0
248656,334.261838440111,4,2,1,40,1,0
248656,-166.666666666667,4,2,1,40,0,0
249993,337.457817772778,4,2,1,50,1,0
251342,-100,4,2,1,70,0,0
252692,339.943342776204,4,2,1,70,1,0
252692,-83.3333333333333,4,2,1,80,0,0
253031,-100,4,2,1,80,0,0
255411,-83.3333333333333,4,2,1,80,0,0
255751,-100,4,2,1,80,0,0
256091,331.491712707182,4,2,1,80,1,0
256753,340.425531914894,4,2,1,80,1,0
258114,338.983050847458,4,2,1,80,1,0
258114,-83.3333333333333,4,2,1,80,0,0
258622,-100,4,2,1,80,0,0
261842,352.941176470588,4,2,1,80,1,0
262547,342.857142857143,4,2,1,80,1,0
263232,304.568527918782,4,2,1,80,1,0
263536,340.909090909091,4,2,1,80,1,0
263536,-83.3333333333333,4,2,1,80,0,0
263876,-100,4,2,1,80,0,0
267626,-100,4,2,1,70,0,0
268308,337.078651685393,4,2,1,70,1,0
268982,340.909090909091,4,2,1,60,1,0
271709,332.409972299169,4,2,1,60,1,0
273703,338.983050847458,4,2,1,60,1,0
274380,340.909090909091,4,2,1,60,1,0
274380,-90.9090909090909,4,2,1,80,0,0
279152,325.20325203252,4,2,1,80,1,0
279802,340.909090909091,4,2,1,80,1,0
279802,-90.9090909090909,4,2,1,80,0,0
282358,314.13612565445,4,2,1,80,1,0
282515,338.983050847458,4,2,1,80,1,0
282515,-90.9090909090909,4,2,1,80,0,0
283870,342.857142857143,4,2,1,80,1,0
285127,327.868852459016,4,2,1,80,1,0
285236,336.134453781513,4,2,1,70,1,0
285572,342.857142857143,4,2,1,70,1,0
286429,335.195530726257,4,2,1,70,1,0
286596,340.909090909091,4,2,1,70,1,0
288300,337.078651685393,4,2,1,70,1,0
289311,340.909090909091,4,2,1,80,1,0
290674,348.33091436865,4,2,1,40,1,0
291370,648.648648648649,4,2,1,40,1,0
291370,-142.857142857143,4,2,1,40,0,0
292018,621.761658031088,4,2,1,40,1,0
292639,685.714285714286,4,2,1,40,1,0
292639,-142.857142857143,4,2,1,40,0,0
293324,625,4,2,1,40,1,0
293949,869.565217391304,4,2,1,40,1,0
294818,952.380952380952,4,2,1,40,1,0
294818,-166.666666666667,4,2,1,40,0,0
295770,769.230769230769,4,2,1,40,1,0
296539,909.090909090909,4,2,1,40,1,0
296539,-200,4,2,1,40,0,0
297448,937.5,4,2,1,40,1,0
299323,769.230769230769,4,2,1,40,1,0
300092,789.473684210526,4,2,1,40,1,0
300881,1111.11111111111,4,2,1,40,1,0
300881,-250,4,2,1,40,0,0
301436,1263.15789473684,4,2,1,40,1,0
302067,1121.4953271028,4,2,1,40,1,0
304309,-100,4,2,1,30,0,0
305431,-100,4,2,1,20,0,0
306552,-100,4,2,1,5,0,0

[Colours]
Combo1 : 192,192,192
Combo2 : 174,255,174
Combo3 : 210,166,255

[HitObjects]
25,41,235,22,0,P|68:59|82:83,1,60.8999981414796,2|0,0:2|0:2,0:2:0:0:
140,27,561,2,0,P|157:70|150:97,1,60.8999981414796,2|0,0:2|0:2,0:2:0:0:
48,140,900,2,0,P|90:92|166:106,1,121.799996282959,2|2,0:2|0:2,0:2:0:0:
385,224,1579,6,0,P|372:257|363:288,1,60.8999981414796,2|0,0:2|0:2,0:2:0:0:
443,166,1918,2,0,P|478:160|509:153,1,60.8999981414796,2|0,0:2|0:2,0:2:0:0:
365,143,2257,2,0,P|325:110|274:53,1,121.799996282959,2|2,0:2|0:2,0:2:0:0:
56,263,2936,22,0,P|86:243|117:242,1,60.8999981414796,2|0,0:2|0:2,0:2:0:0:
253,300,3275,2,0,P|223:295|198:277,1,60.8999981414796,2|0,0:2|0:2,0:2:0:0:
136,316,3615,2,0,P|154:258|179:203,1,121.799996282959,2|2,0:2|0:2,0:2:0:0:
367,49,4294,6,0,P|406:32|432:27,1,60.8999981414796,2|0,0:2|0:2,0:2:0:0:
306,102,4633,2,0,P|267:85|241:80,1,60.8999981414796,2|0,0:2|0:2,0:2:0:0:
387,130,4972,2,0,P|411:162|401:245,1,121.799996282959,2|2,0:2|0:2,0:2:0:0:
185,367,5651,22,0,P|192:337|205:310,1,60.8999981414796,2|0,0:2|0:2,0:2:0:0:
72,231,5990,2,0,P|45:258|41:285,1,60.8999981414796,2|0,0:2|0:2,0:2:0:0:
103,354,6330,2,0,P|123:298|154:243,1,121.799996282959,2|2,0:2|0:2,0:2:0:0:
292,68,7008,6,0,P|293:98|281:125,1,60.8999981414796,2|0,0:2|0:2,0:2:0:0:
155,56,7348,2,0,P|184:63|211:76,1,60.8999981414796,2|0,0:2|0:2,0:2:0:0:
113,127,7687,2,0,P|74:88|91:2,1,121.799996282959,2|2,0:2|0:2,0:2:0:0:
271,221,8366,22,0,P|241:228|214:241,1,60.8999981414796,2|0,0:2|0:2,0:2:0:0:
333,156,8705,2,0,P|303:148|276:135,1,60.8999981414796,2|0,0:2|0:2,0:2:0:0:
380,258,9045,2,0,P|335:276|264:326,1,121.799996282959,2|2,0:2|0:2,0:2:0:0:
37,265,9723,6,0,P|16:294|16:333,1,60.8999981414796,2|0,0:2|0:2,0:2:0:0:
144,310,10063,2,0,P|108:315|81:343,1,60.8999981414796,2|0,0:2|0:2,0:2:0:0:
19,168,10402,2,0,P|38:210|109:231,1,121.799996282959,2|2,0:2|0:2,0:2:0:0:
214,77,11081,22,0,P|200:104|193:133,1,60.8999981414796,2|0,0:2|0:2,0:2:0:0:
52,22,11420,6,0,P|80:83|101:158,1,139.2,2|0,0:2|0:2,0:2:0:0:
202,227,11929,1,2,0:2:0:0:
202,227,12099,2,0,B|264:214|309:265|284:262|327:315|414:289,1,208.8,2|0,0:2|0:2,0:2:0:0:
490,158,12779,22,0,P|421:153|367:206,1,139.2,2|0,0:2|0:2,0:2:0:0:
262,89,13289,1,2,0:2:0:0:
258,96,13459,2,0,P|280:145|289:174,1,69.6,2|0,0:2|0:2,0:2:0:0:
379,26,13799,2,0,P|357:75|348:104,1,69.6,2|0,0:2|0:2,0:2:0:0:
196,185,14139,6,0,P|157:166|113:155,1,69.6,2|0,0:2|0:2,0:2:0:0:
74,98,14479,2,0,P|43:114|9:125,1,69.6,2|0,0:2|0:2,0:2:0:0:
153,80,14819,2,0,P|164:47|180:15,1,69.6,2|0,0:2|0:2,0:2:0:0:
58,199,15159,2,0,P|73:230|85:263,1,69.6,2|0,0:2|0:2,0:2:0:0:
235,361,15499,21,2,0:2:0:0:
184,303,15662,1,2,0:2:0:0:
316,349,15826,1,2,0:2:0:0:
316,349,15990,1,2,0:2:0:0:
288,221,16154,2,0,P|272:253|261:286,1,69.6,2|0,0:2|0:2,0:2:0:0:
195,221,16504,2,0,P|183:188|168:157,1,69.6,2|0,0:2|0:2,0:2:0:0:
326,66,16855,5,0,0:2:0:0:
275,124,17023,1,2,0:2:0:0:
261,26,17192,1,2,0:2:0:0:
211,83,17357,1,2,0:2:0:0:
334,70,17523,2,0,P|365:54|398:42,1,69.6,2|0,0:2|0:2,0:2:0:0:
206,89,17854,2,0,P|174:73|141:61,1,69.6,2|0,0:2|0:2,0:2:0:0:
279,131,18186,22,0,P|300:182|321:252,1,104.4,2|0,0:2|0:2,0:2:0:0:
330,237,18528,2,0,P|368:237|397:212,1,69.6,2|0,0:2|0:2,0:2:0:0:
271,324,18871,2,0,P|231:286|178:289,1,104.4,2|0,0:2|0:2,0:2:0:0:
174,282,19214,2,0,P|144:308|137:341,1,69.6,2|0,0:2|0:2,0:2:0:0:
16,187,19562,5,0,0:2:0:0:
16,187,19730,2,0,P|54:215|42:302,1,139.2,2|0,0:2|0:2,0:2:0:0:
123,167,20236,2,0,P|158:147|194:142,1,69.6,2|0,0:2|0:2,0:2:0:0:
69,102,20573,2,0,P|35:94|5:76,1,69.6,2|0,0:2|0:2,0:2:0:0:
182,229,20910,22,0,P|233:232|279:256,1,104.4,2|0,2:2|0:2,0:2:0:0:
293,255,21247,2,0,P|326:237|337:197,1,69.6,2|0,0:2|0:2,0:2:0:0:
259,62,21584,2,0,P|226:80|215:120,1,69.6,2|0,0:2|0:2,0:2:0:0:
295,138,21837,1,0,3:2:0:0:
295,138,21921,2,0,P|328:130|360:115,1,69.6,2|0,0:2|0:2,0:2:0:0:
478,265,22275,6,0,P|438:214|349:217,1,156.599995220947,4|0,1:2|1:2,0:2:0:0:
214,108,22783,1,2,0:2:0:0:
256,213,22952,2,0,P|276:164|293:137,1,78.2999976104737,2|0,1:2|0:2,0:2:0:0:
175,213,23291,2,0,P|155:246|141:283,1,78.2999976104737,2|0,1:2|0:2,0:2:0:0:
18,122,23630,21,2,1:2:0:0:
89,166,23800,1,2,0:2:0:0:
122,8,23969,2,0,P|102:41|88:78,1,78.2999976104737,2|0,1:2|0:2,0:2:0:0:
16,209,24308,2,0,P|35:242|63:322,1,117.449996415711,2|0,1:2|0:2,0:2:0:0:
72,323,24647,2,0,P|111:302|153:289,1,78.2999976104737,0|0,1:2|0:2,0:2:0:0:
316,340,24982,5,2,1:2:0:0:
249,289,25149,1,2,0:2:0:0:
212,361,25317,1,2,1:2:0:0:
352,267,25484,1,2,0:2:0:0:
213,211,25652,2,0,P|234:250|247:292,1,78.2999976104737,2|0,1:2|0:2,0:2:0:0:
336,117,25996,2,0,P|315:156|302:198,1,78.2999976104737,2|0,1:2|0:2,0:2:0:0:
197,13,26341,22,0,P|243:53|237:120,1,117.449996415711,2|0,1:2|0:2,0:2:0:0:
233,113,26680,2,0,P|196:125|161:144,1,78.2999976104737,2|0,1:2|0:2,0:2:0:0:
99,193,26935,1,0,3:2:0:0:
99,193,27020,2,0,P|80:234|92:276,1,78.2999976104737,2|0,1:2|3:2,0:2:0:0:
72,353,27360,2,0,P|108:304|184:303,1,117.449996415711,2|0,1:2|0:2,0:2:0:0:
171,303,27700,5,0,1:2:0:0:
310,210,27863,1,2,0:2:0:0:
207,236,28026,1,2,1:2:0:0:
272,280,28194,1,2,0:2:0:0:
393,209,28363,2,0,P|405:172|424:137,1,78.2999976104737,2|0,1:2|0:2,0:2:0:0:
357,282,28700,2,0,P|375:316|388:353,1,78.2999976104737,2|0,1:2|0:2,0:2:0:0:
302,202,29037,22,0,P|283:167|257:89,1,117.449996415711,2|0,1:2|0:2,0:2:0:0:
261,86,29374,2,0,P|286:52|337:55,1,78.2999976104737,2|0,1:2|0:2,0:2:0:0:
186,152,29711,2,0,P|135:174|76:140,1,117.449996415711,2|0,1:2|0:2,0:2:0:0:
70,154,30051,2,0,P|57:190|38:225,1,78.2999976104737,2|0,1:2|0:2,0:2:0:0:
111,368,30392,5,0,1:2:0:0:
0,334,30563,2,0,P|56:304|156:275,1,156.599995220947,2|0,0:2|0:2,0:2:0:0:
259,377,31074,2,0,P|240:342|228:306,1,78.2999976104737,2|0,1:2|0:2,0:2:0:0:
249,147,31415,2,2,P|236:183|217:218,1,78.2999976104737,2|0,1:2|0:2,0:2:0:0:
424,266,31756,22,0,P|391:221|327:224,1,117.449996415711,2|0,1:2|0:2,0:2:0:0:
323,231,32091,2,0,P|341:265|354:302,1,78.2999976104737,2|0,1:2|0:2,0:2:0:0:
512,111,32435,2,0,P|493:145|480:182,1,78.2999976104737,2|0,1:2|0:2,0:2:0:0:
302,70,32780,1,2,1:2:0:0:
446,18,32935,5,8,0:2:0:0:
446,18,33013,1,8,0:2:0:0:
446,18,33091,2,0,P|409:70|300:61,1,174,6|8,1:2|0:2,0:2:0:0:
109,118,33599,1,2,1:2:0:0:
109,118,33684,1,0,1:2:0:0:
109,118,33768,1,0,1:2:0:0:
152,53,33938,1,0,1:2:0:0:
222,87,34107,2,0,P|199:152|193:188,1,87,10|8,0:2|0:3,0:2:0:0:
124,215,34362,21,4,0:3:0:0:
124,215,34446,2,0,P|82:198|24:180,1,87,2|0,1:2|1:2,0:2:0:0:
194,254,34785,2,0,P|217:308|241:385,1,130.5,10|8,0:2|0:2,0:2:0:0:
249,381,35124,1,0,1:2:0:0:
349,304,35294,1,0,1:2:0:0:
313,163,35463,2,0,P|302:205|286:245,1,87,10|4,0:2|0:3,0:2:0:0:
349,304,35718,5,0,1:2:0:0:
349,304,35802,2,0,P|391:314|431:330,1,87,2|0,1:2|1:2,0:2:0:0:
512,171,36141,2,0,P|472:216|400:206,1,130.5,10|0,0:2|0:2,0:2:0:0:
399,202,36480,1,2,1:2:0:0:
282,79,36650,1,0,1:2:0:0:
405,15,36819,2,0,P|388:55|378:97,1,87,10|0,0:2|0:2,0:2:0:0:
220,202,37158,21,2,1:2:0:0:
109,38,37328,1,0,1:2:0:0:
282,79,37497,2,0,P|239:88|199:104,1,87,10|8,0:2|0:2,0:2:0:0:
199,103,37752,1,8,0:2:0:0:
199,103,37836,1,2,1:2:0:0:
5,11,38006,1,0,1:2:0:0:
69,242,38175,2,0,P|119:199|101:120,1,130.5,10|0,0:2|0:2,0:2:0:0:
107,128,38514,6,0,P|64:117|24:101,1,87,8|2,0:2|1:2,0:2:0:0:
219,201,38853,2,0,P|236:242|246:284,1,87,8|0,0:2|1:2,0:2:0:0:
375,122,39192,1,10,0:2:0:0:
474,298,39362,1,2,1:2:0:0:
336,227,39531,1,10,0:2:0:0:
495,129,39701,1,2,1:2:0:0:
397,365,39870,22,0,P|356:348|314:338,1,87,10|0,0:2|1:2,0:2:0:0:
137,228,40209,2,0,P|179:217|219:201,1,87,10|0,0:2|1:2,0:2:0:0:
98,343,40548,1,10,0:2:0:0:
19,169,40718,1,2,1:2:0:0:
233,298,40887,2,0,P|216:338|206:380,1,87,10|0,0:2|1:2,0:2:0:0:
115,144,41226,6,0,P|97:85|63:15,1,130.5,6|0,1:2|0:2,0:2:0:0:
54,15,41565,21,0,1:2:0:0:
219,200,41735,1,0,1:2:0:0:
368,23,41904,5,2,1:2:0:0:
216,99,42074,1,0,1:2:0:0:
423,263,42244,21,0,1:2:0:0:
342,115,42414,1,0,1:2:0:0:
215,315,42583,5,2,1:2:0:0:
315,268,42753,1,0,1:2:0:0:
145,378,42923,21,0,1:2:0:0:
219,200,43093,1,8,1:2:0:0:
300,367,43262,5,10,1:2:0:0:
97,244,43432,1,8,1:2:0:0:
342,115,43602,21,8,1:2:0:0:
215,315,43771,1,8,1:2:0:0:
32,43,43941,5,2,1:2:0:0:
106,152,44111,1,8,0:2:0:0:
236,13,44281,21,8,0:2:0:0:
178,207,44450,1,8,0:2:0:0:
330,32,44620,5,10,1:2:0:0:
438,266,44790,1,8,0:2:0:0:
251,117,44960,21,8,0:2:0:0:
485,9,45129,1,8,0:2:0:0:
315,277,45299,5,10,0:2:0:0:
159,85,45469,1,8,0:2:0:0:
384,148,45639,21,8,0:2:0:0:
116,347,45808,1,8,0:2:0:0:
178,207,45978,5,10,0:2:0:0:
241,342,46147,1,10,0:2:0:0:
384,148,46316,21,10,0:2:0:0:
266,204,46486,1,0,1:2:0:0:
441,325,46655,5,4,1:2:0:0:
441,325,47352,22,0,P|487:286|483:214,1,121.799996282959,2|0,0:2|0:2,0:2:0:0:
355,133,48029,2,0,P|384:183|403:254,2,121.799996282959,2|0|0,0:0|0:0|0:0,0:0:0:0:
444,22,49045,2,0,P|428:60|411:81,1,60.8999981414796,2|0,0:0|0:0,0:0:0:0:
278,162,49384,6,0,P|230:120|168:89,1,121.799996282959,2|0,0:2|0:2,0:2:0:0:
138,24,49893,2,0,P|102:49|101:86,1,60.8999981414796,2|0,0:0|0:0,0:0:0:0:
140,229,50232,2,0,P|176:204|177:167,1,60.8999981414796,2|0,0:0|0:0,0:0:0:0:
174,182,50571,1,2,0:0:0:0:
37,118,50740,21,2,0:2:0:0:
122,348,50910,1,2,0:2:0:0:
341,33,51389,5,2,0:2:0:0:
238,301,51563,1,2,0:2:0:0:
507,117,52088,22,0,P|479:179|364:184,1,191.400005841065,6|8,1:2|0:2,0:2:0:0:
250,63,52590,1,0,0:2:0:0:
250,63,52674,1,8,0:2:0:0:
250,63,52758,2,0,P|295:49|340:32,1,95.7000029205323,0|0,1:2|0:2,0:2:0:0:
178,201,53093,2,0,P|223:214|268:231,1,95.7000029205323,10|2,0:2|0:2,0:2:0:0:
48,45,53428,6,0,B|68:103|89:154|89:154|61:195|19:183,1,191.400005841065,0|8,1:2|0:2,0:2:0:0:
184,357,53931,1,0,0:2:0:0:
18,307,54099,2,0,P|62:288|108:275,1,95.7000029205323,0|0,1:2|0:2,0:2:0:0:
300,131,54443,1,10,0:2:0:0:
152,41,54616,1,2,0:2:0:0:
252,231,54788,22,0,P|321:246|384:190,1,143.550004380798,2|0,1:2|0:2,0:2:0:0:
452,218,55119,2,0,P|486:260|479:313,1,95.7000029205323,8|0,0:2|0:2,0:2:0:0:
300,131,55456,2,0,P|286:85|269:40,1,95.7000029205323,0|0,1:2|0:2,0:2:0:0:
129,237,55793,1,10,0:2:0:0:
17,52,55961,1,2,0:2:0:0:
196,119,56130,2,0,P|120:141|58:162,1,143.550004380798,2|0,1:2|0:2,0:2:0:0:
50,171,56467,5,8,0:2:0:0:
166,24,56638,1,0,0:2:0:0:
252,231,56810,2,0,P|234:275|221:321,1,95.7000029205323,0|0,1:2|0:2,0:2:0:0:
460,196,57151,1,8,0:2:0:0:
287,71,57322,1,2,0:2:0:0:
324,314,57493,22,0,P|346:238|367:176,1,143.550004380798,2|0,1:2|0:2,0:2:0:0:
375,170,57828,1,10,0:2:0:0:
166,24,57996,2,0,P|183:68|196:114,1,95.7000029205323,2|0,0:2|1:2,0:2:0:0:
27,269,58333,2,0,P|67:217|146:214,1,143.550004380798,2|0,0:2|0:2,0:2:0:0:
144,222,58673,1,2,0:2:0:0:
32,58,58844,6,0,P|2:99|9:149,1,95.7000029205323,0|2,1:2|0:2,0:2:0:0:
213,289,59181,2,0,P|243:248|236:198,1,95.7000029205323,8|2,0:2|0:2,0:2:0:0:
465,68,59518,2,0,P|400:60|341:141,1,143.550004380798,0|0,1:2|0:2,0:2:0:0:
268,91,59855,2,0,P|238:50|245:0,1,95.7000029205323,8|2,0:2|0:2,0:2:0:0:
405,173,60205,22,0,B|427:219|380:277|368:243|325:288|336:339,1,191.400005841065,2|8,1:2|0:2,0:2:0:0:
318,187,60713,1,2,0:2:0:0:
512,305,60882,2,0,P|466:318|421:335,1,95.7000029205323,2|0,1:2|0:2,0:2:0:0:
491,119,61221,1,8,0:2:0:0:
329,269,61391,1,2,0:2:0:0:
201,33,61560,5,10,0:2:0:0:
201,33,61645,1,8,0:2:0:0:
201,33,61730,1,0,1:2:0:0:
61,261,61901,1,0,1:2:0:0:
232,170,62072,1,8,0:2:0:0:
232,170,62157,1,8,0:2:0:0:
232,170,62242,1,2,1:2:0:0:
31,82,62413,1,0,1:2:0:0:
156,290,62584,2,0,P|200:272|246:259,1,95.7000029205323,8|0,0:2|1:2,0:2:0:0:
329,269,62840,21,0,1:2:0:0:
329,269,62925,2,0,B|359:182|359:182|336:164|309:141,1,143.550004380798,6|0,1:2|0:2,0:2:0:0:
341,78,63262,2,0,P|379:44|429:54,1,95.7000029205323,8|0,0:2|0:2,0:2:0:0:
229,172,63599,2,0,P|182:175|149:142,1,95.7000029205323,0|0,1:2|0:2,0:2:0:0:
62,0,63936,1,10,0:2:0:0:
232,78,64104,1,2,0:2:0:0:
45,177,64273,6,0,P|25:242|-2:318,1,143.550004380798,2|0,1:2|0:2,0:2:0:0:
59,365,64610,2,0,P|92:332|138:335,1,95.7000029205323,8|0,0:2|0:2,0:2:0:0:
393,281,64952,2,0,P|350:331|276:314,1,143.550004380798,0|0,1:2|0:2,0:2:0:0:
207,286,65295,2,0,P|193:240|176:195,1,95.7000029205323,10|0,0:2|0:2,0:2:0:0:
232,134,65552,21,8,0:2:0:0:
232,134,65638,2,0,B|271:96|320:102|320:102|351:152|405:154,1,191.400005841065,2|10,1:2|0:2,0:2:0:0:
197,13,66143,2,0,P|154:70|70:67,1,143.550004380798,2|0,0:2|0:2,0:2:0:0:
31,127,66480,2,0,P|-2:86|7:32,1,95.7000029205323,2|8,0:2|0:2,0:2:0:0:
176,195,66817,1,2,1:2:0:0:
0,350,66986,1,8,0:2:0:0:
0,350,67660,6,0,P|43:295|121:297,2,143.550004380798,10|6|2,0:3|0:3|1:2,0:2:0:0:
199,275,68375,22,0,P|228:317|346:315,2,174,6|0|2,1:2|1:2|1:2,0:2:0:0:
363,203,69189,1,0,3:2:0:0:
259,158,69358,2,0,P|271:200|284:249,1,87,0|0,1:2|0:2,0:2:0:0:
475,81,69697,6,0,P|462:123|451:164,1,87,0|0,1:2|0:2,0:2:0:0:
287,14,70039,2,0,P|300:56|310:97,1,87,0|0,1:2|0:2,0:2:0:0:
259,156,70297,1,0,3:2:0:0:
259,156,70382,2,0,P|211:186|164:172,1,87,2|0,1:2|0:2,0:2:0:0:
164,193,70639,2,0,P|122:160|120:113,1,87,2|0,0:2|0:2,0:2:0:0:
105,120,70897,1,2,0:2:0:0:
360,206,71068,22,0,B|449:220|417:267|520:287,1,174,2|0,1:2|1:2,0:2:0:0:
437,197,71577,1,2,0:2:0:0:
352,309,71744,2,0,P|399:292|442:280,1,87,2|0,1:2|0:2,0:2:0:0:
277,255,72077,2,0,P|250:288|258:341,1,87,0|0,1:2|3:2,0:2:0:0:
138,136,72414,6,0,P|177:189|155:259,1,130.5,0|0,1:2|0:2,0:2:0:0:
151,255,72751,1,0,1:2:0:0:
22,138,72919,1,8,0:3:0:0:
184,34,73088,1,0,1:2:0:0:
70,0,73256,1,4,0:3:0:0:
138,136,73425,2,0,P|204:113|276:93,1,130.5,0|0,1:2|0:2,0:2:0:0:
318,36,73759,22,0,B|294:98|274:157|274:157|304:176|335:203,1,191.400005841065,6|10,1:2|0:2,0:2:0:0:
475,150,74267,2,0,P|424:114|388:124,1,95.7000029205323,6|0,1:2|0:2,0:2:0:0:
486,309,74606,1,6,0:3:0:0:
486,309,74691,1,8,0:3:0:0:
486,309,74775,2,0,P|492:286|505:257,1,47.8500014602662,8|8,0:2|0:3,0:2:0:0:
288,300,74945,5,6,0:3:0:0:
288,300,75030,1,0,1:2:0:0:
288,300,75114,2,0,P|334:285|379:274,1,95.7000029205323,4|0,1:2|0:2,0:2:0:0:
380,274,75369,1,8,0:2:0:0:
380,274,75453,1,8,0:2:0:0:
227,371,75623,1,6,1:2:0:0:
152,167,75792,1,10,0:3:0:0:
183,178,75877,1,8,0:3:0:0:
200,206,75962,1,6,0:3:0:0:
196,239,76047,1,0,1:2:0:0:
171,261,76131,1,0,1:2:0:0:
138,270,76216,1,4,0:3:0:0:
113,296,76301,1,10,0:2:0:0:
111,329,76386,1,8,0:2:0:0:
129,356,76470,22,0,P|146:293|168:231,1,95.7000029205323,6|0,1:2|0:2,0:2:0:0:
156,264,76725,1,8,0:2:0:0:
156,264,76809,1,10,0:2:0:0:
0,132,76979,2,0,P|14:177|27:223,1,95.7000029205323,6|0,1:2|0:2,0:2:0:0:
27,223,77233,1,8,0:3:0:0:
27,223,77318,1,10,0:3:0:0:
199,89,77487,1,4,0:3:0:0:
62,26,77657,6,0,P|71:53|81:81,1,47.8500014602662,10|8,0:2|0:2,0:2:0:0:
105,148,77826,1,8,0:2:0:0:
299,56,77993,1,10,0:2:0:0:
299,56,78077,1,8,0:2:0:0:
299,56,78161,1,0,1:2:0:0:
173,0,78319,1,10,0:2:0:0:
279,183,78478,21,8,0:2:0:0:
279,183,78562,1,8,0:2:0:0:
279,183,78646,2,0,P|301:174|324:167,1,47.8500014602662,8|10,0:3|0:3,0:2:0:0:
510,104,78815,1,4,0:3:0:0:
493,72,78899,1,4,0:3:0:0:
464,52,78983,1,0,1:2:0:0:
428,47,79067,1,0,1:2:0:0:
395,59,79152,6,0,B|373:105|420:163|432:129|475:174|464:225,1,191.400005841065,6|8,1:2|0:2,0:2:0:0:
234,359,79686,22,0,P|308:328|371:309,1,143.550004380798,6|0,1:2|1:2,0:2:0:0:
380,317,80025,1,8,0:2:0:0:
17,200,80195,6,0,P|78:206|127:319,1,191.400005841065,6|8,1:2|0:2,0:2:0:0:
278,111,80712,22,0,P|247:185|228:248,1,143.550004380798,6|0,1:2|0:2,0:2:0:0:
234,258,81051,1,8,0:2:0:0:
392,73,81218,5,2,1:2:0:0:
493,234,81385,1,0,1:2:0:0:
359,177,81552,1,10,0:3:0:0:
493,110,81719,1,0,1:2:0:0:
350,304,81898,22,0,P|296:318|225:259,1,143.550004380798,6|0,1:2|0:2,0:2:0:0:
234,258,82232,1,8,0:2:0:0:
31,351,82400,1,0,1:2:0:0:
87,196,82567,6,0,P|118:262|148:335,1,143.550004380798,2|0,0:2|1:2,0:2:0:0:
141,336,82939,1,8,0:2:0:0:
0,236,83096,1,0,1:2:0:0:
170,116,83253,21,2,1:2:0:0:
31,73,83422,1,8,0:2:0:0:
149,248,83591,1,0,1:2:0:0:
271,62,83759,5,8,0:3:0:0:
240,50,83844,1,8,0:3:0:0:
208,55,83928,1,10,0:3:0:0:
182,74,84013,1,4,0:3:0:0:
169,104,84097,1,4,0:3:0:0:
348,176,84266,2,0,P|288:155|242:144,1,95.7000029205323,4|0,0:3|1:2,0:2:0:0:
428,37,84604,1,6,1:2:0:0:
256,192,84688,12,0,90065,1:2:0:0:
174,384,95485,6,0,P|163:323|151:244,1,139.2,6|0,1:2|1:2,0:2:0:0:
151,246,95966,1,2,0:0:0:0:
235,302,96135,1,2,1:2:0:0:
294,248,96305,2,0,P|307:216|315:178,1,69.6,2|0,0:2|1:2,0:2:0:0:
376,130,96644,1,2,0:2:0:0:
269,54,96813,22,0,P|228:45|192:33,2,69.6,2|2|2,1:2|0:2|1:2,0:2:0:0:
435,189,97324,2,0,P|488:151|462:77,1,139.2,2|0,0:2|0:2,0:2:0:0:
473,86,97835,1,0,1:2:0:0:
355,217,98006,1,2,0:2:0:0:
388,290,98176,6,0,B|350:294|350:294|319:311,1,69.6,2|0,1:2|0:2,0:2:0:0:
123,191,98517,2,0,P|157:199|192:212,1,69.6,2|0,1:2|0:2,0:2:0:0:
339,383,98858,1,2,1:2:0:0:
210,288,99028,1,2,0:2:0:0:
270,234,99199,2,0,P|279:200|287:154,1,69.6,2|0,1:2|0:2,0:2:0:0:
64,264,99540,22,0,B|77:343|115:304|126:389,1,139.2,2|0,1:2|1:2,0:2:0:0:
125,384,100047,2,0,B|153:368|153:368|207:360,1,69.6,2|2,0:2|1:2,0:2:0:0:
69,106,100547,2,0,P|25:94|-9:78,1,69.6,2|0,1:2|0:2,0:2:0:0:
183,180,100880,5,0,1:2:0:0:
163,254,101049,2,0,B|238:248|208:276|305:265,1,139.2,2|0,0:2|0:2,0:2:0:0:
85,222,101557,2,0,B|45:230|45:230|13:255,1,69.6,2|0,1:2|0:2,0:2:0:0:
186,174,101896,2,0,P|197:145|206:101,1,69.6,2|2,1:2|0:2,0:2:0:0:
353,202,102247,22,0,B|428:219|393:259|470:282,2,139.2,2|2|2,1:2|1:2|1:2,0:2:0:0:
182,384,103256,2,0,B|184:358|184:358|168:316,1,69.6,2|0,1:2|0:2,0:2:0:0:
95,167,103610,5,0,1:2:0:0:
193,245,103766,1,2,0:2:0:0:
88,291,103922,2,0,P|54:301|20:309,1,69.6,2|0,1:2|0:2,0:2:0:0:
250,171,104262,21,2,1:2:0:0:
180,128,104433,2,0,P|170:93|165:50,1,69.6,2|0,0:2|1:2,0:2:0:0:
295,242,104769,1,2,0:2:0:0:
377,244,104936,6,0,B|365:319|326:284|315:369,2,139.2,2|2|2,1:2|1:2|1:2,0:2:0:0:
512,72,105947,2,0,P|475:86|432:93,1,69.6,2|0,1:2|0:2,0:2:0:0:
234,203,106292,21,4,1:2:0:0:
330,119,106464,1,2,0:2:0:0:
268,75,106636,2,0,P|261:40|256:4,1,69.6,2|0,1:2|0:2,0:2:0:0:
119,166,106981,2,0,P|97:211|99:274,1,104.4,2|0,1:2|0:2,0:2:0:0:
96,264,107326,2,0,P|60:265|20:283,1,69.6,2|0,1:2|0:2,0:2:0:0:
199,148,107671,5,2,1:2:0:0:
79,27,107843,1,2,0:2:0:0:
146,67,108016,2,0,B|174:53|174:53|223:47,1,69.6,2|0,1:2|0:2,0:2:0:0:
382,202,108331,2,0,B|300:194|329:233|232:231,1,139.2,2|0,1:2|1:2,0:2:0:0:
416,128,108830,1,0,0:2:0:0:
416,128,108917,1,0,3:2:0:0:
416,128,109003,22,0,B|413:98|413:98|437:54,1,69.6,2|0,1:2|0:2,0:2:0:0:
334,293,109341,2,0,L|354:373,1,69.6,2|0,1:2|0:2,0:2:0:0:
280,380,109680,1,2,1:2:0:0:
434,235,109850,1,2,0:2:0:0:
364,192,110019,2,0,P|324:182|288:169,1,69.6,2|0,1:2|3:2,0:2:0:0:
61,288,110358,6,0,B|110:270|110:270|182:264,1,104.4,2|0,1:2|0:2,0:2:0:0:
162,265,110697,2,0,P|176:234|181:197,1,69.6,2|0,1:2|0:2,0:2:0:0:
317,15,111036,2,0,L|333:91,1,69.6,2|0,1:2|3:2,0:2:0:0:
102,161,111378,2,0,B|89:97|130:122|112:50,1,104.4,2|0,1:2|0:2,0:2:0:0:
114,60,111720,21,0,1:2:0:0:
253,128,111889,1,2,0:2:0:0:
222,199,112058,2,0,B|260:203|260:203|301:224,1,69.6,2|0,1:2|0:2,0:2:0:0:
440,173,112397,1,2,1:2:0:0:
276,294,112567,1,2,0:2:0:0:
386,113,112736,2,0,L|398:38,1,69.6,2|0,1:2|3:2,0:2:0:0:
490,238,113075,6,0,P|499:298|512:387,2,139.2,2|2|2,1:2|1:2|1:2,0:2:0:0:
337,186,113923,1,0,0:2:0:0:
337,186,114008,1,0,3:2:0:0:
337,186,114092,2,0,P|296:174|266:164,1,69.6,2|0,1:2|3:2,0:2:0:0:
446,90,114431,22,0,B|476:76|476:76|517:70,1,69.6,0|0,1:2|0:2,0:2:0:0:
485,0,114770,1,2,1:2:0:0:
371,111,114940,1,2,0:2:0:0:
301,69,115109,2,0,P|291:31|287:-2,1,69.6,2|0,1:2|0:2,0:2:0:0:
192,183,115448,2,0,B|181:221|181:221|178:261,1,69.6,2|0,1:2|3:2,0:2:0:0:
403,204,115787,6,0,L|323:185,1,69.6,2|0,1:2|0:2,0:2:0:0:
87,95,116124,2,0,L|167:76,1,69.6,2|0,1:2|0:2,0:2:0:0:
98,299,116461,2,0,B|47:275|47:275|-3:264,1,104.4,2|0,1:2|0:2,0:2:0:0:
0,264,116798,1,2,1:2:0:0:
179,366,116966,1,8,0:2:0:0:
179,366,117051,1,8,0:2:0:0:
179,366,117135,22,0,B|179:273|228:314|228:215,1,156.599995220947,6|8,1:2|0:2,0:2:0:0:
360,87,117643,1,2,1:2:0:0:
360,87,117728,1,0,1:2:0:0:
360,87,117812,1,0,1:2:0:0:
402,157,117982,1,0,1:2:0:0:
258,89,118151,2,0,P|211:76|169:61,1,78.2999976104737,10|0,0:2|0:2,0:2:0:0:
321,200,118490,6,0,B|337:232|337:232|345:282,1,78.2999976104737,2|0,1:2|1:2,0:2:0:0:
168,156,118829,2,0,L|64:180,1,78.2999976104737,10|4,0:2|0:3,0:2:0:0:
91,174,119084,1,8,0:0:0:0:
91,174,119168,1,0,1:2:0:0:
168,271,119338,1,0,1:2:0:0:
99,308,119507,2,0,L|83:390,1,78.2999976104737,10|0,0:2|0:2,0:2:0:0:
272,212,119846,22,0,P|270:156|252:98,1,117.449996415711,2|0,1:2|0:2,0:2:0:0:
251,97,120185,1,10,0:2:0:0:
144,0,120355,1,4,0:3:0:0:
144,0,120440,1,4,0:3:0:0:
144,0,120524,2,0,P|129:30|124:81,1,78.2999976104737,2|0,1:2|1:2,0:2:0:0:
308,29,120863,2,0,B|273:14|273:14|227:9,1,78.2999976104737,10|0,0:2|0:2,0:2:0:0:
114,175,121202,6,0,L|18:197,1,78.2999976104737,2|0,1:2|1:2,0:2:0:0:
252,272,121541,2,0,L|340:293,1,78.2999976104737,10|8,0:2|0:2,0:2:0:0:
328,290,121796,1,8,0:0:0:0:
328,290,121880,2,0,P|339:248|345:202,1,78.2999976104737,2|0,1:2|1:2,0:2:0:0:
130,310,122219,2,0,B|146:347|146:347|154:395,1,78.2999976104737,10|0,0:2|0:2,0:2:0:0:
271,165,122558,21,8,0:2:0:0:
222,97,122728,2,0,B|261:91|261:91|298:70,1,78.2999976104737,2|8,1:2|0:2,0:2:0:0:
294,71,123067,1,0,1:2:0:0:
187,243,123236,5,10,0:2:0:0:
355,193,123406,1,2,1:2:0:0:
144,179,123575,21,10,0:2:0:0:
363,273,123745,1,2,1:2:0:0:
136,304,123914,6,0,L|120:387,1,78.2999976104737,10|0,0:2|1:2,0:2:0:0:
416,129,124253,2,0,B|401:96|401:96|396:52,1,78.2999976104737,10|0,0:2|1:2,0:2:0:0:
285,245,124592,1,10,0:2:0:0:
485,173,124762,1,2,1:2:0:0:
317,67,124931,2,0,P|271:56|225:39,1,78.2999976104737,10|0,0:2|1:2,0:2:0:0:
458,245,125270,21,6,1:2:0:0:
350,190,125608,5,0,1:2:0:0:
381,266,125778,1,0,1:2:0:0:
286,147,125947,21,2,1:2:0:0:
243,303,126135,1,0,1:2:0:0:
133,111,126305,5,0,1:2:0:0:
180,352,126475,1,0,1:2:0:0:
60,231,126646,21,2,1:2:0:0:
199,161,126818,1,0,1:2:0:0:
27,151,126990,5,0,1:2:0:0:
243,226,127163,1,8,1:2:0:0:
23,293,127335,21,10,1:2:0:0:
283,162,127495,1,8,1:2:0:0:
241,93,127655,2,0,B|232:49|227:9,1,78.2999976104737,8|8,1:2|1:2,0:2:0:0:
345,300,128004,6,0,B|336:344|331:384,1,78.2999976104737,2|8,1:2|0:2,0:2:0:0:
403,242,128337,21,8,0:2:0:0:
268,298,128504,1,8,0:2:0:0:
415,357,128670,5,10,1:2:0:0:
243,226,128838,1,8,0:2:0:0:
465,199,129007,21,8,0:2:0:0:
230,365,129175,1,8,0:2:0:0:
392,154,129344,5,10,1:2:0:0:
497,272,129512,1,8,0:2:0:0:
463,83,129681,21,8,0:2:0:0:
332,209,129849,1,8,0:2:0:0:
377,48,130018,5,10,0:2:0:0:
512,141,130186,1,10,0:2:0:0:
439,0,130355,21,10,0:2:0:0:
138,338,130692,6,0,P|87:297|99:226,1,139.2,6|2,1:2|0:2,0:2:0:0:
95,229,132080,2,0,P|143:222|201:195,1,104.399996813965,2|0,0:2|0:2,0:2:0:0:
453,128,132754,2,0,L|350:106,1,104.399996813965,2|0,0:2|0:2,0:2:0:0:
72,0,133428,22,0,P|125:31|110:101,1,139.2,2|0,0:2|0:2,0:2:0:0:
112,98,133936,2,0,B|68:106|68:106|36:127,1,69.6,2|0,0:2|0:2,0:2:0:0:
209,219,134275,2,0,L|358:260,1,139.2,2|0,0:2|0:2,0:2:0:0:
186,136,134783,5,8,1:2:0:0:
115,334,134953,1,8,0:2:0:0:
100,70,135461,21,8,1:2:0:0:
203,377,135631,1,8,0:2:0:0:
402,0,136113,6,0,B|423:81|363:52|391:152,1,143.550004380798,4|0,1:2|0:2,0:2:0:0:
387,138,136451,2,0,B|336:147|336:147|294:169,1,87,8|0,0:2|0:2,0:2:0:0:
102,264,136790,2,0,P|51:249|0:234,1,87,0|0,1:2|0:2,0:2:0:0:
268,384,137129,1,10,0:2:0:0:
183,266,137299,1,2,0:2:0:0:
240,212,137468,21,2,1:2:0:0:
97,358,137638,1,0,0:2:0:0:
183,156,137807,2,0,P|175:109|168:64,1,87,8|0,0:2|0:2,0:2:0:0:
379,253,138146,2,0,B|364:296|364:296|356:351,1,87,0|0,1:2|0:2,0:2:0:0:
450,219,138485,2,0,P|494:184|477:112,1,130.5,10|0,0:2|0:2,0:2:0:0:
482,117,138824,6,0,P|436:110|401:89,1,87,2|0,1:2|0:2,0:2:0:0:
186,207,139163,2,0,B|226:190|226:190|278:183,1,87,8|0,0:2|0:2,0:2:0:0:
470,341,139507,21,0,1:2:0:0:
339,140,139680,1,0,0:2:0:0:
282,260,139852,5,10,0:2:0:0:
482,117,140025,2,0,L|501:15,1,87,2|2,0:2|1:2,0:2:0:0:
362,241,140364,21,0,1:2:0:0:
362,241,140448,1,0,1:2:0:0:
362,241,140532,2,0,B|378:276|378:276|386:331,1,87,8|0,0:2|0:2,0:2:0:0:
426,191,140867,5,0,1:2:0:0:
253,113,141034,1,0,0:2:0:0:
191,244,141202,21,8,0:2:0:0:
389,118,141370,1,2,0:2:0:0:
132,344,141537,6,0,P|107:287|108:216,1,130.5,2|0,1:2|0:2,0:2:0:0:
107,219,141876,1,10,0:2:0:0:
325,84,142046,2,0,L|345:-4,1,87,2|0,0:2|1:2,0:2:0:0:
86,142,142386,2,0,B|39:132|39:132|-5:111,1,87,2|8,0:2|0:2,0:2:0:0:
309,293,142726,22,0,B|414:273|386:323|493:301,1,174,2|2,0:2|0:2,0:2:0:0:
268,157,143236,1,8,0:2:0:0:
193,185,143406,2,0,B|189:153|189:153|166:103,1,87,2|0,0:2|1:2,0:2:0:0:
418,0,143746,2,0,L|398:92,1,87,2|8,0:2|0:2,0:2:0:0:
459,138,144086,1,2,0:2:0:0:
309,352,144256,6,0,P|356:321|323:218,1,174,2|8,1:2|0:2,0:2:0:0:
177,322,144770,1,2,0:0:0:0:
24,125,144941,2,0,B|17:147|17:147|44:218,1,87,2|0,1:2|0:2,0:2:0:0:
250,213,145284,1,8,0:2:0:0:
57,304,145442,22,0,P|77:294|112:284,1,43.5,2|0,1:2|1:2,0:2:0:0:
247,136,145601,1,10,0:2:0:0:
247,136,145691,1,8,0:2:0:0:
247,136,145781,1,0,1:2:0:0:
177,322,145962,6,0,P|185:301|190:269,1,43.5,0|0,1:2|1:2,0:2:0:0:
182,77,146135,1,8,0:2:0:0:
182,77,146222,1,8,0:2:0:0:
182,77,146308,1,2,1:2:0:0:
250,213,146472,21,0,1:2:0:0:
98,84,146637,2,0,P|86:38|77:-5,1,87,8|0,0:2|0:2,0:2:0:0:
378,249,146959,6,0,B|370:326|335:295|329:374,1,130.5,6|0,1:2|0:2,0:2:0:0:
329,367,147297,2,0,B|286:347|286:347|240:341,1,87,8|0,0:2|0:2,0:2:0:0:
424,173,147636,2,0,L|522:148,1,87,0|0,1:2|0:2,0:2:0:0:
469,79,147975,1,10,0:2:0:0:
250,213,148145,1,2,0:2:0:0:
147,131,148314,22,0,P|139:67|157:4,1,130.5,2|0,1:2|0:2,0:2:0:0:
156,4,148660,2,0,P|196:20|243:23,1,87,8|0,0:2|0:2,0:2:0:0:
430,262,149007,5,0,1:2:0:0:
319,110,149181,1,0,0:2:0:0:
250,213,149354,2,0,L|164:230,1,87,10|0,0:2|0:0,0:2:0:0:
443,139,149701,22,0,B|448:66|483:97|491:20,1,130.5,2|0,1:2|0:2,0:2:0:0:
491,21,150034,1,10,0:2:0:0:
327,241,150201,2,0,B|343:280|343:280|353:331,1,87,2|0,0:2|1:2,0:2:0:0:
130,160,150538,2,0,B|167:142|167:142|219:130,1,87,2|8,0:2|0:2,0:2:0:0:
445,233,150881,1,2,1:2:0:0:
445,233,150967,1,0,1:2:0:0:
445,233,151052,6,0,L|403:222,1,43.5,8|0,0:2|0:2,0:2:0:0:
144,344,151711,22,0,B|73:347|95:374|11:386,2,130.5,10|6|2,0:3|0:3|1:2,0:2:0:0:
302,191,152390,6,0,L|329:43,1,139.2,6|0,1:2|1:2,0:2:0:0:
223,0,152899,2,0,B|238:29|238:29|247:75,1,69.6,2|2,0:2|1:2,0:2:0:0:
424,221,153323,1,0,3:2:0:0:
434,226,153408,2,0,L|522:204,1,69.6,0|0,1:2|3:2,0:2:0:0:
396,352,153747,21,0,1:2:0:0:
330,298,153917,1,0,0:2:0:0:
222,366,154087,2,0,B|181:373|181:373|137:393,1,69.6,0|0,1:2|0:2,0:2:0:0:
340,215,154426,6,0,L|323:136,1,78.2999976104737,2|8,1:2|0:3,0:2:0:0:
323,138,154681,1,10,0:3:0:0:
323,138,154766,1,0,1:2:0:0:
256,68,154935,1,6,0:3:0:0:
485,0,155105,22,0,B|479:88|430:52|417:139,1,156.599995220947,6|0,1:2|1:2,0:2:0:0:
417,135,155609,1,2,0:2:0:0:
511,306,155778,2,0,B|476:290|476:290|428:280,1,78.2999976104737,2|0,1:2|0:2,0:2:0:0:
212,211,156114,2,0,L|292:194,1,78.2999976104737,0|0,1:2|0:2,0:2:0:0:
365,223,156451,1,0,1:2:0:0:
181,383,156619,6,0,P|171:366|166:340,1,39.1499988052369,8|8,0:3|0:3,0:2:0:0:
297,272,156788,1,8,0:3:0:0:
78,313,156956,22,0,P|87:295|107:278,1,39.1499988052369,4|4,0:3|0:3,0:2:0:0:
246,333,157124,1,4,0:3:0:0:
246,333,157292,1,0,1:2:0:0:
29,169,157461,2,0,L|129:196,1,87,8|0,0:2|1:2,0:2:0:0:
364,101,157803,6,0,P|421:64|389:-9,1,143.550004380798,6|0,1:2|0:2,0:2:0:0:
403,0,158141,1,10,0:2:0:0:
203,135,158311,22,0,L|224:245,1,95.7000029205323,6|0,1:2|0:2,0:2:0:0:
417,347,158650,1,6,0:3:0:0:
457,317,158735,1,8,0:3:0:0:
436,275,158819,2,0,L|383:261,2,47.8500014602662,8|8|2,0:2|0:2|1:2,0:2:0:0:
251,358,159158,6,0,B|160:351|196:390|86:383,1,143.550004380798,4|8,1:2|0:3,0:2:0:0:
111,383,159497,1,4,0:3:0:0:
313,227,159667,1,6,1:2:0:0:
201,279,159836,21,6,0:3:0:0:
201,279,159921,1,8,0:3:0:0:
201,279,160006,2,0,L|189:230,2,47.8500014602662,10|4|0,0:2|0:3|1:2,0:2:0:0:
323,130,160345,1,10,0:2:0:0:
366,148,160430,1,8,0:2:0:0:
397,120,160514,6,0,L|408:66,1,47.8500014602662,6|0,1:2|1:2,0:2:0:0:
363,0,160684,1,8,0:2:0:0:
363,0,160769,1,8,0:2:0:0:
363,0,160853,2,0,L|374:54,1,47.8500014602662,10|0,0:2|1:2,0:2:0:0:
196,174,161023,22,0,L|185:120,1,47.8500014602662,6|0,1:2|1:2,0:2:0:0:
265,32,161192,1,8,0:2:0:0:
265,32,161277,1,8,0:2:0:0:
265,32,161362,2,0,L|254:86,1,47.8500014602662,10|8,0:2|0:2,0:2:0:0:
97,95,161531,6,0,L|134:64,3,43.5,8|8|4|2,0:3|0:3|0:3|1:2,0:2:0:0:
8,208,161862,21,8,0:2:0:0:
43,251,161947,1,8,0:2:0:0:
18,293,162033,1,8,0:2:0:0:
40,311,162119,1,10,0:2:0:0:
40,311,162204,2,0,L|31:366,1,43.5,0|0,1:2|1:2,0:2:0:0:
162,384,162376,5,10,0:2:0:0:
210,371,162462,1,8,0:2:0:0:
234,331,162547,1,8,0:2:0:0:
226,285,162633,1,8,0:3:0:0:
191,251,162719,22,0,L|144:239,1,43.5,10|8,0:3|0:3,0:2:0:0:
288,179,162890,2,0,L|335:167,3,43.5,4|4|0|0,0:3|0:3|1:2|1:2,0:2:0:0:
163,154,163233,6,0,L|133:15,1,130.5,6|0,1:2|0:2,0:2:0:0:
135,26,163571,1,8,0:2:0:0:
332,259,163740,22,0,B|414:271|376:315|465:332,1,143.550004380798,6|0,1:2|1:2,0:2:0:0:
452,329,164079,1,8,0:2:0:0:
152,340,164248,6,0,L|-13:380,1,156.599995220947,6|0,1:2|0:2,0:2:0:0:
0,376,164586,1,8,0:2:0:0:
264,96,164755,22,0,P|251:165|234:250,1,143.550004380798,6|0,1:2|0:2,0:2:0:0:
236,236,165094,1,8,0:3:0:0:
73,95,165263,6,0,B|61:56|61:56|55:11,1,87,2|4,1:2|0:3,0:2:0:0:
340,172,165598,2,0,L|439:148,1,87,2|0,1:2|1:2,0:2:0:0:
193,326,165933,21,14,0:2:0:0:
386,248,166101,1,0,1:2:0:0:
386,248,166270,1,0,1:2:0:0:
123,266,166438,5,12,0:2:0:0:
371,331,166607,1,2,1:2:0:0:
371,331,166775,1,0,1:2:0:0:
135,182,166944,21,12,0:2:0:0:
311,383,167112,1,0,1:2:0:0:
273,221,167281,5,2,1:2:0:0:
17,369,167444,2,0,L|113:346,1,87,12|0,0:2|1:2,0:2:0:0:
346,176,167786,1,8,0:3:0:0:
346,176,167876,1,8,0:3:0:0:
346,176,167966,21,10,0:2:0:0:
291,110,168145,1,4,0:3:0:0:
337,49,168325,1,0,1:2:0:0:
65,258,168648,21,14,0:2:0:0:
143,203,168816,1,0,1:2:0:0:
22,157,168985,1,0,1:2:0:0:
159,318,169153,2,0,P|225:295|308:275,1,130.5,14|0,0:2|0:2,0:2:0:0:
295,288,169490,1,0,1:2:0:0:
443,70,169659,5,14,0:2:0:0:
274,183,169827,1,0,1:2:0:0:
457,269,169996,1,0,1:2:0:0:
363,25,170165,2,0,P|345:63|326:112,1,87,14|0,0:2|0:2,0:2:0:0:
228,35,170505,1,0,1:2:0:0:
386,199,170675,22,0,P|425:181|465:164,1,87,14|0,0:2|0:2,0:2:0:0:
295,288,171015,2,0,P|277:327|260:367,1,87,10|0,0:2|0:2,0:2:0:0:
59,118,171355,5,14,0:2:0:0:
198,247,171525,1,0,1:2:0:0:
198,247,171695,1,0,1:2:0:0:
59,363,171865,21,8,0:2:0:0:
279,162,172011,1,0,1:2:0:0:
279,162,172184,1,0,1:2:0:0:
136,41,172357,5,12,0:2:0:0:
295,288,172531,1,0,1:2:0:0:
499,57,172704,21,8,0:2:0:0:
409,117,172875,1,0,1:2:0:0:
342,20,173047,5,0,1:2:0:0:
504,171,173219,1,8,1:2:0:0:
295,288,173391,21,8,0:2:0:0:
421,35,173562,1,8,0:2:0:0:
115,170,173734,6,0,P|151:184|186:201,1,78.2999976104737,8|0,0:2|0:2,0:2:0:0:
189,211,174078,21,6,1:2:0:0:
53,353,174247,2,0,P|93:310|185:318,1,139.2,2|0,0:2|0:2,0:2:0:0:
298,280,174755,1,2,1:2:0:0:
257,361,174925,1,2,0:2:0:0:
375,319,175094,2,0,P|420:303|454:297,1,69.6,2|0,1:2|0:2,0:2:0:0:
279,195,175433,6,0,P|245:202|212:215,1,69.6,2|0,1:2|0:2,0:2:0:0:
437,86,175772,2,0,P|402:118|331:107,1,104.4,2|0,1:2|0:2,0:2:0:0:
337,111,176111,2,0,P|324:72|311:38,1,69.6,2|0,1:2|0:2,0:2:0:0:
122,31,176450,2,0,P|172:28|211:62,1,104.4,0|0,1:2|0:2,0:2:0:0:
210,71,176789,21,2,1:2:0:0:
51,112,176959,2,0,P|84:122|116:135,1,69.6,2|0,0:2|1:2,0:2:0:0:
193,209,177298,2,0,P|249:191|354:168,1,139.2,2|0,0:2|0:2,0:2:0:0:
441,41,177806,1,2,1:2:0:0:
359,82,177976,1,2,0:2:0:0:
418,195,178145,6,0,P|428:161|441:129,1,69.6,2|0,1:2|0:2,0:2:0:0:
353,252,178475,1,2,1:2:0:0:
416,316,178649,1,2,0:0:0:0:
322,360,178819,2,0,P|254:369|202:326,1,139.2,2|0,1:2|1:2,0:2:0:0:
45,256,179336,1,2,0:2:0:0:
0,321,179508,22,0,P|53:299|158:270,1,139.2,2|0,1:2|1:2,0:2:0:0:
209,63,180015,2,0,P|243:102|225:174,1,104.4,2|0,0:2|0:2,0:2:0:0:
232,163,180353,2,0,P|184:150|147:143,1,69.6,2|0,0:2|1:2,0:2:0:0:
311,242,180691,6,0,P|366:255|437:278,1,104.4,2|0,0:2|0:2,0:2:0:0:
418,278,181029,2,0,P|458:239|454:210,1,69.6,2|0,0:2|1:2,0:2:0:0:
369,39,181367,2,0,P|349:77|379:144,1,104.4,2|0,0:2|0:2,0:2:0:0:
376,140,181705,2,0,P|424:127|461:120,1,69.6,2|0,0:2|1:2,0:2:0:0:
311,242,182043,1,2,0:2:0:0:
257,300,182212,22,0,B|187:312|211:345|130:365,2,139.2,2|0|0,1:2|1:2|1:2,0:2:0:0:
329,353,183057,1,2,0:2:0:0:
423,206,183226,1,2,1:2:0:0:
311,242,183395,1,2,0:2:0:0:
396,291,183564,5,0,1:2:0:0:
240,181,183743,1,8,0:3:0:0:
391,89,183923,1,0,1:2:0:0:
286,19,184102,21,4,0:3:0:0:
286,19,184177,1,4,0:3:0:0:
286,19,184252,1,4,0:3:0:0:
148,138,184419,1,4,0:3:0:0:
148,138,184503,1,0,1:2:0:0:
148,138,184587,2,0,P|81:141|32:93,1,130.5,8|0,0:2|0:2,0:2:0:0:
42,83,184922,5,6,1:2:0:0:
240,181,185094,2,0,B|336:191|300:245|408:256,1,174,2|0,0:2|1:2,0:2:0:0:
467,48,185611,1,10,0:2:0:0:
379,156,185780,1,2,0:2:0:0:
287,73,185949,1,2,0:2:0:0:
468,138,186119,22,0,P|417:152|376:167,1,87,10|0,0:2|0:2,0:2:0:0:
258,309,186457,1,2,0:2:0:0:
180,247,186626,1,2,1:2:0:0:
272,202,186795,1,0,1:2:0:0:
166,348,186964,2,0,P|124:333|82:322,1,87,10|0,0:2|0:2,0:2:0:0:
83,212,187302,2,0,P|41:227|0:238,1,87,0|8,1:2|0:2,0:2:0:0:
192,62,187640,5,2,1:2:0:0:
91,23,187809,1,10,0:2:0:0:
155,151,187978,2,0,P|166:108|180:67,1,87,0|0,0:2|1:2,0:2:0:0:
59,118,188316,1,10,0:2:0:0:
225,217,188485,2,0,P|303:196|416:172,1,174,2|0,0:2|1:2,0:2:0:0:
489,220,188992,22,0,P|508:263|490:306,1,87,2|0,0:2|1:2,0:2:0:0:
308,102,189334,2,0,P|289:63|300:22,1,87,2|0,1:2|0:2,0:2:0:0:
361,267,189677,6,0,P|372:224|386:183,1,87,10|0,0:2|0:2,0:2:0:0:
163,358,190008,2,0,P|152:315|138:274,1,87,2|0,0:2|0:2,0:2:0:0:
0,77,190340,21,14,0:2:0:0:
55,161,190509,1,0,1:2:0:0:
98,20,190678,5,8,0:2:0:0:
60,165,190848,1,2,1:2:0:0:
213,62,191017,21,10,0:2:0:0:
57,170,191187,1,0,1:2:0:0:
247,240,191356,5,8,0:2:0:0:
52,167,191526,1,0,1:2:0:0:
323,36,191695,21,8,0:2:0:0:
161,182,191865,1,0,1:2:0:0:
327,34,192034,5,8,0:2:0:0:
302,307,192204,1,0,1:2:0:0:
323,30,192373,21,8,0:2:0:0:
483,259,192543,1,0,1:2:0:0:
248,147,192712,2,0,P|296:132|361:111,1,87,8|0,0:2|1:2,0:2:0:0:
402,170,192962,5,0,1:2:0:0:
402,170,193045,2,0,P|437:123|427:83,1,87,10|0,1:2|0:2,0:2:0:0:
265,235,193380,2,0,P|214:182|139:193,1,130.5,8|8,0:3|0:2,0:2:0:0:
112,120,193715,2,0,P|81:154|85:202,1,87,2|8,1:2|0:2,0:2:0:0:
81,192,193966,1,8,0:2:0:0:
81,192,194050,1,0,1:2:0:0:
186,384,194222,1,10,0:2:0:0:
0,346,194394,21,2,1:2:0:0:
11,319,194479,1,8,0:2:0:0:
30,297,194564,1,8,0:2:0:0:
55,283,194649,1,8,0:2:0:0:
83,277,194734,1,0,1:2:0:0:
112,281,194825,1,8,0:2:0:0:
138,293,194916,2,0,L|119:350,1,43.5,10|8,0:2|0:2,0:2:0:0:
357,367,195099,5,2,1:2:0:0:
321,335,195181,1,8,0:2:0:0:
301,291,195264,1,8,0:2:0:0:
316,245,195347,1,0,1:2:0:0:
351,212,195430,1,8,0:2:0:0:
398,208,195513,1,8,0:3:0:0:
432,174,195596,1,4,0:3:0:0:
449,129,195679,1,0,1:2:0:0:
430,86,195761,22,0,P|353:70|275:55,1,143.550004380798,6|0,1:2|0:2,0:2:0:0:
229,105,196099,2,0,P|202:62|213:7,1,95.7000029205323,10|0,0:2|0:2,0:2:0:0:
11,144,196438,1,2,1:2:0:0:
204,239,196608,1,2,1:2:0:0:
104,66,196777,1,10,0:2:0:0:
0,253,196947,6,0,P|41:240|93:227,1,95.7000029205323,2|0,1:2|0:2,0:2:0:0:
258,372,197286,2,0,P|216:359|165:346,1,95.7000029205323,2|8,1:2|0:2,0:2:0:0:
453,226,197625,2,0,P|415:276|325:262,1,143.550004380798,2|0,0:2|0:2,0:2:0:0:
327,280,197964,1,0,1:2:0:0:
178,146,198133,2,0,P|191:191|203:238,1,95.7000029205323,8|0,0:2|0:2,0:2:0:0:
431,34,198472,21,2,1:2:0:0:
275,127,198642,1,2,0:2:0:0:
356,175,198811,1,10,0:2:0:0:
229,12,198981,1,2,0:2:0:0:
73,242,199150,5,2,1:2:0:0:
178,146,199320,1,2,1:2:0:0:
31,94,199489,1,10,0:2:0:0:
203,238,199659,1,2,1:2:0:0:
0,363,199828,21,2,0:2:0:0:
73,242,199998,1,2,1:2:0:0:
243,352,200167,1,10,0:2:0:0:
178,146,200337,1,2,0:2:0:0:
376,304,200506,1,0,1:2:0:0:
474,61,200676,1,2,1:2:0:0:
279,140,200845,2,0,P|312:189|415:175,1,143.550004380798,10|0,0:2|0:2,0:2:0:0:
398,179,201184,5,0,1:2:0:0:
134,241,201354,22,0,P|125:263|117:286,1,47.8500014602662,2|0,0:2|0:2,0:2:0:0:
194,191,201523,2,0,P|185:168|177:145,1,47.8500014602662,10|0,0:2|0:2,0:2:0:0:
44,208,201693,2,0,P|89:223|133:240,1,95.7000029205323,2|0,0:2|1:2,0:2:0:0:
432,347,202032,6,0,P|424:324|415:301,1,47.8500014602662,2|0,1:2|0:2,0:2:0:0:
482,246,202201,2,0,P|489:223|498:200,1,47.8500014602662,10|0,0:2|0:2,0:2:0:0:
340,334,202371,2,0,P|317:325|295:317,1,47.8500014602662,2|0,1:2|0:2,0:2:0:0:
430,120,202540,22,0,P|403:180|324:188,1,143.550004380798,0|0,1:2|1:2,0:2:0:0:
318,201,202879,1,10,0:2:0:0:
400,4,203049,1,2,0:2:0:0:
249,63,203218,2,0,P|294:78|338:95,1,95.7000029205323,0|2,1:2|1:2,0:2:0:0:
111,0,203557,2,0,P|76:36|78:89,1,95.7000029205323,8|2,0:2|0:2,0:2:0:0:
237,269,203896,6,0,P|213:265|189:260,1,47.8500014602662,2|0,1:2|0:2,0:2:0:0:
116,168,204066,2,0,P|124:190|132:213,1,47.8500014602662,2|0,0:2|0:2,0:2:0:0:
87,322,204235,2,0,P|101:303|118:285,1,47.8500014602662,10|0,0:2|0:2,0:2:0:0:
201,178,204405,22,0,P|217:160|232:141,1,47.8500014602662,2|0,0:2|0:2,0:2:0:0:
61,233,204574,2,0,P|37:227|13:224,1,47.8500014602662,2|0,1:2|0:2,0:2:0:0:
176,339,204744,2,0,P|183:361|192:384,1,47.8500014602662,2|0,1:2|0:2,0:2:0:0:
497,184,204913,6,0,P|437:181|394:262,1,143.550004380798,10|0,0:2|0:2,0:2:0:0:
318,223,205252,1,8,0:2:0:0:
315,214,205337,1,8,0:2:0:0:
312,206,205422,1,0,1:2:0:0:
411,20,205591,1,0,1:2:0:0:
237,84,205761,2,0,P|259:91|282:100,1,47.8500014602662,8|8,0:2|0:2,0:2:0:0:
292,109,205945,1,0,1:2:0:0:
151,0,206109,1,0,1:2:0:0:
27,220,206274,1,8,0:2:0:0:
155,120,206438,1,0,1:2:0:0:
13,7,206603,22,0,P|30:51|45:97,1,95.7000029205323,4|0,1:2|0:2,0:2:0:0:
233,240,206942,2,0,P|215:284|200:330,1,95.7000029205323,8|0,0:2|0:2,0:2:0:0:
317,135,207282,1,0,1:2:0:0:
130,217,207452,1,2,1:2:0:0:
314,349,207622,1,10,0:2:0:0:
459,124,207792,1,2,1:2:0:0:
335,236,207962,6,0,P|380:251|425:268,1,95.7000029205323,2|0,0:2|1:2,0:2:0:0:
227,58,208302,2,0,P|272:42|317:25,1,95.7000029205323,10|0,0:2|0:2,0:2:0:0:
130,217,208642,1,2,1:2:0:0:
23,14,208812,1,0,1:2:0:0:
248,149,208982,2,0,P|230:193|201:296,1,143.550004380798,10|0,0:2|0:2,0:2:0:0:
143,326,209322,21,2,1:2:0:0:
115,303,209407,1,2,0:2:0:0:
81,292,209492,1,2,0:2:0:0:
45,293,209577,1,2,0:2:0:0:
12,306,209662,1,10,0:2:0:0:
311,232,209832,5,2,0:2:0:0:
344,245,209917,1,2,0:2:0:0:
380,246,210002,1,2,1:2:0:0:
414,235,210086,1,2,0:2:0:0:
442,213,210170,1,2,1:2:0:0:
292,65,210339,2,0,P|314:73|337:81,1,47.8500014602662,10|0,0:2|0:2,0:2:0:0:
248,149,210507,22,0,P|292:131|435:92,1,191.400005841065,6|0,1:2|1:2,0:2:0:0:
165,7,211013,2,0,P|106:57|123:151,1,143.550004380798,10|0,0:2|0:2,0:2:0:0:
124,134,211350,5,2,1:2:0:0:
203,285,211515,1,2,1:2:0:0:
26,190,211680,2,0,P|71:206|115:222,1,95.7000029205323,8|0,0:2|0:2,0:2:0:0:
291,364,212010,21,14,0:2:0:0:
367,243,212185,1,0,1:2:0:0:
296,374,212360,1,0,1:2:0:0:
250,122,212536,5,10,0:2:0:0:
381,335,212705,1,0,1:2:0:0:
470,89,212874,1,0,1:2:0:0:
213,211,213044,21,14,0:2:0:0:
367,243,213213,1,0,1:2:0:0:
204,219,213383,1,0,1:2:0:0:
432,163,213552,5,10,0:2:0:0:
136,278,213721,1,0,1:2:0:0:
440,170,213891,1,0,1:2:0:0:
218,24,214060,22,0,P|234:68|250:113,1,95.7000029205323,14|0,0:2|1:2,0:2:0:0:
18,312,214412,2,0,P|34:268|51:223,1,95.7000029205323,14|0,0:2|1:2,0:2:0:0:
286,318,214740,5,14,0:2:0:0:
204,219,214906,1,0,1:2:0:0:
128,371,215073,1,0,1:2:0:0:
475,263,215265,22,0,P|438:212|339:224,1,143.550004380798,14|0,0:2|0:2,0:2:0:0:
353,200,215600,1,0,1:2:0:0:
171,41,215767,5,14,0:2:0:0:
271,161,215935,1,0,1:2:0:0:
342,4,216102,1,0,1:2:0:0:
35,114,216270,22,0,P|97:130|185:158,1,143.550004380798,14|0,0:2|0:2,0:2:0:0:
180,169,216605,1,0,1:2:0:0:
352,91,216771,6,0,P|397:74|441:58,1,95.7000029205323,14|0,0:2|1:2,0:2:0:0:
160,270,217103,2,0,P|114:286|70:302,1,95.7000029205323,14|0,0:2|1:2,0:2:0:0:
439,315,217447,21,4,1:2:0:0:
422,335,217531,1,8,0:2:0:0:
398,347,217616,1,8,0:2:0:0:
372,348,217701,1,8,0:2:0:0:
346,342,217785,2,0,P|336:313|327:292,1,47.8500014602662,8|8,0:2|0:2,0:2:0:0:
150,132,217955,5,4,1:2:0:0:
185,118,218040,1,8,0:2:0:0:
222,123,218124,1,8,0:2:0:0:
248,150,218209,1,8,0:2:0:0:
262,185,218294,2,0,P|253:207|245:229,1,47.8500014602662,8|8,0:2|0:2,0:2:0:0:
470,86,218463,21,4,1:2:0:0:
493,128,218548,1,4,0:3:0:0:
486,175,218633,1,8,0:3:0:0:
452,209,218718,1,8,0:3:0:0:
397,224,218802,2,0,P|374:215|352:207,1,47.8500014602662,8|8,0:2|0:2,0:2:0:0:
232,311,218972,5,4,1:2:0:0:
180,324,219057,1,8,0:3:0:0:
131,342,219141,1,4,0:3:0:0:
82,363,219226,1,8,0:2:0:0:
33,384,219311,2,0,P|25:361|16:339,1,47.8500014602662,8|8,0:2|0:2,0:2:0:0:
133,176,219480,22,0,P|140:153|149:131,3,47.8500014602662,4|8|8|8,1:2|0:2|0:2|0:2,0:2:0:0:
74,104,219819,2,0,P|66:81|57:59,3,47.8500014602662,4|8|8|8,1:2|0:2|0:2|0:2,0:2:0:0:
227,157,220158,5,4,1:2:0:0:
262,172,220242,1,8,0:3:0:0:
301,170,220327,1,8,0:3:0:0:
332,147,220412,1,8,0:2:0:0:
351,113,220496,1,8,0:2:0:0:
347,73,220581,1,8,0:2:0:0:
310,48,220666,21,4,0:3:0:0:
302,90,220751,1,4,0:3:0:0:
333,121,220835,1,0,0:2:0:0:
374,133,220916,1,8,0:2:0:0:
405,162,220998,1,8,0:2:0:0:
412,204,221080,1,8,0:2:0:0:
392,247,221162,5,8,0:3:0:0:
346,260,221244,1,8,0:3:0:0:
300,274,221326,1,0,1:2:0:0:
254,287,221408,1,0,1:2:0:0:
212,302,221490,1,8,0:2:0:0:
167,319,221577,1,8,0:2:0:0:
124,341,221665,21,8,0:2:0:0:
72,329,221753,1,8,0:3:0:0:
51,279,221840,1,4,0:3:0:0:
69,230,221925,1,8,0:2:0:0:
112,201,222010,1,8,0:2:0:0:
157,176,222095,1,8,0:2:0:0:
180,129,222180,1,8,0:2:0:0:
173,76,222266,1,8,0:2:0:0:
130,45,222351,5,8,0:3:0:0:
140,96,222436,1,8,0:3:0:0:
178,122,222521,1,4,0:3:0:0:
221,120,222608,1,4,0:3:0:0:
256,134,222695,1,0,1:2:0:0:
276,162,222783,1,0,1:2:0:0:
271,183,222870,22,0,P|261:139|228:41,1,121.799996282959,4|0,1:2|0:2,0:2:0:0:
308,8,223382,2,0,P|348:4|407:79,1,121.799996282959,2|0,0:2|0:2,0:2:0:0:
465,141,223895,2,0,P|449:178|435:238,1,91.3499972122193,2|0,0:2|0:2,0:2:0:0:
427,232,224237,6,0,P|390:216|363:210,1,60.8999981414796,2|0,0:2|0:2,0:2:0:0:
306,273,224579,1,2,0:2:0:0:
58,59,225263,22,0,P|29:91|34:152,1,91.3499972122193,2|0,0:2|0:2,0:2:0:0:
37,153,225605,5,2,0:2:0:0:
101,191,225946,1,2,0:2:0:0:
168,162,226288,1,2,0:2:0:0:
187,89,226630,1,2,0:2:0:0:
449,198,226972,21,2,0:2:0:0:
432,124,227314,1,2,0:2:0:0:
372,80,227656,1,2,0:2:0:0:
299,88,227998,1,2,0:2:0:0:
251,149,228308,6,0,P|268:199|286:269,1,121.799996282959,2|0,0:2|0:2,0:2:0:0:
216,342,228817,2,0,B|147:323|173:299|112:281,1,121.799996282959,2|0,0:2|0:2,0:2:0:0:
11,205,229326,2,0,P|53:207|99:160,1,91.3499972122193,2|0,0:2|0:2,0:2:0:0:
95,168,229665,22,0,P|81:124|73:100,1,60.8999981414796,2|0,0:2|0:2,0:2:0:0:
123,46,230005,1,2,0:2:0:0:
472,286,230684,6,0,P|428:296|364:319,1,91.3499972122193,2|0,0:2|0:2,0:2:0:0:
376,324,231023,21,2,0:2:0:0:
276,168,231363,1,2,0:2:0:0:
310,282,231702,1,2,0:2:0:0:
340,213,232042,1,2,0:2:0:0:
201,327,232381,6,0,P|226:334|257:346,2,52.1999984069825,2|2|2,0:2|0:2|0:2,0:2:0:0:
0,200,233714,6,0,B|60:190|60:190|66:187|66:187|72:188|72:188|138:177,1,139.2,6|8,1:2|0:2,0:2:0:0:
325,260,234228,1,10,0:3:0:0:
325,260,234314,1,4,0:3:0:0:
325,260,234399,2,0,P|346:236|346:199,1,69.6,0|0,1:2|1:2,0:2:0:0:
179,36,234742,2,0,P|158:60|158:97,1,69.6,10|0,0:2|0:2,0:2:0:0:
189,292,235085,21,2,1:2:0:0:
260,209,235256,1,0,1:2:0:0:
85,153,235428,2,0,L|0:170,1,87,10|0,0:2|0:2,0:2:0:0:
291,315,235766,1,0,1:2:0:0:
291,315,235935,1,0,1:2:0:0:
192,160,236104,2,0,B|212:84|157:117|180:27,1,130.5,10|0,0:2|0:2,0:2:0:0:
278,0,236442,6,0,P|303:24|296:72,1,78.2999976104737,2|0,1:2|1:2,0:2:0:0:
442,229,236780,2,0,P|467:205|460:157,1,78.2999976104737,10|4,0:2|0:3,0:2:0:0:
389,100,237033,1,0,1:2:0:0:
373,91,237118,1,2,1:2:0:0:
307,219,237287,1,0,1:2:0:0:
470,85,237456,2,0,L|455:-6,1,78.2999976104737,10|0,0:2|0:2,0:2:0:0:
217,183,237794,22,0,B|227:237|227:237|226:244|226:244|237:304,1,117.449996415711,2|0,1:2|0:2,0:2:0:0:
353,350,238132,2,0,B|367:331|367:331|308:343,1,78.2999976104737,10|0,0:2|1:2,0:2:0:0:
197,373,238385,1,0,1:2:0:0:
181,384,238470,1,2,1:2:0:0:
315,256,238636,1,0,1:2:0:0:
51,248,238803,2,0,L|139:232,1,87,10|0,0:2|0:2,0:2:0:0:
351,82,239150,5,8,0:2:0:0:
351,82,239319,1,2,1:2:0:0:
139,0,239488,2,0,L|160:98,1,87,10|0,0:2|1:2,0:2:0:0:
454,242,239827,22,0,L|433:144,1,87,10|0,0:2|1:2,0:2:0:0:
217,257,240166,5,10,0:2:0:0:
345,160,240336,1,2,1:2:0:0:
157,85,240498,21,10,0:2:0:0:
360,272,240667,1,2,1:2:0:0:
105,179,240836,5,10,0:2:0:0:
291,84,241006,1,2,1:2:0:0:
121,263,241175,22,0,L|31:281,1,87,10|0,0:2|1:2,0:2:0:0:
377,76,241514,2,0,L|462:58,1,87,10|0,0:2|1:2,0:2:0:0:
257,369,241847,5,6,1:2:0:0:
221,285,242187,21,0,1:2:0:0:
297,302,242357,1,0,1:2:0:0:
173,214,242527,5,2,1:2:0:0:
344,175,242698,1,0,1:2:0:0:
135,48,242868,21,0,1:2:0:0:
388,106,243038,1,0,1:2:0:0:
104,177,243208,5,2,1:2:0:0:
269,83,243378,1,0,1:2:0:0:
20,271,243549,21,0,1:2:0:0:
61,111,243719,1,8,1:2:0:0:
109,336,243889,5,10,1:2:0:0:
30,195,244059,1,8,1:2:0:0:
109,336,244229,2,0,L|202:318,1,87,8|8,1:2|1:2,0:2:0:0:
345,211,244570,21,2,1:2:0:0:
325,284,244738,1,8,0:2:0:0:
266,207,244907,5,8,0:2:0:0:
410,271,245075,1,8,0:2:0:0:
317,128,245244,21,10,1:2:0:0:
379,351,245412,1,8,0:2:0:0:
427,79,245581,5,8,0:2:0:0:
288,370,245749,1,8,0:2:0:0:
477,219,245918,21,10,1:2:0:0:
225,119,246086,1,8,0:2:0:0:
477,219,246255,2,0,L|488:127,1,87,8|8,0:2|0:2,0:2:0:0:
258,21,246592,5,10,0:2:0:0:
368,176,246765,1,10,0:2:0:0:
218,297,246938,21,10,0:2:0:0:
285,202,247112,1,0,1:2:0:0:
440,338,247285,5,4,1:2:0:0:
440,338,247970,2,0,P|405:300|340:306,1,104.399996813965,2|0,0:2|0:2,0:2:0:0:
186,144,248656,2,0,L|167:30,2,104.399996813965,2|0|0,0:2|0:2|0:2,0:2:0:0:
254,189,249658,1,2,0:2:0:0:
36,316,249993,21,10,0:2:0:0:
111,289,250161,1,0,1:2:0:0:
111,289,250499,1,2,1:2:0:0:
362,106,250667,5,8,0:2:0:0:
287,79,250836,1,2,1:2:0:0:
287,79,251174,1,2,1:2:0:0:
439,355,251342,21,8,0:2:0:0:
489,301,251455,5,8,0:2:0:0:
450,241,251567,21,8,0:2:0:0:
481,175,251680,6,0,P|484:152|490:107,2,58,8|8|8,0:2|0:2|0:2,0:2:0:0:
368,281,252017,2,0,P|364:309|360:338,2,58,10|8|8,0:3|0:3|0:3,0:2:0:0:
293,219,252355,2,0,P|296:196|302:151,2,58,4|4|0,0:3|0:3|1:2,0:2:0:0:
222,254,252692,22,0,B|135:233|165:300|70:281,1,156.599995220947,6|0,1:2|0:2,0:2:0:0:
19,171,253031,2,0,P|63:172|93:204,1,87,8|0,0:2|0:2,0:2:0:0:
266,83,253371,2,0,P|286:45|276:4,1,87,0|0,1:2|0:2,0:2:0:0:
443,203,253711,2,0,L|455:298,1,87,10|2,0:2|0:2,0:2:0:0:
213,373,254051,5,2,1:2:0:0:
346,274,254221,1,0,0:2:0:0:
274,231,254391,2,0,L|173:250,1,87,8|0,0:2|0:2,0:2:0:0:
425,78,254731,2,0,L|510:61,1,87,0|0,1:2|0:2,0:2:0:0:
245,6,255071,1,10,0:2:0:0:
329,163,255241,1,2,0:2:0:0:
88,115,255411,22,0,P|65:55|135:12,1,156.599995220947,2|0,1:2|0:2,0:2:0:0:
190,69,255751,2,0,B|195:101|195:101|193:110|193:110|201:155,1,87,8|0,0:2|0:2,0:2:0:0:
95,337,256091,2,0,L|-9:356,1,87,0|0,1:2|0:2,0:2:0:0:
276,194,256422,1,10,0:2:0:0:
202,306,256588,1,2,0:2:0:0:
362,378,256753,5,2,1:2:0:0:
136,250,256923,1,0,0:2:0:0:
362,378,257093,2,0,P|391:349|387:301,1,87,8|0,0:2|0:2,0:2:0:0:
201,83,257433,2,0,P|172:112|176:160,1,87,0|0,1:2|0:2,0:2:0:0:
455,250,257774,2,0,P|428:219|375:220,1,87,8|2,0:2|0:2,0:2:0:0:
126,384,258114,22,0,B|158:367|170:325|170:325|202:352|245:347,1,156.599995220947,2|0,1:2|0:2,0:2:0:0:
246,347,258452,1,8,0:2:0:0:
86,167,258622,2,0,L|-8:145,1,87,2|0,0:2|1:2,0:2:0:0:
242,0,258961,2,0,B|257:29|257:29|242:89,1,87,2|8,0:2|0:2,0:2:0:0:
456,302,259300,6,0,B|447:240|447:240|449:234|445:229|445:229|436:166,1,130.5,2|0,0:2|0:2,0:2:0:0:
389,75,259639,2,0,P|358:100|365:149,1,87,2|8,0:2|0:2,0:2:0:0:
271,379,259978,2,0,P|240:354|247:305,1,87,2|0,0:2|1:2,0:2:0:0:
45,154,260317,2,0,L|134:169,1,87,2|8,0:2|0:2,0:2:0:0:
326,288,260656,1,2,0:2:0:0:
246,20,260825,22,0,P|198:53|215:126,1,130.5,2|0,1:2|0:2,0:2:0:0:
206,118,261164,1,8,0:2:0:0:
418,244,261334,1,2,0:2:0:0:
418,244,261419,1,8,0:2:0:0:
418,244,261503,2,0,P|432:207|402:173,1,87,2|0,1:2|0:2,0:2:0:0:
128,338,261842,1,8,0:2:0:0:
274,222,262018,1,2,0:2:0:0:
61,142,262194,5,10,0:2:0:0:
61,142,262283,1,8,0:2:0:0:
61,142,262371,1,0,1:2:0:0:
35,263,262547,2,0,L|44:214,1,43.5,0|0,1:2|1:2,0:2:0:0:
187,165,262718,21,10,0:2:0:0:
187,165,262804,1,8,0:2:0:0:
187,165,262889,1,2,1:2:0:0:
212,47,263061,2,0,L|204:93,1,43.5,0|0,1:2|1:2,0:2:0:0:
63,34,263232,2,0,P|90:5|136:0,1,87,8|0,0:2|1:2,0:2:0:0:
339,125,263536,6,0,B|367:213|287:175|329:282,1,156.599995220947,6|0,1:2|0:2,0:2:0:0:
422,364,263876,2,0,P|433:320|402:289,1,87,8|0,0:2|0:2,0:2:0:0:
149,253,264217,2,0,L|56:273,1,87,0|0,1:2|0:2,0:2:0:0:
250,94,264558,1,10,0:2:0:0:
201,318,264729,1,2,0:2:0:0:
70,90,264899,22,0,B|118:101|118:101|144:135|144:135|195:147,1,130.5,2|0,1:2|0:2,0:2:0:0:
181,143,265240,1,8,0:2:0:0:
402,66,265411,1,0,0:2:0:0:
402,66,265496,1,8,0:2:0:0:
402,66,265581,1,0,1:2:0:0:
257,244,265751,1,0,0:2:0:0:
278,1,265922,2,0,P|308:23|305:79,1,87,10|0,0:2|0:2,0:2:0:0:
508,206,266263,6,0,P|447:210|412:281,1,130.5,2|0,1:2|0:2,0:2:0:0:
411,264,266604,1,10,0:2:0:0:
225,383,266774,2,0,P|200:355|199:307,1,87,2|0,0:2|1:2,0:2:0:0:
92,144,267115,1,2,1:2:0:0:
92,144,267200,1,0,1:2:0:0:
92,144,267286,1,8,0:2:0:0:
244,232,267456,1,2,1:2:0:0:
5,358,267626,21,8,0:2:0:0:
5,358,268308,2,0,B|32:343|42:308|42:308|69:330|105:326,2,130.5,10|6|2,0:3|0:3|1:2,0:2:0:0:
165,270,268982,22,0,B|205:286|218:339|218:339|253:301|321:312,2,174,6|0|2,1:2|1:2|1:2,0:2:0:0:
104,124,269834,1,0,3:2:0:0:
10,181,270004,2,0,P|55:192|92:221,1,87,0|0,1:2|0:2,0:2:0:0:
226,69,270345,6,0,P|172:62|133:141,1,130.5,0|0,1:2|3:2,0:2:0:0:
104,124,270686,2,0,P|69:86|75:40,1,87,0|0,1:2|3:2,0:2:0:0:
293,128,271027,2,0,P|267:163|258:205,1,87,2|0,1:2|3:2,0:2:0:0:
184,222,271283,1,2,0:2:0:0:
181,230,271368,2,0,P|206:265|215:307,1,87,0|2,1:2|0:2,0:2:0:0:
329,362,271709,22,0,P|380:334|506:320,2,174,2|0|2,1:2|1:2|1:2,0:2:0:0:
482,234,272540,1,0,3:2:0:0:
424,167,272706,2,0,P|389:200|398:251,1,87,0|0,1:2|0:2,0:2:0:0:
284,19,273038,6,0,P|319:52|310:103,1,87,0|8,1:2|0:3,0:2:0:0:
313,95,273287,1,8,0:3:0:0:
306,99,273371,1,8,0:3:0:0:
107,47,273537,1,4,0:3:0:0:
114,40,273620,1,4,0:3:0:0:
126,40,273703,1,4,0:3:0:0:
255,198,273872,1,0,1:2:0:0:
111,319,274041,2,0,P|76:286|85:235,1,87,8|2,0:2|1:2,0:2:0:0:
206,131,274296,21,0,1:2:0:0:
197,135,274380,2,0,P|171:170|160:220,1,95.7000029205323,6|0,1:2|0:2,0:2:0:0:
160,228,274635,1,8,0:2:0:0:
164,234,274720,1,10,0:2:0:0:
333,360,274891,2,0,P|298:314|209:318,1,143.550004380798,6|8,1:2|0:3,0:2:0:0:
214,323,275232,1,6,0:3:0:0:
408,215,275402,1,8,0:3:0:0:
413,225,275487,1,8,0:3:0:0:
412,237,275573,2,0,P|399:258|388:285,1,47.8500014602662,6|0,0:3|1:2,0:2:0:0:
328,162,275743,6,0,P|373:114|449:124,1,143.550004380798,4|8,1:2|0:2,0:2:0:0:
453,134,276084,1,8,0:2:0:0:
304,269,276255,1,6,1:2:0:0:
197,57,276425,1,10,0:2:0:0:
205,65,276510,1,8,0:2:0:0:
207,75,276595,1,10,0:2:0:0:
28,183,276766,1,8,0:3:0:0:
34,148,276851,1,8,0:2:0:0:
56,120,276936,1,10,0:2:0:0:
88,105,277022,1,8,0:2:0:0:
124,107,277107,22,0,P|136:129|146:165,1,47.8500014602662,10|4,0:3|0:3,0:2:0:0:
215,185,277277,2,0,P|203:206|195:228,1,47.8500014602662,8|8,0:2|0:2,0:2:0:0:
123,259,277448,1,10,0:2:0:0:
114,272,277533,1,8,0:2:0:0:
110,290,277618,2,0,P|121:311|129:333,1,47.8500014602662,2|8,1:2|0:2,0:2:0:0:
207,360,277789,1,8,0:2:0:0:
250,378,277874,1,8,0:2:0:0:
295,365,277959,1,10,0:2:0:0:
325,328,278044,1,8,0:2:0:0:
341,284,278130,1,8,0:3:0:0:
366,249,278215,1,8,0:3:0:0:
403,242,278300,1,6,0:3:0:0:
433,257,278385,1,4,0:3:0:0:
448,280,278470,6,0,P|436:301|428:323,1,47.8500014602662,8|8,0:2|0:2,0:2:0:0:
307,172,278641,1,10,0:2:0:0:
277,134,278726,1,8,0:2:0:0:
272,86,278811,1,4,0:3:0:0:
296,44,278897,1,8,0:3:0:0:
337,20,278982,2,0,P|359:12|380:0,1,47.8500014602662,10|8,0:2|0:2,0:2:0:0:
214,187,279152,21,8,0:2:0:0:
175,206,279233,1,8,0:2:0:0:
136,208,279314,1,8,0:3:0:0:
104,192,279395,1,10,0:3:0:0:
87,165,279477,1,4,0:3:0:0:
88,139,279558,1,4,0:3:0:0:
101,121,279639,1,0,1:2:0:0:
117,115,279721,1,0,1:2:0:0:
128,119,279802,6,0,B|182:224|182:224|150:247|117:287,1,191.400005841065,6|8,1:2|0:2,0:2:0:0:
25,304,280313,22,0,B|15:280|-7:254|-7:254|142:293,1,191.400005841065,6|8,1:2|0:2,0:2:0:0:
353,345,280824,6,0,B|302:346|263:313|263:313|238:358|193:373,1,191.400005841065,6|8,1:2|0:2,0:2:0:0:
436,217,281336,22,0,B|394:326|394:326|420:371|480:360,1,191.400005841065,6|0,1:2|1:2,0:2:0:0:
238,174,281847,6,0,P|254:199|267:240,1,47.8500014602662,10|8,0:2|0:2,0:2:0:0:
259,227,282017,1,0,1:2:0:0:
429,79,282188,1,10,0:2:0:0:
279,23,282358,1,0,1:2:0:0:
350,179,282515,21,10,0:0:0:0:
506,6,282684,1,0,1:0:0:0:
352,189,282853,1,0,1:0:0:0:
199,0,283023,5,8,0:0:0:0:
429,79,283192,1,2,1:2:0:0:
259,227,283362,1,0,1:2:0:0:
279,23,283531,2,0,P|303:64|316:109,1,95.7000029205323,8|0,0:0|0:0,0:0:0:0:
205,307,283870,21,2,1:2:0:0:
122,317,284041,1,8,0:2:0:0:
118,301,284127,1,8,0:2:0:0:
126,288,284212,1,8,0:3:0:0:
255,372,284384,1,8,0:3:0:0:
243,384,284470,1,8,0:3:0:0:
228,383,284555,1,6,0:3:0:0:
236,230,284727,1,4,0:3:0:0:
252,234,284812,1,4,0:3:0:0:
260,247,284898,1,0,1:2:0:0:
205,307,285070,1,0,1:2:0:0:
15,144,285236,6,0,B|68:164|101:192|101:192|152:187|163:134,1,174,6|8,1:2|0:2,0:2:0:0:
301,48,285743,1,2,0:2:0:0:
188,10,285914,2,0,P|219:60|231:102,1,87,2|0,1:2|1:2,0:2:0:0:
369,168,286257,2,0,P|393:132|408:91,1,87,10|0,0:2|0:2,0:2:0:0:
236,230,286596,21,2,1:2:0:0:
408,358,286766,1,2,1:2:0:0:
491,161,286936,1,10,0:2:0:0:
334,249,287107,1,2,1:2:0:0:
510,317,287277,2,0,P|474:292|433:277,1,87,2|0,0:2|1:2,0:2:0:0:
193,372,287618,1,10,0:2:0:0:
334,249,287789,1,0,0:2:0:0:
107,148,287959,5,2,1:2:0:0:
107,148,288130,1,2,1:2:0:0:
65,222,288300,1,10,0:2:0:0:
226,93,288468,1,2,0:2:0:0:
126,25,288637,1,2,1:2:0:0:
231,198,288805,1,2,1:2:0:0:
300,133,288974,1,10,0:2:0:0:
426,329,289142,1,0,1:2:0:0:
334,249,289311,21,8,0:2:0:0:
467,169,289481,1,0,1:2:0:0:
295,313,289651,5,0,1:2:0:0:
399,95,289822,1,8,0:2:0:0:
356,370,289992,21,8,0:2:0:0:
226,93,290163,1,8,0:2:0:0:
24,296,290333,5,8,0:2:0:0:
384,174,290504,1,8,0:2:0:0:
61,23,291370,22,0,P|89:74|107:140,1,121.799996282959,2|2,0:2|0:2,0:2:0:0:
172,209,292639,6,0,P|188:150|217:97,1,121.799996282959,2|2,0:2|0:2,0:2:0:0:
106,254,293949,21,2,0:2:0:0:
139,325,294383,1,2,0:2:0:0:
210,298,294818,6,0,P|259:277|331:266,1,104.399996813965,2|2,0:2|0:2,0:2:0:0:
365,209,296539,22,0,P|389:230|382:292,1,87,2|2,0:2|0:2,0:2:0:0:
308,267,299323,5,2,0:2:0:0:
244,189,299707,1,2,0:2:0:0:
266,112,300092,1,2,0:2:0:0:
338,88,300486,1,2,0:2:0:0:
387,145,300881,22,0,P|378:162|370:189,1,34.8,2|2,0:2|0:2,0:2:0:0:
308,267,302067,5,2,0:2:0:0:
256,192,302347,12,0,306552,0:2:0:0:
