osu file format v14

[General]
AudioFilename: audio.mp3
AudioLeadIn: 0
PreviewTime: 51957
Countdown: 0
SampleSet: Soft
StackLeniency: 0.7
Mode: 0
LetterboxInBreaks: 0
WidescreenStoryboard: 1

[Editor]
Bookmarks: 290427
DistanceSpacing: 2
BeatDivisor: 4
GridSize: 32
TimelineZoom: 2.100005

[Metadata]
Title:Hero
TitleUnicode:Hero
Artist:supercell
ArtistUnicode:supercell
Creator:Barbex
Version:Wu-Shang
Source:
Tags:yanaginagi ryo Aoharu Jump Supercell
BeatmapID:1599652
BeatmapSetID:517064

[Difficulty]
HPDrainRate:5.5
CircleSize:4
OverallDifficulty:8.6
ApproachRate:9.3
SliderMultiplier:1.6
SliderTickRate:1

[Events]
//Background and Video events
0,0,"2037021.jpg",0,0
//Break Periods
//Storyboard Layer 0 (Background)
//Storyboard Layer 1 (Fail)
//Storyboard Layer 2 (Pass)
//Storyboard Layer 3 (Foreground)
//Storyboard Sound Samples

[TimingPoints]
235,326.086956521739,4,2,1,30,1,0
561,339.366515837104,4,2,1,30,1,0
900,-125,4,2,1,30,0,0
6686,339.097999321804,4,2,0,50,1,0
7025,-125,4,2,0,50,0,0
11420,339.943342776204,4,2,1,30,1,0
11420,-111.111111111111,4,2,1,30,0,0
12099,-111.111111111111,4,2,1,30,0,0
15499,327.868852459016,4,2,1,30,1,0
16154,350.877192982456,4,2,1,30,1,0
16855,337.078651685393,4,2,1,30,1,0
16855,-111.111111111111,4,2,1,30,0,0
17192,331.491712707182,4,2,1,30,1,0
17192,-111.111111111111,4,2,1,30,0,0
18186,342.857142857143,4,2,1,30,1,0
18186,-111.111111111111,4,2,1,30,0,0
19214,348.837209302326,4,2,1,30,1,0
19214,-111.111111111111,4,2,1,30,0,0
19562,337.078651685393,4,2,1,30,1,0
19562,-111.111111111111,4,2,1,30,0,0
21921,354.505169867061,4,2,1,30,1,0
22275,338.983050847458,4,2,1,30,1,0
22623,-100,4,2,0,65,0,0
24647,335.195530726257,4,2,1,30,1,0
25652,344.827586206897,4,2,1,30,1,0
26341,339.943342776204,4,2,1,30,1,0
27700,326.086956521739,4,2,1,30,1,0
28026,337.078651685393,4,2,1,30,1,0
29711,340.909090909091,4,2,1,30,1,0
31756,335.195530726257,4,2,1,30,1,0
32091,344.827586206897,4,2,1,30,1,0
32091,-83.3333333333333,4,2,1,30,0,0
32780,311.688311688312,4,2,1,30,1,0
32780,-125,4,2,1,30,0,0
33091,338.983050847458,4,2,1,60,1,0
33091,-100,4,2,1,60,0,0
33813,-100,4,2,0,65,0,0
39240,-100,4,2,0,65,0,0
41226,339.462517680339,4,2,1,25,1,0
45978,338.983050847458,4,2,1,30,1,0
46655,348.837209302326,4,2,1,30,1,0
46655,-133.333333333333,4,2,1,30,0,0
47352,338.983050847458,4,2,1,30,1,0
47352,-133.333333333333,4,2,1,30,0,0
48029,338.983050847458,4,2,1,30,1,0
48029,-133.333333333333,4,2,1,30,0,0
51079,310.880829015544,4,2,1,80,1,0
51389,349.854227405248,4,2,1,80,1,0
51447,-100,4,2,0,55,0,0
52088,335.195530726257,4,2,1,100,1,1
52088,-86.9565217391304,4,2,1,100,0,1
52758,-86.9565217391304,4,2,1,100,0,1
54099,344.827586206897,4,2,1,100,1,1
54099,-86.9565217391304,4,2,1,100,0,1
54788,331.491712707182,4,2,1,100,1,1
54788,-80,4,2,1,100,0,1
55119,337.078651685393,4,2,1,100,1,1
55119,-86.9565217391304,4,2,1,100,0,1
56467,343.839541547278,4,2,1,100,1,1
56810,341.880341880342,4,2,1,100,1,1
56810,-86.9565217391304,4,2,1,100,0,1
57493,335.195530726257,4,2,1,100,1,1
57493,-86.9565217391304,4,2,1,100,0,1
57828,337.078651685393,4,2,1,100,1,1
57828,-86.9565217391304,4,2,1,100,0,1
58502,342.857142857143,4,2,1,100,1,1
58502,-86.9565217391304,4,2,1,100,0,1
58844,337.078651685393,4,2,1,100,1,1
59585,-71.4285714285714,4,2,0,65,0,1
59855,350.877192982456,4,2,1,100,1,1
59855,-100,4,2,1,100,0,1
60094,-86.9565217391304,4,2,0,65,0,1
60205,338.983050847458,4,2,1,100,1,1
60882,-86.9565217391304,4,2,1,100,0,1
61560,341.394025604552,4,2,1,100,1,1
61560,-86.9565217391304,4,2,1,100,0,1
62925,337.078651685393,4,2,1,100,1,1
62925,-86.9565217391304,4,2,1,100,0,1
64610,342.857142857143,4,2,1,100,1,1
64610,-86.9565217391304,4,2,1,100,0,1
65638,337.078651685393,4,2,1,100,1,1
65638,-86.9565217391304,4,2,1,100,0,1
68166,419.58041958042,4,2,1,60,1,1
68375,322.58064516129,4,2,1,60,1,1
68375,-100,4,2,1,60,0,1
69020,338.983050847458,4,2,1,60,1,1
69080,-100,4,2,0,65,0,1
69697,342.857142857143,4,2,1,60,1,1
71411,333.333333333333,4,2,1,60,1,1
72077,337.078651685393,4,2,1,60,1,1
73425,334.261838440111,4,2,1,80,1,1
73759,338.983050847458,4,2,1,80,1,1
73759,-66.6666666666667,4,2,1,80,0,1
74436,-66.6666666666667,4,2,1,65,0,1
74505,-66.6666666666667,4,2,0,65,0,1
77826,335.195530726257,4,2,1,80,1,1
78161,317.460317460317,4,2,1,80,1,1
78478,337.078651685393,4,2,1,80,1,1
78899,-83.3333333333333,4,2,1,80,0,1
79152,355.029585798817,4,2,1,80,1,1
79152,-66.6666666666667,4,2,1,80,0,0
79507,359.281437125748,4,2,1,80,1,0
79507,-86.9565217391304,4,2,1,80,0,0
79686,339.462517680339,4,2,1,80,1,0
79686,-66.6666666666667,4,2,1,80,0,0
79786,-66.6666666666667,4,2,1,80,0,0
80195,348.837209302326,4,2,1,80,1,0
80195,-66.6666666666667,4,2,1,80,0,0
80369,-66.6666666666667,4,2,1,80,0,0
80543,338.983050847458,4,2,1,80,1,0
80712,-66.6666666666667,4,2,1,80,0,0
80881,-66.6666666666667,4,2,1,80,0,0
81051,334.261838440111,4,2,1,80,1,0
81218,-66.6666666666667,4,2,1,80,0,0
81385,-66.6666666666667,4,2,1,80,0,0
81719,358.208955223881,4,2,1,80,1,0
81898,334.9148758024,4,2,1,80,1,0
81898,-66.6666666666667,4,2,1,80,0,0
82567,372.670807453416,4,2,1,80,1,0
82567,-66.6666666666667,4,2,1,80,0,0
82939,314.13612565445,4,2,1,80,1,0
82939,-66.6666666666667,4,2,1,80,0,0
83096,-66.6666666666667,4,2,1,80,0,0
83253,338.983050847458,4,2,1,80,1,0
83422,-66.6666666666667,4,2,1,80,0,0
83591,337.742752603434,4,2,1,80,1,0
83591,-66.6666666666667,4,2,1,80,0,0
84604,338.983050847458,4,2,1,60,1,0
84604,-66.6666666666667,4,2,1,60,0,0
84942,355.029585798817,4,2,1,60,1,0
84942,-66.6666666666667,4,2,1,60,0,0
85297,335.195530726257,4,2,1,60,1,0
85971,339.462517680339,4,2,1,60,1,0
86480,331.491712707182,4,2,1,60,1,0
86645,355.029585798817,4,2,1,60,1,0
87052,-100,4,2,0,65,0,0
87355,326.086956521739,4,2,1,60,1,0
88007,340.909090909091,4,2,1,60,1,0
89882,366.97247706422,4,2,1,60,1,0
90065,331.491712707182,4,2,1,60,1,0
91390,327.868852459016,4,2,1,60,1,0
91717,336.605890603086,4,2,1,60,1,0
92053,361.44578313253,4,2,1,60,1,0
92414,337.078651685393,4,2,1,60,1,0
92751,339.943342776204,4,2,1,60,1,0
94110,341.880341880342,4,2,1,60,1,0
95135,350.877192982456,4,2,1,60,1,0
95135,-133.333333333333,4,2,1,60,0,0
95485,312.5,4,2,1,60,1,0
95797,338.983050847458,4,2,1,60,1,0
96305,-100,4,2,0,65,0,0
96376,-100,4,2,0,65,0,0
96813,340.909090909091,4,2,1,60,1,0
97153,-133.333333333333,4,2,1,60,0,0
97494,-100,4,2,1,60,0,0
99881,333.055786844296,4,2,1,60,1,0
100380,-133.333333333333,4,2,1,60,0,0
100713,-100,4,2,1,60,0,0
100880,338.983050847458,4,2,1,60,1,0
102066,363.636363636364,4,2,1,60,1,0
102247,327.868852459016,4,2,1,60,1,0
102902,354.295837023915,4,2,1,60,1,0
103610,312.5,4,2,1,60,1,0
103837,-100,4,2,0,55,0,0
103922,340.909090909091,4,2,1,60,1,0
104603,333.333333333333,4,2,1,60,1,0
104936,337.078651685393,4,2,1,60,1,0
105533,-100,4,2,0,65,0,0
105947,345.821325648415,4,2,1,60,1,0
106292,344.827586206897,4,2,1,60,1,0
106636,-83.3333333333333,4,2,1,60,0,0
107398,-83.3333333333333,4,2,0,65,0,0
108016,315.789473684211,4,2,1,60,1,0
108331,327.868852459016,4,2,1,60,1,0
108494,-83.3333333333333,4,2,1,60,0,0
108658,345.821325648415,4,2,1,60,1,0
109003,338.983050847458,4,2,1,60,1,0
110019,-83.3333333333333,4,2,1,60,0,0
110358,-83.3333333333333,4,2,1,60,0,0
111036,342.368045649073,4,2,1,60,1,0
111378,-83.3333333333333,4,2,1,60,0,0
111720,338.983050847458,4,2,1,60,1,0
113075,-83.3333333333333,4,2,1,60,0,0
114092,-100,4,2,1,60,0,0
114858,-100,4,2,0,65,0,0
115787,337.078651685393,4,2,1,60,1,0
117135,338.983050847458,4,2,1,60,1,0
117473,-83.3333333333333,4,2,1,60,0,0
117740,-83.3333333333333,4,2,0,65,0,0
119507,-76.9230769230769,4,2,0,65,0,0
119944,-76.9230769230769,4,2,0,65,0,0
123335,-100,4,2,0,65,0,0
125270,338.983050847458,4,2,1,25,1,0
125947,377.358490566038,4,2,1,30,1,0
126135,340.909090909091,4,2,1,30,1,0
126646,344.827586206897,4,2,1,40,1,0
127335,320.855614973262,4,2,1,40,1,0
127816,377.358490566038,4,2,1,50,1,0
128004,333.333333333333,4,2,1,60,1,0
128670,337.078651685393,4,2,1,70,1,0
130692,357.142857142857,4,2,1,60,1,0
130692,-133.333333333333,4,2,1,60,0,0
131406,337.078651685393,4,2,1,60,1,0
131406,-133.333333333333,4,2,1,60,0,0
131474,-133.333333333333,4,2,0,35,0,0
133428,338.983050847458,4,2,1,60,1,0
133428,-133.333333333333,4,2,1,60,0,0
135800,313.31592689295,4,2,1,80,1,0
136113,338.983050847458,4,2,1,100,1,1
136113,-86.9565217391304,4,2,1,100,0,1
136899,-86.9565217391304,4,2,0,65,0,1
139163,344.827586206897,4,2,1,100,1,1
139335,-86.9565217391304,4,2,1,100,0,1
140197,335.195530726257,4,2,1,100,1,1
141537,339.943342776204,4,2,1,100,1,1
141537,-86.9565217391304,4,2,1,100,0,1
142896,-71.4285714285714,4,2,1,100,0,1
143406,-86.9565217391304,4,2,1,100,0,1
144190,-86.9565217391304,4,2,0,65,0,1
144256,342.857142857143,4,2,1,100,1,1
144256,-86.9565217391304,4,2,1,100,0,1
145284,317.460317460317,4,2,1,100,1,1
145601,361.44578313253,4,2,1,100,1,1
145962,346.820809248555,4,2,1,100,1,1
146308,329.67032967033,4,2,1,100,1,1
146637,322.58064516129,4,2,1,100,1,1
146959,338.983050847458,4,2,1,100,1,1
146959,-86.9565217391304,4,2,1,100,0,1
148314,346.820809248555,4,2,1,100,1,1
149701,333.333333333333,4,2,1,100,1,1
150367,342.857142857143,4,2,1,100,1,1
151052,329.67032967033,4,2,1,100,1,1
151711,339.943342776204,4,2,1,60,1,1
152390,339.462517680339,4,2,1,60,1,1
153176,-100,4,2,0,65,0,1
155105,336.605890603086,4,2,1,60,1,1
157461,342.857142857143,4,2,1,80,1,1
157803,338.983050847458,4,2,1,80,1,1
157803,-66.6666666666667,4,2,1,80,0,1
158601,-66.6666666666667,4,2,0,65,0,1
159158,-86.9565217391304,4,2,0,65,0,1
159836,-66.6666666666667,4,2,0,65,0,1
160006,-100,4,2,0,65,0,1
160636,-100,4,2,0,65,0,1
161531,331.491712707182,4,2,1,80,1,1
161696,-66.6666666666667,4,2,1,80,0,1
161823,-83.3333333333333,4,2,0,65,0,1
161862,342.857142857143,4,2,1,80,1,1
162376,-66.6666666666667,4,2,1,80,0,1
162416,-66.6666666666667,4,2,0,65,0,1
163233,338.409475465313,4,2,1,80,1,1
163233,-55.5555555555556,4,2,1,80,0,0
164027,-55.5555555555556,4,2,0,65,0,0
165263,335.195530726257,4,2,1,80,1,0
165263,-55.5555555555556,4,2,1,80,0,0
165933,337.078651685393,4,2,1,80,1,0
165933,-66.6666666666667,4,2,1,80,0,0
166740,-66.6666666666667,4,2,0,65,0,0
167281,326.086956521739,4,2,1,80,1,0
167444,-66.6666666666667,4,2,1,80,0,0
167607,359.281437125748,4,2,1,80,1,0
167966,-66.6666666666667,4,2,1,80,0,0
168325,323.450134770889,4,2,1,80,1,0
168325,-50,4,2,1,80,0,0
168648,337.078651685393,4,2,1,80,1,0
169153,-66.6666666666667,4,2,1,80,0,0
169996,339.943342776204,4,2,1,80,1,0
170505,-66.6666666666667,4,2,1,80,0,0
171865,292.682926829268,4,2,1,80,1,0
172011,346.820809248555,4,2,1,80,1,0
172704,343.544231319782,4,2,1,40,1,0
172704,-66.6666666666667,4,2,1,40,0,0
174078,338.983050847458,4,2,1,60,1,0
174078,-200,4,2,1,60,0,0
174878,-200,4,2,0,65,0,0
177128,-142.857142857143,4,2,0,65,0,0
177467,-200,4,2,0,65,0,0
178315,320.855614973262,4,2,1,60,1,0
178475,348.837209302326,4,2,1,60,1,0
178649,340.909090909091,4,2,1,60,1,0
178819,344.827586206897,4,2,1,60,1,0
178819,-200,4,2,1,60,0,0
179508,338.028169014084,4,2,1,60,1,0
179508,-200,4,2,1,60,0,0
183564,359.281437125748,4,2,1,60,1,0
183923,-133.333333333333,4,2,1,60,0,0
184102,300,4,2,1,60,1,0
184252,335.195530726257,4,2,1,60,1,0
184712,-133.333333333333,4,2,0,65,0,0
184922,344.827586206897,4,2,1,60,1,0
185221,-100,4,2,0,65,0,0
185611,338.983050847458,4,2,1,60,1,0
186288,338.028169014084,4,2,1,60,1,0
186457,-133.333333333333,4,2,1,60,0,0
187255,-133.333333333333,4,2,0,65,0,0
188992,342.857142857143,4,2,1,60,1,0
189677,331.95020746888,4,2,1,60,1,0
190340,338.983050847458,4,2,1,80,1,0
190340,-200,4,2,1,80,0,0
191155,-200,4,2,0,65,0,0
192712,333.333333333333,4,2,1,80,1,0
192712,-200,4,2,1,80,0,0
193045,335.195530726257,4,2,1,80,1,0
194050,344.827586206897,4,2,1,80,1,0
194394,340.909090909091,4,2,1,80,1,0
194734,365.853658536585,4,2,1,80,1,0
195099,331.491712707182,4,2,1,80,1,0
195761,338.983050847458,4,2,1,100,1,0
196072,-100,4,2,0,65,0,0
205761,368.098159509202,4,2,1,100,1,0
205945,329.218106995885,4,2,1,100,1,0
206274,-133.333333333333,4,2,1,100,0,0
206603,339.943342776204,4,2,1,100,1,0
207092,-133.333333333333,4,2,0,65,0,0
209322,-100,4,2,0,65,0,0
210002,337.078651685393,4,2,1,100,1,0
210144,-100,4,2,0,65,0,0
211350,330.123796423659,4,2,1,100,1,0
212010,350.877192982456,4,2,1,100,1,0
212536,338.983050847458,4,2,1,100,1,0
213383,338.983050847458,4,2,1,100,1,0
214060,352.941176470588,4,2,1,100,1,0
214412,328.767123287671,4,2,1,100,1,0
214740,333.333333333333,4,2,1,100,1,0
215073,385.852090032154,4,2,1,100,1,0
215265,335.195530726257,4,2,1,100,1,0
215767,-133.333333333333,4,2,1,100,0,0
216102,-83.3333333333333,4,2,1,100,0,0
216587,-133.333333333333,4,2,0,65,0,0
216605,332.409972299169,4,2,1,100,1,0
216926,-83.3333333333333,4,2,0,65,0,0
217103,344.827586206897,4,2,1,100,1,0
217447,338.983050847458,4,2,1,70,1,0
217944,-100,4,2,0,65,0,0
218452,-90.9090909090909,4,2,0,65,0,0
218961,-83.3333333333333,4,2,0,65,0,0
219469,-76.9230769230769,4,2,0,65,0,0
219978,-71.4285714285714,4,2,0,65,0,0
220158,338.983050847458,4,2,1,100,1,0
220327,-66.6666666666667,4,2,1,100,0,0
220487,-66.6666666666667,4,2,0,65,0,0
220835,327.868852459016,4,2,1,100,1,0
220835,-66.6666666666667,4,2,1,100,0,0
221335,-100,4,2,0,65,0,0
221490,350.877192982456,4,2,1,100,1,0
221674,-66.6666666666667,4,2,0,65,0,0
221840,340.909090909091,4,2,1,100,1,0
221843,-83.3333333333333,4,2,0,65,0,0
222182,-66.6666666666667,4,2,0,65,0,0
222352,-58.8235294117647,4,2,0,65,0,0
222521,349.854227405248,4,2,1,100,1,0
222870,341.880341880342,4,2,1,60,1,0
222870,-200,4,2,1,35,0,0
222945,-76.9230769230769,4,2,0,35,0,0
223370,-66.6666666666667,4,2,0,35,0,0
223708,-200,4,2,0,30,0,0
227998,310.880829015544,4,2,1,30,1,0
228308,339.462517680339,4,2,1,35,1,0
228308,-200,4,2,1,35,0,0
233060,-200,4,2,1,60,0,0
233204,-200,4,2,0,50,0,0
233399,315.789473684211,4,2,1,60,1,0
233543,-200,4,2,0,65,0,0
233714,342.857142857143,4,2,1,60,1,0
233882,-200,4,2,0,85,0,0
234228,-83.3333333333333,4,2,0,85,0,0
234560,-83.3333333333333,4,2,0,65,0,0
235428,338.028169014084,4,2,1,60,1,0
235428,-83.3333333333333,4,2,1,60,0,0
236104,-100,4,2,1,60,0,0
236442,338.028169014084,4,2,1,60,1,0
236933,-100,4,2,0,65,0,0
238470,333.333333333333,4,2,1,60,1,0
238803,347.826086956522,4,2,1,60,1,0
239150,338.983050847458,4,2,1,60,1,0
240155,-100,4,2,0,65,0,0
240336,325.20325203252,4,2,1,60,1,0
240498,338.983050847458,4,2,1,60,1,0
241684,326.086956521739,4,2,1,60,1,0
241847,340.425531914894,4,2,1,65,1,0
244570,337.078651685393,4,2,1,70,1,0
246592,346.820809248555,4,2,1,75,1,0
247285,342.857142857143,4,2,1,60,1,0
247285,-133.333333333333,4,2,1,60,0,0
248123,-133.333333333333,4,2,0,35,0,0
248656,334.261838440111,4,2,1,60,1,0
248656,-133.333333333333,4,2,1,60,0,0
249993,337.457817772778,4,2,1,60,1,0
250667,-83.3333333333333,4,2,1,60,0,0
250836,-100,4,2,0,65,0,0
251514,-83.3333333333333,4,2,0,65,0,0
252692,339.943342776204,4,2,1,100,1,1
252692,-83.3333333333333,4,2,1,100,0,1
253550,-83.3333333333333,4,2,0,65,0,1
254051,-86.9565217391304,4,2,0,65,0,1
254905,-86.9565217391304,4,2,0,65,0,1
256091,331.491712707182,4,2,1,100,1,1
256091,-86.9565217391304,4,2,1,100,0,1
256753,340.425531914894,4,2,1,100,1,1
256753,-86.9565217391304,4,2,1,100,0,1
258114,338.983050847458,4,2,1,100,1,1
258114,-86.9565217391304,4,2,1,100,0,1
259469,-71.4285714285714,4,2,1,100,0,1
259978,-86.9565217391304,4,2,1,100,0,1
260839,-86.9565217391304,4,2,0,65,0,1
261842,352.941176470588,4,2,1,100,1,1
262547,342.857142857143,4,2,1,100,1,1
263232,304.568527918782,4,2,1,100,1,1
263232,-86.9565217391304,4,2,1,100,0,1
263536,340.909090909091,4,2,1,100,1,1
263536,-86.9565217391304,4,2,1,100,0,1
268308,337.078651685393,4,2,1,60,1,1
268308,-86.9565217391304,4,2,1,60,0,1
268982,340.909090909091,4,2,1,60,1,1
269826,-100,4,2,0,65,0,1
271709,332.409972299169,4,2,1,60,1,1
272872,-133.333333333333,4,2,1,60,0,1
273703,338.983050847458,4,2,1,80,1,1
273725,-200,4,2,0,65,0,1
274380,340.909090909091,4,2,1,80,1,1
274742,-200,4,2,0,65,0,1
275421,-100,4,2,0,65,0,1
279152,325.20325203252,4,2,1,80,1,1
279802,340.909090909091,4,2,1,80,1,1
279802,-66.6666666666667,4,2,1,80,0,1
280677,-66.6666666666667,4,2,0,65,0,1
282358,314.13612565445,4,2,1,80,1,1
282515,338.983050847458,4,2,1,80,1,1
282515,-66.6666666666667,4,2,1,80,0,1
283870,342.857142857143,4,2,1,80,1,1
284041,-66.6666666666667,4,2,1,80,0,1
284898,-57.1428571428571,4,2,1,80,0,1
285127,327.868852459016,4,2,1,80,1,1
285236,336.134453781513,4,2,1,80,1,1
285572,342.857142857143,4,2,1,80,1,1
285763,-57.1428571428571,4,2,0,65,0,1
286429,335.195530726257,4,2,1,80,1,1
286596,340.909090909091,4,2,1,80,1,1
287789,-57.1428571428571,4,2,1,80,0,1
288300,337.078651685393,4,2,1,80,1,1
288646,-66.6666666666667,4,2,0,65,0,1
289311,340.909090909091,4,2,1,75,1,1
290674,348.33091436865,4,2,1,60,1,0
291370,648.648648648649,4,2,2,20,1,0
291370,-100,4,2,2,20,0,0
292018,621.761658031088,4,2,2,20,1,0
292206,-200,4,2,0,15,0,0
292639,685.714285714286,4,2,2,20,1,0
293324,625,4,2,2,20,1,0
293949,869.565217391304,4,2,2,20,1,0
294818,952.380952380952,4,2,2,20,1,0
294818,-55.5555555555556,4,2,2,20,0,0
295770,769.230769230769,4,2,2,20,1,0
296443,-83.3333333333333,4,2,2,20,0,0
296539,909.090909090909,4,2,2,20,1,0
296539,-66.6666666666667,4,2,2,20,0,0
297448,937.5,4,2,2,20,1,0
299323,769.230769230769,4,2,2,20,1,0
299323,-76.9230769230769,4,2,2,20,0,0
300092,789.473684210526,4,2,2,20,1,0
300175,-181.818181818182,4,2,0,10,0,0
300881,1111.11111111111,4,2,2,20,1,0
301436,1263.15789473684,4,2,2,20,1,0
302067,1121.4953271028,4,2,2,20,1,0

[Colours]
Combo1 : 255,128,0
Combo2 : 0,174,0
Combo3 : 128,64,0
Combo4 : 255,255,0

[HitObjects]
213,81,235,6,0,P|181:86|145:123,1,80,8|0,0:0|0:0,0:0:0:0:
144,195,561,2,4,P|176:189|213:154,1,80
83,140,900,2,0,L|38:211,1,64,8|0,0:0|0:0,0:0:0:0:
130,323,1239,2,0,L|92:254,1,64,4|0,0:3|0:0,0:3:0:0:
276,141,1579,1,8,0:0:0:0:
226,324,1918,1,4,0:0:0:0:
407,171,2257,1,8,0:0:0:0:
164,156,2597,1,4,0:0:0:0:
103,264,2936,6,0,P|132:279|166:281,1,64,8|0,0:0|0:0,0:0:0:0:
227,235,3275,2,4,P|251:212|279:203,1,64,4|0,0:0|0:0,0:0:0:0:
389,175,3615,2,0,P|359:167|335:146,1,64,8|0,0:0|0:0,0:0:0:0:
254,66,3954,2,0,P|261:96|258:128,1,64,4|0,0:0|0:0,0:0:0:0:
128,249,4294,1,8,0:0:0:0:
164,100,4633,1,4,0:0:0:0:
55,208,4972,1,8,0:0:0:0:
204,170,5312,1,4,0:0:0:0:
199,323,5651,6,0,P|230:325|259:313,1,64,8|0,0:0|0:0,0:0:0:0:
301,246,5990,2,0,P|330:234|361:239,1,64,4|0,0:0|0:0,0:0:0:0:
465,175,6330,2,0,P|460:206|445:234,1,64,8|0,0:0|0:0,0:0:0:0:
458,366,6686,2,0,P|427:340|411:303,1,80,4|0,0:0|0:0,0:0:0:0:
384,175,7025,1,8,0:0:0:0:
269,329,7364,1,4,0:0:0:0:
277,90,7703,1,8,0:0:0:0:
439,274,8043,1,4,0:0:0:0:
350,366,8381,6,0,P|324:345|309:314,1,64,8|0,0:0|0:0,0:0:0:0:
328,240,8720,2,4,P|339:208|337:179,1,64,4|0,0:0|0:0,0:0:0:0:
318,67,9060,2,0,P|338:91|366:106,1,64,8|0,0:0|0:0,0:0:0:0:
473,149,9399,2,0,P|441:153|413:169,1,64,4|0,0:0|0:0,0:0:0:0:
287,303,9737,1,8,0:0:0:0:
295,100,10076,1,4,0:0:0:0:
84,71,10416,2,0,P|21:142|12:183,2,128,10|2|4,0:0|0:0|0:0,0:0:0:0:
83,186,11420,6,0,P|111:140|144:125,1,71.9999978027344,8|0,3:3|0:0,0:0:0:0:
243,127,11759,1,0,0:0:0:0:
271,236,11929,1,0,0:0:0:0:
161,197,12099,2,0,P|137:127|162:57,1,143.999995605469,8|0,3:3|0:0,0:0:0:0:
243,127,12609,5,0,0:0:0:0:
271,236,12779,2,0,P|213:291|130:302,1,143.999995605469,8|2,3:3|0:0,0:0:0:0:
138,142,13289,2,0,P|177:103|210:92,1,71.9999978027344,0|8,0:0|3:3,0:0:0:0:
298,110,13629,1,0,0:0:0:0:
237,219,13799,2,0,P|200:261|155:270,1,71.9999978027344
64,160,14139,5,8,3:3:0:0:
191,96,14309,1,0,0:0:0:0:
125,230,14479,2,0,L|201:275,1,71.9999978027344
342,368,14819,1,8,3:3:0:0:
277,193,14989,1,0,0:0:0:0:
222,367,15159,1,0,0:0:0:0:
370,263,15329,1,0,0:0:0:0:
185,265,15499,6,0,P|166:217|179:166,1,80,8|0,3:3|0:0,0:0:0:0:
257,56,15826,1,0,0:0:0:0:
277,193,15990,1,0,0:0:0:0:
154,98,16154,2,0,P|107:124|90:160,1,80,8|0,3:0|0:0,0:0:0:0:
277,193,16504,2,0,P|313:185|353:137,1,80,10|4,0:3|0:0,0:0:0:0:
367,165,16768,1,0,0:0:0:0:
378,197,16855,6,0,P|342:272|260:295,1,143.999995605469,8|4,3:3|0:0,0:0:0:0:
178,260,17357,1,0,0:0:0:0:
149,141,17523,1,8,3:3:0:0:
271,168,17689,2,0,P|191:217|181:284,1,143.999995605469,0|4,0:0|0:0,0:0:0:0:
371,171,18186,6,0,P|361:128|326:87,1,71.9999978027344,8|0,3:3|0:0,0:0:0:0:
184,22,18528,2,0,P|166:59|169:115,1,71.9999978027344
257,243,18871,2,0,P|218:279|170:285,1,71.9999978027344,8|0,3:3|0:0,0:0:0:0:
83,200,19214,2,0,P|93:164|122:123,1,71.9999978027344
184,22,19562,5,8,3:3:0:0:
195,207,19730,2,0,P|233:235|280:245,1,71.9999978027344
421,219,20067,1,0,0:0:0:0:
280,130,20236,1,8,3:3:0:0:
320,292,20404,2,0,P|336:249|322:196,2,71.9999978027344,0|2|0,0:0|0:0|0:0,0:0:0:0:
166,249,20910,6,8,B|89:220|89:220|96:181|144:159,1,143.999995605469,8|4,3:3|0:0,0:0:0:0:
318,88,21584,1,8,3:3:0:0:
328,206,21753,1,0,0:0:0:0:
361,185,21837,1,0,0:0:0:0:
386,149,21921,6,0,P|408:86|385:25,1,120,4|2,3:3|0:0,0:0:0:0:
318,88,22275,6,0,P|256:87|228:77,1,80,8|4,3:3|0:0,0:0:0:0:
148,193,22613,2,0,P|181:226|200:269,1,80,8|4,3:3|0:0,0:0:0:0:
328,318,22952,1,8,3:3:0:0:
327,157,23122,2,0,P|290:189|240:197,1,80,4|8,0:0|3:3,0:1:0:0:
249,103,23461,1,4,0:1:0:0:
184,259,23630,5,8,3:3:0:0:
338,243,23800,1,6,0:0:0:0:
114,181,23969,2,0,P|202:158|251:179,1,120,8|6,3:3|0:1,0:1:0:0:
256,237,24308,2,0,P|296:202|305:162,1,80,10|4,3:3|0:0,0:0:0:0:
234,75,24647,2,0,P|272:18|301:-2,1,80,10|4,3:3|0:0,0:0:0:0:
415,152,24982,5,8,3:3:0:0:
286,264,25149,1,2,0:0:0:0:
308,66,25317,5,12,3:3:0:0:
179,178,25484,1,2,0:0:0:0:
364,222,25652,1,8,3:3:0:0:
157,304,25824,1,2,0:0:0:0:
130,105,25996,1,12,3:3:0:0:
319,307,26169,5,2,0:0:0:0:
412,119,26341,2,0,P|397:66|356:25,1,80,10|4,3:3|0:0,0:0:0:0:
238,176,26680,1,8,3:3:0:0:
74,74,26850,1,2,0:0:0:0:
44,47,26935,1,2,0:0:0:0:
20,15,27020,1,12,3:3:0:0:
126,234,27190,1,6,0:0:0:0:
298,98,27360,2,0,P|346:81|385:88,1,80,10|0,3:3|0:0,0:0:0:0:
225,289,27700,6,0,P|210:185|248:134,1,160,8|12,3:3|3:3,0:0:0:0:
409,55,28194,1,2,0:0:0:0:
314,223,28363,1,8,3:3:0:0:
284,32,28531,1,2,0:0:0:0:
424,178,28700,1,8,3:3:0:0:
300,306,28868,1,2,0:0:0:0:
190,172,29037,6,0,B|145:125|145:125|106:121|106:121|65:82,2,160,8|12|10,3:3|0:0|0:0,0:0:0:0:
287,48,29881,1,2,0:0:0:0:
419,168,30051,2,0,P|383:208|326:217,1,80,8|0,3:3|0:0,0:0:0:0:
185,266,30392,5,8,0:0:0:0:
188,96,30563,2,0,P|246:116|267:137,1,80,4|8,0:0|0:0,0:0:0:0:
320,293,30904,1,4,0:0:0:0:
177,189,31074,1,8,0:0:0:0:
345,141,31245,1,4,0:0:0:0:
223,268,31415,1,8,0:0:0:0:
258,96,31586,1,4,0:0:0:0:
374,228,31756,1,8,0:0:0:0:
332,57,31923,5,2,0:0:0:0:
160,169,32091,2,0,P|195:123|245:99,1,96,8|0,0:0|0:0,0:0:0:0:
393,188,32435,1,0,0:0:0:0:
223,268,32608,1,0,0:0:0:0:
258,96,32780,1,8,0:0:0:0:
92,146,32935,1,0,0:0:0:0:
69,168,33012,1,0,0:0:0:0:
60,198,33091,6,0,P|51:245|105:341,1,160,12|8,0:0|0:0,0:0:0:0:
244,326,33599,2,0,L|307:258,1,80,4|8,0:0|0:0,0:0:0:0:
413,135,33938,1,2,0:0:0:0:
213,210,34107,6,0,P|259:226|305:282,1,106.666666666667,8|4,0:0|0:0,0:0:0:0:
332,357,34446,1,8,0:0:0:0:
408,215,34616,1,2,0:0:0:0:
349,51,34785,2,0,P|292:70|238:137,1,106.666666666667,8|4,0:0|0:0,0:0:0:0:
213,210,35124,1,8,0:0:0:0:
51,135,35294,1,2,0:0:0:0:
118,290,35463,2,0,P|144:322|218:336,1,106.666666666667,12|2,0:0|0:0,0:0:0:0:
327,231,35802,6,0,P|317:143|229:100,2,160,8|10|8,0:0|0:0|0:0,0:0:0:0:
118,93,36650,1,2,0:0:0:0:
183,255,36819,1,8,0:0:0:0:
271,112,36989,1,2,0:0:0:0:
271,112,37074,1,2,0:0:0:0:
271,112,37158,1,12,0:0:0:0:
268,286,37328,1,2,0:0:0:0:
350,127,37497,6,0,P|345:75|313:45,1,80,8|4,0:0|0:0,0:0:0:0:
161,181,37836,2,0,P|185:234|220:252,1,80,8|4,0:0|0:0,0:0:0:0:
372,203,38175,2,0,P|412:155|455:145,1,80,8|4,0:0|0:0,0:0:0:0:
235,110,38514,5,8,3:3:0:0:
165,301,38684,1,0,2:0:0:0:
102,100,38853,1,8,3:3:0:0:
39,302,39023,1,0,0:0:0:0:
235,110,39192,5,8,3:3:0:0:
260,332,39362,1,0,2:0:0:0:
136,216,39531,1,8,3:3:0:0:
333,111,39701,1,0,2:0:0:0:
136,216,39870,5,8,3:3:0:0:
229,0,40040,1,0,2:0:0:0:
299,226,40209,1,8,3:3:0:0:
104,79,40379,1,0,2:0:0:0:
160,290,40548,5,8,3:3:0:0:
333,111,40718,1,0,2:0:0:0:
342,300,40887,1,8,3:3:0:0:
174,114,41057,1,0,2:0:0:0:
391,184,41226,6,0,P|420:115|373:20,1,160,8|4,3:3|2:0,2:0:0:0:
262,225,41735,1,10,3:3:0:0:
118,64,41904,1,8,3:3:0:0:
265,117,42074,5,10,3:3:0:0:
88,171,42244,1,8,3:3:0:0:
172,4,42414,1,10,3:3:0:0:
157,212,42583,5,8,3:3:0:0:
94,30,42753,1,10,3:3:0:0:
284,124,42923,1,8,3:3:0:0:
56,113,43093,5,10,3:3:0:0:
287,0,43262,1,8,3:3:0:0:
287,261,43432,1,10,3:3:0:0:
60,197,43602,5,8,3:3:0:0:
340,82,43771,1,10,3:3:0:0:
254,360,43941,1,8,3:3:0:0:
189,42,44111,5,10,3:3:0:0:
357,286,44281,1,8,3:3:0:0:
75,298,44450,1,10,3:3:0:0:
280,59,44620,5,8,3:3:0:0:
168,354,44790,1,10,3:3:0:0:
40,89,44960,1,8,3:3:0:0:
287,230,45129,5,10,3:3:0:0:
59,167,45299,1,8,3:3:0:0:
237,2,45469,1,10,3:3:0:0:
144,155,45639,5,8,3:3:0:0:
348,176,45808,1,10,3:3:0:0:
166,307,45978,1,8,3:3:0:0:
229,182,46147,1,10,3:3:0:0:
273,323,46316,1,8,3:3:0:0:
161,229,46486,1,10,3:3:0:0:
304,216,46655,6,0,P|299:137|202:103,1,180.000006866455,8|4,0:0|0:0,0:0:0:0:
161,229,47352,2,0,P|145:261|209:229,1,180.000006866455,2|4,0:0|0:0,0:0:0:0:
186,118,48029,2,0,B|211:168|211:168|264:163|264:163|302:229,1,180.000006866455,2|4,0:0|0:0,0:0:0:0:
370,321,48706,2,0,L|386:257,1,60.0000022888184,8|4,0:0|0:0,0:0:0:0:
361,67,49045,2,0,L|281:35,1,60.0000022888184,8|4,0:0|0:0,0:0:0:0:
112,128,49384,6,0,P|169:215|197:227,1,120.000004577637,8|4,0:0|0:0,0:0:0:0:
235,107,49893,2,0,P|219:50|164:2,2,120.000004577637,8|2|4,2:0|0:0|2:0,0:0:0:0:
174,264,50740,5,10,3:3:0:0:
301,208,50910,1,10,3:3:0:0:
160,341,51389,5,10,3:3:0:0:
248,148,51563,1,10,3:3:0:0:
265,131,52088,6,0,B|341:180|266:227|360:286,1,184.000003509522,8|8,0:0|0:0,0:0:0:0:
180,243,52590,1,0,0:0:0:0:
173,258,52674,1,0,0:0:0:0:
166,272,52758,1,8,0:0:0:0:
86,148,52925,1,0,0:0:0:0:
262,199,53093,1,8,0:0:0:0:
198,45,53261,1,0,0:0:0:0:
148,220,53428,6,0,P|160:267|221:302,1,92.0000017547608,8|0,0:0|0:0,0:0:0:0:
322,314,53763,2,0,B|356:278|326:250|387:199,1,92.0000017547608,8|0,0:0|0:0,0:0:0:0:
315,25,54099,1,8,0:0:0:0:
445,194,54271,1,0,0:0:0:0:
292,99,54443,2,0,P|301:162|378:207,1,138.000002632141,0|0,2:0|0:0,0:0:0:0:
388,120,54788,6,0,P|439:165|443:209,1,100,8|0,0:0|0:0,0:0:0:0:
394,283,55119,1,8,0:0:0:0:
199,243,55287,2,0,P|229:211|241:208,1,46.0000008773804
340,187,55456,2,0,B|399:184|399:184|431:144,1,92.0000017547608,8|0,0:0|0:0,0:0:0:0:
312,267,55793,1,8,0:0:0:0:
461,86,55961,1,0,0:0:0:0:
256,70,56130,6,0,B|242:104|242:104|214:124|214:124|201:155,1,92.0000017547608,8|0,0:0|0:0,0:0:0:0:
140,201,56467,1,8,0:0:0:0:
274,168,56638,1,0,0:0:0:0:
185,55,56810,1,8,0:0:0:0:
121,217,56980,1,0,0:0:0:0:
165,42,57151,1,8,0:0:0:0:
271,190,57322,1,0,0:0:0:0:
366,76,57493,6,0,P|406:114|414:182,1,92.0000017547608,8|0,0:0|0:0,0:0:0:0:
343,290,57828,1,8,0:0:0:0:
422,171,57996,2,0,P|467:213|475:272,1,92.0000017547608,0|8,0:0|0:0,0:0:0:0:
339,178,58333,1,0,0:0:0:0:
200,258,58502,1,8,0:0:0:0:
175,86,58673,6,0,L|236:166,1,92.0000017547608,0|8,0:0|0:0,0:0:0:0:
362,266,59012,2,0,P|400:243|419:197,1,80,0|8,0:0|0:0,0:0:0:0:
274,60,59349,1,0,0:0:0:0:
200,258,59518,1,8,0:0:0:0:
362,140,59686,5,0,0:0:0:0:
114,267,59855,2,0,P|119:227|145:194,1,80,8|0,0:0|0:0,0:0:0:0:
362,140,60205,6,0,B|394:206|394:206|364:268,1,120,8|0,0:0|0:0,0:0:0:0:
339,275,60543,1,8,0:0:0:0:
200,258,60713,1,0,0:0:0:0:
297,347,60882,2,0,B|368:372|368:372|407:322,1,138.000002632141,8|0,0:0|0:0,0:0:0:0:
430,287,61221,1,8,0:0:0:0:
267,179,61391,1,0,0:0:0:0:
113,281,61560,5,8,0:0:0:0:
149,281,61645,1,0,0:0:0:0:
189,280,61730,1,8,0:0:0:0:
355,179,61901,1,8,0:0:0:0:
143,238,62072,5,0,0:0:0:0:
195,238,62157,1,0,0:0:0:0:
247,237,62242,1,8,0:0:0:0:
385,105,62413,1,8,0:0:0:0:
172,148,62584,2,0,L|203:272,1,92.0000017547608,8|0,0:0|0:0,0:0:0:0:
296,183,62925,6,0,B|312:112|312:112|239:42,1,138.000002632141,8|0,0:0|0:0,0:0:0:0:
229,38,63262,1,8,0:0:0:0:
79,84,63430,1,0,0:0:0:0:
234,135,63599,1,8,0:0:0:0:
65,180,63767,1,0,0:0:0:0:
194,47,63936,1,8,0:0:0:0:
169,227,64104,1,0,0:0:0:0:
79,84,64273,6,0,P|141:49|220:65,1,138.000002632141,8|0,0:0|0:0,0:0:0:0:
248,92,64610,1,8,0:0:0:0:
112,239,64781,1,0,0:0:0:0:
118,207,64867,1,0,0:0:0:0:
122,177,64952,1,8,0:0:0:0:
247,283,65124,1,0,0:0:0:0:
121,363,65295,2,0,P|91:305|112:239,1,138.000002632141,8|0,0:0|0:0,0:0:0:0:
189,213,65638,6,0,P|232:253|249:288,1,92.0000017547608,8|0,0:0|0:0,0:0:0:0:
296,368,65975,1,8,0:0:0:0:
363,214,66143,2,0,P|362:158|354:119,1,92.0000017547608,0|8,0:0|0:0,0:0:0:0:
282,265,66480,1,0,0:0:0:0:
250,89,66649,1,8,0:0:0:0:
156,274,66817,1,0,0:0:0:0:
355,122,66986,1,8,0:0:0:0:
405,48,67660,6,0,P|385:93|326:134,1,92.0000017547608
210,160,67913,2,0,L|290:214,1,92.0000017547608,8|0,0:0|0:0,0:0:0:0:
380,291,68166,1,8,0:0:0:0:
380,291,68375,6,8,B|301:269|304:358|197:318,1,160
286,211,68858,1,0,0:0:0:0:
356,368,69020,1,8,0:0:0:0:
195,311,69189,1,0,0:0:0:0:
93,171,69358,2,0,L|129:268,1,80,8|0,0:0|0:0,0:0:0:0:
293,84,69697,2,0,L|255:175,1,80,8|0,0:0|0:0,0:0:0:0:
112,13,70039,6,0,L|138:94,1,80,8|0,0:0|0:0,0:0:0:0:
143,107,70297,1,0,0:0:0:0:
150,124,70382,1,12,0:0:0:0:
293,76,70554,1,0,0:0:0:0:
226,240,70725,1,8,0:0:0:0:
379,165,70897,2,0,L|344:124,1,40,8|4,0:0|0:0,0:0:0:0:
343,240,71068,6,0,L|411:320,1,80,8|0,0:0|0:0,0:0:0:0:
188,333,71411,1,8,0:0:0:0:
114,168,71577,1,0,0:0:0:0:
281,289,71744,2,0,P|254:247|213:229,1,80,8|0,0:0|0:0,0:0:0:0:
82,187,72077,1,8,0:0:0:0:
216,91,72245,6,0,P|264:92|294:106,1,80,0|8,0:0|0:0,0:0:0:0:
439,212,72582,2,0,P|410:257|379:271,1,80,0|8,0:0|0:0,0:0:0:0:
225,260,72919,1,8,0:0:0:0:
231,229,73003,1,0,0:0:0:0:
237,198,73088,1,12,0:0:0:0:
115,315,73256,1,0,0:0:0:0:
287,268,73425,2,0,P|218:259|171:223,1,120,8|4,0:0|0:0,0:0:0:0:
135,145,73759,6,0,B|187:145|187:145|203:125|203:125|250:125,1,120.000004577637,8|0,0:0|0:0,0:0:0:0:
418,170,74097,1,8,0:0:0:0:
291,297,74267,6,0,P|239:243|240:178,1,120.000004577637,8|4,0:0|0:0,0:0:0:0:
359,65,74606,1,8,0:0:0:0:
342,100,74691,1,0,0:0:0:0:
321,132,74775,1,8,0:0:0:0:
289,156,74860,1,0,0:0:0:0:
258,176,74945,1,8,0:0:0:0:
220,190,75030,1,0,0:0:0:0:
186,206,75114,6,0,P|172:291|259:315,1,180.000006866455,8|0,0:0|0:0,0:0:0:0:
278,299,75453,1,12,0:0:0:0:
403,227,75623,6,0,P|392:122|381:109,1,120.000004577637,8|8,0:0|0:0,0:0:0:0:
284,58,75877,1,0,3:0:0:0:
284,58,75962,2,0,L|229:90,1,60.0000022888184,8|0,3:0|3:0,3:0:0:0:
234,217,76131,2,0,L|289:153,1,60.0000022888184,8|0,3:0|3:0,3:0:0:0:
322,271,76301,1,8,3:0:0:0:
305,305,76386,1,0,0:0:0:0:
289,327,76470,6,0,P|237:349|170:310,1,120.000004577637,8|8,0:0|0:0,0:0:0:0:
161,302,76725,1,0,0:0:0:0:
161,302,76809,1,12,0:0:0:0:
154,95,76979,6,0,B|245:106|245:106|323:268,1,240.000009155274,8|12,0:0|0:0,0:0:0:0:
290,285,77403,1,0,0:0:0:0:
312,317,77487,1,8,0:0:0:0:
344,341,77572,1,0,0:0:0:0:
382,353,77657,1,8,0:0:0:0:
422,352,77742,1,0,0:0:0:0:
458,338,77826,2,0,L|490:290,1,40,8|0,0:0|0:0,0:0:0:0:
475,119,77993,6,0,L|446:163,1,40,8|0,0:0|0:0,0:0:0:0:
413,188,78161,1,0,0:0:0:0:
363,200,78240,1,0,0:0:0:0:
321,172,78319,1,0,0:0:0:0:
311,123,78399,1,0,0:0:0:0:
305,72,78478,5,0,0:0:0:0:
270,35,78562,1,0,0:0:0:0:
220,27,78646,1,0,0:0:0:0:
175,52,78730,1,0,0:0:0:0:
156,99,78815,1,0,0:0:0:0:
169,148,78899,1,0,0:0:0:0:
210,179,78983,1,0,0:0:0:0:
223,228,79067,1,0,0:0:0:0:
187,265,79152,6,0,P|66:165|46:50,1,240.000009155274,8|0,0:0|0:0,0:0:0:0:
237,106,79686,2,8,B|288:157|288:157|364:163|364:163|430:226,1,240.000009155274
239,351,80195,2,0,P|151:308|242:290,1,240.000009155274,8|0,0:0|0:0,0:0:0:0:
406,146,80712,2,0,P|435:57|354:103,1,240.000009155274,8|0,0:0|0:0,0:0:0:0:
388,274,81218,2,0,P|422:322|475:349,1,120.000004577637,8|4,0:0|0:0,0:0:0:0:
330,181,81552,2,0,P|255:190|203:234,1,120.000004577637,8|4,0:0|0:0,0:0:0:0:
139,322,81898,6,0,B|210:375|210:375|339:247,1,240.000009155274,8|0,0:0|0:0,0:0:0:0:
201,212,82400,2,0,P|171:154|176:100,1,120.000004577637,8|0,0:0|0:0,0:0:0:0:
243,17,82753,1,0,0:0:0:0:
353,73,82939,2,0,P|291:136|228:137,1,120.000004577637,8|4,0:0|0:0,0:0:0:0:
152,31,83253,5,0,0:0:0:0:
70,188,83422,2,0,L|145:334,1,120.000004577637,8|4,0:0|0:0,0:0:0:0:
233,344,83759,1,8,0:0:0:0:
233,344,83844,1,0,0:0:0:0:
233,344,83928,2,0,L|197:284,1,60.0000022888184,8|0,0:0|0:0,0:0:0:0:
129,198,84097,2,0,L|62:186,1,60.0000022888184,8|0,0:0|0:0,0:0:0:0:
125,55,84266,2,0,P|211:112|248:190,1,180.000006866455,8|0,0:0|0:0,0:0:0:0:
202,292,84604,5,6,0:0:0:0:
256,192,84773,12,0,85967,0:0:0:0:
364,49,86310,6,0,P|381:107|365:152,1,80,0|0,3:0|3:0,3:0:0:0:
217,106,86645,1,0,3:0:0:0:
334,217,86822,2,0,P|296:251|242:256,1,80,0|0,3:0|3:0,3:0:0:0:
258,252,87088,1,0,3:0:0:0:
250,245,87177,1,0,3:0:0:0:
79,180,87355,6,0,L|178:150,1,80,0|0,3:0|3:0,3:0:0:0:
282,227,87681,2,0,L|357:168,1,80,0|0,3:0|3:0,3:0:0:0:
451,63,88007,2,0,P|479:118|476:157,1,80,0|0,3:0|3:0,3:0:0:0:
478,147,88262,1,0,3:0:0:0:
474,158,88347,1,0,3:0:0:0:
304,109,88518,1,0,3:0:0:0:
343,258,88688,6,0,L|332:300,2,40,0|0|0,3:0|3:0|3:0,3:0:0:0:
196,171,89029,1,0,3:0:0:0:
185,317,89200,2,0,P|233:315|267:280,1,80,0|0,3:0|3:0,3:0:0:0:
367,195,89541,1,0,3:0:0:0:
196,171,89711,2,0,P|197:232|214:271,1,80,0|0,3:0|3:0,3:0:0:0:
337,341,90065,5,0,3:0:0:0:
322,165,90230,2,0,P|315:114|271:78,1,80,0|0,3:0|3:0,3:0:0:0:
294,100,90479,1,0,3:0:0:0:
290,107,90562,1,0,3:0:0:0:
198,230,90727,1,0,3:0:0:0:
82,120,90893,6,0,P|71:98|80:53,2,40,0|0|0,3:0|3:0|3:0,3:0:0:0:
234,161,91225,1,0,3:0:0:0:
125,264,91390,2,0,P|164:301|213:305,1,80,0|0,3:0|3:0,3:0:0:0:
185,299,91635,1,0,0:0:0:0:
181,291,91717,1,0,3:0:0:0:
104,192,91885,2,0,P|106:239|142:290,1,80,0|0,3:0|3:0,3:0:0:0:
156,62,92233,5,0,3:0:0:0:
267,181,92414,2,0,P|287:232|268:279,1,80,0|0,3:0|3:0,3:0:0:0:
277,265,92666,1,0,3:0:0:0:
271,274,92751,1,0,3:0:0:0:
140,185,92920,1,0,3:0:0:0:
174,319,93090,6,0,L|216:358,2,40,0|0|0,3:0|3:0|3:0,3:0:0:0:
53,212,93430,2,0,P|48:163|85:114,1,80,0|0,3:0|3:0,3:0:0:0:
202,59,93770,1,0,3:0:0:0:
326,165,93940,2,0,P|358:126|361:77,1,80,0|0,3:0|3:0,3:0:0:0:
412,240,94280,1,0,3:0:0:0:
228,202,94451,6,0,P|221:155|263:103,1,80,0|0,3:0|3:0,3:0:0:0:
242,122,94708,1,0,3:0:0:0:
250,117,94793,1,0,3:0:0:0:
105,49,94964,2,0,L|81:91,1,40,0|0,3:0|3:0,3:0:0:0:
67,115,95135,6,0,B|127:150|127:104|196:138,1,120.000004577637
272,234,95641,5,0,0:0:0:0:
374,161,95797,2,0,P|335:122|288:109,1,80
182,132,96135,1,0,0:0:0:0:
116,243,96305,2,0,B|197:266|197:210|281:234,1,160
376,305,96813,5,0,0:0:0:0:
339,173,96983,1,0,0:0:0:0:
473,217,97153,2,0,P|489:237|503:274,1,60.0000022888184
376,305,97494,6,0,P|318:338|231:309,1,160
161,156,98006,1,0,0:0:0:0:
318,222,98176,1,0,0:0:0:0:
304,50,98347,1,0,0:0:0:0:
192,236,98517,5,0,0:0:0:0:
203,44,98688,1,0,0:0:0:0:
356,148,98858,1,0,0:0:0:0:
161,156,99028,2,0,P|115:196|111:245,2,80
201,307,99540,6,0,B|241:265|241:265|249:213|249:213|303:156,1,160
430,86,100047,1,0,0:0:0:0:
242,99,100214,1,0,0:0:0:0:
352,297,100380,2,0,L|359:237,1,60.0000022888184
189,192,100713,6,0,P|151:163|140:103,1,80
330,119,101049,1,0,0:0:0:0:
179,42,101218,1,0,0:0:0:0:
275,197,101388,1,0,0:0:0:0:
284,31,101557,2,0,B|326:11|326:11|377:32,1,80
468,157,101896,1,0,0:0:0:0:
312,280,102066,6,0,P|276:303|217:302,1,80
126,225,102410,1,0,0:0:0:0:
239,112,102574,2,0,B|282:65|340:69|340:69|377:57|385:18,1,160
337,203,103079,1,0,0:0:0:0:
139,153,103256,1,0,0:0:0:0:
135,164,103610,5,0,0:0:0:0:
276,304,103766,1,0,0:0:0:0:
241,127,103922,1,0,0:0:0:0:
138,281,104092,1,0,0:0:0:0:
330,201,104262,2,0,B|360:165|360:165|400:177|400:177|424:150|424:150|465:164,1,160
386,276,104769,1,0,0:0:0:0:
214,189,104936,6,0,P|223:145|262:102,2,80
377,116,105441,1,0,0:0:0:0:
219,27,105610,2,0,B|165:51|145:102|145:102|95:68,2,160
304,157,106464,1,0,0:0:0:0:
313,190,106550,1,0,0:0:0:0:
310,219,106636,6,0,P|276:260|217:275,2,95.9999970703126
342,58,107154,1,0,0:0:0:0:
228,174,107326,1,0,0:0:0:0:
391,174,107498,1,0,0:0:0:0:
260,77,107671,6,0,P|199:73|155:105,2,95.9999970703126
270,240,108173,1,0,0:0:0:0:
126,160,108331,1,0,0:0:0:0:
197,308,108494,2,0,P|232:340|294:341,1,95.9999970703126
461,167,108830,5,0,0:0:0:0:
310,52,109003,1,0,0:0:0:0:
291,246,109172,1,0,0:0:0:0:
410,66,109341,5,0,0:0:0:0:
179,133,109511,1,0,0:0:0:0:
383,282,109680,1,0,0:0:0:0:
267,80,109850,1,0,0:0:0:0:
240,63,109935,1,0,0:0:0:0:
210,49,110019,6,0,P|161:38|99:56,1,95.9999970703126
158,188,110358,2,0,P|230:244|329:225,2,191.999994140625
265,124,111207,1,0,0:0:0:0:
424,213,111378,2,0,P|404:165|339:133,2,95.9999970703126
254,295,111889,5,0,0:0:0:0:
157,148,112058,2,0,P|147:113|155:48,1,80
356,85,112397,1,0,0:0:0:0:
222,223,112567,1,0,0:0:0:0:
189,245,112652,1,0,0:0:0:0:
150,252,112736,1,0,0:0:0:0:
169,59,112906,1,0,0:0:0:0:
399,150,113075,6,0,B|441:183|445:233|445:233|389:281|327:209,2,191.999994140625
252,119,113923,1,0,0:0:0:0:
217,139,114008,1,0,0:0:0:0:
193,170,114092,2,0,P|150:192|111:199,1,80
210,44,114431,1,0,0:0:0:0:
278,203,114601,1,0,0:0:0:0:
124,90,114770,6,0,P|95:62|27:52,2,80
102,260,115279,1,0,0:0:0:0:
79,240,115364,1,0,0:0:0:0:
61,215,115448,2,0,P|48:177|58:129,1,80
185,41,115787,5,0,0:0:0:0:
335,215,115955,1,0,0:0:0:0:
147,158,116124,1,0,0:0:0:0:
371,41,116292,1,0,0:0:0:0:
183,249,116461,1,0,0:0:0:0:
450,295,116629,1,0,0:0:0:0:
230,65,116798,1,0,0:0:0:0:
243,232,116966,5,0,0:0:0:0:
252,262,117051,1,0,0:0:0:0:
261,287,117135,1,0,0:0:0:0:
308,130,117304,1,0,0:0:0:0:
149,226,117473,2,0,P|171:174|249:145,1,127.99999609375
337,248,117812,1,0,0:0:0:0:
419,119,117982,1,0,0:0:0:0:
270,26,118151,6,0,P|234:92|240:169,1,127.99999609375
219,278,118490,1,0,0:0:0:0:
115,124,118660,1,0,0:0:0:0:
126,305,118829,2,0,P|153:350|236:374,1,127.99999609375
345,289,119168,6,0,P|378:246|380:169,1,95.9999970703126
210,155,119507,2,0,B|136:165|88:229|88:229|85:135,1,207.999990478516
199,287,120016,1,0,0:0:0:0:
85,153,120185,1,0,0:0:0:0:
270,129,120355,1,0,0:0:0:0:
270,129,120440,1,0,0:0:0:0:
270,129,120524,1,0,0:0:0:0:
199,287,120694,1,0,0:0:0:0:
379,239,120863,6,0,P|418:190|425:127,1,103.999995239258
271,32,121202,2,0,P|205:51|176:83,1,103.999995239258
289,271,121541,2,0,P|280:325|237:364,2,103.999995239258
67,216,122050,2,0,P|14:183|-5:129,2,103.999995239258
203,109,122558,5,0,3:0:0:0:
141,273,122728,1,0,3:0:0:0:
97,101,122897,1,0,3:0:0:0:
212,243,123067,1,0,3:0:0:0:
162,48,123236,5,0,3:0:0:0:
73,228,123406,1,0,3:0:0:0:
233,107,123575,1,0,3:0:0:0:
276,301,123745,1,0,3:0:0:0:
122,147,123914,5,0,3:0:0:0:
331,93,124084,1,0,3:0:0:0:
189,255,124253,1,0,3:0:0:0:
200,38,124423,1,0,3:0:0:0:
301,237,124592,5,0,3:0:0:0:
77,211,124762,1,0,3:0:0:0:
256,78,124931,1,0,3:0:0:0:
36,28,125101,1,0,3:0:0:0:
179,218,125270,6,0,P|248:250|331:215,1,160,0|0,3:0|3:0,3:0:0:0:
440,60,125778,1,0,3:0:0:0:
498,235,125947,1,0,3:0:0:0:
314,113,126135,5,0,3:0:0:0:
256,304,126305,1,0,3:0:0:0:
423,195,126475,1,0,3:0:0:0:
232,119,126646,5,0,3:0:0:0:
343,339,126818,1,0,3:0:0:0:
464,122,126990,1,0,3:0:0:0:
229,221,127163,5,0,3:0:0:0:
411,40,127335,1,0,3:0:0:0:
412,266,127495,1,0,3:0:0:0:
266,83,127655,5,0,3:0:0:0:
161,333,127816,1,0,3:0:0:0:
31,103,128004,1,0,3:0:0:0:
293,12,128170,5,0,3:0:0:0:
321,280,128337,1,0,3:0:0:0:
111,101,128504,1,0,3:0:0:0:
398,60,128670,5,0,3:0:0:0:
232,298,128838,1,0,3:0:0:0:
160,25,129007,1,0,3:0:0:0:
110,309,129175,5,0,3:0:0:0:
294,74,129344,1,0,3:0:0:0:
378,342,129512,1,0,3:0:0:0:
216,150,129681,5,0,3:0:0:0:
392,130,129849,1,0,3:0:0:0:
243,248,130018,1,0,3:0:0:0:
294,74,130186,1,0,3:0:0:0:
367,245,130355,1,0,0:0:0:0:
209,87,130692,6,0,P|303:109|361:175,1,180.000006866455
187,276,131406,2,0,P|129:300|174:244,1,180.000006866455
275,157,132080,2,0,B|224:180|224:180|161:146|161:146|101:172,1,180.000006866455
190,39,132754,2,0,P|223:47|251:66,1,60.0000022888184
358,157,133091,2,0,P|347:200|325:225,1,60.0000022888184
221,233,133428,6,0,P|241:292|304:323,1,120.000004577637
355,145,133936,2,0,P|316:125|217:121,2,120.000004577637
195,278,134783,5,0,3:0:0:0:
61,110,134953,1,0,3:0:0:0:
310,19,135461,5,0,3:0:0:0:
153,215,135631,1,0,3:0:0:0:
379,72,136113,6,0,B|290:136|290:53|196:121,1,184.000003509522
87,223,136621,1,0,0:0:0:0:
75,236,136706,1,0,0:0:0:0:
66,247,136790,1,0,0:0:0:0:
137,103,136960,1,0,0:0:0:0:
236,257,137129,1,0,0:0:0:0:
319,93,137299,1,0,0:0:0:0:
153,243,137468,6,0,P|165:300|219:332,1,92.0000017547608
326,325,137807,2,0,B|366:293|335:259|374:212,1,92.0000017547608
379,216,138062,1,0,0:0:0:0:
402,192,138146,1,0,0:0:0:0:
249,129,138316,1,0,0:0:0:0:
402,61,138485,2,0,P|420:135|401:192,1,138.000002632141
345,219,138824,6,0,P|333:274|363:338,1,92.0000017547608
429,271,139163,1,0,0:0:0:0:
350,114,139335,2,0,L|301:92,1,46.0000008773804
207,67,139507,2,0,B|152:105|152:105|172:144,1,92.0000017547608
242,277,139852,1,0,0:0:0:0:
411,166,140025,1,0,0:0:0:0:
164,185,140197,6,0,B|188:171|188:171|219:175|219:175|268:145,1,80
381,70,140532,1,0,0:0:0:0:
318,260,140699,1,0,0:0:0:0:
201,100,140867,1,0,0:0:0:0:
428,183,141034,1,0,0:0:0:0:
184,242,141202,1,0,0:0:0:0:
288,32,141370,1,0,0:0:0:0:
290,265,141537,6,0,P|267:318|216:348,1,92.0000017547608
184,242,141876,1,0,0:0:0:0:
294,76,142046,2,0,P|346:116|367:180,1,92.0000017547608
396,339,142386,1,0,0:0:0:0:
216,176,142556,1,0,0:0:0:0:
455,138,142726,1,0,0:0:0:0:
235,320,142896,6,0,B|215:259|215:259|163:262|163:262|143:214|143:214|73:218,1,223.999993164063
216,53,143406,2,0,P|280:61|328:101,1,92.0000017547608
460,236,143746,1,0,0:0:0:0:
226,196,143916,2,0,P|189:229|177:282,1,92.0000017547608
310,117,144256,2,0,B|337:160|337:160|316:251,1,138.000002632141
308,276,144598,1,0,0:0:0:0:
186,159,144770,1,0,0:0:0:0:
259,341,144941,2,0,B|325:372|325:372|380:323,1,138.000002632141
440,255,145284,1,0,0:0:0:0:
253,128,145442,1,0,0:0:0:0:
115,246,145601,5,0,0:0:0:0:
133,283,145691,1,0,0:0:0:0:
166,313,145781,1,0,0:0:0:0:
336,164,145962,1,0,0:0:0:0:
134,71,146135,5,0,0:0:0:0:
109,123,146222,1,0,0:0:0:0:
103,182,146308,1,0,0:0:0:0:
360,53,146472,1,0,0:0:0:0:
208,207,146637,2,0,P|247:261|316:270,1,120
296,183,146959,6,0,B|305:132|305:132|271:82,1,92.0000017547608
98,156,147297,1,0,0:0:0:0:
174,322,147467,1,0,0:0:0:0:
224,151,147636,1,0,0:0:0:0:
84,270,147806,1,0,0:0:0:0:
169,73,147975,5,0,0:0:0:0:
309,284,148145,1,0,0:0:0:0:
139,182,148314,6,0,P|143:107|189:62,1,120
207,67,148660,1,0,0:0:0:0:
115,208,148834,1,0,0:0:0:0:
101,246,148920,1,0,0:0:0:0:
106,285,149007,1,0,0:0:0:0:
315,186,149181,1,0,0:0:0:0:
103,25,149354,2,0,P|63:81|70:157,1,120
82,193,149701,6,0,P|141:190|176:153,1,80
267,302,150034,1,0,0:0:0:0:
381,120,150201,2,0,P|335:91|283:78,1,80
101,116,150538,1,0,0:0:0:0:
335,229,150709,1,0,0:0:0:0:
227,33,150881,1,0,0:0:0:0:
171,303,151052,1,0,0:0:0:0:
102,47,151711,6,0,L|189:84,1,80
218,122,151965,2,0,L|142:174,1,80
107,209,152220,1,0,0:0:0:0:
107,209,152390,6,0,B|159:249|206:195|279:234,1,160
358,303,152899,1,0,0:0:0:0:
282,140,153068,1,0,0:0:0:0:
220,305,153238,1,0,0:0:0:0:
406,151,153408,2,0,L|385:229,1,80
187,89,153747,6,0,L|216:168,1,80
386,38,154087,2,0,L|345:115,1,80
338,133,154341,1,0,0:0:0:0:
327,152,154426,1,0,0:0:0:0:
213,281,154596,1,0,0:0:0:0:
187,89,154766,1,0,0:0:0:0:
386,215,154935,2,0,P|383:263|370:284,1,40
366,298,155105,6,0,L|282:331,1,80
123,366,155441,1,0,0:0:0:0:
161,163,155609,1,0,0:0:0:0:
343,219,155778,2,0,P|305:244|286:287,1,80
486,222,156114,1,0,0:0:0:0:
324,79,156283,6,0,P|261:113|241:141,1,80
362,213,156619,1,0,0:0:0:0:
369,235,156703,1,0,0:0:0:0:
376,256,156788,1,0,0:0:0:0:
192,230,156956,1,0,0:0:0:0:
213,190,157040,1,0,0:0:0:0:
235,150,157124,1,0,0:0:0:0:
272,320,157292,1,0,0:0:0:0:
75,262,157461,2,0,P|64:206|93:139,1,120
166,81,157803,6,0,B|218:81|218:81|234:61|234:61|281:61,1,120.000004577637
434,158,158141,1,0,0:0:0:0:
305,314,158311,6,0,B|210:316|210:316|176:279,1,120.000004577637
88,135,158650,1,0,0:0:0:0:
108,101,158735,1,0,0:0:0:0:
140,81,158819,1,0,0:0:0:0:
175,72,158904,1,0,0:0:0:0:
212,82,158989,1,0,0:0:0:0:
241,102,159074,1,0,0:0:0:0:
263,128,159158,6,0,B|291:202|368:186|401:267,1,184.000003509522
355,94,159667,1,0,0:0:0:0:
208,186,159836,2,0,P|236:221|263:241,1,60.0000022888184
318,239,160006,2,0,P|365:231|391:242,3,40,0|0|0|0,3:0|3:0|3:0|3:0,3:0:0:0:
388,243,160345,5,0,0:0:0:0:
425,253,160430,1,0,0:0:0:0:
463,240,160514,1,0,0:0:0:0:
486,209,160599,1,0,0:0:0:0:
488,170,160684,1,0,0:0:0:0:
468,136,160769,1,0,0:0:0:0:
432,120,160853,2,0,P|399:116|378:102,1,40
336,51,161023,5,0,0:0:0:0:
292,31,161108,1,0,0:0:0:0:
244,31,161192,1,0,0:0:0:0:
201,51,161277,1,0,0:0:0:0:
170,87,161362,1,0,0:0:0:0:
156,133,161447,1,0,0:0:0:0:
163,180,161531,1,0,0:0:0:0:
188,220,161613,1,0,0:0:0:0:
228,246,161696,2,0,P|277:201|300:190,1,60.0000022888184
355,161,161862,5,0,0:0:0:0:
402,185,161947,1,0,0:0:0:0:
433,229,162033,1,0,0:0:0:0:
428,282,162119,1,0,0:0:0:0:
390,320,162204,1,0,0:0:0:0:
336,323,162290,1,0,0:0:0:0:
291,292,162376,2,0,P|242:278|216:282,1,60.0000022888184
156,356,162547,5,0,0:0:0:0:
97,327,162633,1,0,0:0:0:0:
63,270,162719,1,0,0:0:0:0:
67,204,162804,1,0,0:0:0:0:
112,148,162890,1,0,0:0:0:0:
146,85,162976,1,0,0:0:0:0:
96,32,163062,1,0,0:0:0:0:
32,67,163147,1,0,0:0:0:0:
35,139,163233,6,0,P|144:245|294:230,1,287.999991210938
400,87,163740,2,0,B|355:164|355:164|387:217|387:217|373:299|373:299|323:342,1,287.999991210938
95,103,164248,2,0,P|194:64|122:138,1,287.999991210938
299,144,164755,2,0,B|275:230|189:249|189:249|211:314|285:333,1,287.999991210938
432,349,165263,2,0,P|377:280|309:259,1,143.999995605469
97,268,165598,2,0,P|111:192|180:154,1,143.999995605469
326,260,165933,6,0,B|384:234|384:234|401:137,1,120.000004577637
416,8,166270,1,0,0:0:0:0:
217,58,166438,2,0,P|162:136|174:194,1,120.000004577637
279,314,166775,1,0,0:0:0:0:
340,153,166944,2,0,P|387:117|467:115,1,120.000004577637
449,288,167281,5,0,0:0:0:0:
244,190,167444,2,0,L|108:132,1,120.000004577637
416,15,167786,1,0,0:0:0:0:
416,15,167876,1,0,0:0:0:0:
416,15,167966,2,0,L|408:84,1,60.0000022888184
485,150,168145,2,0,L|459:212,1,60.0000022888184
360,275,168325,2,0,B|321:232|321:232|314:181|314:181|259:121,1,160
106,52,168648,5,0,0:0:0:0:
142,270,168816,1,0,0:0:0:0:
292,123,168985,1,0,0:0:0:0:
89,179,169153,2,0,P|47:212|33:286,2,120.000004577637
286,261,169659,5,0,0:0:0:0:
77,337,169827,1,0,0:0:0:0:
227,143,169996,1,0,0:0:0:0:
209,368,170165,1,0,0:0:0:0:
89,179,170335,1,0,0:0:0:0:
319,183,170505,2,0,P|368:214|391:281,2,120.000004577637
89,285,171015,5,0,0:0:0:0:
344,338,171185,1,0,0:0:0:0:
205,123,171355,1,0,0:0:0:0:
168,369,171525,1,0,0:0:0:0:
320,180,171695,1,0,0:0:0:0:
89,285,171865,5,0,0:0:0:0:
247,41,172011,1,0,0:0:0:0:
282,318,172184,1,0,0:0:0:0:
78,116,172357,1,0,0:0:0:0:
364,138,172531,1,0,0:0:0:0:
78,116,172704,2,0,P|126:61|198:37,1,120.000004577637
441,99,173047,5,0,0:0:0:0:
131,232,173219,1,0,0:0:0:0:
454,318,173391,1,0,0:0:0:0:
237,48,173562,1,0,0:0:0:0:
238,375,173734,1,0,0:0:0:0:
441,99,173906,1,0,0:0:0:0:
441,99,174078,6,0,L|405:68,1,40
416,184,174416,2,0,L|380:153,1,40
306,195,174755,6,0,L|337:222,1,40
281,280,175094,2,0,L|317:311,1,40
416,261,175433,2,0,P|424:211|408:170,2,80,0|0|0,3:0|3:0|3:0,3:0:0:0:
194,149,176450,5,0,0:0:0:0:
281,280,176620,1,0,0:0:0:0:
125,298,176789,2,0,L|102:250,1,40
281,280,177128,6,0,L|311:332,1,55.9999982910157
195,237,177467,1,0,0:0:0:0:
351,230,177637,1,0,0:0:0:0:
196,329,177806,2,0,P|167:325|117:288,1,80
200,154,178315,1,0,3:0:0:0:
281,280,178475,1,0,3:0:0:0:
121,218,178649,1,0,3:0:0:0:
305,194,178819,6,0,L|350:224,2,40,0|0|0,3:0|3:0|3:0,3:0:0:0:
161,153,179508,2,0,P|132:179|120:228,1,80,0|0,3:0|3:0,3:0:0:0:
226,268,180184,2,0,P|212:302|165:337,1,80,0|0,3:0|3:0,3:0:0:0:
52,267,180860,2,0,L|2:186,2,80
190,182,181874,6,0,P|217:150|260:127,1,80
356,289,182550,1,0,3:0:0:0:
451,134,182888,1,0,3:0:0:0:
270,230,183226,2,0,L|239:261,1,40
68,194,183564,1,0,0:0:0:0:
258,98,183743,5,0,3:0:0:0:
313,322,183923,2,0,P|343:346|379:353,1,60.0000022888184,0|0,3:0|3:0,3:0:0:0:
382,336,184177,1,0,0:0:0:0:
396,321,184252,1,0,0:0:0:0:
444,206,184419,2,0,B|409:163|409:163|352:172|352:172|317:88|234:99,1,240
221,258,185094,1,0,0:0:0:0:
221,258,185439,6,0,P|195:294|192:333,2,80,0|0|0,3:0|3:0|3:0,3:0:0:0:
327,187,185949,1,0,3:0:0:0:
321,50,186119,1,0,3:0:0:0:
189,19,186288,1,0,3:0:0:0:
85,103,186457,2,0,B|64:125|61:147|61:183,1,60.0000022888184
266,186,186964,1,0,0:0:0:0:
128,192,187302,5,0,3:0:0:0:
245,103,187471,1,0,3:0:0:0:
117,29,187640,1,0,3:0:0:0:
246,219,187809,2,0,P|314:204|318:201,2,60.0000022888184,0|0|0,3:0|3:0|3:0,3:0:0:0:
284,60,188316,5,0,3:0:0:0:
391,193,188485,1,0,3:0:0:0:
249,302,188654,1,0,3:0:0:0:
306,141,188823,1,0,3:0:0:0:
161,69,188992,5,0,0:0:0:0:
372,323,189334,1,0,0:0:0:0:
482,31,189677,1,0,0:0:0:0:
319,154,190008,1,0,0:0:0:0:
273,51,190340,6,0,P|253:61|231:81,1,40
131,174,190678,1,0,0:0:0:0:
279,163,190848,1,0,0:0:0:0:
161,62,191017,1,0,0:0:0:0:
209,233,191187,1,0,0:0:0:0:
252,54,191356,5,0,0:0:0:0:
96,181,191526,1,0,0:0:0:0:
285,249,191695,5,0,0:0:0:0:
182,97,191865,1,0,0:0:0:0:
353,105,192034,5,0,0:0:0:0:
191,288,192204,1,0,0:0:0:0:
390,315,192373,5,0,0:0:0:0:
254,109,192543,1,0,0:0:0:0:
297,341,192712,1,0,0:0:0:0:
434,128,192878,1,0,0:0:0:0:
244,283,193045,5,0,0:0:0:0:
203,287,193128,1,0,0:0:0:0:
165,278,193212,1,0,0:0:0:0:
132,254,193296,1,0,0:0:0:0:
113,219,193380,1,0,0:0:0:0:
108,180,193463,1,0,0:0:0:0:
120,143,193547,1,0,0:0:0:0:
141,98,193631,5,0,0:3:0:0:
142,50,193714,1,0,0:3:0:0:
113,13,193798,1,0,0:3:0:0:
68,0,193882,1,0,0:3:0:0:
24,19,193966,1,0,0:3:0:0:
2,60,194050,1,0,0:3:0:0:
10,107,194136,1,0,0:3:0:0:
54,150,194222,5,0,0:0:0:0:
114,163,194308,1,0,0:0:0:0:
173,140,194394,1,0,0:0:0:0:
209,88,194479,1,0,0:0:0:0:
245,39,194564,1,0,0:0:0:0:
307,43,194649,1,0,0:0:0:0:
340,95,194734,1,0,0:0:0:0:
320,154,194825,1,0,0:0:0:0:
245,164,194916,5,0,0:0:0:0:
194,218,195008,1,0,0:0:0:0:
193,293,195099,1,0,0:0:0:0:
242,349,195181,1,0,0:0:0:0:
315,359,195264,1,0,0:0:0:0:
377,317,195347,1,0,0:0:0:0:
392,242,195430,1,0,0:0:0:0:
363,172,195513,1,0,0:0:0:0:
371,95,195596,1,0,0:0:0:0:
404,28,195679,1,0,0:0:0:0:
474,4,195761,1,0,0:0:0:0:
276,254,195930,5,0,0:0:0:0:
259,34,196099,1,0,0:0:0:0:
464,131,196269,1,0,0:0:0:0:
184,146,196438,5,0,0:0:0:0:
404,28,196608,1,0,0:0:0:0:
357,248,196777,1,0,0:0:0:0:
259,34,196947,1,0,0:0:0:0:
464,131,197116,1,0,0:0:0:0:
269,286,197286,6,0,P|238:249|229:209,2,80
314,47,197794,1,0,0:0:0:0:
364,297,197964,1,0,0:0:0:0:
186,140,198133,1,0,0:0:0:0:
415,169,198303,1,0,0:0:0:0:
196,249,198472,5,0,0:0:0:0:
274,26,198642,1,0,0:0:0:0:
290,260,198811,1,0,0:0:0:0:
134,75,198981,1,0,0:0:0:0:
100,303,199150,1,0,0:0:0:0:
282,164,199320,1,0,0:0:0:0:
52,150,199489,1,0,0:0:0:0:
201,308,199659,1,0,0:0:0:0:
227,91,199828,5,0,0:0:0:0:
90,223,199998,1,0,0:0:0:0:
85,41,200167,1,0,0:0:0:0:
228,235,200337,1,0,0:0:0:0:
52,150,200506,1,0,0:0:0:0:
204,11,200676,1,0,0:0:0:0:
128,248,200845,5,0,0:0:0:0:
305,106,201015,1,0,0:0:0:0:
349,319,201184,2,0,P|386:349|425:358,2,80
455,101,201693,5,0,0:0:0:0:
229,223,201862,1,0,0:0:0:0:
348,32,202032,1,0,0:0:0:0:
422,261,202201,1,0,0:0:0:0:
219,73,202371,1,0,0:0:0:0:
121,302,202540,1,0,0:0:0:0:
368,123,202710,1,0,0:0:0:0:
255,325,202879,5,0,0:0:0:0:
219,73,203049,1,0,0:0:0:0:
121,302,203218,1,0,0:0:0:0:
368,123,203388,1,0,0:0:0:0:
126,33,203557,1,0,0:0:0:0:
201,266,203727,1,0,0:0:0:0:
286,27,203896,5,0,0:0:0:0:
103,211,204066,1,0,0:0:0:0:
324,282,204235,1,0,0:0:0:0:
203,74,204405,1,0,0:0:0:0:
240,332,204574,1,0,0:0:0:0:
403,133,204744,1,0,0:0:0:0:
116,170,204913,6,0,P|121:108|151:79,1,80
159,79,205167,1,0,0:0:0:0:
186,73,205252,1,0,0:0:0:0:
213,79,205337,1,0,0:0:0:0:
237,94,205421,1,0,0:0:0:0:
311,294,205591,2,0,P|268:324|230:336,1,80
211,335,205853,1,0,0:0:0:0:
181,328,205945,1,0,0:0:0:0:
55,211,206109,1,0,0:0:0:0:
243,100,206274,6,0,B|201:142|223:162|183:202,1,120.000004577637
218,18,206772,1,0,0:0:0:0:
307,175,206942,1,0,0:0:0:0:
114,119,207112,1,0,0:0:0:0:
322,63,207282,1,0,0:0:0:0:
242,271,207452,1,0,0:0:0:0:
125,32,207622,5,0,0:0:0:0:
68,254,207792,1,0,0:0:0:0:
32,64,207962,1,0,0:0:0:0:
181,220,208132,1,0,0:0:0:0:
271,14,208302,1,0,0:0:0:0:
29,167,208472,1,0,0:0:0:0:
251,278,208642,1,0,0:0:0:0:
188,28,208812,1,0,0:0:0:0:
125,287,208982,5,0,0:0:0:0:
296,95,209152,1,0,0:0:0:0:
251,278,209322,6,0,P|280:315|336:326,2,80
416,102,209832,1,0,0:0:0:0:
411,330,210002,1,0,0:0:0:0:
228,193,210170,2,0,L|199:139,1,40
142,18,210339,1,0,0:0:0:0:
337,101,210507,5,0,0:0:0:0:
269,342,210676,1,0,0:0:0:0:
100,193,210844,2,0,P|109:129|136:93,1,80
219,45,211181,5,0,0:0:0:0:
262,241,211350,1,0,0:0:0:0:
116,116,211515,1,0,0:0:0:0:
306,153,211680,1,0,0:0:0:0:
147,283,211845,1,0,0:0:0:0:
186,86,212010,6,0,P|215:50|269:36,1,80
405,99,212360,1,0,0:0:0:0:
319,235,212536,1,0,0:0:0:0:
316,79,212705,1,0,0:0:0:0:
431,199,212874,5,0,0:0:0:0:
264,314,213044,1,0,0:0:0:0:
236,126,213213,1,0,0:0:0:0:
381,322,213383,5,0,0:0:0:0:
174,229,213552,1,0,0:0:0:0:
316,79,213721,1,0,0:0:0:0:
96,115,213891,5,0,0:0:0:0:
294,263,214060,1,0,0:0:0:0:
199,19,214236,1,0,0:0:0:0:
143,298,214412,1,0,0:0:0:0:
318,80,214576,1,0,0:0:0:0:
48,41,214740,2,0,L|84:139,1,80
143,298,215073,5,0,0:0:0:0:
244,187,215265,2,0,P|208:160|154:148,2,80
210,326,215767,2,0,P|249:334|291:318,1,60.0000022888184
415,212,216102,1,0,0:0:0:0:
254,135,216270,2,0,P|193:194|272:142,1,287.999991210938
142,65,216937,1,0,0:0:0:0:
304,27,217103,5,0,0:0:0:0:
340,43,217189,1,0,0:0:0:0:
370,69,217275,1,0,0:0:0:0:
393,101,217361,1,0,0:0:0:0:
407,139,217447,6,0,L|373:180,1,40
274,150,217616,1,0,0:0:0:0:
273,193,217701,1,0,0:0:0:0:
290,233,217785,1,0,0:0:0:0:
322,263,217870,1,0,0:0:0:0:
363,277,217955,6,0,L|408:230,1,40
486,284,218124,1,0,0:0:0:0:
465,327,218209,1,0,0:0:0:0:
432,361,218294,1,0,0:0:0:0:
388,381,218379,1,0,0:0:0:0:
341,384,218463,6,0,L|294:353,1,44.0000013427735
226,257,218633,1,0,0:0:0:0:
174,261,218718,1,0,0:0:0:0:
127,283,218802,1,0,0:0:0:0:
89,318,218887,1,0,0:0:0:0:
66,364,218972,6,0,L|12:318,1,47.9999985351563
1,231,219141,1,0,0:0:0:0:
12,176,219226,1,0,0:0:0:0:
41,129,219311,1,0,0:0:0:0:
85,94,219396,1,0,0:0:0:0:
137,75,219480,6,0,L|188:108,1,51.999997619629
191,277,219650,1,0,0:0:0:0:
250,279,219735,1,0,0:0:0:0:
305,255,219819,1,0,0:0:0:0:
274,204,219904,1,0,0:0:0:0:
269,144,219989,1,0,0:0:0:0:
291,89,220074,1,0,0:0:0:0:
336,49,220158,1,0,0:0:0:0:
393,34,220242,1,0,0:0:0:0:
451,45,220327,6,0,L|438:106,1,60.0000022888184
365,204,220496,1,0,0:0:0:0:
338,233,220581,1,0,0:0:0:0:
304,254,220666,1,0,0:0:0:0:
226,32,220835,2,0,L|199:88,1,60.0000022888184
108,213,220998,1,0,0:0:0:0:
70,242,221080,1,0,0:0:0:0:
24,255,221162,1,0,0:0:0:0:
96,27,221326,6,0,L|101:111,1,60.0000022888184
119,148,221490,1,0,0:0:0:0:
161,199,221577,1,0,0:0:0:0:
225,221,221665,1,0,0:0:0:0:
290,207,221753,1,0,0:0:0:0:
339,160,221840,1,0,0:0:0:0:
392,121,221925,1,0,0:0:0:0:
458,128,222010,1,0,0:0:0:0:
502,178,222095,1,0,0:0:0:0:
501,244,222180,1,0,0:0:0:0:
464,296,222266,5,0,0:0:0:0:
417,283,222351,1,0,0:0:0:0:
370,286,222436,1,0,0:0:0:0:
326,304,222521,1,0,0:0:0:0:
290,336,222608,1,0,0:0:0:0:
249,359,222695,1,0,0:0:0:0:
201,358,222783,1,0,0:0:0:0:
162,332,222870,6,0,P|154:288|170:255,2,80,0|0|0,3:0|3:0|3:0,3:0:0:0:
397,225,223895,1,0,3:0:0:0:
199,140,224237,1,0,3:0:0:0:
306,324,224579,1,0,3:0:0:0:
423,111,224921,2,0,P|470:129|498:160,2,80,0|0|0,3:0|3:0|3:0,3:0:0:0:
237,135,225946,5,0,3:0:0:0:
367,287,226288,1,0,3:0:0:0:
208,236,226630,1,0,3:0:0:0:
370,141,226972,1,0,3:0:0:0:
297,310,227314,2,0,P|280:331|218:353,2,80,0|0|0,3:0|3:0|3:0,3:0:0:0:
359,176,228308,6,0,P|330:128|262:96,1,120,0|0,3:0|3:0,3:0:0:0:
159,202,229326,1,0,3:0:0:0:
347,243,229665,1,0,3:0:0:0:
253,73,230005,1,0,3:0:0:0:
173,278,230344,1,0,3:0:0:0:
359,148,230684,2,0,P|401:160|434:197,2,80,0|0|0,3:0|3:0|3:0,3:0:0:0:
159,202,231702,2,0,L|175:282,1,80
351,101,232381,5,2,0:0:0:0:
266,152,232721,1,4,0:0:0:0:
228,48,233060,2,0,B|173:60|177:102|122:115,1,120,8|0,0:0|0:0,0:0:0:0:
222,245,233714,5,0,0:0:0:0:
238,268,233799,1,0,0:0:0:0:
252,286,233885,1,0,0:0:0:0:
248,149,234056,1,0,0:0:0:0:
115,247,234228,2,0,P|133:187|176:157,1,95.9999970703126
301,232,234571,1,0,0:0:0:0:
419,119,234742,1,0,0:0:0:0:
278,57,234914,6,0,L|244:159,1,95.9999970703126
194,294,235256,1,0,0:0:0:0:
395,199,235428,2,0,P|416:250|413:312,1,95.9999970703126
225,131,235766,1,0,0:0:0:0:
438,71,235935,1,0,0:0:0:0:
336,247,236104,6,0,P|297:283|178:288,1,160
225,131,236611,1,0,0:0:0:0:
114,263,236780,2,0,P|110:315|126:349,1,80
264,286,237118,5,0,0:0:0:0:
227,292,237202,1,0,0:0:0:0:
194,294,237287,1,0,3:0:0:0:
281,161,237456,1,0,3:0:0:0:
384,280,237625,1,0,0:0:0:0:
420,114,237794,6,0,P|401:65|354:37,1,80
180,122,238132,2,0,P|171:184|183:213,1,80
294,296,238470,2,0,P|255:339|216:348,1,80
90,243,238803,2,0,P|52:199|40:167,2,80
244,50,239319,5,0,3:0:0:0:
307,290,239488,1,0,3:0:0:0:
448,64,239658,1,0,3:0:0:0:
183,157,239827,1,0,3:0:0:0:
445,263,239997,5,0,3:0:0:0:
331,4,240166,1,0,3:0:0:0:
187,262,240336,1,0,3:0:0:0:
489,124,240498,1,0,3:0:0:0:
192,73,240667,5,0,3:0:0:0:
354,327,240836,1,0,3:0:0:0:
59,212,241006,1,0,3:0:0:0:
318,78,241175,1,0,3:0:0:0:
213,325,241345,5,0,3:0:0:0:
85,80,241514,1,0,3:0:0:0:
329,230,241684,1,0,3:0:0:0:
34,304,241847,6,0,P|52:244|132:169,1,160,0|0,3:0|3:0,3:0:0:0:
293,72,242357,1,0,3:0:0:0:
244,290,242527,1,0,0:0:0:0:
113,110,242698,5,0,3:0:0:0:
359,182,242868,1,0,3:0:0:0:
141,330,243038,1,0,3:0:0:0:
213,56,243208,5,0,3:0:0:0:
330,329,243378,1,0,3:0:0:0:
79,234,243549,1,0,3:0:0:0:
306,80,243719,5,0,3:0:0:0:
411,356,243889,1,0,3:0:0:0:
512,77,244059,1,0,3:0:0:0:
225,216,244229,5,0,3:0:0:0:
503,304,244400,1,0,3:0:0:0:
415,19,244570,1,0,3:0:0:0:
315,323,244738,5,0,3:0:0:0:
257,39,244907,1,0,3:0:0:0:
512,193,245075,1,0,3:0:0:0:
215,240,245244,5,0,3:0:0:0:
415,19,245412,1,0,3:0:0:0:
457,320,245581,1,0,3:0:0:0:
213,135,245749,5,0,3:0:0:0:
496,17,245918,1,0,3:0:0:0:
379,288,246086,1,0,3:0:0:0:
229,19,246255,5,0,3:0:0:0:
282,234,246423,1,0,3:0:0:0:
349,38,246592,1,0,3:0:0:0:
211,157,246765,1,0,3:0:0:0:
353,118,246938,2,0,P|353:193|336:225,1,80
298,336,247285,6,0,B|231:269|205:307|138:252,1,180.000006866455
44,137,247970,2,0,P|65:72|163:25,1,180.000006866455
158,138,248656,2,0,P|244:100|274:2,1,180.000006866455
381,116,249324,2,0,P|363:168|369:197,1,60.0000022888184
467,121,249658,2,0,P|466:77|440:47,1,60.0000022888184
346,253,249993,6,0,P|304:233|276:192,2,80
440,246,250499,1,0,0:0:0:0:
273,327,250667,2,0,P|216:313|170:270,2,95.9999970703126
417,165,251174,1,0,0:0:0:0:
168,51,251342,5,0,3:0:0:0:
137,91,251455,1,0,3:0:0:0:
122,136,251567,1,0,3:0:0:0:
130,184,251680,1,0,3:0:0:0:
145,231,251792,2,0,L|177:302,2,63.9999980468751,0|0|0,3:0|3:0|3:0,3:0:0:0:
221,140,252130,2,0,L|261:83,2,63.9999980468751,0|0|0,3:0|3:0|3:0,3:0:0:0:
260,253,252467,1,0,3:0:0:0:
337,266,252580,1,0,3:0:0:0:
416,255,252692,6,0,B|419:205|380:173|380:173|382:107|330:81,1,191.999994140625
170,239,253201,1,0,0:0:0:0:
201,274,253286,1,0,0:0:0:0:
241,295,253371,1,0,0:0:0:0:
450,111,253541,1,0,0:0:0:0:
178,48,253711,1,0,0:0:0:0:
290,302,253881,1,0,0:0:0:0:
353,42,254051,6,0,P|342:105|260:180,1,138.000002632141
205,202,254391,2,0,P|165:242|154:298,1,92.0000017547608
156,308,254646,1,0,0:0:0:0:
167,334,254731,1,0,0:0:0:0:
361,213,254901,1,0,0:0:0:0:
123,113,255071,2,0,P|157:52|242:6,1,138.000002632141
263,20,255411,6,0,L|315:114,1,92.0000017547608
420,308,255751,1,0,0:0:0:0:
393,95,255921,2,0,L|360:40,1,46.0000008773804
450,10,256091,2,0,B|510:48|510:48|476:93,1,92.0000017547608
351,246,256422,1,0,0:0:0:0:
197,66,256588,1,0,0:0:0:0:
197,297,256753,6,0,B|225:313|225:313|246:342|246:342|277:355,1,92.0000017547608
458,169,257093,1,0,0:0:0:0:
181,158,257263,1,0,0:0:0:0:
373,344,257433,1,0,0:0:0:0:
351,59,257604,1,0,0:0:0:0:
197,297,257774,1,0,0:0:0:0:
452,242,257944,1,0,0:0:0:0:
181,158,258114,6,0,P|119:169|65:206,1,92.0000017547608
302,358,258452,1,0,0:0:0:0:
457,138,258622,2,0,P|473:91|462:28,1,92.0000017547608
210,230,258961,1,0,0:0:0:0:
463,294,259130,1,0,0:0:0:0:
345,72,259300,1,0,0:0:0:0:
344,300,259469,6,0,B|337:199|440:176|440:176|384:107,1,223.999993164063
176,28,259978,2,0,P|112:48|81:79,1,92.0000017547608
345,72,260317,1,0,0:0:0:0:
199,202,260486,2,0,P|224:268|269:293,1,92.0000017547608
453,199,260825,6,0,B|411:219|411:219|316:169,1,138.000002632141
239,123,261164,1,0,0:0:0:0:
317,278,261334,1,0,0:0:0:0:
407,123,261503,2,0,B|409:51|409:51|344:2,1,138.000002632141
254,0,261842,1,0,0:0:0:0:
361,197,262018,1,0,0:0:0:0:
133,214,262194,5,0,0:0:0:0:
155,250,262283,1,0,0:0:0:0:
178,283,262371,1,0,0:0:0:0:
282,104,262547,1,0,0:0:0:0:
380,322,262718,5,0,0:0:0:0:
405,267,262804,1,0,0:0:0:0:
432,213,262889,1,0,0:0:0:0:
357,51,263061,1,0,0:0:0:0:
213,207,263232,2,0,P|251:259|327:261,1,138.000002632141
296,183,263536,6,0,B|271:133|271:133|223:114,1,92.0000017547608
80,221,263876,1,0,0:0:0:0:
166,47,264047,1,0,0:0:0:0:
296,183,264217,1,0,0:0:0:0:
93,94,264388,1,0,0:0:0:0:
185,301,264558,5,0,0:0:0:0:
329,87,264729,1,0,0:0:0:0:
114,160,264899,6,0,P|59:199|39:264,1,138.000002632141
69,323,265240,1,0,0:0:0:0:
279,145,265411,1,0,0:0:0:0:
302,115,265496,1,0,0:0:0:0:
329,87,265581,1,0,0:0:0:0:
450,276,265751,1,0,0:0:0:0:
412,56,265922,2,0,P|451:111|451:178,1,138.000002632141
423,203,266263,6,0,P|384:227|371:283,1,92.0000017547608
320,135,266604,1,0,0:0:0:0:
183,296,266774,2,0,P|218:324|261:340,1,92.0000017547608
157,149,267115,1,0,0:0:0:0:
393,263,267286,1,0,0:0:0:0:
103,267,267456,1,0,0:0:0:0:
337,54,267626,1,0,0:0:0:0:
332,230,268308,6,0,P|242:202|229:183,1,92.0000017547608
228,193,268560,2,0,P|186:237|187:295,1,92.0000017547608
171,350,268813,1,0,0:0:0:0:
171,350,268982,6,0,B|82:343|116:260|37:258,1,160
126,98,269493,1,0,0:0:0:0:
187,257,269663,1,0,0:0:0:0:
301,105,269834,1,0,0:0:0:0:
160,35,270004,2,0,P|96:32|62:63,1,80
129,112,270345,6,0,L|158:191,1,80
320,211,270686,2,0,L|279:288,1,80
270,304,270942,1,0,0:0:0:0:
260,321,271027,1,0,0:0:0:0:
156,187,271197,1,0,0:0:0:0:
349,127,271368,1,0,0:0:0:0:
166,27,271538,2,0,L|140:67,1,40
104,122,271709,6,0,P|157:108|185:117,1,80
75,232,272041,1,0,0:0:0:0:
249,185,272207,1,0,0:0:0:0:
162,332,272373,2,0,P|202:351|252:353,1,80
387,245,272706,1,0,0:0:0:0:
307,65,272872,6,0,P|272:83|241:117,1,60.0000022888184
174,269,273204,1,0,0:0:0:0:
199,290,273287,1,0,0:0:0:0:
226,310,273371,1,0,0:0:0:0:
413,130,273537,1,0,0:0:0:0:
377,158,273620,1,0,0:0:0:0:
344,184,273703,1,0,0:0:0:0:
139,98,273872,6,0,P|111:132|108:143,1,40
99,164,274126,1,0,0:0:0:0:
105,201,274211,1,0,3:0:0:0:
296,156,274380,1,0,0:0:0:0:
126,330,274550,2,0,L|182:317,1,40
257,294,274720,5,0,0:0:0:0:
250,91,274891,1,0,0:0:0:0:
416,185,275061,1,0,0:0:0:0:
191,230,275232,1,0,3:0:0:0:
144,212,275317,1,0,3:0:0:0:
119,172,275402,1,0,3:0:0:0:
216,19,275573,5,0,0:0:0:0:
340,208,275743,2,0,P|336:273|313:309,1,80
308,316,275999,1,0,0:0:0:0:
278,342,276084,1,0,0:0:0:0:
144,212,276255,1,0,0:0:0:0:
315,98,276425,1,0,3:0:0:0:
342,75,276510,1,0,3:0:0:0:
373,54,276595,1,0,3:0:0:0:
343,259,276766,5,0,3:0:0:0:
303,250,276851,1,0,3:0:0:0:
264,248,276936,1,0,3:0:0:0:
225,257,277022,1,0,3:0:0:0:
190,277,277107,1,0,3:0:0:0:
155,295,277192,1,0,3:0:0:0:
115,295,277277,1,0,3:0:0:0:
77,282,277362,1,0,3:0:0:0:
41,251,277448,2,0,P|34:207|39:190,1,40
77,124,277618,5,0,3:0:0:0:
115,131,277703,1,0,3:0:0:0:
149,153,277789,1,0,3:0:0:0:
182,174,277874,1,0,3:0:0:0:
221,182,277959,1,0,3:0:0:0:
258,169,278044,1,0,3:0:0:0:
291,145,278130,1,0,3:0:0:0:
320,116,278215,2,0,P|345:79|348:68,1,40
261,25,278385,5,0,3:0:0:0:
220,41,278470,1,0,3:0:0:0:
190,78,278556,1,0,3:0:0:0:
181,121,278641,1,0,3:0:0:0:
187,164,278726,1,0,3:0:0:0:
196,205,278811,2,0,P|201:248|200:251,1,40
154,343,278982,5,0,0:0:0:0:
205,353,279067,1,0,0:0:0:0:
257,332,279152,1,0,0:0:0:0:
298,281,279233,1,0,0:0:0:0:
318,216,279314,1,0,0:0:0:0:
290,149,279395,1,0,3:0:0:0:
313,74,279477,1,0,3:0:0:0:
386,34,279558,1,0,3:0:0:0:
468,70,279639,1,0,3:0:0:0:
484,161,279721,1,0,3:0:0:0:
438,242,279802,6,0,P|339:283|252:202,1,180.000006866455
216,169,280142,1,0,0:0:0:0:
316,12,280313,2,0,B|348:57|348:57|355:131|355:131|394:190,1,180.000006866455,0|0,0:0|0:0,0:3:0:0:
438,242,280654,1,0,0:0:0:0:
231,311,280824,5,0,0:0:0:0:
81,179,280995,2,0,P|93:131|115:104,1,60.0000022888184
165,34,281165,1,0,0:0:0:0:
319,307,281336,2,0,P|346:321|307:282,1,240.000009155274
64,352,281847,2,0,P|17:304|-1:242,1,120.000004577637
165,34,282188,2,0,P|225:107|238:170,1,120.000004577637
231,320,282515,6,0,B|162:371|162:371|96:218,1,240.000009155274
281,139,283023,1,0,0:0:0:0:
399,277,283192,2,0,L|486:373,1,120.000004577637
442,120,283531,2,0,P|416:48|377:13,1,120.000004577637
280,239,283870,5,0,0:0:0:0:
90,130,284041,2,0,P|51:74|42:19,1,120.000004577637
110,220,284384,1,0,0:0:0:0:
134,270,284470,1,0,0:0:0:0:
163,313,284555,2,0,P|212:339|258:326,1,60.0000022888184
318,329,284727,2,0,P|361:258|361:239,1,60.0000022888184
450,219,284898,2,0,P|440:86|386:26,1,210.000002002716
292,0,285236,5,0,0:0:0:0:
245,226,285404,1,0,0:0:0:0:
393,31,285572,1,0,0:0:0:0:
358,272,285743,1,0,0:0:0:0:
204,77,285914,1,0,0:0:0:0:
280,334,286086,1,0,0:0:0:0:
301,115,286257,5,0,0:0:0:0:
173,331,286429,1,0,0:0:0:0:
56,49,286596,1,0,0:0:0:0:
81,319,286766,1,0,0:0:0:0:
235,53,286936,1,0,0:0:0:0:
349,322,287107,1,0,0:0:0:0:
412,20,287277,5,0,0:0:0:0:
249,265,287448,1,0,0:0:0:0:
185,2,287618,1,0,0:0:0:0:
439,112,287789,2,0,P|476:164|475:256,1,140.000001335144
290,345,288130,5,0,0:0:0:0:
100,135,288300,1,0,0:0:0:0:
367,61,288468,1,0,0:0:0:0:
182,335,288637,1,0,0:0:0:0:
204,26,288805,1,0,0:0:0:0:
410,232,288974,1,0,0:0:0:0:
138,270,289142,6,0,P|67:250|27:205,1,120.000004577637
360,21,289481,1,0,0:0:0:0:
331,338,289651,1,0,0:0:0:0:
124,63,289822,1,0,0:0:0:0:
493,137,289992,1,0,0:0:0:0:
169,348,290163,1,0,0:0:0:0:
234,2,290333,1,0,0:0:0:0:
469,287,290504,1,0,0:0:0:0:
339,1,291370,6,0,B|236:106|379:139|339:233|218:241|218:241|214:127|100:112|100:112|85:31|143:-1|143:-1|196:7|216:57,1,740,0|0,3:0|3:0,3:0:0:0:
95,237,294818,2,0,B|83:335|193:364|193:364|224:314|289:310,1,287.999991210938
303,186,296443,2,0,B|362:81|444:125|444:125|374:261|442:293|471:320|471:320|405:374|405:374|346:310|275:330,1,600.000022888185
9,344,299323,2,0,B|52:309|52:309|138:401|231:359|231:359|262:267|332:284|332:284|385:380|480:296|480:296|375:131|554:106|456:-3|456:-3|312:22|333:193|333:193|223:177|169:277|169:277|22:173|80:41|80:41|146:-46|273:-3|272:112|187:146|142:124,1,1949.99991073609
