osu file format v14

[General]
AudioFilename: audio.mp3
AudioLeadIn: 0
PreviewTime: 176388
Countdown: 0
SampleSet: None
StackLeniency: 0.7
Mode: 0
LetterboxInBreaks: 0
WidescreenStoryboard: 0

[Editor]
Bookmarks: 25579,37077,48574,62945,77316,88813,100310,111807,123304,134801,149172,160669,177915,192286,203783
DistanceSpacing: 1.2
BeatDivisor: 4
GridSize: 4
TimelineZoom: 2.3

[Metadata]
Title:Hakushu Kassai Utaawase
TitleUnicode:拍手喝采歌合
Artist:supercell
ArtistUnicode:supercell
Creator:celerih
Version:anime is sin
Source:刀語
Tags:Katanagatari opening op full version zigaexperientia ryo koeda
BeatmapID:1828437
BeatmapSetID:874888

[Difficulty]
HPDrainRate:5
CircleSize:4.2
OverallDifficulty:7.8
ApproachRate:9
SliderMultiplier:1.8
SliderTickRate:1

[Events]
//Background and Video events
0,0,"Hakushu Kassai Utaawase BG.jpg",0,0
//Break Periods
2,173603,174487
//Storyboard Layer 0 (Background)
//Storyboard Layer 1 (Fail)
//Storyboard Layer 2 (Pass)
//Storyboard Layer 3 (Foreground)
//Storyboard Sound Samples

[TimingPoints]
25626,359.281437125748,4,2,0,70,1,0
37123,-166.666666666667,4,2,0,70,0,0
47182,-250.000000000001,4,2,0,70,0,0
48620,-125,4,2,0,70,0,0
60117,-250,4,2,0,70,0,0
60835,-125,4,2,0,70,0,0
61554,-100,4,2,0,70,0,0
62272,-500,4,2,0,70,0,0
62991,-83.3333333333333,4,2,0,70,0,1
75925,-333.333333333333,4,2,0,70,0,0
77362,-125,4,2,0,70,0,0
80236,-100,4,2,0,70,0,0
88859,-166.666666666667,4,2,0,70,0,0
99637,-250,4,2,0,70,0,0
100356,-100,4,2,0,70,0,0
123350,-166.666666666667,4,2,0,70,0,0
134847,-125,4,2,0,70,0,0
146344,-100,4,2,0,70,0,0
160715,-125,4,2,0,70,0,0
176524,-90.9090909090909,4,2,0,70,0,0
177242,-500,4,2,0,70,0,0
177961,-76.9230769230769,4,2,0,70,0,1
190895,-333.333333333333,4,2,0,70,0,0
192332,-100,4,2,0,70,0,0

[Colours]
Combo1 : 226,50,50
Combo2 : 255,213,128
Combo3 : 226,99,99
Combo4 : 255,155,190

[HitObjects]
99,15,25625,5,0,0:0:0:0:
243,162,25895,1,0,0:0:0:0:
260,173,25985,2,0,B|273:147|273:147|254:53,1,90
24,205,26344,2,0,P|88:182|171:164,1,135
169,178,26703,1,0,0:0:0:0:
27,106,26883,1,0,0:0:0:0:
128,347,27063,6,0,P|134:303|145:248,1,90
362,303,27422,2,0,P|338:265|306:219,1,90
272,342,27781,2,0,P|283:269|315:137,1,180
242,125,28320,1,0,0:0:0:0:
485,254,28500,6,0,P|394:267|276:301,1,180
238,244,29039,1,0,0:0:0:0:
391,31,29218,2,0,P|354:109|322:210,1,180
240,263,29757,1,0,0:0:0:0:
145,88,29937,5,0,0:0:0:0:
419,17,30206,1,0,0:0:0:0:
432,31,30296,2,0,B|407:46|407:46|311:33,1,90
256,228,30655,1,0,0:0:0:0:
279,189,30745,1,0,0:0:0:0:
321,174,30835,1,0,0:0:0:0:
365,182,30925,1,0,0:0:0:0:
356,199,31015,5,0,0:0:0:0:
355,176,31105,1,0,0:0:0:0:
355,153,31194,1,0,0:0:0:0:
354,130,31284,1,0,0:0:0:0:
372,93,31374,5,0,0:0:0:0:
195,259,31643,1,0,0:0:0:0:
211,242,31733,2,0,B|182:231|182:231|106:239,1,90
304,350,32093,1,0,0:0:0:0:
377,233,32272,1,0,0:0:0:0:
192,131,32452,1,0,0:0:0:0:
263,273,32631,1,0,0:0:0:0:
279,265,32721,1,0,0:0:0:0:
293,253,32811,6,0,P|256:236|198:217,1,90
138,241,33081,1,0,0:0:0:0:
135,255,33170,1,0,0:0:0:0:
347,155,33350,1,0,0:0:0:0:
341,137,33440,1,0,0:0:0:0:
330,122,33530,1,0,0:0:0:0:
277,216,33709,1,0,0:0:0:0:
225,82,33889,2,0,P|245:47|279:3,1,90
121,249,34248,6,0,P|105:206|81:155,1,90
147,99,34518,1,0,0:0:0:0:
136,112,34608,1,0,0:0:0:0:
152,127,34697,1,0,0:0:0:0:
173,134,34787,1,0,0:0:0:0:
195,135,34877,1,0,0:0:0:0:
219,115,34967,5,0,0:0:0:0:
245,98,35057,1,0,0:0:0:0:
276,98,35146,1,0,0:0:0:0:
305,109,35236,1,0,0:0:0:0:
325,133,35326,1,0,0:0:0:0:
329,164,35416,1,0,0:0:0:0:
294,205,35506,5,0,0:0:0:0:
329,245,35596,1,0,0:0:0:0:
382,245,35685,6,0,P|369:199|352:158,1,90
206,296,35955,2,0,P|236:259|268:228,1,90
182,182,36224,1,0,0:0:0:0:
419,354,36404,2,0,P|430:291|332:290,1,180
324,304,37123,6,0,P|307:234|391:192,1,161.999995056153
443,219,37841,1,0,0:0:0:0:
381,172,38021,1,0,0:0:0:0:
269,221,38200,1,0,0:0:0:0:
362,172,38380,1,0,0:0:0:0:
237,290,38560,6,0,P|243:225|263:119,1,161.999995056153
409,124,39637,1,0,0:0:0:0:
292,80,39997,6,0,L|459:108,1,161.999995056153
499,40,40715,1,0,0:0:0:0:
407,81,40895,1,0,0:0:0:0:
391,75,40985,1,0,0:0:0:0:
375,69,41075,1,0,0:0:0:0:
472,139,41254,1,0,0:0:0:0:
376,220,41434,6,0,P|340:169|228:148,1,161.999995056153
182,180,42152,2,0,P|175:227|164:267,2,80.9999975280763
106,132,42871,6,0,P|117:214|138:311,1,161.999995056153
189,341,43590,1,0,0:0:0:0:
116,302,43769,1,0,0:0:0:0:
226,181,43949,1,0,0:0:0:0:
190,260,44128,1,0,0:0:0:0:
148,125,44308,6,0,P|225:152|314:165,1,161.999995056153
223,42,45386,1,0,0:0:0:0:
168,98,45566,1,0,0:0:0:0:
51,56,45745,6,0,P|77:124|100:214,1,161.999995056153
64,282,46464,1,0,0:0:0:0:
119,199,46643,1,0,0:0:0:0:
125,185,46733,1,0,0:0:0:0:
131,171,46823,1,0,0:0:0:0:
34,201,47003,1,0,0:0:0:0:
132,336,47182,6,0,P|199:313|282:294,1,144
229,125,48260,1,0,0:0:0:0:
456,225,48620,6,0,P|419:209|360:196,1,72
315,224,48889,1,0,0:0:0:0:
311,238,48979,1,0,0:0:0:0:
374,124,49158,1,0,0:0:0:0:
312,60,49338,2,0,P|323:134|329:215,1,144
262,256,49877,1,0,0:0:0:0:
172,105,50057,6,0,P|152:155|138:210,1,108
55,185,50416,2,0,P|104:218|156:267,1,108
134,327,50775,2,0,P|166:270|243:265,1,144
338,40,51494,6,0,P|315:76|292:129,1,72
247,211,51853,2,0,P|230:178|211:148,1,72
452,191,52212,2,0,L|324:167,1,108
332,192,52572,1,0,0:0:0:0:
436,102,52751,1,0,0:0:0:0:
405,321,52931,6,0,P|372:301|294:284,1,108
326,210,53290,2,0,P|303:241|234:285,1,108
210,349,53649,2,0,P|225:300|241:190,1,144
177,155,54188,1,0,0:0:0:0:
29,252,54368,5,0,0:0:0:0:
59,48,54637,1,0,0:0:0:0:
78,53,54727,2,0,B|81:83|81:83|67:138,1,72
226,12,55087,5,0,0:0:0:0:
169,208,55356,1,0,0:0:0:0:
155,225,55446,2,0,B|180:238|180:238|235:240,1,72
351,87,55806,5,0,0:0:0:0:
121,62,56075,1,0,0:0:0:0:
141,53,56165,2,0,B|149:78|149:78|138:139,1,72
231,337,56525,5,0,0:0:0:0:
375,180,56794,1,0,0:0:0:0:
369,196,56884,2,0,B|342:206|342:206|287:204,1,72
472,53,57242,5,0,0:0:0:0:
442,284,57512,1,0,0:0:0:0:
432,306,57602,1,0,0:0:0:0:
355,209,57781,1,0,0:0:0:0:
179,349,57961,5,0,0:0:0:0:
19,153,58229,1,0,0:0:0:0:
39,141,58319,1,0,0:0:0:0:
41,266,58500,1,0,0:0:0:0:
256,76,58679,5,0,0:0:0:0:
165,295,58949,1,0,0:0:0:0:
178,276,59039,1,0,0:0:0:0:
122,161,59218,1,0,0:0:0:0:
382,244,59398,5,0,0:0:0:0:
412,233,59487,1,0,0:0:0:0:
436,213,59577,1,0,0:0:0:0:
453,185,59667,1,0,0:0:0:0:
458,154,59757,2,0,P|417:180|376:211,1,72
95,95,60117,6,0,P|131:77|170:63,1,72
342,247,60835,2,0,P|288:208|203:180,1,144
43,312,61554,6,0,P|98:304|162:277,1,90
150,361,61823,2,0,P|160:315|175:274,1,90
286,228,62093,1,0,0:0:0:0:
73,105,62272,6,0,L|32:110,1,36
362,247,62991,5,0,0:0:0:0:
256,108,63260,1,0,0:0:0:0:
234,97,63350,2,0,B|206:125|206:125|214:212,1,107.999996704102
382,352,63709,2,0,P|397:272|419:193,1,161.999995056153
435,194,64069,1,0,0:0:0:0:
300,286,64248,1,0,0:0:0:0:
361,73,64428,5,0,0:0:0:0:
344,76,64518,2,0,P|349:43|361:9,1,53.9999983520508
449,121,64697,1,0,0:0:0:0:
455,141,64787,1,0,0:0:0:0:
385,262,64967,1,0,0:0:0:0:
237,48,65146,2,0,B|203:43|144:57|179:85|126:94|84:89,1,161.999995056153
79,70,65506,1,0,0:0:0:0:
28,220,65685,1,0,0:0:0:0:
319,119,65865,5,0,0:0:0:0:
235,334,66134,1,0,0:0:0:0:
220,313,66224,2,0,B|292:289|292:289|331:294,1,107.999996704102
208,99,66584,2,0,P|137:150|55:174,1,161.999995056153
51,153,66943,1,0,0:0:0:0:
192,232,67123,1,0,0:0:0:0:
302,11,67302,5,0,0:0:0:0:
433,253,67572,1,0,0:0:0:0:
452,263,67661,2,0,B|477:232|477:232|469:149,1,107.999996704102
192,240,68021,1,0,0:0:0:0:
205,217,68111,1,0,0:0:0:0:
228,203,68200,1,0,0:0:0:0:
252,194,68290,1,0,0:0:0:0:
278,195,68380,5,0,0:0:0:0:
233,215,68470,1,0,0:0:0:0:
184,209,68560,1,0,0:0:0:0:
147,177,68649,1,0,0:0:0:0:
130,131,68739,5,0,0:0:0:0:
416,52,69009,1,0,0:0:0:0:
427,71,69099,2,0,B|394:78|394:78|317:59,1,107.999996704102
465,289,69458,2,0,P|440:239|401:181,1,107.999996704102
339,191,69727,1,0,0:0:0:0:
329,204,69817,1,0,0:0:0:0:
248,316,69997,1,0,0:0:0:0:
152,134,70176,5,0,0:0:0:0:
23,301,70446,1,0,0:0:0:0:
38,313,70536,2,0,B|49:280|49:280|25:192,1,107.999996704102
142,118,70895,1,0,0:0:0:0:
195,249,71075,2,0,L|270:239,1,53.9999983520508
133,141,71254,1,0,0:0:0:0:
350,242,71434,1,0,0:0:0:0:
254,27,71614,5,0,0:0:0:0:
33,178,71883,1,0,0:0:0:0:
25,159,71973,2,0,B|52:145|52:145|142:155,1,107.999996704102
251,329,72332,2,0,P|262:263|292:160,1,161.999995056153
272,165,72691,1,0,0:0:0:0:
388,306,72871,1,0,0:0:0:0:
114,268,73051,5,0,0:0:0:0:
54,50,73320,1,0,0:0:0:0:
73,35,73410,2,0,B|86:107|86:107|75:143,1,107.999996704102
250,222,73769,2,0,P|323:172|404:130,1,161.999995056153
371,119,74128,1,0,0:0:0:0:
287,289,74308,1,0,0:0:0:0:
163,104,74488,5,0,0:0:0:0:
175,72,74578,1,0,0:0:0:0:
196,47,74667,1,0,0:0:0:0:
224,30,74757,1,0,0:0:0:0:
256,27,74847,2,0,P|310:39|381:44,1,107.999996704102
318,130,75117,1,0,0:0:0:0:
337,121,75206,5,0,0:0:0:0:
302,104,75296,1,0,0:0:0:0:
264,103,75386,1,0,0:0:0:0:
231,122,75476,1,0,0:0:0:0:
224,139,75566,5,0,0:0:0:0:
245,155,75655,1,0,0:0:0:0:
257,178,75745,1,0,0:0:0:0:
261,204,75835,1,0,0:0:0:0:
243,245,75925,6,0,P|190:238|126:235,1,107.999996704102
112,246,77362,6,0,P|166:237|243:212,2,108
159,165,78081,2,0,P|218:209|304:240,1,144
359,215,78620,1,0,0:0:0:0:
290,346,78799,6,0,P|262:284|205:196,2,144
371,222,79877,1,0,0:0:0:0:
272,83,80236,6,0,L|275:51,11,30
168,180,80955,2,0,L|158:149,11,30
339,242,81673,2,0,L|354:213,11,30
190,308,82392,5,0,0:0:0:0:
157,283,82482,1,0,0:0:0:0:
117,273,82572,1,0,0:0:0:0:
77,280,82661,1,0,0:0:0:0:
44,304,82751,5,0,0:0:0:0:
55,255,82841,1,0,0:0:0:0:
90,219,82931,1,0,0:0:0:0:
137,204,83021,1,0,0:0:0:0:
186,209,83111,5,0,0:0:0:0:
48,45,83380,1,0,0:0:0:0:
65,30,83470,2,0,B|76:59|76:59|68:135,1,90
161,329,83830,1,0,0:0:0:0:
35,234,84009,1,0,0:0:0:0:
224,93,84189,1,0,0:0:0:0:
195,237,84368,1,0,0:0:0:0:
183,223,84458,1,0,0:0:0:0:
175,206,84548,6,0,P|223:191|270:172,1,90
254,104,84818,1,0,0:0:0:0:
246,90,84907,1,0,0:0:0:0:
383,243,85087,1,0,0:0:0:0:
389,225,85177,1,0,0:0:0:0:
400,210,85267,1,0,0:0:0:0:
279,321,85446,1,0,0:0:0:0:
235,154,85626,2,0,P|225:106|211:61,1,90
44,294,85985,6,0,P|92:302|153:323,1,90
148,230,86255,1,0,0:0:0:0:
132,237,86345,1,0,0:0:0:0:
124,216,86434,1,0,0:0:0:0:
124,193,86524,1,0,0:0:0:0:
132,172,86614,1,0,0:0:0:0:
147,155,86703,5,0,0:0:0:0:
177,161,86792,1,0,0:0:0:0:
209,160,86882,1,0,0:0:0:0:
239,152,86972,1,0,0:0:0:0:
267,138,87062,1,0,0:0:0:0:
292,118,87152,1,0,0:0:0:0:
304,89,87243,5,0,0:0:0:0:
261,123,87333,1,0,0:0:0:0:
259,176,87422,6,0,P|307:166|364:159,1,90
394,300,87691,2,0,P|357:267|311:232,1,90
416,207,87961,1,0,0:0:0:0:
180,345,88141,2,0,P|119:296|6:273,1,180
278,107,88859,6,0,P|249:191|231:266,1,161.999995056153
254,336,89578,1,0,0:0:0:0:
212,267,89757,1,0,0:0:0:0:
326,161,89937,1,0,0:0:0:0:
303,244,90117,1,0,0:0:0:0:
185,146,90296,6,0,P|125:112|19:74,1,161.999995056153
205,48,91374,1,0,0:0:0:0:
193,243,91733,6,0,P|271:228|359:217,1,161.999995056153
418,259,92452,1,0,0:0:0:0:
333,190,92631,2,0,L|289:183,2,26.9999991760254
397,123,92991,1,0,0:0:0:0:
284,273,93170,6,0,P|275:198|248:104,1,161.999995056153
185,74,93889,2,0,P|144:86|89:97,2,80.9999975280763
253,125,94518,1,0,0:0:0:0:
264,112,94608,6,0,P|286:160|306:215,1,107.999996704102
256,281,95146,1,0,0:0:0:0:
320,207,95326,1,0,0:0:0:0:
393,237,95506,1,0,0:0:0:0:
480,131,95685,1,0,0:0:0:0:
407,161,95865,1,0,0:0:0:0:
292,58,96045,6,0,P|241:46|185:39,2,107.999996704102
131,120,97123,1,0,0:0:0:0:
64,75,97302,1,0,0:0:0:0:
234,71,97482,6,0,P|211:131|196:189,1,107.999996704102
241,243,98021,1,0,0:0:0:0:
176,144,98200,1,0,0:0:0:0:
105,185,98380,2,0,L|95:227,2,26.9999991760254
69,84,98739,1,0,0:0:0:0:
162,256,98919,5,0,0:0:0:0:
112,81,99637,6,0,B|112:123|102:153|102:153|103:162|112:174|112:174|107:189|105:203,1,126
42,291,100356,5,0,0:0:0:0:
257,130,100625,1,0,0:0:0:0:
274,142,100715,2,0,B|283:115|283:115|267:26,1,90
169,277,101075,2,0,P|238:246|299:233,1,135
304,246,101434,1,0,0:0:0:0:
165,157,101614,1,0,0:0:0:0:
55,353,101793,5,0,0:0:0:0:
25,133,102062,1,0,0:0:0:0:
17,120,102152,2,0,B|81:113|81:113|123:122,1,90
316,243,102512,2,0,P|309:188|291:106,1,135
275,120,102871,1,0,0:0:0:0:
210,286,103051,1,0,0:0:0:0:
423,137,103230,5,0,0:0:0:0:
222,54,103499,1,0,0:0:0:0:
212,68,103589,2,0,B|179:56|179:56|105:63,1,90
6,223,103949,2,0,P|69:203|127:158,1,135
110,152,104308,1,0,0:0:0:0:
85,311,104488,1,0,0:0:0:0:
0,80,104667,5,0,0:0:0:0:
210,162,104937,1,0,0:0:0:0:
221,181,105027,2,0,B|254:188|254:188|310:178,1,90
89,113,105386,2,0,P|111:160|130:222,1,90
66,236,105655,1,0,0:0:0:0:
52,225,105745,1,0,0:0:0:0:
87,220,105835,1,0,0:0:0:0:
122,215,105925,1,0,0:0:0:0:
157,210,106015,1,0,0:0:0:0:
192,206,106105,5,0,0:0:0:0:
322,42,106374,1,0,0:0:0:0:
305,30,106464,2,0,B|296:57|296:57|312:146,1,90
479,265,106824,2,0,P|463:206|428:129,1,135
419,141,107183,1,0,0:0:0:0:
329,248,107363,1,0,0:0:0:0:
220,64,107542,5,0,0:0:0:0:
62,202,107811,1,0,0:0:0:0:
76,189,107901,2,0,B|89:228|89:228|81:283,1,90
257,134,108260,1,0,0:0:0:0:
170,253,108440,2,0,L|159:192,1,45
142,138,108620,1,0,0:0:0:0:
298,245,108800,1,0,0:0:0:0:
341,27,108979,5,0,0:0:0:0:
450,203,109248,1,0,0:0:0:0:
459,188,109338,2,0,B|426:176|426:176|352:183,1,90
221,341,109698,2,0,P|195:269|166:204,1,135
154,217,110057,1,0,0:0:0:0:
289,285,110237,1,0,0:0:0:0:
48,363,110416,5,0,0:0:0:0:
123,147,110686,1,0,0:0:0:0:
112,132,110776,2,0,B|145:125|145:125|201:135,1,90
431,38,111134,2,0,P|402:75|370:136,1,90
415,174,111404,1,0,0:0:0:0:
432,165,111494,1,0,0:0:0:0:
404,141,111584,1,0,0:0:0:0:
368,134,111674,1,0,0:0:0:0:
333,144,111764,1,0,0:0:0:0:
306,168,111853,6,0,L|321:286,1,90
236,230,112123,1,0,0:0:0:0:
225,218,112212,2,0,L|210:336,1,90
93,169,112572,2,0,B|97:127|97:127|77:83|77:83|82:22,1,135
99,40,112931,1,0,0:0:0:0:
0,198,113111,1,0,0:0:0:0:
258,112,113290,5,0,0:0:0:0:
143,181,113470,1,0,0:0:0:0:
164,175,113560,1,0,0:0:0:0:
186,171,113649,1,0,0:0:0:0:
81,279,113829,2,0,P|143:293|219:322,1,135
256,375,114188,2,0,B|248:346|248:346|258:256,1,90
292,223,114458,1,0,0:0:0:0:
311,230,114548,1,0,0:0:0:0:
157,67,114727,6,0,L|42:84,1,90
100,160,114997,1,0,0:0:0:0:
89,172,115087,2,0,L|-26:155,1,90
53,240,115356,1,0,0:0:0:0:
69,252,115446,2,0,L|184:235,1,90
243,56,115805,2,0,L|146:29,1,90
302,293,116164,5,0,0:0:0:0:
338,109,116344,1,0,0:0:0:0:
148,225,116524,1,0,0:0:0:0:
171,324,116703,2,0,B|189:199|189:199|156:132,1,180
102,118,117152,1,0,0:0:0:0:
87,133,117242,1,0,0:0:0:0:
122,138,117332,1,0,0:0:0:0:
157,142,117422,1,0,0:0:0:0:
192,148,117512,1,0,0:0:0:0:
227,155,117602,6,0,L|274:51,1,90
180,57,117961,1,0,0:0:0:0:
339,334,118140,2,0,B|348:275|348:275|308:236|308:236|329:105,1,225
342,128,118679,1,0,0:0:0:0:
237,294,118859,1,0,0:0:0:0:
119,83,119039,6,0,L|145:207,1,90
213,57,119398,1,0,0:0:0:0:
54,266,119578,2,0,B|109:251|109:251|142:265|142:265|294:232,1,225
275,223,120117,1,0,0:0:0:0:
122,368,120296,1,0,0:0:0:0:
178,155,120476,6,0,L|198:32,1,90
129,33,120745,1,0,0:0:0:0:
112,40,120835,1,0,0:0:0:0:
275,158,121015,1,0,0:0:0:0:
110,283,121194,2,0,L|90:160,1,90
159,161,121463,1,0,0:0:0:0:
176,168,121553,1,0,0:0:0:0:
312,376,121733,6,0,L|344:194,1,180
287,147,122182,1,0,0:0:0:0:
271,154,122272,1,0,0:0:0:0:
429,72,122452,1,0,0:0:0:0:
445,76,122542,1,0,0:0:0:0:
462,80,122631,1,0,0:0:0:0:
302,40,122811,1,0,0:0:0:0:
389,216,122991,1,0,0:0:0:0:
467,63,123170,1,0,0:0:0:0:
255,182,123350,6,0,P|183:161|93:145,1,161.999995056153
12,189,124069,1,0,0:0:0:0:
18,206,124248,1,0,0:0:0:0:
85,91,124608,1,0,0:0:0:0:
146,152,124787,5,0,0:0:0:0:
249,124,125057,1,0,0:0:0:0:
333,220,125326,1,0,0:0:0:0:
451,108,125506,5,0,0:0:0:0:
379,39,126045,1,0,0:0:0:0:
442,233,126224,6,0,P|464:148|496:64,1,161.999995056153
366,162,126943,1,0,0:0:0:0:
512,91,127123,1,0,0:0:0:0:
447,243,127661,5,0,0:0:0:0:
347,163,127931,1,0,0:0:0:0:
222,234,128200,1,0,0:0:0:0:
147,98,128380,5,0,0:0:0:0:
160,83,128560,1,0,0:0:0:0:
94,176,128919,1,0,0:0:0:0:
183,328,129099,6,0,P|212:254|287:247,1,161.999995056153
335,312,129817,1,0,0:0:0:0:
237,211,129997,1,0,0:0:0:0:
372,102,130536,5,0,0:0:0:0:
322,211,130805,1,0,0:0:0:0:
386,323,131075,1,0,0:0:0:0:
187,267,131254,5,0,0:0:0:0:
167,150,131973,5,0,0:0:0:0:
210,291,132152,2,0,P|219:239|233:178,1,107.999996704102
123,88,132691,2,0,P|133:124|138:154,1,53.9999983520508
277,50,133051,1,0,0:0:0:0:
179,264,133455,5,0,0:0:0:0:
170,246,133545,2,0,L|231:235,1,53.9999983520508
288,272,133792,2,0,L|299:208,1,60.7499981460572
216,85,134128,5,0,0:0:0:0:
371,292,134308,1,0,0:0:0:0:
372,78,134847,6,0,P|363:117|357:166,1,72
263,168,135206,2,0,P|287:194|310:222,1,72
355,288,135566,2,0,P|299:257|204:244,1,144
166,297,136105,1,0,0:0:0:0:
124,172,136284,6,0,P|116:139|98:84,1,72
188,105,136643,2,0,P|196:72|214:17,1,72
133,18,137003,2,0,P|145:92|149:167,1,144
343,232,137721,6,0,P|374:210|416:187,1,72
269,111,138081,2,0,P|300:133|342:156,1,72
349,61,138440,2,0,P|283:74|189:117,1,144
142,72,138979,1,0,0:0:0:0:
25,161,139158,6,0,P|19:120|11:82,1,72
143,185,139518,2,0,P|117:152|91:123,1,72
108,279,139877,2,0,P|156:257|232:241,1,108
222,252,140236,1,0,0:0:0:0:
417,89,140596,6,0,P|404:129|395:165,1,72
308,182,140955,2,0,P|319:216|328:250,1,72
218,148,141314,2,0,P|227:113|238:79,1,72
177,34,141584,1,0,0:0:0:0:
168,50,141673,2,0,P|133:61|99:70,1,72
65,141,141943,1,0,0:0:0:0:
47,129,142033,5,0,0:0:0:0:
58,120,142123,1,0,0:0:0:0:
71,116,142212,1,0,0:0:0:0:
85,114,142302,1,0,0:0:0:0:
99,115,142392,1,0,0:0:0:0:
112,120,142482,1,0,0:0:0:0:
124,127,142572,1,0,0:0:0:0:
132,138,142661,1,0,0:0:0:0:
141,157,142751,5,0,0:0:0:0:
154,139,142841,1,0,0:0:0:0:
172,127,142931,1,0,0:0:0:0:
192,121,143021,1,0,0:0:0:0:
213,122,143111,1,0,0:0:0:0:
227,137,143200,1,0,0:0:0:0:
244,149,143290,1,0,0:0:0:0:
264,156,143380,1,0,0:0:0:0:
300,154,143470,5,0,0:0:0:0:
333,142,143559,1,0,0:0:0:0:
369,145,143649,1,0,0:0:0:0:
400,163,143739,1,0,0:0:0:0:
420,192,143829,1,0,0:0:0:0:
427,227,143919,1,0,0:0:0:0:
418,262,144008,1,0,0:0:0:0:
396,290,144098,1,0,0:0:0:0:
364,306,144188,5,0,0:0:0:0:
347,293,144278,1,0,0:0:0:0:
327,283,144368,1,0,0:0:0:0:
305,278,144458,1,0,0:0:0:0:
283,278,144548,1,0,0:0:0:0:
262,284,144637,1,0,0:0:0:0:
243,295,144727,1,0,0:0:0:0:
229,320,144817,1,0,0:0:0:0:
224,348,144907,5,0,0:0:0:0:
263,330,144996,1,0,0:0:0:0:
292,299,145086,1,0,0:0:0:0:
306,258,145176,1,0,0:0:0:0:
303,216,145266,1,0,0:0:0:0:
283,178,145356,1,0,0:0:0:0:
250,151,145445,1,0,0:0:0:0:
208,139,145535,1,0,0:0:0:0:
166,146,145625,5,0,0:0:0:0:
136,177,145715,1,0,0:0:0:0:
97,195,145805,1,0,0:0:0:0:
53,194,145895,1,0,0:0:0:0:
17,168,145985,1,0,0:0:0:0:
400,72,146344,5,0,0:0:0:0:
213,256,146614,1,0,0:0:0:0:
193,266,146703,2,0,B|185:236|185:236|198:157,1,90
377,254,147063,1,0,0:0:0:0:
386,269,147152,1,0,0:0:0:0:
224,80,147422,1,0,0:0:0:0:
84,334,147781,5,0,0:0:0:0:
37,114,148051,1,0,0:0:0:0:
26,101,148140,2,0,B|12:139|12:139|23:209,1,90
126,68,148500,1,0,0:0:0:0:
231,269,148679,1,0,0:0:0:0:
194,242,148769,1,0,0:0:0:0:
149,232,148859,5,0,0:0:0:0:
130,244,148949,1,0,0:0:0:0:
109,253,149039,1,0,0:0:0:0:
87,259,149128,1,0,0:0:0:0:
64,262,149218,5,0,0:0:0:0:
194,23,149488,1,0,0:0:0:0:
180,38,149578,2,0,B|205:50|205:50|283:39,1,90
314,241,149937,2,0,P|273:183|212:136,1,135
210,153,150296,1,0,0:0:0:0:
366,164,150476,1,0,0:0:0:0:
187,314,150655,6,0,P|142:292|82:273,1,90
275,217,151015,2,0,P|293:170|325:116,1,90
99,49,151374,2,0,P|126:122|140:197,1,135
110,194,151733,2,0,P|112:169|120:131,1,45
8,228,151913,2,0,P|22:207|48:178,1,45
176,284,152093,6,0,P|110:296|35:319,1,135
43,333,152452,1,0,0:0:0:0:
134,194,152631,1,0,0:0:0:0:
295,297,152811,2,0,P|341:256|409:214,1,135
416,223,153170,1,0,0:0:0:0:
389,369,153350,1,0,0:0:0:0:
205,88,153530,6,0,P|223:160|232:229,1,135
217,228,153889,1,0,0:0:0:0:
314,134,154069,1,0,0:0:0:0:
128,47,154248,1,0,0:0:0:0:
102,65,154337,1,0,0:0:0:0:
80,88,154427,1,0,0:0:0:0:
63,114,154517,1,0,0:0:0:0:
50,143,154607,5,0,0:0:0:0:
98,134,154697,1,0,0:0:0:0:
146,146,154787,1,0,0:0:0:0:
183,178,154877,1,0,0:0:0:0:
198,225,154967,5,0,0:0:0:0:
324,17,155236,1,0,0:0:0:0:
340,9,155326,2,0,B|355:34|355:34|344:118,1,90
219,304,155685,1,0,0:0:0:0:
189,153,155865,1,0,0:0:0:0:
406,144,156045,1,0,0:0:0:0:
317,269,156224,1,0,0:0:0:0:
327,254,156314,1,0,0:0:0:0:
331,236,156404,6,0,P|311:193|299:147,1,90
402,23,156763,1,0,0:0:0:0:
499,163,156943,1,0,0:0:0:0:
491,146,157033,1,0,0:0:0:0:
487,128,157123,1,0,0:0:0:0:
427,249,157302,1,0,0:0:0:0:
299,91,157482,2,0,P|259:111|216:125,1,90
57,348,157841,6,0,P|69:297|91:231,1,90
52,165,158111,1,0,0:0:0:0:
44,181,158200,1,0,0:0:0:0:
62,206,158290,1,0,0:0:0:0:
91,218,158380,1,0,0:0:0:0:
122,218,158470,1,0,0:0:0:0:
151,205,158560,5,0,0:0:0:0:
106,208,158649,1,0,0:0:0:0:
73,237,158739,1,0,0:0:0:0:
64,280,158829,1,0,0:0:0:0:
84,320,158919,1,0,0:0:0:0:
123,340,159009,1,0,0:0:0:0:
167,331,159098,5,0,0:0:0:0:
145,282,159188,1,0,0:0:0:0:
144,227,159278,6,0,P|191:218|249:199,1,90
110,75,159548,2,0,P|140:116|184:156,1,90
210,33,159817,1,0,0:0:0:0:
384,213,159997,2,0,P|390:152|289:147,1,180
256,298,160715,6,0,P|240:250|224:214,1,72
158,204,160985,1,0,0:0:0:0:
146,215,161075,1,0,0:0:0:0:
178,345,161254,1,0,0:0:0:0:
257,217,161434,2,0,P|266:128|280:49,1,144
346,48,161973,1,0,0:0:0:0:
188,119,162152,6,0,P|149:96|104:80,1,72
57,225,162512,2,0,P|82:188|119:157,1,72
167,297,162871,2,0,P|87:262|3:242,1,144
311,220,163590,6,0,P|321:183|335:148,1,72
219,266,163949,2,0,P|209:228|195:193,1,72
245,27,164308,2,0,P|257:92|264:155,1,108
248,144,164667,1,0,0:0:0:0:
168,89,164847,1,0,0:0:0:0:
118,282,165027,6,0,P|166:250|229:227,1,108
264,288,165386,2,0,P|312:320|375:343,1,108
413,288,165745,2,0,P|361:300|259:336,1,144
210,283,166284,1,0,0:0:0:0:
341,62,166464,5,0,0:0:0:0:
407,244,166733,1,0,0:0:0:0:
425,253,166823,2,0,B|435:231|435:231|429:155,1,72
244,356,167182,5,0,0:0:0:0:
355,93,167452,1,0,0:0:0:0:
370,107,167542,2,0,B|344:114|344:114|276:105,1,72
75,277,167901,5,0,0:0:0:0:
330,344,168170,1,0,0:0:0:0:
346,356,168260,2,0,B|356:330|356:330|351:271,1,72
450,49,168620,5,0,0:0:0:0:
234,115,168889,1,0,0:0:0:0:
219,104,168979,2,0,B|246:95|246:95|307:100,1,72
150,360,169338,5,0,0:0:0:0:
350,194,169608,1,0,0:0:0:0:
355,213,169698,1,0,0:0:0:0:
264,62,169877,1,0,0:0:0:0:
478,30,170057,5,0,0:0:0:0:
461,237,170325,1,0,0:0:0:0:
481,225,170415,1,0,0:0:0:0:
330,106,170596,1,0,0:0:0:0:
247,343,170775,5,0,0:0:0:0:
188,123,171045,1,0,0:0:0:0:
176,139,171135,1,0,0:0:0:0:
106,275,171314,1,0,0:0:0:0:
316,116,171494,5,0,0:0:0:0:
102,86,171763,1,0,0:0:0:0:
91,69,171853,1,0,0:0:0:0:
130,65,171943,1,0,0:0:0:0:
167,79,172033,1,0,0:0:0:0:
190,110,172123,1,0,0:0:0:0:
197,148,172212,5,0,0:0:0:0:
180,144,175087,5,0,0:0:0:0:
204,268,175356,5,0,0:0:0:0:
209,251,175446,1,0,0:0:0:0:
299,236,175715,1,0,0:0:0:0:
294,219,175805,1,0,0:0:0:0:
165,174,176075,1,0,0:0:0:0:
170,157,176165,1,0,0:0:0:0:
326,82,176434,1,0,0:0:0:0:
318,99,176524,6,0,P|270:84|222:75,1,99.0000030212403
151,226,176793,2,0,P|188:193|228:165,1,99.0000030212403
125,94,177063,1,0,0:0:0:0:
388,302,177242,6,0,L|394:262,1,36
209,43,177961,5,0,0:0:0:0:
351,254,178230,1,0,0:0:0:0:
338,236,178320,2,0,B|372:207|372:207|471:228,1,116.999994644165
213,360,178679,2,0,P|133:328|37:304,1,175.499991966248
35,317,179039,1,0,0:0:0:0:
249,185,179218,1,0,0:0:0:0:
121,39,179398,5,0,0:0:0:0:
101,42,179488,2,0,P|91:75|82:115,1,58.4999973220826
142,180,179667,1,0,0:0:0:0:
147,200,179757,1,0,0:0:0:0:
279,84,179937,1,0,0:0:0:0:
308,297,180117,2,0,P|316:218|338:107,1,175.499991966248
352,119,180476,1,0,0:0:0:0:
225,203,180655,1,0,0:0:0:0:
408,344,180835,5,0,0:0:0:0:
282,59,181105,1,0,0:0:0:0:
298,48,181194,2,0,B|326:83|326:83|307:202,1,116.999994644165
132,269,181554,2,0,P|120:185|45:131,1,175.499991966248
40,144,181913,1,0,0:0:0:0:
196,79,182093,1,0,0:0:0:0:
328,265,182272,5,0,0:0:0:0:
455,60,182542,1,0,0:0:0:0:
467,46,182631,2,0,B|388:29|388:29|337:45,1,116.999994644165
150,241,182991,2,0,P|216:212|282:189,1,116.999994644165
325,227,183260,1,0,0:0:0:0:
318,246,183350,5,0,0:0:0:0:
276,223,183440,1,0,0:0:0:0:
255,180,183530,1,0,0:0:0:0:
256,133,183620,1,0,0:0:0:0:
283,95,183709,5,0,0:0:0:0:
431,326,183979,1,0,0:0:0:0:
449,337,184069,2,0,B|468:295|468:295|441:191,1,116.999994644165
202,152,184428,2,0,P|243:118|286:62,1,116.999994644165
236,13,184697,1,0,0:0:0:0:
218,9,184787,1,0,0:0:0:0:
177,283,184967,1,0,0:0:0:0:
20,69,185146,5,0,0:0:0:0:
308,170,185416,1,0,0:0:0:0:
325,181,185506,2,0,B|351:155|351:155|346:42,1,116.999994644165
159,279,185865,1,0,0:0:0:0:
295,320,186045,2,0,L|361:311,1,58.4999973220826
192,161,186224,1,0,0:0:0:0:
367,67,186404,1,0,0:0:0:0:
298,337,186584,5,0,0:0:0:0:
86,164,186853,1,0,0:0:0:0:
69,144,186943,2,0,B|40:224|40:224|43:276,1,116.999994644165
298,156,187302,2,0,P|372:121|481:85,1,175.499991966248
473,98,187661,1,0,0:0:0:0:
325,52,187841,1,0,0:0:0:0:
180,280,188021,5,0,0:0:0:0:
442,281,188290,1,0,0:0:0:0:
456,296,188380,2,0,B|418:322|418:322|342:296,1,116.999994644165
213,23,188739,2,0,P|249:111|273:198,1,175.499991966248
260,197,189099,1,0,0:0:0:0:
103,136,189278,1,0,0:0:0:0:
389,29,189458,5,0,0:0:0:0:
298,305,189727,1,0,0:0:0:0:
315,310,189817,1,0,0:0:0:0:
297,261,189907,1,0,0:0:0:0:
258,227,189997,1,0,0:0:0:0:
207,218,190087,1,0,0:0:0:0:
157,230,190176,1,0,0:0:0:0:
177,187,190266,1,0,0:0:0:0:
216,161,190356,1,0,0:0:0:0:
262,154,190446,1,0,0:0:0:0:
307,165,190536,5,0,0:0:0:0:
320,183,190625,1,0,0:0:0:0:
338,197,190715,1,0,0:0:0:0:
359,206,190805,1,0,0:0:0:0:
382,210,190895,6,0,P|391:157|409:96,1,107.999996704102
422,97,192332,5,0,0:0:0:0:
244,233,192602,1,0,0:0:0:0:
234,218,192691,2,0,B|266:211|266:211|322:219,1,90
266,340,193051,2,0,P|216:307|140:270,1,135
134,281,193410,1,0,0:0:0:0:
208,172,193590,1,0,0:0:0:0:
347,289,193769,6,0,P|363:237|382:193,1,90
268,109,194128,2,0,P|284:150|297:193,1,90
233,335,194488,2,0,P|245:254|267:159,1,180
228,90,195027,1,0,0:0:0:0:
48,112,195206,6,0,P|112:168|178:246,1,180
228,184,195745,1,0,0:0:0:0:
433,56,195925,2,0,P|369:112|303:190,1,180
320,259,196464,1,0,0:0:0:0:
213,14,196643,6,0,P|228:101|239:199,1,180
198,258,197182,1,0,0:0:0:0:
410,75,197362,1,0,0:0:0:0:
373,71,197451,1,0,0:0:0:0:
338,80,197541,1,0,0:0:0:0:
307,103,197631,1,0,0:0:0:0:
310,126,197721,5,0,0:0:0:0:
322,138,197811,1,0,0:0:0:0:
331,153,197901,1,0,0:0:0:0:
337,169,197991,1,0,0:0:0:0:
338,210,198081,5,0,0:0:0:0:
112,69,198350,1,0,0:0:0:0:
93,59,198440,2,0,B|121:39|121:39|190:46,1,90
213,222,198799,1,0,0:0:0:0:
304,75,198979,1,0,0:0:0:0:
294,59,199069,1,0,0:0:0:0:
288,41,199158,1,0,0:0:0:0:
425,176,199338,1,0,0:0:0:0:
407,178,199428,1,0,0:0:0:0:
390,186,199518,6,0,P|440:201|506:228,1,90
268,109,199877,1,0,0:0:0:0:
205,236,200057,1,0,0:0:0:0:
285,350,200236,2,0,L|295:241,1,90
140,64,200596,1,0,0:0:0:0:
277,118,200775,1,0,0:0:0:0:
116,247,200955,6,0,P|76:232|15:218,1,90
39,123,201224,1,0,0:0:0:0:
27,135,201314,1,0,0:0:0:0:
45,160,201404,1,0,0:0:0:0:
74,171,201494,1,0,0:0:0:0:
105,170,201584,1,0,0:0:0:0:
133,157,201673,5,0,0:0:0:0:
141,117,201762,1,0,0:0:0:0:
162,83,201852,1,0,0:0:0:0:
194,57,201942,1,0,0:0:0:0:
231,43,202032,1,0,0:0:0:0:
272,42,202122,1,0,0:0:0:0:
310,55,202211,1,0,0:0:0:0:
265,87,202302,1,0,0:0:0:0:
210,88,202392,6,0,P|176:54|113:16,1,90
282,177,202661,2,0,P|326:159|399:150,1,90
188,236,202931,1,0,0:0:0:0:
364,50,203111,2,0,P|445:57|428:152,1,180
137,74,203829,5,0,0:0:0:0:
