osu file format v14

[General]
AudioFilename: audio.mp3
AudioLeadIn: 0
PreviewTime: 91048
Countdown: 0
SampleSet: None
StackLeniency: 0.7
Mode: 0
LetterboxInBreaks: 0
WidescreenStoryboard: 1
SamplesMatchPlaybackRate: 1

[Editor]
DistanceSpacing: 1.5
BeatDivisor: 8
GridSize: 4
TimelineZoom: 1.7

[Metadata]
Title:Giniro Hikousen (Ttm bootleg Edit)
TitleUnicode:銀色飛行船 (Ttm bootleg Edit)
Artist:supercell
ArtistUnicode:supercell
Creator:TT Mouse
Version:reMix with yf's Distant Horizon
Source:ねらわれた学園
Tags:Nerawareta_Gakuen yf_bmp ryo koeda こゑだ
BeatmapID:2089154
BeatmapSetID:998885

[Difficulty]
HPDrainRate:6.5
CircleSize:4.5
OverallDifficulty:8.8
ApproachRate:9
SliderMultiplier:3.4
SliderTickRate:2

[Events]
//Background and Video events
0,0,"BG.jpg",0,0
//Break Periods
//Storyboard Layer 0 (Background)
//Storyboard Layer 1 (Fail)
//Storyboard Layer 2 (Pass)
//Storyboard Layer 3 (Foreground)
//Storyboard Sound Samples
Sample,10990,0,"reverse snare.wav",60
Sample,11164,0,"A4b1.mp3",60
Sample,11164,0,"A4.wav",60
Sample,11164,0,"C#5c.mp3",60
Sample,11164,0,"soft-hitwhistle10.wav",45
Sample,11164,0,"fC#6.wav",60
Sample,11339,0,"A4.wav",60
Sample,11513,0,"soft-hitclap10.wav",45
Sample,11513,0,"A4.wav",60
Sample,11687,0,"A4.wav",60
Sample,11862,0,"A4.wav",60
Sample,12036,0,"A4.wav",60
Sample,12036,0,"soft-hitwhistle10.wav",45
Sample,12211,0,"A4.wav",60
Sample,12211,0,"soft-hitclap10.wav",45
Sample,12385,0,"A4.wav",60
Sample,12560,0,"soft-hitwhistle10.wav",45
Sample,12560,0,"A4.wav",60
Sample,12734,0,"A4.wav",60
Sample,12908,0,"soft-hitclap10.wav",45
Sample,12908,0,"A4.wav",60
Sample,13083,0,"A4.wav",60
Sample,13257,0,"fD6.wav",60
Sample,13257,0,"A4.wav",60
Sample,13432,0,"soft-hitwhistle10.wav",45
Sample,13432,0,"A4.wav",60
Sample,13606,0,"A4.wav",60
Sample,13606,0,"soft-hitclap10.wav",45
Sample,13780,0,"A4.wav",60
Sample,13780,0,"fA5.wav",60
Sample,13955,0,"B4b1.mp3",60
Sample,13955,0,"B4.wav",60
Sample,13955,0,"soft-hitwhistle10.wav",45
Sample,13955,0,"B4c.mp3",60
Sample,13955,0,"fB5.wav",60
Sample,14129,0,"B4.wav",60
Sample,14304,0,"B4.wav",60
Sample,14304,0,"soft-hitclap10.wav",45
Sample,14478,0,"B4.wav",60
Sample,14478,0,"fE6.wav",60
Sample,14653,0,"B4.wav",60
Sample,14827,0,"B4.wav",60
Sample,14827,0,"soft-hitwhistle10.wav",45
Sample,15001,0,"B4.wav",60
Sample,15001,0,"soft-hitclap10.wav",45
Sample,15176,0,"B4.wav",60
Sample,15350,0,"B4.wav",60
Sample,15350,0,"soft-hitwhistle10.wav",45
Sample,15525,0,"B4.wav",60
Sample,15699,0,"soft-hitclap10.wav",45
Sample,15699,0,"B4.wav",60
Sample,15874,0,"B4.wav",60
Sample,16048,0,"f2C#6.wav",60
Sample,16048,0,"E5.wav",60
Sample,16222,0,"E5.wav",60
Sample,16222,0,"soft-hitwhistle10.wav",45
Sample,16397,0,"E5.wav",60
Sample,16397,0,"f2E6.wav",60
Sample,16397,0,"soft-hitclap10.wav",45
Sample,16571,0,"E5.wav",60
Sample,16746,0,"A41.wav",60
Sample,16746,0,"D5b1.mp3",60
Sample,16746,0,"f2D6.wav",60
Sample,16746,0,"white noise up.mp3",50
Sample,16746,0,"soft-hitwhistle10.wav",45
Sample,16746,0,"D5c.mp3",60
Sample,16920,0,"A41.wav",60
Sample,17094,0,"A41.wav",60
Sample,17094,0,"soft-hitclap10.wav",45
Sample,17094,0,"f3C#6.wav",60
Sample,17269,0,"f2A5.wav",60
Sample,17269,0,"A41.wav",60
Sample,17443,0,"B41.wav",60
Sample,17618,0,"B41.wav",60
Sample,17618,0,"soft-hitwhistle10.wav",45
Sample,17792,0,"B41.wav",60
Sample,17792,0,"soft-hitclap10.wav",45
Sample,17967,0,"B41.wav",60
Sample,18141,0,"soft-hitwhistle10.wav",45
Sample,18141,0,"B41.wav",60
Sample,18315,0,"B41.wav",60
Sample,18490,0,"soft-hitclap10.wav",45
Sample,18490,0,"B41.wav",60
Sample,18664,0,"B41.wav",60
Sample,18839,0,"D5.wav",60
Sample,18839,0,"f4C#6.wav",60
Sample,19013,0,"D5.wav",60
Sample,19013,0,"soft-hitwhistle10.wav",45
Sample,19187,0,"soft-hitclap10.wav",45
Sample,19187,0,"D5.wav",60
Sample,19362,0,"f2B5.wav",60
Sample,19362,0,"D5.wav",60
Sample,19536,0,"soft-hitwhistle10.wav",45
Sample,19536,0,"A4c.mp3",60
Sample,19536,0,"A4b1.mp3",60
Sample,19536,0,"f3A5.wav",60
Sample,19536,0,"A4.wav",60
Sample,19711,0,"A4.wav",60
Sample,19885,0,"A4.wav",60
Sample,19885,0,"soft-hitclap10.wav",45
Sample,20060,0,"A4.wav",60
Sample,20234,0,"A4.wav",60
Sample,20408,0,"soft-hitwhistle10.wav",45
Sample,20408,0,"A4.wav",60
Sample,20583,0,"A4.wav",60
Sample,20757,0,"A4.wav",60
Sample,20757,0,"f5C#6.wav",60
Sample,20932,0,"A4.wav",60
Sample,20932,0,"soft-hitwhistle10.wav",45
Sample,20932,0,"f3B5.wav",60
Sample,21106,0,"A4.wav",60
Sample,21280,0,"A4.wav",60
Sample,21455,0,"A4.wav",60
Sample,21455,0,"soft-hitwhistle10.wav",45
Sample,21629,0,"A4.wav",60
Sample,21804,0,"A4.wav",60
Sample,21978,0,"soft-hitwhistle10.wav",45
Sample,21978,0,"A4.wav",60
Sample,22153,0,"f4A5.wav",60
Sample,22153,0,"A4.wav",60
Sample,22327,0,"A4b.wav",60
Sample,22327,0,"B4c2.mp3",60
Sample,22327,0,"soft-hitwhistle10.wav",45
Sample,22327,0,"f6C#6.wav",60
Sample,22327,0,"A4b1.mp3",60
Sample,22501,0,"A4b.wav",60
Sample,22676,0,"A4b.wav",60
Sample,22850,0,"soft-hitwhistle10.wav",45
Sample,22850,0,"A4b.wav",60
Sample,23025,0,"A4b.wav",60
Sample,23199,0,"A4b.wav",60
Sample,23373,0,"soft-hitwhistle10.wav",45
Sample,23373,0,"A4b.wav",60
Sample,23548,0,"A4b.wav",60
Sample,23722,0,"soft-hitwhistle10.wav",45
Sample,23722,0,"A4d.wav",60
Sample,23897,0,"A4d.wav",60
Sample,24071,0,"soft-hitwhistle10.wav",45
Sample,24071,0,"A4d.wav",60
Sample,24246,0,"A4d.wav",60
Sample,24246,0,"soft-hitwhistle10.wav",45
Sample,24420,0,"soft click.wav",60
Sample,24420,0,"A4d.wav",60
Sample,24594,0,"A4d.wav",60
Sample,24769,0,"A4d.wav",60
Sample,24943,0,"A4d.wav",60
Sample,25118,0,"A42.wav",60
Sample,25118,0,"white noise down.mp3",50
Sample,25118,0,"C#5E4c2.mp3",60
Sample,25118,0,"pC#6.wav",45
Sample,25118,0,"A4b1.mp3",60
Sample,25292,0,"pA5.wav",30
Sample,25292,0,"A42.wav",60
Sample,25467,0,"pB5.wav",30
Sample,25467,0,"A42.wav",60
Sample,25641,0,"A42.wav",60
Sample,25641,0,"pC#6.wav",45
Sample,25815,0,"A42.wav",60
Sample,25815,0,"pA5.wav",30
Sample,25990,0,"A42.wav",60
Sample,25990,0,"pB5.wav",30
Sample,26164,0,"A42.wav",60
Sample,26164,0,"pC#6.wav",45
Sample,26339,0,"A42.wav",60
Sample,26339,0,"pA5.wav",30
Sample,26513,0,"pB5.wav",30
Sample,26513,0,"A42.wav",60
Sample,26687,0,"pC#6.wav",45
Sample,26687,0,"A42.wav",60
Sample,26862,0,"A42.wav",60
Sample,26862,0,"pA5.wav",30
Sample,27036,0,"A42.wav",60
Sample,27036,0,"pB5.wav",30
Sample,27211,0,"pC#6.wav",45
Sample,27211,0,"A42.wav",60
Sample,27385,0,"A42.wav",60
Sample,27385,0,"pA5.wav",30
Sample,27560,0,"A42.wav",60
Sample,27560,0,"pB5.wav",30
Sample,27734,0,"A42.wav",60
Sample,27734,0,"pC#6.wav",45
Sample,27908,0,"E42.wav",60
Sample,27908,0,"pG#5.wav",45
Sample,27908,0,"G#4c2.mp3",60
Sample,27908,0,"E4b1.mp3",60
Sample,28083,0,"E42.wav",60
Sample,28083,0,"pE5.wav",30
Sample,28257,0,"pF#5.wav",30
Sample,28257,0,"E42.wav",60
Sample,28432,0,"E42.wav",60
Sample,28432,0,"pG#5.wav",45
Sample,28606,0,"pE5.wav",30
Sample,28606,0,"E42.wav",60
Sample,28780,0,"E42.wav",60
Sample,28780,0,"pF#5.wav",30
Sample,28955,0,"pG#5.wav",45
Sample,28955,0,"E42.wav",60
Sample,29129,0,"pE5.wav",30
Sample,29129,0,"E42.wav",60
Sample,29304,0,"E42.wav",60
Sample,29304,0,"pF#5.wav",30
Sample,29478,0,"E42.wav",60
Sample,29478,0,"pG#5.wav",45
Sample,29653,0,"E42.wav",60
Sample,29653,0,"pE5.wav",30
Sample,29827,0,"E42.wav",60
Sample,29827,0,"pF#5.wav",30
Sample,30001,0,"pG#5.wav",45
Sample,30001,0,"E42.wav",60
Sample,30176,0,"E42.wav",60
Sample,30176,0,"pE5.wav",30
Sample,30350,0,"E42.wav",60
Sample,30350,0,"pF#5.wav",30
Sample,30525,0,"pG#5.wav",45
Sample,30525,0,"E42.wav",60
Sample,30699,0,"pC#6.wav",45
Sample,30699,0,"F#4b1.mp3",60
Sample,30699,0,"F#42.wav",60
Sample,30699,0,"C#5F#4c2.mp3",60
Sample,30873,0,"pA5.wav",30
Sample,30873,0,"F#42.wav",60
Sample,31048,0,"F#42.wav",60
Sample,31048,0,"pB5.wav",30
Sample,31222,0,"pC#6.wav",45
Sample,31222,0,"F#42.wav",60
Sample,31397,0,"F#42.wav",60
Sample,31397,0,"pA5.wav",30
Sample,31571,0,"pB5.wav",30
Sample,31571,0,"F#42.wav",60
Sample,31746,0,"pC#6.wav",45
Sample,31746,0,"F#42.wav",60
Sample,31920,0,"pA5.wav",30
Sample,31920,0,"F#42.wav",60
Sample,32094,0,"F#42.wav",60
Sample,32094,0,"pB5.wav",30
Sample,32269,0,"F#42.wav",60
Sample,32269,0,"pC#6.wav",45
Sample,32443,0,"pA5.wav",30
Sample,32443,0,"F#42.wav",60
Sample,32618,0,"pB5.wav",30
Sample,32618,0,"F#42.wav",60
Sample,32792,0,"pC#6.wav",45
Sample,32792,0,"F#42.wav",60
Sample,32967,0,"pA5.wav",30
Sample,32967,0,"F#42.wav",60
Sample,33141,0,"F#42.wav",60
Sample,33141,0,"pB5.wav",30
Sample,33315,0,"pC#6.wav",45
Sample,33315,0,"F#42.wav",60
Sample,33490,0,"pD6.wav",45
Sample,33490,0,"D42.wav",60
Sample,33490,0,"D4b1.mp3",60
Sample,33490,0,"D4c2.mp3",60
Sample,33664,0,"pA5.wav",30
Sample,33664,0,"D42.wav",60
Sample,33839,0,"D42.wav",60
Sample,33839,0,"pC#6.wav",30
Sample,34013,0,"D42.wav",60
Sample,34013,0,"pD6.wav",45
Sample,34187,0,"D42.wav",60
Sample,34187,0,"pA5.wav",30
Sample,34362,0,"D42.wav",60
Sample,34362,0,"pC#6.wav",30
Sample,34536,0,"D42.wav",60
Sample,34536,0,"pD6.wav",45
Sample,34711,0,"D42.wav",60
Sample,34711,0,"pA5.wav",30
Sample,34885,0,"D42.wav",60
Sample,34885,0,"pC#6.wav",30
Sample,35060,0,"pD6.wav",45
Sample,35060,0,"D42.wav",60
Sample,35234,0,"pA5.wav",30
Sample,35234,0,"D42.wav",60
Sample,35408,0,"pC#6.wav",30
Sample,35408,0,"D42.wav",60
Sample,35583,0,"D42.wav",60
Sample,35583,0,"pD6.wav",45
Sample,35757,0,"D42.wav",60
Sample,35757,0,"pA5.wav",30
Sample,35932,0,"D42.wav",60
Sample,35932,0,"pC#6.wav",30
Sample,36106,0,"pD6.wav",45
Sample,36106,0,"D42.wav",60
Sample,36280,0,"A4b1.mp3",60
Sample,36280,0,"C#5E4c2.mp3",60
Sample,36280,0,"A42.wav",60
Sample,36280,0,"pC#6.wav",45
Sample,36455,0,"A42.wav",60
Sample,36455,0,"pA5.wav",30
Sample,36629,0,"pB5.wav",30
Sample,36629,0,"A42.wav",60
Sample,36804,0,"pC#6.wav",45
Sample,36804,0,"A42.wav",60
Sample,36978,0,"pA5.wav",30
Sample,36978,0,"A42.wav",60
Sample,37153,0,"pB5.wav",30
Sample,37153,0,"A42.wav",60
Sample,37327,0,"pC#6.wav",45
Sample,37327,0,"A42.wav",60
Sample,37501,0,"pA5.wav",30
Sample,37501,0,"A42.wav",60
Sample,37676,0,"pB5.wav",30
Sample,37676,0,"A42.wav",60
Sample,37850,0,"A42.wav",60
Sample,37850,0,"pC#6.wav",45
Sample,38025,0,"pA5.wav",30
Sample,38025,0,"A42.wav",60
Sample,38199,0,"A42.wav",60
Sample,38199,0,"pB5.wav",30
Sample,38374,0,"A42.wav",60
Sample,38374,0,"pC#6.wav",45
Sample,38548,0,"A42.wav",60
Sample,38548,0,"pA5.wav",30
Sample,38722,0,"pB5.wav",30
Sample,38722,0,"A42.wav",60
Sample,38897,0,"A42.wav",60
Sample,38897,0,"pC#6.wav",45
Sample,39071,0,"G#4c2.mp3",60
Sample,39071,0,"E42.wav",60
Sample,39071,0,"pB5.wav",45
Sample,39071,0,"E4b1.mp3",60
Sample,39246,0,"pF#5.wav",30
Sample,39246,0,"E42.wav",60
Sample,39420,0,"pG#5.wav",30
Sample,39420,0,"E42.wav",60
Sample,39594,0,"pB5.wav",45
Sample,39594,0,"E42.wav",60
Sample,39769,0,"E42.wav",60
Sample,39769,0,"pF#5.wav",30
Sample,39943,0,"pG#5.wav",30
Sample,39943,0,"E42.wav",60
Sample,40118,0,"E42.wav",60
Sample,40118,0,"pB5.wav",45
Sample,40292,0,"E42.wav",60
Sample,40292,0,"pF#5.wav",30
Sample,40467,0,"pG#5.wav",30
Sample,40467,0,"E42.wav",60
Sample,40641,0,"pB5.wav",45
Sample,40641,0,"E42.wav",60
Sample,40815,0,"E42.wav",60
Sample,40815,0,"pF#5.wav",30
Sample,40990,0,"E42.wav",60
Sample,40990,0,"pG#5.wav",30
Sample,41164,0,"pB5.wav",45
Sample,41164,0,"E42.wav",60
Sample,41339,0,"E42.wav",60
Sample,41339,0,"pF#5.wav",30
Sample,41513,0,"E42.wav",60
Sample,41513,0,"pG#5.wav",30
Sample,41687,0,"E42.wav",60
Sample,41687,0,"pB5.wav",45
Sample,41862,0,"A4A5c3.mp3",45
Sample,41862,0,"pA5.wav",45
Sample,41862,0,"white noise up.mp3",50
Sample,41862,0,"D42.wav",60
Sample,41862,0,"D4b1.mp3",60
Sample,42036,0,"pD5.wav",30
Sample,42036,0,"D42.wav",60
Sample,42211,0,"D42.wav",60
Sample,42211,0,"pF#5.wav",30
Sample,42385,0,"pA5.wav",45
Sample,42385,0,"D42.wav",60
Sample,42560,0,"pD5.wav",30
Sample,42560,0,"D42.wav",60
Sample,42734,0,"D42.wav",60
Sample,42734,0,"pF#5.wav",30
Sample,42908,0,"pA5.wav",45
Sample,42908,0,"D42.wav",60
Sample,43083,0,"D42.wav",60
Sample,43083,0,"pD5.wav",30
Sample,43257,0,"D42.wav",60
Sample,43257,0,"pF#5.wav",30
Sample,43432,0,"pA5.wav",45
Sample,43432,0,"D42.wav",60
Sample,43606,0,"pD5.wav",30
Sample,43606,0,"D42.wav",60
Sample,43780,0,"pF#5.wav",30
Sample,43780,0,"D42.wav",60
Sample,43955,0,"pG#5.wav",45
Sample,43955,0,"D42.wav",60
Sample,44129,0,"D42.wav",60
Sample,44129,0,"pD5.wav",30
Sample,44304,0,"pF#5.wav",30
Sample,44304,0,"D42.wav",60
Sample,44478,0,"pG#5.wav",45
Sample,44478,0,"D42.wav",60
Sample,44653,0,"A4b1.mp3",60
Sample,44653,0,"pA5.wav",45
Sample,44653,0,"A4C#5c3.mp3",60
Sample,44653,0,"A32.wav",60
Sample,44827,0,"pB4.wav",30
Sample,44827,0,"A32.wav",60
Sample,45001,0,"soft-hitwhistle11.wav",30
Sample,45001,0,"A32.wav",60
Sample,45001,0,"pF#5.wav",30
Sample,45176,0,"A32.wav",60
Sample,45176,0,"pA5.wav",45
Sample,45350,0,"A32.wav",60
Sample,45350,0,"soft-hitwhistle11.wav",30
Sample,45350,0,"pB4.wav",30
Sample,45525,0,"pF#5.wav",30
Sample,45525,0,"A32.wav",60
Sample,45699,0,"pA5.wav",45
Sample,45699,0,"soft-hitwhistle11.wav",30
Sample,45699,0,"A32.wav",60
Sample,45874,0,"A32.wav",60
Sample,45874,0,"pB4.wav",30
Sample,46048,0,"soft-hitwhistle11.wav",30
Sample,46048,0,"pF#5.wav",30
Sample,46048,0,"A32.wav",60
Sample,46222,0,"A32.wav",60
Sample,46222,0,"pA5.wav",45
Sample,46397,0,"soft-hitwhistle11.wav",30
Sample,46397,0,"pB4.wav",30
Sample,46397,0,"A32.wav",60
Sample,46571,0,"A32.wav",60
Sample,46571,0,"pF#5.wav",30
Sample,46746,0,"A32.wav",60
Sample,46746,0,"pA5.wav",45
Sample,46746,0,"soft-hitwhistle11.wav",30
Sample,46920,0,"pB4.wav",30
Sample,46920,0,"A32.wav",60
Sample,47094,0,"A32.wav",60
Sample,47094,0,"soft-hitwhistle11.wav",30
Sample,47094,0,"pF#5.wav",30
Sample,47269,0,"pA5.wav",45
Sample,47269,0,"A32.wav",60
Sample,47443,0,"A4b1.mp3",60
Sample,47443,0,"pA5.wav",45
Sample,47443,0,"soft-hitwhistle11.wav",30
Sample,47443,0,"A32.wav",60
Sample,47443,0,"A4D5c3.mp3",60
Sample,47618,0,"pB4.wav",30
Sample,47618,0,"A32.wav",60
Sample,47792,0,"soft-hitwhistle11.wav",30
Sample,47792,0,"A32.wav",60
Sample,47792,0,"pF#5.wav",30
Sample,47967,0,"A32.wav",60
Sample,47967,0,"pA5.wav",45
Sample,48141,0,"pB4.wav",30
Sample,48141,0,"soft-hitwhistle11.wav",30
Sample,48141,0,"A32.wav",60
Sample,48315,0,"A32.wav",60
Sample,48315,0,"pF#5.wav",30
Sample,48490,0,"pA5.wav",45
Sample,48490,0,"soft-hitwhistle11.wav",30
Sample,48490,0,"A32.wav",60
Sample,48664,0,"A32.wav",60
Sample,48664,0,"pB4.wav",30
Sample,48839,0,"pF#5.wav",30
Sample,48839,0,"soft-hitwhistle11.wav",30
Sample,48839,0,"A32.wav",60
Sample,49013,0,"pA5.wav",45
Sample,49013,0,"A32.wav",60
Sample,49187,0,"soft-hitwhistle11.wav",30
Sample,49187,0,"pB4.wav",30
Sample,49187,0,"A32.wav",60
Sample,49362,0,"pF#5.wav",30
Sample,49362,0,"A32.wav",60
Sample,49536,0,"pA5.wav",45
Sample,49536,0,"A32.wav",60
Sample,49536,0,"soft-hitwhistle11.wav",30
Sample,49711,0,"A32.wav",60
Sample,49711,0,"pB4.wav",30
Sample,49885,0,"A32.wav",60
Sample,49885,0,"pF#5.wav",30
Sample,49885,0,"soft-hitwhistle11.wav",30
Sample,50060,0,"pA5.wav",45
Sample,50060,0,"A32.wav",60
Sample,50060,0,"reverse snare.wav",60
Sample,50234,0,"soft-hitwhistle10.wav",45
Sample,50234,0,"A4E53.wav",60
Sample,50234,0,"white noise down.mp3",50
Sample,50234,0,"pC#6.wav",58
Sample,50234,0,"A4C#6c4.mp3",60
Sample,50234,0,"A4b1.mp3",60
Sample,50234,0,"loop1.wav",70
Sample,50408,0,"pA5.wav",37
Sample,50408,0,"A4E53.wav",60
Sample,50408,0,"loop2.wav",70
Sample,50496,0,"loop3.wav",70
Sample,50583,0,"loop1.wav",70
Sample,50583,0,"A4E53.wav",60
Sample,50583,0,"soft-hitclap10.wav",45
Sample,50583,0,"pB5.wav",37
Sample,50670,0,"loop3.wav",70
Sample,50757,0,"loop2.wav",70
Sample,50757,0,"pC#6.wav",58
Sample,50757,0,"A4E53.wav",60
Sample,50844,0,"loop3.wav",70
Sample,50932,0,"pA5.wav",37
Sample,50932,0,"A4E53.wav",60
Sample,50932,0,"loop1.wav",70
Sample,51106,0,"loop2.wav",70
Sample,51106,0,"A4E53.wav",60
Sample,51106,0,"pB5.wav",37
Sample,51106,0,"soft-hitwhistle10.wav",45
Sample,51193,0,"loop3.wav",70
Sample,51280,0,"pC#6.wav",58
Sample,51280,0,"A4E53.wav",60
Sample,51280,0,"loop1.wav",70
Sample,51280,0,"soft-hitclap10.wav",45
Sample,51368,0,"loop3.wav",70
Sample,51455,0,"pA5.wav",37
Sample,51455,0,"loop2.wav",70
Sample,51455,0,"A4E53.wav",60
Sample,51542,0,"loop3.wav",70
Sample,51629,0,"loop1.wav",70
Sample,51629,0,"A4E53.wav",60
Sample,51629,0,"pB5.wav",37
Sample,51629,0,"soft-hitwhistle10.wav",45
Sample,51804,0,"pC#6.wav",58
Sample,51804,0,"loop2.wav",70
Sample,51804,0,"A4E53.wav",60
Sample,51891,0,"loop3.wav",70
Sample,51978,0,"soft-hitclap10.wav",45
Sample,51978,0,"pA5.wav",37
Sample,51978,0,"A4E53.wav",60
Sample,51978,0,"loop1.wav",70
Sample,52065,0,"loop3.wav",70
Sample,52153,0,"loop2.wav",70
Sample,52153,0,"A4E53.wav",60
Sample,52153,0,"pB5.wav",37
Sample,52240,0,"loop3.wav",70
Sample,52327,0,"loop1.wav",70
Sample,52327,0,"A4E53.wav",60
Sample,52327,0,"pC#6.wav",58
Sample,52501,0,"pA5.wav",37
Sample,52501,0,"A4E53.wav",60
Sample,52501,0,"soft-hitwhistle10.wav",45
Sample,52501,0,"loop2.wav",70
Sample,52589,0,"loop3.wav",70
Sample,52676,0,"A4E53.wav",60
Sample,52676,0,"loop1.wav",70
Sample,52676,0,"soft-hitclap10.wav",45
Sample,52676,0,"pB5.wav",37
Sample,52763,0,"loop3.wav",70
Sample,52850,0,"A4E53.wav",60
Sample,52850,0,"pC#6.wav",58
Sample,52850,0,"loop2.wav",70
Sample,52937,0,"loop3.wav",70
Sample,53025,0,"E4B43.wav",60
Sample,53025,0,"G#4B5c4.mp3",60
Sample,53025,0,"loop1.wav",70
Sample,53025,0,"E4b1.mp3",60
Sample,53025,0,"pG#5.wav",58
Sample,53025,0,"soft-hitwhistle10.wav",45
Sample,53199,0,"pE5.wav",37
Sample,53199,0,"E4B43.wav",60
Sample,53199,0,"loop2.wav",70
Sample,53286,0,"loop3.wav",70
Sample,53373,0,"soft-hitclap10.wav",45
Sample,53373,0,"pF#5.wav",37
Sample,53373,0,"E4B43.wav",60
Sample,53374,0,"loop1.wav",70
Sample,53461,0,"loop3.wav",70
Sample,53548,0,"pG#5.wav",58
Sample,53548,0,"E4B43.wav",60
Sample,53548,0,"loop2.wav",70
Sample,53635,0,"loop3.wav",70
Sample,53722,0,"pE5.wav",37
Sample,53722,0,"E4B43.wav",60
Sample,53722,0,"loop1.wav",70
Sample,53897,0,"soft-hitwhistle10.wav",45
Sample,53897,0,"E4B43.wav",60
Sample,53897,0,"loop2.wav",70
Sample,53897,0,"pF#5.wav",37
Sample,53984,0,"loop3.wav",70
Sample,54071,0,"loop1.wav",70
Sample,54071,0,"soft-hitclap10.wav",45
Sample,54071,0,"pG#5.wav",58
Sample,54071,0,"E4B43.wav",60
Sample,54158,0,"loop3.wav",70
Sample,54246,0,"E4B43.wav",60
Sample,54246,0,"pE5.wav",37
Sample,54246,0,"loop2.wav",70
Sample,54333,0,"loop3.wav",70
Sample,54420,0,"loop1.wav",70
Sample,54420,0,"soft-hitwhistle10.wav",45
Sample,54420,0,"E4B43.wav",60
Sample,54420,0,"pF#5.wav",37
Sample,54594,0,"E4B43.wav",60
Sample,54594,0,"pG#5.wav",58
Sample,54594,0,"loop2.wav",70
Sample,54682,0,"loop3.wav",70
Sample,54769,0,"E4B43.wav",60
Sample,54769,0,"loop1.wav",70
Sample,54769,0,"soft-hitclap10.wav",45
Sample,54769,0,"pE5.wav",37
Sample,54856,0,"loop3.wav",70
Sample,54943,0,"loop2.wav",70
Sample,54943,0,"E4B43.wav",60
Sample,54943,0,"pF#5.wav",37
Sample,55030,0,"loop3.wav",70
Sample,55118,0,"E4B43.wav",60
Sample,55118,0,"pG#5.wav",58
Sample,55118,0,"loop1.wav",70
Sample,55292,0,"loop2.wav",70
Sample,55292,0,"soft-hitwhistle10.wav",45
Sample,55292,0,"pE5.wav",37
Sample,55292,0,"E4B43.wav",60
Sample,55379,0,"loop3.wav",70
Sample,55467,0,"E4B43.wav",60
Sample,55467,0,"pF#5.wav",37
Sample,55467,0,"soft-hitclap10.wav",45
Sample,55467,0,"loop1.wav",70
Sample,55554,0,"loop3.wav",70
Sample,55641,0,"E4B43.wav",60
Sample,55641,0,"pG#5.wav",58
Sample,55641,0,"loop2.wav",70
Sample,55728,0,"loop3.wav",70
Sample,55815,0,"F#4b1.mp3",60
Sample,55815,0,"pC#6.wav",58
Sample,55815,0,"A4C#6c4.mp3",60
Sample,55815,0,"loop1.wav",70
Sample,55815,0,"soft-hitwhistle10.wav",45
Sample,55815,0,"F#4C#53.wav",60
Sample,55990,0,"pA5.wav",37
Sample,55990,0,"loop2.wav",70
Sample,55990,0,"F#4C#53.wav",60
Sample,56077,0,"loop3.wav",70
Sample,56164,0,"F#4C#53.wav",60
Sample,56164,0,"pB5.wav",37
Sample,56164,0,"loop1.wav",70
Sample,56164,0,"soft-hitclap10.wav",45
Sample,56251,0,"loop3.wav",70
Sample,56339,0,"pC#6.wav",58
Sample,56339,0,"F#4C#53.wav",60
Sample,56339,0,"loop2.wav",70
Sample,56426,0,"loop3.wav",70
Sample,56513,0,"pA5.wav",37
Sample,56513,0,"loop1.wav",70
Sample,56513,0,"F#4C#53.wav",60
Sample,56687,0,"soft-hitwhistle10.wav",45
Sample,56687,0,"loop2.wav",70
Sample,56687,0,"F#4C#53.wav",60
Sample,56687,0,"pB5.wav",37
Sample,56775,0,"loop3.wav",70
Sample,56862,0,"F#4C#53.wav",60
Sample,56862,0,"pC#6.wav",58
Sample,56862,0,"soft-hitclap10.wav",45
Sample,56862,0,"loop1.wav",70
Sample,56949,0,"loop3.wav",70
Sample,57036,0,"F#4C#53.wav",60
Sample,57036,0,"loop2.wav",70
Sample,57036,0,"pA5.wav",37
Sample,57124,0,"loop3.wav",70
Sample,57211,0,"loop1.wav",70
Sample,57211,0,"F#4C#53.wav",60
Sample,57211,0,"pB5.wav",37
Sample,57211,0,"soft-hitwhistle10.wav",45
Sample,57385,0,"loop2.wav",70
Sample,57385,0,"F#4C#53.wav",60
Sample,57385,0,"pC#6.wav",58
Sample,57472,0,"loop3.wav",70
Sample,57560,0,"soft-hitclap10.wav",45
Sample,57560,0,"loop1.wav",70
Sample,57560,0,"F#4C#53.wav",60
Sample,57560,0,"pA5.wav",37
Sample,57647,0,"loop3.wav",70
Sample,57734,0,"F#4C#53.wav",60
Sample,57734,0,"loop2.wav",70
Sample,57734,0,"pB5.wav",37
Sample,57821,0,"loop3.wav",70
Sample,57908,0,"F#4C#53.wav",60
Sample,57908,0,"loop1.wav",70
Sample,57908,0,"pC#6.wav",58
Sample,58083,0,"loop2.wav",70
Sample,58083,0,"F#4C#53.wav",60
Sample,58083,0,"soft-hitwhistle10.wav",45
Sample,58083,0,"pA5.wav",37
Sample,58170,0,"loop3.wav",70
Sample,58257,0,"pB5.wav",37
Sample,58257,0,"soft-hitclap10.wav",45
Sample,58257,0,"F#4C#53.wav",60
Sample,58257,0,"loop1.wav",70
Sample,58344,0,"loop3.wav",70
Sample,58432,0,"loop2.wav",70
Sample,58432,0,"F#4C#53.wav",60
Sample,58432,0,"pC#6.wav",58
Sample,58519,0,"loop3.wav",70
Sample,58606,0,"soft-hitwhistle10.wav",45
Sample,58606,0,"pD6.wav",58
Sample,58606,0,"D4A43.wav",60
Sample,58606,0,"loop1.wav",70
Sample,58606,0,"A4D6c4.mp3",60
Sample,58606,0,"D4b1.mp3",60
Sample,58780,0,"loop2.wav",70
Sample,58780,0,"pA5.wav",37
Sample,58780,0,"D4A43.wav",60
Sample,58868,0,"loop3.wav",70
Sample,58955,0,"loop1.wav",70
Sample,58955,0,"D4A43.wav",60
Sample,58955,0,"soft-hitclap10.wav",45
Sample,58955,0,"pC#6.wav",37
Sample,59042,0,"loop3.wav",70
Sample,59129,0,"loop2.wav",70
Sample,59129,0,"D4A43.wav",60
Sample,59129,0,"pD6.wav",58
Sample,59217,0,"loop3.wav",70
Sample,59304,0,"pA5.wav",37
Sample,59304,0,"loop1.wav",70
Sample,59304,0,"D4A43.wav",60
Sample,59478,0,"pC#6.wav",37
Sample,59478,0,"D4A43.wav",60
Sample,59478,0,"loop2.wav",70
Sample,59478,0,"soft-hitwhistle10.wav",45
Sample,59565,0,"loop3.wav",70
Sample,59653,0,"soft-hitclap10.wav",45
Sample,59653,0,"loop1.wav",70
Sample,59653,0,"D4A43.wav",60
Sample,59653,0,"pD6.wav",58
Sample,59740,0,"loop3.wav",70
Sample,59827,0,"loop2.wav",70
Sample,59827,0,"pA5.wav",37
Sample,59827,0,"D4A43.wav",60
Sample,59914,0,"loop3.wav",70
Sample,60001,0,"D4A43.wav",60
Sample,60001,0,"soft-hitwhistle10.wav",45
Sample,60001,0,"pC#6.wav",37
Sample,60001,0,"loop1.wav",70
Sample,60176,0,"loop2.wav",70
Sample,60176,0,"D4A43.wav",60
Sample,60176,0,"pD6.wav",58
Sample,60263,0,"loop3.wav",70
Sample,60350,0,"loop1.wav",70
Sample,60350,0,"soft-hitclap10.wav",45
Sample,60350,0,"pA5.wav",37
Sample,60350,0,"D4A43.wav",60
Sample,60437,0,"loop3.wav",70
Sample,60525,0,"loop2.wav",70
Sample,60525,0,"pC#6.wav",37
Sample,60525,0,"D4A43.wav",60
Sample,60612,0,"loop3.wav",70
Sample,60699,0,"pD6.wav",58
Sample,60699,0,"D4A43.wav",60
Sample,60699,0,"loop1.wav",70
Sample,60873,0,"D4A43.wav",60
Sample,60873,0,"pA5.wav",37
Sample,60873,0,"soft-hitwhistle10.wav",45
Sample,60874,0,"loop2.wav",70
Sample,60961,0,"loop3.wav",70
Sample,61048,0,"loop1.wav",70
Sample,61048,0,"pC#6.wav",37
Sample,61048,0,"D4A43.wav",60
Sample,61048,0,"soft-hitclap10.wav",45
Sample,61135,0,"loop3.wav",70
Sample,61222,0,"loop2.wav",70
Sample,61222,0,"D4A43.wav",60
Sample,61222,0,"pD6.wav",58
Sample,61310,0,"loop3.wav",70
Sample,61397,0,"pC#6.wav",58
Sample,61397,0,"A4b1.mp3",60
Sample,61397,0,"loop1.wav",70
Sample,61397,0,"soft-hitwhistle10.wav",45
Sample,61397,0,"A4C#6c4.mp3",60
Sample,61397,0,"A4E53.wav",60
Sample,61571,0,"pA5.wav",37
Sample,61571,0,"A4E53.wav",60
Sample,61571,0,"loop2.wav",70
Sample,61658,0,"loop3.wav",70
Sample,61746,0,"pB5.wav",37
Sample,61746,0,"soft-hitclap10.wav",45
Sample,61746,0,"A4E53.wav",60
Sample,61746,0,"loop1.wav",70
Sample,61833,0,"loop3.wav",70
Sample,61920,0,"loop2.wav",70
Sample,61920,0,"A4E53.wav",60
Sample,61920,0,"pC#6.wav",58
Sample,62007,0,"loop3.wav",70
Sample,62094,0,"A4E53.wav",60
Sample,62094,0,"loop1.wav",70
Sample,62094,0,"pA5.wav",37
Sample,62269,0,"A4E53.wav",60
Sample,62269,0,"pB5.wav",37
Sample,62269,0,"soft-hitwhistle10.wav",45
Sample,62269,0,"loop2.wav",70
Sample,62356,0,"loop3.wav",70
Sample,62443,0,"pC#6.wav",58
Sample,62443,0,"soft-hitclap10.wav",45
Sample,62443,0,"loop1.wav",70
Sample,62443,0,"A4E53.wav",60
Sample,62530,0,"loop3.wav",70
Sample,62618,0,"A4E53.wav",60
Sample,62618,0,"pA5.wav",37
Sample,62618,0,"loop2.wav",70
Sample,62705,0,"loop3.wav",70
Sample,62792,0,"pB5.wav",37
Sample,62792,0,"loop1.wav",70
Sample,62792,0,"A4E53.wav",60
Sample,62792,0,"soft-hitwhistle10.wav",45
Sample,62967,0,"loop2.wav",70
Sample,62967,0,"pC#6.wav",58
Sample,62967,0,"A4E53.wav",60
Sample,63054,0,"loop3.wav",70
Sample,63141,0,"loop1.wav",70
Sample,63141,0,"soft-hitclap10.wav",45
Sample,63141,0,"A4E53.wav",60
Sample,63141,0,"pA5.wav",37
Sample,63228,0,"loop3.wav",70
Sample,63315,0,"pB5.wav",37
Sample,63315,0,"loop2.wav",70
Sample,63315,0,"A4E53.wav",60
Sample,63403,0,"loop3.wav",70
Sample,63490,0,"A4E53.wav",60
Sample,63490,0,"pC#6.wav",58
Sample,63490,0,"loop1.wav",70
Sample,63664,0,"soft-hitwhistle10.wav",45
Sample,63664,0,"A4E53.wav",60
Sample,63664,0,"pA5.wav",37
Sample,63664,0,"loop2.wav",70
Sample,63751,0,"loop3.wav",70
Sample,63839,0,"pB5.wav",37
Sample,63839,0,"A4E53.wav",60
Sample,63839,0,"loop1.wav",70
Sample,63839,0,"soft-hitclap10.wav",45
Sample,63926,0,"loop3.wav",70
Sample,64013,0,"A4E53.wav",60
Sample,64013,0,"pC#6.wav",58
Sample,64013,0,"loop2.wav",70
Sample,64100,0,"loop3.wav",70
Sample,64187,0,"A4B5c4.mp3",60
Sample,64187,0,"E4b1.mp3",60
Sample,64187,0,"soft-hitwhistle10.wav",45
Sample,64187,0,"loop1.wav",70
Sample,64187,0,"pB5.wav",58
Sample,64187,0,"E4B43.wav",60
Sample,64362,0,"pF#5.wav",37
Sample,64362,0,"E4B43.wav",60
Sample,64362,0,"loop2.wav",70
Sample,64449,0,"loop3.wav",70
Sample,64536,0,"loop1.wav",70
Sample,64536,0,"E4B43.wav",60
Sample,64536,0,"pG#5.wav",37
Sample,64536,0,"soft-hitclap10.wav",45
Sample,64624,0,"loop3.wav",70
Sample,64711,0,"loop2.wav",70
Sample,64711,0,"E4B43.wav",60
Sample,64711,0,"pB5.wav",58
Sample,64798,0,"loop3.wav",70
Sample,64885,0,"E4B43.wav",60
Sample,64885,0,"loop1.wav",70
Sample,64885,0,"pF#5.wav",37
Sample,65060,0,"loop2.wav",70
Sample,65060,0,"soft-hitwhistle10.wav",45
Sample,65060,0,"E4B43.wav",60
Sample,65060,0,"pG#5.wav",37
Sample,65147,0,"loop3.wav",70
Sample,65234,0,"soft-hitclap10.wav",45
Sample,65234,0,"pB5.wav",58
Sample,65234,0,"loop1.wav",70
Sample,65234,0,"E4B43.wav",60
Sample,65321,0,"loop3.wav",70
Sample,65408,0,"loop2.wav",70
Sample,65408,0,"E4B43.wav",60
Sample,65408,0,"pF#5.wav",37
Sample,65496,0,"loop3.wav",70
Sample,65583,0,"E4B43.wav",60
Sample,65583,0,"soft-hitwhistle10.wav",45
Sample,65583,0,"loop1.wav",70
Sample,65583,0,"pG#5.wav",37
Sample,65757,0,"E4B43.wav",60
Sample,65757,0,"pB5.wav",58
Sample,65757,0,"loop2.wav",70
Sample,65844,0,"loop3.wav",70
Sample,65932,0,"E4B43.wav",60
Sample,65932,0,"soft-hitclap10.wav",45
Sample,65932,0,"loop1.wav",70
Sample,65932,0,"pF#5.wav",37
Sample,66019,0,"loop3.wav",70
Sample,66106,0,"loop2.wav",70
Sample,66106,0,"E4B43.wav",60
Sample,66106,0,"pG#5.wav",37
Sample,66193,0,"loop3.wav",70
Sample,66280,0,"loop1.wav",70
Sample,66280,0,"pB5.wav",58
Sample,66280,0,"E4B43.wav",60
Sample,66455,0,"soft-hitwhistle10.wav",45
Sample,66455,0,"E4B43.wav",60
Sample,66455,0,"pF#5.wav",37
Sample,66455,0,"loop2.wav",70
Sample,66542,0,"loop3.wav",70
Sample,66629,0,"E4B43.wav",60
Sample,66629,0,"soft-hitclap10.wav",45
Sample,66629,0,"pG#5.wav",37
Sample,66629,0,"loop1.wav",70
Sample,66717,0,"loop3.wav",70
Sample,66804,0,"pB5.wav",58
Sample,66804,0,"loop2.wav",70
Sample,66804,0,"E4B43.wav",60
Sample,66804,0,"reverse snare.wav",60
Sample,66891,0,"loop3.wav",70
Sample,66978,0,"A4A5c4.mp3",60
Sample,66978,0,"D4A43.wav",60
Sample,66978,0,"pA5.wav",58
Sample,66978,0,"loop1.wav",50
Sample,66978,0,"D4b1.mp3",60
Sample,66978,0,"soft-hitwhistle10.wav",45
Sample,67153,0,"loop2.wav",50
Sample,67153,0,"pD5.wav",37
Sample,67153,0,"D4A43.wav",60
Sample,67240,0,"loop3.wav",50
Sample,67327,0,"D4A43.wav",60
Sample,67327,0,"pF#5.wav",37
Sample,67327,0,"loop1.wav",50
Sample,67414,0,"loop3.wav",50
Sample,67501,0,"loop2.wav",50
Sample,67501,0,"soft-hitwhistle10.wav",45
Sample,67501,0,"pA5.wav",58
Sample,67501,0,"D4A43.wav",60
Sample,67589,0,"loop3.wav",50
Sample,67676,0,"loop1.wav",50
Sample,67676,0,"pD5.wav",37
Sample,67676,0,"D4A43.wav",60
Sample,67850,0,"pF#5.wav",37
Sample,67850,0,"loop2.wav",50
Sample,67850,0,"D4A43.wav",60
Sample,67937,0,"loop3.wav",50
Sample,68025,0,"pA5.wav",58
Sample,68025,0,"soft-hitwhistle10.wav",45
Sample,68025,0,"D4A43.wav",60
Sample,68025,0,"loop1.wav",50
Sample,68112,0,"loop3.wav",50
Sample,68199,0,"D4A43.wav",60
Sample,68199,0,"pD5.wav",37
Sample,68199,0,"loop2.wav",50
Sample,68286,0,"loop3.wav",50
Sample,68373,0,"pF#5.wav",37
Sample,68373,0,"D4A43.wav",60
Sample,68374,0,"loop1.wav",50
Sample,68548,0,"D4A43.wav",60
Sample,68548,0,"loop2.wav",50
Sample,68548,0,"pA5.wav",58
Sample,68548,0,"soft-hitwhistle10.wav",45
Sample,68635,0,"loop3.wav",50
Sample,68722,0,"D4A43.wav",60
Sample,68722,0,"soft-hitwhistle10.wav",45
Sample,68722,0,"pD5.wav",37
Sample,68722,0,"loop1.wav",50
Sample,68810,0,"loop3.wav",50
Sample,68897,0,"pF#5.wav",37
Sample,68897,0,"loop2.wav",50
Sample,68897,0,"D4A43.wav",60
Sample,68984,0,"loop3.wav",50
Sample,69071,0,"G#4E5c4.mp3",60
Sample,69071,0,"pG#5.wav",58
Sample,69071,0,"loop1.wav",50
Sample,69071,0,"D4A43.wav",60
Sample,69246,0,"D4A43.wav",60
Sample,69246,0,"loop2.wav",50
Sample,69246,0,"pD5.wav",37
Sample,69246,0,"soft-hitwhistle10.wav",45
Sample,69333,0,"loop3.wav",50
Sample,69420,0,"pF#5.wav",37
Sample,69420,0,"D4A43.wav",60
Sample,69420,0,"loop1.wav",50
Sample,69507,0,"loop3.wav",50
Sample,69594,0,"D4A43.wav",60
Sample,69594,0,"loop2.wav",50
Sample,69594,0,"pG#5.wav",58
Sample,69682,0,"loop3.wav",50
Sample,69769,0,"E5A4c5.mp3",60
Sample,69769,0,"E4A3.wav",60
Sample,69769,0,"soft-hitwhistle10.wav",45
Sample,69769,0,"E4b1.mp3",60
Sample,69769,0,"loop1.wav",50
Sample,69769,0,"pA5.wav",58
Sample,69943,0,"loop2.wav",50
Sample,69943,0,"E4A3.wav",60
Sample,69943,0,"pB4.wav",37
Sample,70030,0,"loop3.wav",50
Sample,70118,0,"loop1.wav",50
Sample,70118,0,"pF#5.wav",37
Sample,70118,0,"E4A3.wav",60
Sample,70205,0,"loop3.wav",50
Sample,70292,0,"E4A3.wav",60
Sample,70292,0,"pA5.wav",58
Sample,70292,0,"loop2.wav",50
Sample,70292,0,"soft-hitwhistle10.wav",45
Sample,70379,0,"loop3.wav",50
Sample,70467,0,"E4A3.wav",60
Sample,70467,0,"loop1.wav",50
Sample,70467,0,"pB4.wav",37
Sample,70641,0,"E4A3.wav",60
Sample,70641,0,"pF#5.wav",37
Sample,70641,0,"loop2.wav",50
Sample,70728,0,"loop3.wav",50
Sample,70815,0,"loop1.wav",50
Sample,70815,0,"soft-hitwhistle10.wav",45
Sample,70815,0,"E4A3.wav",60
Sample,70815,0,"pA5.wav",58
Sample,70903,0,"loop3.wav",50
Sample,70990,0,"E4A3.wav",60
Sample,70990,0,"loop2.wav",50
Sample,70990,0,"pB4.wav",37
Sample,71077,0,"loop3.wav",50
Sample,71164,0,"pF#5.wav",37
Sample,71164,0,"loop1.wav",50
Sample,71164,0,"E4A3.wav",60
Sample,71339,0,"soft-hitwhistle10.wav",45
Sample,71339,0,"loop2.wav",50
Sample,71339,0,"E4A3.wav",60
Sample,71339,0,"pA5.wav",58
Sample,71426,0,"loop3.wav",50
Sample,71513,0,"E4A3.wav",60
Sample,71513,0,"soft-hitwhistle10.wav",45
Sample,71513,0,"pB4.wav",37
Sample,71513,0,"loop1.wav",50
Sample,71600,0,"loop3.wav",50
Sample,71687,0,"E4A3.wav",60
Sample,71687,0,"pF#5.wav",37
Sample,71687,0,"loop2.wav",50
Sample,71775,0,"loop3.wav",50
Sample,71862,0,"loop1.wav",50
Sample,71862,0,"E4A3.wav",60
Sample,71862,0,"pA5.wav",58
Sample,72036,0,"pB4.wav",37
Sample,72036,0,"E4A3.wav",60
Sample,72036,0,"loop2.wav",50
Sample,72124,0,"loop3.wav",50
Sample,72211,0,"loop1.wav",50
Sample,72211,0,"soft-hitclap10.wav",45
Sample,72211,0,"pF#5.wav",37
Sample,72211,0,"E4A3.wav",60
Sample,72298,0,"loop3.wav",50
Sample,72385,0,"loop2.wav",50
Sample,72385,0,"E4A3.wav",60
Sample,72385,0,"pA5.wav",58
Sample,72385,0,"reverse snare.wav",60
Sample,72472,0,"loop3.wav",50
Sample,72560,0,"F#4C#53.wav",60
Sample,72560,0,"soft-hitwhistle10.wav",45
Sample,72560,0,"E5G#4c5.mp3",60
Sample,72560,0,"loop1.wav",70
Sample,72560,0,"F#4b1.mp3",60
Sample,72560,0,"pG#5.wav",58
Sample,72734,0,"pE5.wav",37
Sample,72734,0,"loop2.wav",70
Sample,72734,0,"F#4C#53.wav",60
Sample,72821,0,"loop3.wav",70
Sample,72908,0,"F#4C#53.wav",60
Sample,72908,0,"loop1.wav",70
Sample,72908,0,"pF#5.wav",37
Sample,72908,0,"soft-hitclap10.wav",45
Sample,72996,0,"loop3.wav",70
Sample,73083,0,"pG#5.wav",58
Sample,73083,0,"F#4C#53.wav",60
Sample,73083,0,"loop2.wav",70
Sample,73170,0,"loop3.wav",70
Sample,73257,0,"pE5.wav",37
Sample,73257,0,"loop1.wav",70
Sample,73257,0,"F#4C#53.wav",60
Sample,73432,0,"soft-hitwhistle10.wav",45
Sample,73432,0,"F#4C#53.wav",60
Sample,73432,0,"pF#5.wav",37
Sample,73432,0,"loop2.wav",70
Sample,73519,0,"loop3.wav",70
Sample,73606,0,"pG#5.wav",58
Sample,73606,0,"F#4C#53.wav",60
Sample,73606,0,"loop1.wav",70
Sample,73606,0,"soft-hitclap10.wav",45
Sample,73693,0,"loop3.wav",70
Sample,73780,0,"F#4C#53.wav",60
Sample,73780,0,"pE5.wav",37
Sample,73780,0,"loop2.wav",70
Sample,73868,0,"loop3.wav",70
Sample,73955,0,"pF#5.wav",37
Sample,73955,0,"F#4C#53.wav",60
Sample,73955,0,"soft-hitwhistle10.wav",45
Sample,73955,0,"loop1.wav",70
Sample,74129,0,"loop2.wav",70
Sample,74129,0,"pG#5.wav",58
Sample,74129,0,"F#4C#53.wav",60
Sample,74217,0,"loop3.wav",70
Sample,74304,0,"F#4C#53.wav",60
Sample,74304,0,"loop1.wav",70
Sample,74304,0,"soft-hitclap10.wav",45
Sample,74304,0,"pE5.wav",37
Sample,74391,0,"loop3.wav",70
Sample,74478,0,"pF#5.wav",37
Sample,74478,0,"loop2.wav",70
Sample,74478,0,"F#4C#53.wav",60
Sample,74565,0,"loop3.wav",70
Sample,74653,0,"F#4C#53.wav",60
Sample,74653,0,"loop1.wav",70
Sample,74653,0,"pG#5.wav",58
Sample,74827,0,"loop2.wav",70
Sample,74827,0,"pE5.wav",37
Sample,74827,0,"F#4C#53.wav",60
Sample,74827,0,"soft-hitwhistle10.wav",45
Sample,74914,0,"loop3.wav",70
Sample,75001,0,"soft-hitclap10.wav",45
Sample,75001,0,"F#4C#53.wav",60
Sample,75001,0,"pF#5.wav",37
Sample,75001,0,"loop1.wav",70
Sample,75089,0,"loop3.wav",70
Sample,75176,0,"F#4C#53.wav",60
Sample,75176,0,"loop2.wav",70
Sample,75176,0,"pG#5.wav",58
Sample,75263,0,"loop3.wav",70
Sample,75350,0,"E4b1.mp3",60
Sample,75350,0,"soft-hitwhistle10.wav",45
Sample,75350,0,"E5B4c5.mp3",60
Sample,75350,0,"loop1.wav",70
Sample,75350,0,"pB5.wav",58
Sample,75350,0,"E4B43.wav",60
Sample,75525,0,"pF#5.wav",37
Sample,75525,0,"E4B43.wav",60
Sample,75525,0,"loop2.wav",70
Sample,75612,0,"loop3.wav",70
Sample,75699,0,"E4B43.wav",60
Sample,75699,0,"loop1.wav",70
Sample,75699,0,"pG#5.wav",37
Sample,75699,0,"soft-hitclap10.wav",45
Sample,75786,0,"loop3.wav",70
Sample,75873,0,"pB5.wav",58
Sample,75873,0,"E4B43.wav",60
Sample,75874,0,"loop2.wav",70
Sample,75961,0,"loop3.wav",70
Sample,76048,0,"loop1.wav",70
Sample,76048,0,"pF#5.wav",37
Sample,76048,0,"E4B43.wav",60
Sample,76222,0,"pG#5.wav",37
Sample,76222,0,"E4B43.wav",60
Sample,76222,0,"loop2.wav",70
Sample,76222,0,"soft-hitwhistle10.wav",45
Sample,76310,0,"loop3.wav",70
Sample,76397,0,"loop1.wav",70
Sample,76397,0,"soft-hitclap10.wav",45
Sample,76397,0,"pB5.wav",58
Sample,76397,0,"E4B43.wav",60
Sample,76484,0,"loop3.wav",70
Sample,76571,0,"E4B43.wav",60
Sample,76571,0,"pF#5.wav",37
Sample,76571,0,"loop2.wav",70
Sample,76658,0,"loop3.wav",70
Sample,76746,0,"pG#5.wav",37
Sample,76746,0,"E4B43.wav",60
Sample,76746,0,"soft-hitwhistle10.wav",45
Sample,76746,0,"loop1.wav",70
Sample,76920,0,"pB5.wav",58
Sample,76920,0,"loop2.wav",70
Sample,76920,0,"E4B43.wav",60
Sample,77007,0,"loop3.wav",70
Sample,77094,0,"pF#5.wav",37
Sample,77094,0,"soft-hitclap10.wav",45
Sample,77094,0,"loop1.wav",70
Sample,77094,0,"E4B43.wav",60
Sample,77182,0,"loop3.wav",70
Sample,77269,0,"loop2.wav",70
Sample,77269,0,"pG#5.wav",37
Sample,77269,0,"E4B43.wav",60
Sample,77356,0,"loop3.wav",70
Sample,77443,0,"pB5.wav",58
Sample,77443,0,"E4B43.wav",60
Sample,77443,0,"loop1.wav",70
Sample,77618,0,"soft-hitwhistle10.wav",45
Sample,77618,0,"loop2.wav",70
Sample,77618,0,"E4B43.wav",60
Sample,77618,0,"pF#5.wav",37
Sample,77705,0,"loop3.wav",70
Sample,77792,0,"loop1.wav",70
Sample,77792,0,"E4B43.wav",60
Sample,77792,0,"pG#5.wav",37
Sample,77792,0,"soft-hitclap10.wav",45
Sample,77879,0,"loop3.wav",70
Sample,77967,0,"loop2.wav",70
Sample,77967,0,"pB5.wav",58
Sample,77967,0,"E4B43.wav",60
Sample,78054,0,"loop3.wav",70
Sample,78141,0,"loop1.wav",70
Sample,78141,0,"E5A4c5.mp3",60
Sample,78141,0,"D4b1.mp3",60
Sample,78141,0,"pA5.wav",58
Sample,78141,0,"D4A43.wav",60
Sample,78141,0,"soft-hitwhistle10.wav",45
Sample,78315,0,"D4A43.wav",60
Sample,78315,0,"pE5.wav",37
Sample,78315,0,"loop2.wav",70
Sample,78403,0,"loop3.wav",70
Sample,78490,0,"loop1.wav",70
Sample,78490,0,"pF#5.wav",37
Sample,78490,0,"soft-hitclap10.wav",45
Sample,78490,0,"D4A43.wav",60
Sample,78577,0,"loop3.wav",70
Sample,78664,0,"loop2.wav",70
Sample,78664,0,"D4A43.wav",60
Sample,78664,0,"pA5.wav",58
Sample,78751,0,"loop3.wav",70
Sample,78839,0,"D4A43.wav",60
Sample,78839,0,"pE5.wav",37
Sample,78839,0,"loop1.wav",70
Sample,79013,0,"loop2.wav",70
Sample,79013,0,"D4A43.wav",60
Sample,79013,0,"pF#5.wav",37
Sample,79013,0,"soft-hitwhistle10.wav",45
Sample,79100,0,"loop3.wav",70
Sample,79187,0,"D4A43.wav",60
Sample,79187,0,"pA5.wav",58
Sample,79187,0,"loop1.wav",70
Sample,79187,0,"soft-hitclap10.wav",45
Sample,79275,0,"loop3.wav",70
Sample,79362,0,"loop2.wav",70
Sample,79362,0,"D4A43.wav",60
Sample,79362,0,"pE5.wav",37
Sample,79449,0,"loop3.wav",70
Sample,79536,0,"soft-hitwhistle10.wav",45
Sample,79536,0,"loop1.wav",70
Sample,79536,0,"pF#5.wav",37
Sample,79536,0,"D4B43.wav",60
Sample,79711,0,"pA5.wav",58
Sample,79711,0,"loop2.wav",70
Sample,79711,0,"D4B43.wav",60
Sample,79798,0,"loop3.wav",70
Sample,79885,0,"pE5.wav",37
Sample,79885,0,"loop1.wav",70
Sample,79885,0,"D4B43.wav",60
Sample,79885,0,"soft-hitclap10.wav",45
Sample,79972,0,"loop3.wav",70
Sample,80060,0,"loop2.wav",70
Sample,80060,0,"D4B43.wav",60
Sample,80060,0,"pF#5.wav",37
Sample,80147,0,"loop3.wav",70
Sample,80234,0,"loop1.wav",70
Sample,80234,0,"D4B43.wav",60
Sample,80234,0,"pA5.wav",58
Sample,80408,0,"D4B43.wav",60
Sample,80408,0,"soft-hitwhistle10.wav",45
Sample,80408,0,"pE5.wav",37
Sample,80408,0,"loop2.wav",70
Sample,80496,0,"loop3.wav",70
Sample,80583,0,"soft-hitclap10.wav",45
Sample,80583,0,"pF#5.wav",37
Sample,80583,0,"loop1.wav",70
Sample,80583,0,"D4B43.wav",60
Sample,80670,0,"loop3.wav",70
Sample,80757,0,"loop2.wav",70
Sample,80757,0,"pA5.wav",58
Sample,80757,0,"D4B43.wav",60
Sample,80844,0,"loop3.wav",70
Sample,80932,0,"loop1.wav",70
Sample,80932,0,"E5C#5c5.mp3",60
Sample,80932,0,"B3F#4.wav",60
Sample,80932,0,"B3b1.mp3",60
Sample,80932,0,"soft-hitwhistle10.wav",45
Sample,80932,0,"pC#6.wav",58
Sample,81106,0,"loop2.wav",70
Sample,81106,0,"B3F#4.wav",60
Sample,81106,0,"pA5.wav",37
Sample,81193,0,"loop3.wav",70
Sample,81280,0,"pB5.wav",37
Sample,81280,0,"B3F#4.wav",60
Sample,81280,0,"loop1.wav",70
Sample,81280,0,"soft-hitclap10.wav",45
Sample,81368,0,"loop3.wav",70
Sample,81455,0,"B3F#4.wav",60
Sample,81455,0,"loop2.wav",70
Sample,81455,0,"pC#6.wav",58
Sample,81542,0,"loop3.wav",70
Sample,81629,0,"loop1.wav",70
Sample,81629,0,"pA5.wav",37
Sample,81629,0,"B3F#4.wav",60
Sample,81804,0,"loop2.wav",70
Sample,81804,0,"pB5.wav",37
Sample,81804,0,"B3F#4.wav",60
Sample,81804,0,"soft-hitwhistle10.wav",45
Sample,81891,0,"loop3.wav",70
Sample,81978,0,"pC#6.wav",58
Sample,81978,0,"loop1.wav",70
Sample,81978,0,"B3F#4.wav",60
Sample,81978,0,"soft-hitclap10.wav",45
Sample,82065,0,"loop3.wav",70
Sample,82153,0,"loop2.wav",70
Sample,82153,0,"B3F#4.wav",60
Sample,82153,0,"pA5.wav",37
Sample,82240,0,"loop3.wav",70
Sample,82327,0,"loop1.wav",70
Sample,82327,0,"soft-hitwhistle10.wav",45
Sample,82327,0,"B3F#4.wav",60
Sample,82327,0,"pB5.wav",37
Sample,82501,0,"pC#6.wav",58
Sample,82501,0,"loop2.wav",70
Sample,82501,0,"B3F#4.wav",60
Sample,82589,0,"loop3.wav",70
Sample,82676,0,"B3F#4.wav",60
Sample,82676,0,"pA5.wav",37
Sample,82676,0,"loop1.wav",70
Sample,82676,0,"soft-hitclap10.wav",45
Sample,82763,0,"loop3.wav",70
Sample,82850,0,"B3F#4.wav",60
Sample,82850,0,"loop2.wav",70
Sample,82850,0,"pB5.wav",37
Sample,82937,0,"loop3.wav",70
Sample,83025,0,"B3F#4.wav",60
Sample,83025,0,"loop1.wav",70
Sample,83025,0,"pC#6.wav",58
Sample,83199,0,"soft-hitwhistle10.wav",45
Sample,83199,0,"loop2.wav",70
Sample,83199,0,"pA5.wav",37
Sample,83199,0,"B3F#4.wav",60
Sample,83286,0,"loop3.wav",70
Sample,83373,0,"soft-hitclap10.wav",45
Sample,83373,0,"B3F#4.wav",60
Sample,83373,0,"pB5.wav",37
Sample,83374,0,"loop1.wav",70
Sample,83461,0,"loop3.wav",70
Sample,83548,0,"B3F#4.wav",60
Sample,83548,0,"reverse snare.wav",60
Sample,83548,0,"loop2.wav",70
Sample,83548,0,"pC#6.wav",58
Sample,83635,0,"loop3.wav",70
Sample,83722,0,"D4b1.mp3",60
Sample,83722,0,"white noise up.mp3",50
Sample,83722,0,"D4A43.wav",60
Sample,83722,0,"soft-hitwhistle10.wav",45
Sample,83722,0,"A5E5c5.mp3",60
Sample,83722,0,"pE6.wav",58
Sample,83897,0,"D4A43.wav",60
Sample,83897,0,"pB5.wav",37
Sample,84071,0,"D4A43.wav",60
Sample,84071,0,"soft-hitwhistle10.wav",45
Sample,84071,0,"pC#6.wav",37
Sample,84246,0,"pE6.wav",58
Sample,84246,0,"D4A43.wav",60
Sample,84420,0,"D4A43.wav",60
Sample,84420,0,"soft-hitwhistle10.wav",45
Sample,84420,0,"pB5.wav",37
Sample,84594,0,"pC#6.wav",37
Sample,84594,0,"D4A43.wav",60
Sample,84769,0,"pE6.wav",58
Sample,84769,0,"D4A43.wav",60
Sample,84769,0,"soft-hitwhistle10.wav",45
Sample,84943,0,"pB5.wav",37
Sample,84943,0,"D4A43.wav",60
Sample,85118,0,"D4A43.wav",60
Sample,85118,0,"soft-hitwhistle10.wav",45
Sample,85118,0,"pC#6.wav",37
Sample,85292,0,"pE6.wav",58
Sample,85292,0,"D4A43.wav",60
Sample,85467,0,"pB5.wav",37
Sample,85467,0,"soft-hitwhistle10.wav",45
Sample,85467,0,"D4A43.wav",60
Sample,85641,0,"D4A43.wav",60
Sample,85641,0,"pC#6.wav",37
Sample,85815,0,"pE6.wav",58
Sample,85815,0,"D4A43.wav",60
Sample,85815,0,"soft-hitwhistle10.wav",45
Sample,85990,0,"pB5.wav",37
Sample,85990,0,"D4A43.wav",60
Sample,86164,0,"pC#6.wav",37
Sample,86164,0,"D4A43.wav",60
Sample,86164,0,"soft-hitwhistle10.wav",45
Sample,86339,0,"D4A43.wav",60
Sample,86339,0,"pE6.wav",58
Sample,86513,0,"E6B5c5.mp3",60
Sample,86513,0,"soft-hitwhistle10.wav",45
Sample,86513,0,"pA6.wav",58
Sample,86513,0,"E4B43.wav",60
Sample,86513,0,"E4b1.mp3",60
Sample,86687,0,"soft-hitwhistle10.wav",45
Sample,86687,0,"E4B43.wav",60
Sample,86687,0,"pE6.wav",37
Sample,86862,0,"pF#6.wav",37
Sample,86862,0,"E4B43.wav",60
Sample,86862,0,"soft-hitwhistle10.wav",45
Sample,87036,0,"E4B43.wav",60
Sample,87036,0,"soft-hitwhistle10.wav",45
Sample,87036,0,"pA6.wav",58
Sample,87211,0,"soft-hitwhistle10.wav",45
Sample,87211,0,"pE6.wav",37
Sample,87211,0,"E4B43.wav",60
Sample,87385,0,"pF#6.wav",37
Sample,87385,0,"E4B43.wav",60
Sample,87385,0,"soft-hitwhistle9.wav",61
Sample,87385,0,"soft-hitwhistle10.wav",45
Sample,87560,0,"soft-hitwhistle10.wav",45
Sample,87560,0,"E4B43.wav",60
Sample,87560,0,"pA6.wav",58
Sample,87734,0,"soft-hitwhistle10.wav",45
Sample,87734,0,"pE6.wav",37
Sample,87734,0,"E4B43.wav",60
Sample,87908,0,"soft-hitwhistle9.wav",20
Sample,87908,0,"soft-hitwhistle10.wav",45
Sample,87908,0,"E4B43.wav",60
Sample,87908,0,"pF#6.wav",37
Sample,87996,0,"soft-hitwhistle9.wav",25
Sample,88083,0,"pA6.wav",58
Sample,88083,0,"soft-hitwhistle9.wav",30
Sample,88083,0,"E4B43.wav",60
Sample,88170,0,"soft-hitwhistle9.wav",35
Sample,88257,0,"pE6.wav",37
Sample,88257,0,"soft-hitwhistle9.wav",40
Sample,88257,0,"E4B43.wav",60
Sample,88344,0,"soft-hitwhistle9.wav",45
Sample,88432,0,"pF#6.wav",37
Sample,88432,0,"E4B43.wav",60
Sample,88432,0,"soft-hitwhistle9.wav",47
Sample,88519,0,"soft-hitwhistle9.wav",49
Sample,88606,0,"pA6.wav",58
Sample,88606,0,"soft-hitwhistle9.wav",51
Sample,88606,0,"E4B43.wav",60
Sample,88693,0,"soft-hitwhistle9.wav",53
Sample,88780,0,"pE6.wav",37
Sample,88780,0,"E4B43.wav",60
Sample,88780,0,"soft-hitwhistle9.wav",55
Sample,88868,0,"soft-hitwhistle9.wav",57
Sample,88955,0,"soft-hitwhistle9.wav",59
Sample,88955,0,"E4B43.wav",60
Sample,88955,0,"pF#6.wav",37
Sample,89129,0,"E4B43.wav",60
Sample,89129,0,"soft-hitwhistle9.wav",63
Sample,89129,0,"pB6.wav",58
Sample,90525,0,"R1.wav",60
Sample,90612,0,"R2.wav",60
Sample,90699,0,"R3.wav",60
Sample,90786,0,"R4.wav",70
Sample,90874,0,"R5.wav",70
Sample,90961,0,"R6.wav",70
Sample,91048,0,"R7.wav",75
Sample,91135,0,"R8.wav",75
Sample,91222,0,"R9.wav",75
Sample,91310,0,"R10.wav",80
Sample,91397,0,"R11.wav",80
Sample,91484,0,"R12.wav",80
Sample,91571,0,"R13.wav",90
Sample,91658,0,"R14.wav",90
Sample,91746,0,"reverse snare2.wav",60
Sample,91920,0,"reverse snare.wav",60
Sample,92094,0,"white noise down.mp3",50
Sample,92094,0,"kick impact",60
Sample,92094,0,"G#5D#54.wav",60
Sample,92094,0,"G#4b2.mp3",60
Sample,92094,0,"soft-hitwhistle10.wav",45
Sample,92094,0,"loop1.wav",75
Sample,92094,0,"D#5G#4c6.mp3",60
Sample,92269,0,"loop2.wav",75
Sample,92269,0,"G#5D#54.wav",60
Sample,92356,0,"loop3.wav",75
Sample,92443,0,"soft-hitclap10.wav",45
Sample,92443,0,"loop1.wav",75
Sample,92443,0,"G#5D#54.wav",60
Sample,92530,0,"loop3.wav",75
Sample,92618,0,"loop2.wav",75
Sample,92618,0,"G#5D#54.wav",60
Sample,92705,0,"loop3.wav",75
Sample,92792,0,"loop1.wav",75
Sample,92792,0,"G#5D#54.wav",60
Sample,92967,0,"soft-hitwhistle10.wav",45
Sample,92967,0,"loop2.wav",75
Sample,92967,0,"G#5D#54.wav",60
Sample,93054,0,"loop3.wav",75
Sample,93141,0,"loop1.wav",75
Sample,93141,0,"G#5D#54.wav",60
Sample,93141,0,"soft-hitclap10.wav",45
Sample,93228,0,"loop3.wav",75
Sample,93315,0,"G#5D#54.wav",60
Sample,93315,0,"loop2.wav",75
Sample,93403,0,"loop3.wav",75
Sample,93490,0,"A#4b2.mp3",60
Sample,93490,0,"soft-hitwhistle10.wav",45
Sample,93490,0,"F5A#4c6.mp3",60
Sample,93490,0,"loop1.wav",75
Sample,93490,0,"A#5D#54.wav",60
Sample,93664,0,"A#5D#54.wav",60
Sample,93664,0,"loop2.wav",75
Sample,93751,0,"loop3.wav",75
Sample,93839,0,"soft-hitclap10.wav",45
Sample,93839,0,"A#5D#54.wav",60
Sample,93839,0,"loop1.wav",75
Sample,93926,0,"loop3.wav",75
Sample,94013,0,"A#5D#54.wav",60
Sample,94013,0,"loop2.wav",75
Sample,94100,0,"loop3.wav",75
Sample,94187,0,"loop1.wav",75
Sample,94187,0,"A#5D#54.wav",60
Sample,94362,0,"A#5D#54.wav",60
Sample,94362,0,"soft-hitwhistle10.wav",45
Sample,94362,0,"loop2.wav",75
Sample,94449,0,"loop3.wav",75
Sample,94536,0,"loop1.wav",75
Sample,94536,0,"A#5D#54.wav",60
Sample,94536,0,"soft-hitclap10.wav",45
Sample,94624,0,"loop3.wav",75
Sample,94711,0,"A#5D#54.wav",60
Sample,94711,0,"loop2.wav",75
Sample,94798,0,"loop3.wav",75
Sample,94885,0,"A#5D#5c6.mp3",60
Sample,94885,0,"D#5b2.mp3",60
Sample,94885,0,"loop1.wav",75
Sample,94885,0,"soft-hitwhistle10.wav",45
Sample,95060,0,"loop2.wav",75
Sample,95147,0,"loop3.wav",75
Sample,95234,0,"loop1.wav",75
Sample,95234,0,"soft-hitclap10.wav",45
Sample,95321,0,"loop3.wav",75
Sample,95408,0,"loop2.wav",75
Sample,95496,0,"loop3.wav",75
Sample,95583,0,"loop1.wav",75
Sample,95757,0,"loop2.wav",75
Sample,95757,0,"soft-hitwhistle10.wav",45
Sample,95844,0,"loop3.wav",75
Sample,95932,0,"loop1.wav",75
Sample,95932,0,"soft-hitclap10.wav",45
Sample,96019,0,"loop3.wav",75
Sample,96106,0,"loop2.wav",75
Sample,96193,0,"loop3.wav",75
Sample,96280,0,"loop1.wav",75
Sample,96280,0,"G#5C5c6.mp3",60
Sample,96280,0,"soft-hitwhistle10.wav",45
Sample,96280,0,"G#4sb2.mp3",60
Sample,96455,0,"loop2.wav",75
Sample,96542,0,"loop3.wav",75
Sample,96629,0,"loop1.wav",75
Sample,96629,0,"soft-hitclap10.wav",45
Sample,96717,0,"loop3.wav",75
Sample,96804,0,"loop2.wav",75
Sample,96891,0,"loop3.wav",75
Sample,96978,0,"loop1.wav",75
Sample,96978,0,"A#5c6.mp3",60
Sample,96978,0,"G4sb2.mp3",60
Sample,97153,0,"soft-hitwhistle10.wav",45
Sample,97153,0,"loop2.wav",75
Sample,97240,0,"loop3.wav",75
Sample,97327,0,"soft-hitclap10.wav",45
Sample,97327,0,"loop1.wav",75
Sample,97414,0,"loop3.wav",75
Sample,97501,0,"loop2.wav",75
Sample,97589,0,"loop3.wav",75
Sample,97676,0,"loop1.wav",75
Sample,97676,0,"F4b2.mp3",60
Sample,97676,0,"D#5G#4c6.mp3",60
Sample,97676,0,"soft-hitwhistle10.wav",45
Sample,97676,0,"C6F54.wav",60
Sample,97850,0,"loop2.wav",75
Sample,97850,0,"C6F54.wav",60
Sample,97937,0,"loop3.wav",75
Sample,98025,0,"C6F54.wav",60
Sample,98025,0,"loop1.wav",75
Sample,98025,0,"soft-hitclap10.wav",45
Sample,98112,0,"loop3.wav",75
Sample,98199,0,"loop2.wav",75
Sample,98199,0,"C6F54.wav",60
Sample,98286,0,"loop3.wav",75
Sample,98373,0,"C6F54.wav",60
Sample,98374,0,"loop1.wav",75
Sample,98548,0,"loop2.wav",75
Sample,98548,0,"soft-hitwhistle10.wav",45
Sample,98548,0,"C6F54.wav",60
Sample,98635,0,"loop3.wav",75
Sample,98722,0,"C6F54.wav",60
Sample,98722,0,"soft-hitclap10.wav",45
Sample,98722,0,"loop1.wav",75
Sample,98810,0,"loop3.wav",75
Sample,98897,0,"loop2.wav",75
Sample,98897,0,"C6F54.wav",60
Sample,98984,0,"loop3.wav",75
Sample,99071,0,"C#4b2.mp3",60
Sample,99071,0,"G#5C#54.wav",60
Sample,99071,0,"A#4F4c6.mp3",60
Sample,99071,0,"loop1.wav",75
Sample,99071,0,"soft-hitwhistle10.wav",45
Sample,99246,0,"G#5C#54.wav",60
Sample,99246,0,"loop2.wav",75
Sample,99333,0,"loop3.wav",75
Sample,99420,0,"soft-hitclap10.wav",45
Sample,99420,0,"loop1.wav",75
Sample,99420,0,"G#5C#54.wav",60
Sample,99507,0,"loop3.wav",75
Sample,99594,0,"G#5C#54.wav",60
Sample,99594,0,"loop2.wav",75
Sample,99682,0,"loop3.wav",75
Sample,99769,0,"loop1.wav",75
Sample,99769,0,"G#5C#54.wav",60
Sample,99943,0,"G#5C#54.wav",60
Sample,99943,0,"loop2.wav",75
Sample,99943,0,"soft-hitwhistle10.wav",45
Sample,100030,0,"loop3.wav",75
Sample,100118,0,"G#5C#54.wav",60
Sample,100118,0,"loop1.wav",75
Sample,100118,0,"soft-hitclap10.wav",45
Sample,100205,0,"loop3.wav",75
Sample,100292,0,"loop2.wav",75
Sample,100292,0,"G#5C#54.wav",60
Sample,100379,0,"loop3.wav",75
Sample,100467,0,"loop1.wav",75
Sample,100467,0,"D#4b2.mp3",60
Sample,100467,0,"soft-hitwhistle10.wav",45
Sample,100467,0,"F5A#4c6.mp3",60
Sample,100467,0,"A#5D#54.wav",60
Sample,100641,0,"loop2.wav",75
Sample,100641,0,"A#5D#54.wav",60
Sample,100728,0,"loop3.wav",75
Sample,100815,0,"soft-hitclap10.wav",45
Sample,100815,0,"A#5D#54.wav",60
Sample,100815,0,"loop1.wav",75
Sample,100903,0,"loop3.wav",75
Sample,100990,0,"A#5D#54.wav",60
Sample,100990,0,"loop2.wav",75
Sample,101077,0,"loop3.wav",75
Sample,101164,0,"A#5D#54.wav",60
Sample,101164,0,"loop1.wav",75
Sample,101339,0,"soft-hitwhistle10.wav",45
Sample,101339,0,"loop2.wav",75
Sample,101339,0,"A#5D#54.wav",60
Sample,101426,0,"loop3.wav",75
Sample,101513,0,"soft-hitclap10.wav",45
Sample,101513,0,"loop1.wav",75
Sample,101513,0,"A#5D#54.wav",60
Sample,101600,0,"loop3.wav",75
Sample,101687,0,"loop2.wav",75
Sample,101687,0,"A#5D#54.wav",60
Sample,101775,0,"loop3.wav",75
Sample,101862,0,"soft-hitwhistle10.wav",45
Sample,101862,0,"G#4sb2.mp3",60
Sample,101862,0,"loop1.wav",75
Sample,101862,0,"soft-hitclap8.wav",45
Sample,101862,0,"G#54.wav",60
Sample,101862,0,"G#4D#4c6.mp3",60
Sample,102036,0,"loop2.wav",75
Sample,102036,0,"G#54.wav",60
Sample,102124,0,"loop3.wav",75
Sample,102211,0,"G#54.wav",60
Sample,102211,0,"soft-hitclap8.wav",45
Sample,102211,0,"loop1.wav",75
Sample,102211,0,"soft-hitclap10.wav",45
Sample,102298,0,"loop3.wav",75
Sample,102385,0,"loop2.wav",75
Sample,102385,0,"G#54.wav",60
Sample,102472,0,"loop3.wav",75
Sample,102560,0,"loop1.wav",75
Sample,102560,0,"soft-hitclap10.wav",45
Sample,102560,0,"soft-hitclap8.wav",45
Sample,102560,0,"G4sb2.mp3",60
Sample,102560,0,"G54.wav",60
Sample,102734,0,"G54.wav",60
Sample,102734,0,"soft-hitwhistle10",85
Sample,102734,0,"loop2.wav",75
Sample,102821,0,"soft-hitwhistle10",85
Sample,102821,0,"loop3.wav",75
Sample,102908,0,"G54.wav",60
Sample,102908,0,"soft-hitclap10.wav",45
Sample,102908,0,"loop1.wav",75
Sample,102996,0,"loop3.wav",75
Sample,103083,0,"G54.wav",60
Sample,103083,0,"loop2.wav",75
Sample,103083,0,"reverse snare3.wav",60
Sample,103170,0,"loop3.wav",75
Sample,103257,0,"loop1.wav",75
Sample,103257,0,"G#4b2.mp3",60
Sample,103257,0,"D#5G#4c6.mp3",60
Sample,103257,0,"G#5D#54.wav",60
Sample,103257,0,"soft-hitwhistle10.wav",45
Sample,103432,0,"loop2.wav",75
Sample,103432,0,"G#5D#54.wav",60
Sample,103519,0,"loop3.wav",75
Sample,103606,0,"loop1.wav",75
Sample,103606,0,"soft-hitclap10.wav",45
Sample,103606,0,"G#5D#54.wav",60
Sample,103693,0,"loop3.wav",75
Sample,103780,0,"G#5D#54.wav",60
Sample,103780,0,"loop2.wav",75
Sample,103868,0,"loop3.wav",75
Sample,103955,0,"G#5D#54.wav",60
Sample,103955,0,"loop1.wav",75
Sample,104129,0,"loop2.wav",75
Sample,104129,0,"G#5D#54.wav",60
Sample,104129,0,"soft-hitwhistle10.wav",45
Sample,104217,0,"loop3.wav",75
Sample,104304,0,"G#5D#54.wav",60
Sample,104304,0,"soft-hitclap10.wav",45
Sample,104304,0,"loop1.wav",75
Sample,104391,0,"loop3.wav",75
Sample,104478,0,"loop2.wav",75
Sample,104478,0,"G#5D#54.wav",60
Sample,104565,0,"loop3.wav",75
Sample,104653,0,"F5A#4c6.mp3",60
Sample,104653,0,"soft-hitwhistle10.wav",45
Sample,104653,0,"loop1.wav",75
Sample,104653,0,"A#4b2.mp3",60
Sample,104653,0,"A#5D#54.wav",60
Sample,104827,0,"loop2.wav",75
Sample,104827,0,"A#5D#54.wav",60
Sample,104914,0,"loop3.wav",75
Sample,105001,0,"A#5D#54.wav",60
Sample,105001,0,"loop1.wav",75
Sample,105001,0,"soft-hitclap10.wav",45
Sample,105089,0,"loop3.wav",75
Sample,105176,0,"A#5D#54.wav",60
Sample,105176,0,"loop2.wav",75
Sample,105263,0,"loop3.wav",75
Sample,105350,0,"A#5D#54.wav",60
Sample,105350,0,"loop1.wav",75
Sample,105525,0,"loop2.wav",75
Sample,105525,0,"A#5D#54.wav",60
Sample,105525,0,"soft-hitwhistle10.wav",45
Sample,105612,0,"loop3.wav",75
Sample,105699,0,"soft-hitclap10.wav",45
Sample,105699,0,"A#5D#54.wav",60
Sample,105699,0,"loop1.wav",75
Sample,105786,0,"loop3.wav",75
Sample,105873,0,"A#5D#54.wav",60
Sample,105874,0,"loop2.wav",75
Sample,105961,0,"loop3.wav",75
Sample,106048,0,"loop1.wav",75
Sample,106048,0,"A#5D#5c6.mp3",60
Sample,106048,0,"soft-hitwhistle10.wav",45
Sample,106048,0,"D#5b2.mp3",60
Sample,106222,0,"loop2.wav",75
Sample,106310,0,"loop3.wav",75
Sample,106397,0,"loop1.wav",75
Sample,106397,0,"soft-hitclap10.wav",45
Sample,106484,0,"loop3.wav",75
Sample,106571,0,"loop2.wav",75
Sample,106658,0,"loop3.wav",75
Sample,106746,0,"loop1.wav",75
Sample,106920,0,"loop2.wav",75
Sample,106920,0,"soft-hitwhistle10.wav",45
Sample,107007,0,"loop3.wav",75
Sample,107094,0,"loop1.wav",75
Sample,107094,0,"soft-hitclap10.wav",45
Sample,107182,0,"loop3.wav",75
Sample,107269,0,"loop2.wav",75
Sample,107356,0,"loop3.wav",75
Sample,107443,0,"soft-hitwhistle10.wav",45
Sample,107443,0,"G#4sb2.mp3",60
Sample,107443,0,"loop1.wav",75
Sample,107443,0,"G#5C5c6.mp3",60
Sample,107618,0,"loop2.wav",75
Sample,107705,0,"loop3.wav",75
Sample,107792,0,"soft-hitclap10.wav",45
Sample,107792,0,"loop1.wav",75
Sample,107879,0,"loop3.wav",75
Sample,107967,0,"loop2.wav",75
Sample,108054,0,"loop3.wav",75
Sample,108141,0,"G4sb2.mp3",60
Sample,108141,0,"A#5c6.mp3",60
Sample,108141,0,"loop1.wav",75
Sample,108315,0,"soft-hitwhistle10.wav",45
Sample,108315,0,"loop2.wav",75
Sample,108403,0,"loop3.wav",75
Sample,108490,0,"loop1.wav",75
Sample,108490,0,"soft-hitclap10.wav",45
Sample,108577,0,"loop3.wav",75
Sample,108664,0,"loop2.wav",75
Sample,108751,0,"loop3.wav",75
Sample,108839,0,"C6F54.wav",60
Sample,108839,0,"loop1.wav",75
Sample,108839,0,"soft-hitwhistle10.wav",45
Sample,108839,0,"D#5G#4c6.mp3",60
Sample,108839,0,"F4b2.mp3",60
Sample,109013,0,"C6F54.wav",60
Sample,109013,0,"loop2.wav",75
Sample,109100,0,"loop3.wav",75
Sample,109187,0,"loop1.wav",75
Sample,109187,0,"C6F54.wav",60
Sample,109187,0,"soft-hitclap10.wav",45
Sample,109275,0,"loop3.wav",75
Sample,109362,0,"loop2.wav",75
Sample,109362,0,"C6F54.wav",60
Sample,109449,0,"loop3.wav",75
Sample,109536,0,"C6F54.wav",60
Sample,109536,0,"loop1.wav",75
Sample,109711,0,"soft-hitwhistle10.wav",45
Sample,109711,0,"C6F54.wav",60
Sample,109711,0,"loop2.wav",75
Sample,109798,0,"loop3.wav",75
Sample,109885,0,"soft-hitclap10.wav",45
Sample,109885,0,"loop1.wav",75
Sample,109885,0,"C6F54.wav",60
Sample,109972,0,"loop3.wav",75
Sample,110060,0,"loop2.wav",75
Sample,110060,0,"C6F54.wav",60
Sample,110147,0,"loop3.wav",75
Sample,110234,0,"A#4F4c6.mp3",60
Sample,110234,0,"loop1.wav",75
Sample,110234,0,"soft-hitwhistle10.wav",45
Sample,110234,0,"G#5C#54.wav",60
Sample,110234,0,"C#4b2.mp3",60
Sample,110408,0,"loop2.wav",75
Sample,110408,0,"G#5C#54.wav",60
Sample,110496,0,"loop3.wav",75
Sample,110583,0,"soft-hitclap10.wav",45
Sample,110583,0,"loop1.wav",75
Sample,110583,0,"G#5C#54.wav",60
Sample,110670,0,"loop3.wav",75
Sample,110757,0,"G#5C#54.wav",60
Sample,110757,0,"loop2.wav",75
Sample,110844,0,"loop3.wav",75
Sample,110932,0,"G#5C#54.wav",60
Sample,110932,0,"loop1.wav",75
Sample,111106,0,"G#5C#54.wav",60
Sample,111106,0,"soft-hitwhistle10.wav",45
Sample,111106,0,"loop2.wav",75
Sample,111193,0,"loop3.wav",75
Sample,111280,0,"loop1.wav",75
Sample,111280,0,"soft-hitclap10.wav",45
Sample,111280,0,"G#5C#54.wav",60
Sample,111368,0,"loop3.wav",75
Sample,111455,0,"loop2.wav",75
Sample,111455,0,"G#5C#54.wav",60
Sample,111542,0,"loop3.wav",75
Sample,111629,0,"F5A#4c6.mp3",60
Sample,111629,0,"A#5D#54.wav",60
Sample,111629,0,"D#4b2.mp3",60
Sample,111629,0,"soft-hitwhistle10.wav",45
Sample,111629,0,"loop1.wav",75
Sample,111804,0,"A#5D#54.wav",60
Sample,111804,0,"loop2.wav",75
Sample,111891,0,"loop3.wav",75
Sample,111978,0,"A#5D#54.wav",60
Sample,111978,0,"soft-hitclap10.wav",45
Sample,111978,0,"loop1.wav",75
Sample,112065,0,"loop3.wav",75
Sample,112153,0,"A#5D#54.wav",60
Sample,112153,0,"loop2.wav",75
Sample,112240,0,"loop3.wav",75
Sample,112327,0,"loop1.wav",75
Sample,112327,0,"A#5D#54.wav",60
Sample,112501,0,"soft-hitwhistle10.wav",45
Sample,112501,0,"loop2.wav",75
Sample,112501,0,"A#5D#54.wav",60
Sample,112589,0,"loop3.wav",75
Sample,112676,0,"loop1.wav",75
Sample,112676,0,"A#5D#54.wav",60
Sample,112676,0,"soft-hitclap10.wav",45
Sample,112763,0,"loop3.wav",75
Sample,112850,0,"A#5D#54.wav",60
Sample,112850,0,"loop2.wav",75
Sample,112937,0,"loop3.wav",75
Sample,113025,0,"G#54.wav",45
Sample,113025,0,"soft-hitwhistle10.wav",45
Sample,113025,0,"G#4b2.mp3",60
Sample,113025,0,"G#4D#4c6.mp3",60
Sample,113199,0,"G#54.wav",45
Sample,113373,0,"soft-hitclap10.wav",45
Sample,113373,0,"G#54.wav",45
Sample,113548,0,"G#54.wav",45
Sample,113722,0,"A#5.wav",60
Sample,113897,0,"soft-hitwhistle10.wav",45
Sample,113897,0,"G#54.wav",45
Sample,114071,0,"soft-hitclap10.wav",45
Sample,114071,0,"G#54.wav",45
Sample,114246,0,"G#54.wav",45

[TimingPoints]
8374,697.674418604651,4,2,81,70,1,0
10815,-166.666666666667,4,2,81,70,0,0
11164,-100,4,2,81,70,0,0
25118,-166.666666666667,4,2,11,50,0,0
27821,-166.666666666667,4,2,11,10,0,0
27908,-166.666666666667,4,2,12,50,0,0
30612,-166.666666666667,4,2,12,10,0,0
30699,-166.666666666667,4,2,13,50,0,0
33490,-166.666666666667,4,2,14,50,0,0
36193,-166.666666666667,4,2,14,10,0,0
36280,-166.666666666667,4,2,11,50,0,0
38984,-166.666666666667,4,2,11,10,0,0
39071,-166.666666666667,4,2,12,50,0,0
41775,-166.666666666667,4,2,12,10,0,0
41862,-166.666666666667,4,2,14,50,0,0
44217,-166.666666666667,4,2,14,10,0,0
44304,-166.666666666667,4,2,14,50,0,0
44653,-188.679245283019,4,2,11,50,0,0
49536,-117.647058823529,4,2,81,50,0,0
49885,-166.666666666667,4,2,81,70,0,0
50234,-90.9090909090909,4,2,80,70,0,0
66978,-125,4,2,80,50,0,0
69246,-90.9090909090909,4,2,80,70,0,0
69769,-111.111111111111,4,2,80,70,0,0
71687,-90.9090909090909,4,2,31,70,0,0
71862,-90.9090909090909,4,2,32,70,0,0
72123,-90.9090909090909,4,2,80,70,0,0
72560,-90.9090909090909,4,2,33,70,0,0
72734,-90.9090909090909,4,2,31,70,0,0
72908,-90.9090909090909,4,2,33,70,0,0
73083,-90.9090909090909,4,2,34,70,0,0
73432,-90.9090909090909,4,2,35,70,0,0
73955,-90.9090909090909,4,2,80,70,0,0
75176,-90.9090909090909,4,2,38,70,0,0
75350,-90.9090909090909,4,2,33,70,0,0
75525,-90.9090909090909,4,2,31,70,0,0
75699,-90.9090909090909,4,2,33,70,0,0
75873,-90.9090909090909,4,2,34,70,0,0
76222,-90.9090909090909,4,2,35,70,0,0
76746,-90.9090909090909,4,2,80,70,0,0
77967,-90.9090909090909,4,2,35,70,0,0
78141,-90.9090909090909,4,2,33,70,0,0
78315,-90.9090909090909,4,2,31,70,0,0
78490,-90.9090909090909,4,2,33,70,0,0
78664,-90.9090909090909,4,2,34,70,0,0
79013,-90.9090909090909,4,2,38,70,0,0
79187,-90.9090909090909,4,2,80,70,0,0
80757,-90.9090909090909,4,2,38,70,0,0
80932,-90.9090909090909,4,2,33,70,0,0
81106,-90.9090909090909,4,2,31,70,0,0
81280,-90.9090909090909,4,2,33,70,0,0
81455,-90.9090909090909,4,2,34,70,0,0
81804,-90.9090909090909,4,2,31,70,0,0
81978,-90.9090909090909,4,2,80,70,0,0
83548,-50,4,2,80,70,0,0
83722,-66.6666666666667,4,2,80,70,0,0
84071,-125,4,2,80,70,0,0
84420,-66.6666666666667,4,2,80,70,0,0
84769,-125,4,2,80,70,0,0
87211,-125,4,2,80,70,0,0
87908,-125,4,2,80,20,0,0
87996,-125,4,2,80,25,0,0
88083,-125,4,2,80,30,0,0
88170,-125,4,2,80,35,0,0
88257,-125,4,2,80,40,0,0
88344,-125,4,2,80,45,0,0
88432,-125,4,2,80,47,0,0
88519,-125,4,2,80,49,0,0
88606,-125,4,2,80,51,0,0
88693,-125,4,2,80,53,0,0
88780,-125,4,2,80,55,0,0
88868,-125,4,2,80,57,0,0
88955,-125,4,2,80,59,0,0
89129,-125,4,2,80,70,0,0
90525,-125,4,2,0,40,0,0
90786,-125,4,2,0,50,0,0
91048,-125,4,2,0,55,0,0
91310,-125,4,2,0,60,0,0
91571,-125,4,2,0,70,0,0
91746,-66.6666666666667,4,2,80,60,0,0
92094,-90.9090909090909,4,2,80,70,0,1
94885,-90.9090909090909,4,2,24,70,0,1
95408,-90.9090909090909,4,2,25,70,0,1
95583,-90.9090909090909,4,2,24,70,0,1
95932,-90.9090909090909,4,2,25,70,0,1
96106,-90.9090909090909,4,2,24,70,0,1
96280,-90.9090909090909,4,2,26,70,0,1
96368,-90.9090909090909,4,2,26,40,0,1
96455,-90.9090909090909,4,2,26,70,0,1
96978,-90.9090909090909,4,2,27,70,0,1
97065,-90.9090909090909,4,2,27,40,0,1
97153,-90.9090909090909,4,2,27,70,0,1
97676,-90.9090909090909,4,2,80,70,0,1
102211,-76.9230769230769,4,2,80,70,0,1
103257,-90.9090909090909,4,2,80,70,0,1
106048,-90.9090909090909,4,2,24,70,0,1
106571,-90.9090909090909,4,2,25,70,0,1
106746,-90.9090909090909,4,2,24,70,0,1
107094,-90.9090909090909,4,2,25,70,0,1
107269,-90.9090909090909,4,2,24,70,0,1
107443,-90.9090909090909,4,2,26,70,0,1
107530,-90.9090909090909,4,2,26,40,0,1
107618,-90.9090909090909,4,2,26,70,0,1
108141,-90.9090909090909,4,2,27,70,0,1
108228,-90.9090909090909,4,2,27,40,0,1
108315,-90.9090909090909,4,2,27,70,0,1
108839,-90.9090909090909,4,2,80,70,0,1
113025,-76.9230769230769,4,2,80,70,0,0
113373,-90.9090909090909,4,2,80,70,0,0
113722,-111.111111111111,4,2,80,70,0,0
114071,-125,4,2,80,70,0,0
114158,-125,4,2,80,40,0,0
114246,-125,4,2,80,70,0,0

[Colours]
Combo1 : 173,175,252
Combo2 : 174,242,227
Combo3 : 142,193,255
Combo4 : 208,204,208

[HitObjects]
28,60,10467,5,0,0:0:0:0:
0,148,10641,1,2,0:0:0:0:
88,128,10815,2,0,P|113:155|150:160,1,76.4999976654053,2|0,0:0|0:0,0:0:0:0:
188,136,11164,6,0,P|191:100|181:48,1,85,4|0,1:0|0:0,0:0:0:0:
280,268,11513,2,0,P|254:228|202:216,1,85,8|0,0:0|0:0,0:0:0:0:
108,256,11862,5,0,0:0:0:0:
276,148,12037,1,0,1:0:0:0:
192,384,12211,2,0,P|192:344|199:290,1,85,8|0,0:0|0:0,0:0:0:0:
440,384,12560,5,0,1:0:0:0:
276,348,12734,1,0,0:0:0:0:
375,217,12908,2,0,P|394:254|392:296,1,85,8|0,0:0|0:0,0:0:0:0:
372,372,13214,1,2,0:0:0:0:
372,372,13257,2,0,B|438:380|430:337|493:345,1,127.5,0|0,0:0|3:0,0:0:0:0:
512,356,13606,1,10,0:0:0:0:
312,272,13780,1,0,0:0:0:0:
484,180,13955,6,0,P|486:215|477:268,1,85,2|0,1:2|0:0,0:0:0:0:
344,88,14304,2,0,P|369:127|422:140,1,85,8|2,0:0|0:0,0:0:0:0:
512,76,14653,5,0,0:0:0:0:
300,184,14828,1,0,1:0:0:0:
360,0,15002,2,0,L|353:94,1,85,8|0,0:0|0:0,0:0:0:0:
340,276,15351,5,0,1:0:0:0:
180,288,15525,1,0,0:0:0:0:
304,188,15699,2,0,P|295:146|267:114,1,85,8|0,0:0|0:0,0:0:0:0:
256,36,16004,1,2,0:0:0:0:
256,36,16048,2,0,P|217:44|108:12,1,148.75,0|0,0:0|3:0,0:0:0:0:
108,24,16397,1,8,0:0:0:0:
164,160,16571,1,0,0:0:0:0:
28,288,16746,6,0,P|11:240|16:184,1,85,0|0,1:0|0:0,0:0:0:0:
224,218,17095,5,8,0:0:0:0:
151,241,17270,1,0,0:0:0:0:
252,356,17443,6,0,L|260:320,1,21.25,0|2,0:0|3:2,0:0:0:0:
176,360,17619,1,0,1:0:0:0:
352,168,17793,5,8,0:0:0:0:
340,256,17968,1,0,0:0:0:0:
492,332,18142,5,0,1:0:0:0:
416,340,18315,1,0,0:0:0:0:
500,324,18490,5,8,0:0:0:0:
512,248,18664,1,0,0:0:0:0:
432,124,18839,2,0,P|425:40|488:80,1,170,2|10,0:0|0:0,0:0:0:0:
432,208,19362,1,0,0:0:0:0:
292,164,19536,6,0,P|272:67|289:0,1,170,2|8,1:2|0:0,0:0:0:0:
144,88,20060,2,0,P|106:70|83:34,1,85,0|2,0:0|0:0,0:0:0:0:
64,288,20408,6,0,B|116:216|144:256|192:180,1,170,0|0,1:0|0:0,0:0:0:0:
404,296,20932,2,0,B|315:286|336:242|246:238,1,170,2|0,1:2|0:0,0:0:0:0:
240,0,21455,2,0,B|276:81|227:85|268:164,1,170,0|0,1:0|0:0,0:0:0:0:
188,296,21978,1,0,1:0:0:0:
336,356,22153,1,0,0:0:0:0:
348,188,22327,5,2,1:2:0:0:
268,160,22501,1,0,0:0:0:0:
188,132,22676,1,0,0:0:0:0:
84,308,22850,5,0,1:0:0:0:
185,300,23024,1,2,0:0:0:0:
286,292,23199,1,0,0:0:0:0:
332,104,23374,5,0,1:0:0:0:
392,256,23548,1,0,0:0:0:0:
432,124,23722,5,2,1:2:0:0:
356,328,23896,1,0,0:0:0:0:
396,48,24071,1,0,1:0:0:0:
448,312,24245,1,0,1:0:0:0:
496,0,24420,5,0,0:0:0:0:
440,8,24594,1,0,0:0:0:0:
400,52,24769,1,0,0:0:0:0:
392,108,24943,1,0,0:0:0:0:
416,159,25118,6,0,P|378:192|328:189,1,101.999996887207,2|2,0:0|0:0,0:0:0:0:
268,144,25641,1,0,3:0:0:0:
260,220,25815,2,0,P|267:242|264:276,1,50.9999984436036,2|0,0:0|3:0,0:0:0:0:
188,276,26164,2,0,P|181:254|184:220,1,50.9999984436036,2|0,0:0|3:0,0:0:0:0:
28,184,26513,5,2,0:0:0:0:
68,120,26688,2,0,P|89:133|129:133,1,50.9999984436036,0|2,3:0|0:0,0:0:0:0:
128,0,27036,1,0,3:0:0:0:
192,40,27211,2,0,P|179:61|179:101,1,50.9999984436036,2|0,0:0|3:0,0:0:0:0:
212,156,27559,2,0,P|256:164|300:140,1,76.4999976654053,2|0,0:0|3:0,0:0:0:0:
288,144,27908,6,0,P|278:193|306:235,1,101.999996887207,2|2,0:0|0:0,0:0:0:0:
376,264,28431,1,0,3:0:0:0:
444,232,28605,2,0,P|456:212|462:178,1,50.9999984436036,2|0,0:0|3:0,0:0:0:0:
380,140,28954,2,0,L|376:204,1,50.9999984436036,2|0,0:0|3:0,0:0:0:0:
312,312,29303,6,0,P|290:298|265:295,1,50.9999984436036,2|0,0:0|3:0,0:0:0:0:
125,295,29652,1,2,0:0:0:0:
193,259,29826,1,0,3:0:0:0:
241,319,30001,5,2,0:0:0:0:
173,355,30176,1,0,3:0:0:0:
121,299,30350,2,0,P|113:255|134:214,1,76.4999976654053,2|0,0:0|3:0,0:0:0:0:
133,219,30698,1,2,0:0:0:0:
8,384,31048,6,0,P|8:360|0:332,1,50.9999984436036,2|0,0:0|3:0,0:0:0:0:
80,328,31397,1,2,0:0:0:0:
36,264,31571,2,0,P|36:240|44:212,1,50.9999984436036,0|2,3:0|0:0,0:0:0:0:
0,148,31920,1,0,3:0:0:0:
124,132,32094,6,0,L|188:124,1,50.9999984436036,2|0,0:0|3:0,0:0:0:0:
144,56,32443,2,0,L|208:48,1,50.9999984436036,2|0,0:0|3:0,0:0:0:0:
308,116,32792,6,0,L|316:52,1,50.9999984436036,2|0,0:0|3:0,0:0:0:0:
384,96,33141,2,0,L|392:32,1,50.9999984436036,2|0,0:0|3:0,0:0:0:0:
440,208,33490,6,0,P|442:241|456:260,1,50.9999984436036,2|0,0:0|3:0,0:0:0:0:
364,260,33839,2,0,L|356:324,1,50.9999984436036,2|0,0:0|3:0,0:0:0:0:
300,196,34187,2,0,P|293:228|276:245,1,50.9999984436036,2|0,0:0|3:0,0:0:0:0:
292,356,34536,2,0,P|260:366|237:360,1,50.9999984436036,2|0,0:0|3:0,0:0:0:0:
192,236,34885,6,0,P|194:210|209:190,1,50.9999984436036,2|0,0:0|3:0,0:0:0:0:
51,224,35234,2,0,P|52:198|40:176,1,50.9999984436036,2|0,0:0|3:0,0:0:0:0:
134,121,35582,2,0,L|128:172,1,50.9999984436036,2|0,0:0|3:0,0:0:0:0:
76,304,35931,2,0,P|112:320|156:304,1,76.4999976654053,2|0,0:0|3:0,0:0:0:0:
144,304,36280,6,0,P|182:271|232:274,1,101.999996887207,2|2,0:0|0:0,0:0:0:0:
292,319,36803,1,0,3:0:0:0:
300,243,36978,2,0,P|293:221|296:187,1,50.9999984436036,2|0,0:0|3:0,0:0:0:0:
372,187,37326,2,0,P|379:209|376:243,1,50.9999984436036,2|0,0:0|3:0,0:0:0:0:
456,164,37675,5,2,0:0:0:0:
421,96,37850,2,0,P|398:107|359:103,1,50.9999984436036,0|2,3:0|0:0,0:0:0:0:
240,48,38198,1,0,3:0:0:0:
305,6,38373,2,0,P|316:28|312:67,1,50.9999984436036,2|0,0:0|3:0,0:0:0:0:
272,120,38722,2,0,P|227:127|181:102,1,76.4999976654053,2|0,0:0|3:0,0:0:0:0:
192,108,39071,6,0,P|202:157|174:199,1,101.999996887207,2|2,0:0|0:0,0:0:0:0:
104,228,39593,1,0,3:0:0:0:
36,196,39769,2,0,P|24:176|18:142,1,50.9999984436036,2|0,0:0|3:0,0:0:0:0:
100,104,40118,2,0,L|104:168,1,50.9999984436036,2|0,0:0|3:0,0:0:0:0:
168,276,40467,6,0,P|190:262|215:259,1,50.9999984436036,2|0,0:0|3:0,0:0:0:0:
355,259,40815,1,2,0:0:0:0:
287,223,40990,1,0,3:0:0:0:
239,283,41164,5,0,0:0:0:0:
307,319,41339,1,0,3:0:0:0:
359,263,41513,2,0,P|367:219|343:175,1,76.4999976654053,2|0,0:0|3:0,0:0:0:0:
347,183,41862,1,2,0:0:0:0:
244,160,42036,1,0,3:0:0:0:
360,108,42210,6,0,P|336:108|308:116,1,50.9999984436036,2|0,0:0|3:0,0:0:0:0:
304,36,42559,1,2,0:0:0:0:
240,80,42733,2,0,P|216:80|188:72,1,50.9999984436036,0|2,3:0|0:0,0:0:0:0:
380,32,43082,1,0,3:0:0:0:
428,180,43257,6,0,L|436:244,1,50.9999984436036,2|0,0:0|3:0,0:0:0:0:
504,200,43605,2,0,L|512:264,1,50.9999984436036,2|0,0:0|3:0,0:0:0:0:
472,32,43955,6,0,L|460:112,1,76.4999976654053,2|0,0:0|3:0,0:0:0:0:
464,116,44303,2,0,P|428:107|403:107,1,50.9999984436036,2|0,0:0|3:0,0:0:0:0:
340,172,44653,6,0,B|381:82|255:-67|91:4|81:102|81:102|1:113|1:113|108:147|166:285|294:197|404:221|404:221|215:121|71:121,1,1261.40000192474,2|0,0:0|3:0,0:0:0:0:
64,244,49711,5,2,0:0:0:0:
80,328,49885,2,0,B|116:326|112:294|149:291,1,76.4999976654053,0|0,0:0|3:0,0:0:0:0:
152,280,50234,6,0,P|209:356|317:373,1,187.000005706787,4|8,1:0|0:0,0:0:0:0:
448,320,50757,1,2,0:0:0:0:
448,320,50844,1,0,0:0:0:0:
448,320,50932,2,0,P|465:277|466:230,1,93.5000028533936,0|2,0:0|1:2,0:0:0:0:
388,376,51280,1,8,0:0:0:0:
364,336,51368,1,0,0:0:0:0:
356,288,51455,1,0,0:0:0:0:
364,240,51542,1,0,0:0:0:0:
392,204,51629,5,0,1:0:0:0:
400,72,51804,1,2,0:2:0:0:
508,0,51978,1,8,0:0:0:0:
496,160,52153,2,0,P|484:180|465:193,1,46.7500014266968,2|0,0:2|0:0,0:0:0:0:
388,208,52327,5,0,0:0:0:0:
328,92,52502,1,2,1:2:0:0:
200,72,52676,2,0,P|174:74|144:88,1,46.7500014266968,8|0,0:0|0:0,0:0:0:0:
20,140,52850,1,0,0:0:0:0:
20,140,52937,1,0,0:0:0:0:
20,140,53025,6,0,P|107:177|209:138,1,187.000005706787,0|8,1:0|0:0,0:0:0:0:
288,300,53548,1,2,0:2:0:0:
288,300,53635,1,0,0:0:0:0:
288,300,53722,2,0,P|327:283|400:288,1,93.5000028533936,0|2,0:0|1:2,0:0:0:0:
40,304,54071,1,8,0:0:0:0:
80,328,54159,1,0,0:0:0:0:
128,336,54246,1,0,0:0:0:0:
176,328,54333,1,0,0:0:0:0:
212,300,54420,5,0,1:0:0:0:
344,292,54595,1,2,0:2:0:0:
416,184,54769,1,8,0:0:0:0:
256,196,54944,2,0,P|235:207|222:226,1,46.7500014266968,2|0,0:2|0:0,0:0:0:0:
208,304,55118,5,0,0:0:0:0:
324,364,55293,1,2,1:2:0:0:
448,320,55467,2,0,P|445:294|432:264,1,46.7500014266968,8|0,0:0|0:0,0:0:0:0:
384,120,55641,1,0,0:0:0:0:
384,120,55728,1,0,0:0:0:0:
384,120,55815,6,0,P|385:212|329:284,1,187.000005706787,0|8,1:0|0:0,0:0:0:0:
204,324,56339,1,2,0:2:0:0:
200,192,56513,2,0,P|249:197|287:229,1,93.5000028533936,0|2,0:0|1:2,0:0:0:0:
120,8,56862,1,8,0:0:0:0:
144,48,56950,1,0,0:0:0:0:
152,96,57037,1,0,0:0:0:0:
144,144,57124,1,0,0:0:0:0:
116,180,57211,5,0,1:0:0:0:
108,312,57386,1,2,0:2:0:0:
0,384,57560,1,8,0:0:0:0:
12,224,57735,2,0,P|23:203|42:190,1,46.7500014266968,2|0,0:2|0:0,0:0:0:0:
120,176,57909,5,0,0:0:0:0:
180,292,58084,1,2,1:2:0:0:
308,312,58257,2,0,P|333:309|364:296,1,46.7500014266968,8|0,0:0|0:0,0:0:0:0:
512,216,58432,1,0,0:0:0:0:
512,216,58519,1,0,0:0:0:0:
512,216,58606,6,0,P|400:184|366:91,1,187.000005706787,0|8,1:0|0:0,0:0:0:0:
387,286,59129,1,2,0:2:0:0:
387,286,59217,1,0,0:0:0:0:
387,286,59304,2,0,P|418:322|431:365,1,93.5000028533936,0|2,0:0|1:2,0:0:0:0:
124,296,59653,2,0,P|156:261|199:240,1,93.5000028533936,8|0,0:0|0:0,0:0:0:0:
332,108,60001,5,0,1:0:0:0:
268,224,60175,1,2,0:2:0:0:
272,364,60350,1,8,0:0:0:0:
496,272,60524,2,0,P|476:260|460:236,1,46.7500014266968,2|0,0:2|0:0,0:0:0:0:
332,108,60698,5,0,0:0:0:0:
336,240,60872,1,2,1:2:0:0:
272,364,61048,2,0,P|220:368|173:315,1,93.5000028533936,8|0,0:0|0:0,0:0:0:0:
158,279,61310,1,0,0:0:0:0:
158,279,61397,6,0,P|201:223|235:307,1,187.000005706787,0|8,1:0|0:0,0:0:0:0:
24,324,61920,1,2,0:2:0:0:
24,324,62007,1,0,0:0:0:0:
24,324,62094,2,0,P|15:277|27:232,1,93.5000028533936,0|2,0:0|1:2,0:0:0:0:
216,128,62443,2,0,P|232:176|208:234,1,93.5000028533936,8|0,0:0|0:0,0:0:0:0:
152,64,62792,5,0,1:0:0:0:
288,36,62966,1,2,0:2:0:0:
416,84,63140,1,8,0:0:0:0:
272,244,63315,2,0,L|232:200,1,46.7500014266968,2|0,0:2|0:0,0:0:0:0:
140,80,63490,2,0,P|148:33|181:3,1,93.5000028533936,0|2,0:0|1:2,0:0:0:0:
272,232,63839,1,8,0:0:0:0:
432,96,64013,2,0,P|422:62|400:40,1,46.7500014266968
380,228,64187,6,0,P|421:238|411:198,1,93.5000028533936,0|0,1:0|0:0,0:0:0:0:
328,324,64536,1,8,0:0:0:0:
369,345,64623,1,0,0:0:0:0:
415,348,64710,1,0,0:0:0:0:
459,333,64797,1,0,0:0:0:0:
494,302,64884,1,2,0:0:0:0:
324,152,65060,1,0,1:2:0:0:
156,296,65234,2,0,P|152:344|176:382,1,93.5000028533936,8|0,0:0|0:0,0:0:0:0:
224,128,65583,6,0,P|227:44|145:62,1,187.000005706787,0|8,1:0|0:0,0:0:0:0:
12,92,66106,1,2,0:2:0:0:
12,92,66193,1,0,0:0:0:0:
12,92,66280,2,0,P|8:36|40:-12,1,93.5000028533936,0|2,0:0|1:2,0:0:0:0:
232,124,66629,1,8,0:0:0:0:
28,212,66804,2,0,P|31:235|38:257,1,46.7500014266968
148,336,66978,6,0,P|199:357|172:316,1,136,4|0,1:0|0:0,0:0:0:0:
248,249,67501,2,0,P|328:253|332:317,1,136,0|0,1:0|0:0,0:0:0:0:
392,377,68025,2,0,P|411:363|420:333,1,34,0|0,1:0|0:0,0:0:0:0:
468,361,68199,2,0,P|461:338|435:320,1,34
492,249,68373,1,0,0:0:0:0:
440,169,68548,2,0,P|442:153|451:139,1,34,0|0,1:0|0:0,0:0:0:0:
428,97,68722,2,0,P|384:105|352:85,1,68,0|0,1:0|0:0,0:0:0:0:
300,29,69071,1,0,0:0:0:0:
212,144,69246,6,0,P|199:108|231:128,1,93.5000028533936,0|0,1:0|0:0,0:0:0:0:
192,228,69507,1,0,0:0:0:0:
148,212,69594,1,0,0:0:0:0:
116,180,69682,1,0,0:0:0:0:
104,136,69769,6,0,P|108:88|136:52,1,76.4999976654053,0|0,1:0|0:0,0:0:0:0:
123,64,70030,1,0,0:0:0:0:
123,64,70118,1,0,0:0:0:0:
0,24,70292,2,0,P|28:28|72:16,1,38.2499988327027,0|0,1:0|0:0,0:0:0:0:
204,4,70467,2,0,L|224:96,1,76.4999976654053
352,168,70815,2,0,P|313:163|263:130,1,76.4999976654053,0|0,1:0|0:0,0:0:0:0:
280,147,71077,1,0,0:0:0:0:
280,147,71164,5,0,0:0:0:0:
358,38,71339,2,0,L|340:72,1,38.2499988327027,0|0,1:0|0:0,0:0:0:0:
156,176,71513,2,0,L|224:160,1,38.2499988327027,0|0,1:0|0:0,0:0:0:0:
320,272,71687,1,2,0:0:0:0:
320,272,71775,1,0,0:0:0:0:
320,272,71862,6,0,P|288:313|208:284,1,140.25000428009,2|0,0:0|0:0,0:0:0:0:
104,312,72211,1,8,0:0:0:0:
106,262,72298,1,0,0:0:0:0:
135,219,72385,1,0,0:0:0:0:
184,205,72472,1,0,0:0:0:0:
168,376,72560,5,6,1:2:0:0:
28,304,72734,1,2,0:2:0:0:
180,200,72908,1,10,0:2:0:0:
88,52,73083,2,0,P|82:28|80:-16,2,46.7500014266968,2|0|0,0:2|0:0|0:0,0:0:0:0:
184,205,73432,1,2,1:2:0:0:
374,137,73606,2,0,P|342:178|332:226,1,93.5000028533936,8|0,0:0|0:0,0:0:0:0:
424,220,73868,1,0,0:0:0:0:
424,220,73955,6,0,P|379:137|301:90,1,187.000005706787,2|8,1:2|0:0,0:0:0:0:
8,180,74478,2,0,P|56:172|98:144,1,93.5000028533936,2|0,0:0|0:0,0:0:0:0:
180,48,74827,1,0,1:0:0:0:
244,328,75001,2,0,L|224:232,1,93.5000028533936,10|2,0:0|0:0,0:0:0:0:
440,12,75350,5,2,1:2:0:0:
300,84,75524,1,2,0:2:0:0:
452,188,75698,1,10,0:2:0:0:
360,336,75873,2,0,P|354:360|352:404,2,46.7500014266968,2|0|0,0:2|0:0|0:0,0:0:0:0:
448,192,76222,1,2,1:2:0:0:
256,256,76397,2,0,P|208:254|170:228,1,93.5000028533936,8|0,0:0|0:0,0:0:0:0:
80,264,76658,1,0,0:0:0:0:
80,264,76746,6,0,B|104:177|104:177|112:161|112:161|132:76,1,187.000005706787,2|8,1:2|0:0,0:0:0:0:
284,72,77269,2,0,P|311:103|302:161,1,93.5000028533936,2|0,0:0|0:0,0:0:0:0:
184,336,77618,1,0,1:0:0:0:
0,200,77792,2,0,L|3:293,1,93.5000028533936,10|2,0:2|0:2,0:0:0:0:
8,368,78054,1,0,0:0:0:0:
8,368,78141,5,2,1:2:0:0:
80,228,78315,1,2,0:2:0:0:
184,380,78489,1,10,0:2:0:0:
332,288,78664,2,0,P|356:282|400:280,2,46.7500014266968,2|0|0,0:2|0:0|0:0,0:0:0:0:
188,376,79013,1,2,1:2:0:0:
252,184,79188,2,0,P|250:136|225:100,1,93.5000028533936,8|0,0:0|0:2,0:0:0:0:
180,92,79449,1,0,0:0:0:0:
180,92,79536,6,0,L|195:-2,1,93.5000028533936,2|0,1:2|0:0,0:0:0:0:
352,92,79885,2,0,L|416:100,2,46.7500014266968,8|0|2,0:0|0:0|0:0,0:0:0:0:
388,20,80147,1,0,0:0:0:0:
388,20,80234,1,0,0:0:0:0:
320,244,80408,2,0,P|322:276|347:315,1,46.7500014266968,0|0,1:0|0:0,0:0:0:0:
508,276,80583,2,0,P|525:233|512:189,1,93.5000028533936,10|2,0:2|0:2,0:0:0:0:
488,152,80844,1,0,0:0:0:0:
488,152,80932,5,2,1:2:0:0:
416,292,81106,1,2,0:2:0:0:
312,140,81280,1,10,0:2:0:0:
164,232,81455,2,0,P|140:238|96:240,2,46.7500014266968,2|0|0,0:2|0:0|0:0,0:0:0:0:
316,144,81804,1,2,1:2:0:0:
360,368,81978,1,8,0:0:0:0:
168,352,82153,1,0,0:0:0:0:
168,352,82240,1,0,0:0:0:0:
168,352,82327,6,0,B|264:332|216:244|311:231,1,187.000005706787,2|8,1:2|0:0,0:0:0:0:
36,212,82850,1,2,0:0:0:0:
36,212,82937,1,0,0:0:0:0:
36,212,83025,2,0,P|86:232|164:216,1,93.5000028533936,0|0,0:0|1:0,0:0:0:0:
212,48,83373,1,10,0:0:0:0:
443,96,83548,6,0,P|431:56|393:39,1,85
308,240,83722,6,0,B|344:300|352:172|416:216,1,127.500004863739,12|0,1:1|0:0,0:0:0:0:
492,204,83984,1,0,0:0:0:0:
476,288,84071,6,0,P|459:292|442:291,1,34,8|0,1:0|3:0,0:0:0:0:
480,308,84246,2,0,P|463:312|446:311,1,34,0|0,0:0|3:0,0:0:0:0:
172,280,84420,6,0,P|190:214|252:188,1,127.500004863739,8|0,1:0|0:0,0:0:0:0:
304,244,84682,1,0,0:0:0:0:
268,356,84769,6,0,P|271:340|271:323,1,34,8|0,1:0|3:0,0:0:0:0:
248,352,84944,2,0,P|251:336|251:319,1,34,0|0,0:0|3:0,0:0:0:0:
72,260,85118,6,0,L|83:323,1,34,8|0,1:1|3:0,0:0:0:0:
75,246,85293,2,0,L|85:310,1,34,0|0,0:0|3:0,0:0:0:0:
256,156,85467,2,0,L|245:220,1,34,8|0,1:1|3:0,0:0:0:0:
253,143,85642,2,0,L|242:207,1,34,0|0,0:0|3:0,0:0:0:0:
44,112,85816,6,0,L|-18:127,1,34,8|0,1:1|3:0,0:0:0:0:
34,107,85990,2,0,L|-28:122,1,34,0|0,0:0|3:0,0:0:0:0:
232,32,86165,2,0,L|294:48,1,34,8|0,1:1|3:0,0:0:0:0:
242,27,86339,2,0,L|304:43,1,34,0|0,0:0|3:0,0:0:0:0:
124,4,86513,5,8,1:1:0:0:
148,136,86687,1,8,1:1:0:0:
172,268,86862,1,8,1:1:0:0:
297,318,87036,5,8,1:1:0:0:
389,192,87211,1,8,1:1:0:0:
297,65,87385,1,8,1:1:0:0:
148,113,87560,1,8,1:1:0:0:
148,270,87734,1,8,1:1:0:0:
265,210,87908,5,0,0:0:0:0:
273,204,87996,1,0,0:0:0:0:
277,194,88083,1,0,0:0:0:0:
275,184,88170,1,0,0:0:0:0:
270,176,88257,1,0,0:0:0:0:
261,171,88344,1,0,0:0:0:0:
250,171,88432,1,0,0:0:0:0:
241,176,88519,1,0,0:0:0:0:
236,184,88606,1,0,0:0:0:0:
234,194,88693,1,0,0:0:0:0:
238,204,88780,1,0,0:0:0:0:
246,210,88868,1,0,0:0:0:0:
256,213,88955,1,0,0:0:0:0:
192,4,89129,5,0,0:0:0:0:
432,16,90525,5,0,3:0:0:0:
440,92,90612,5,0,3:0:0:0:
484,72,90699,1,0,3:0:0:0:
512,112,90786,1,0,3:0:0:0:
468,132,90873,1,0,3:0:0:0:
440,92,90961,1,0,3:0:0:0:
484,72,91048,1,0,3:0:0:0:
512,112,91135,1,0,3:0:0:0:
468,132,91222,5,0,3:0:0:0:
448,164,91310,1,0,3:0:0:0:
440,200,91397,1,0,3:0:0:0:
444,236,91484,1,0,3:0:0:0:
456,272,91571,1,0,3:0:0:0:
480,300,91658,1,0,3:0:0:0:
512,320,91746,6,0,L|304:348,1,191.250007295609
248,384,92094,6,0,P|231:339|229:293,1,93.5000028533936,6|0,1:1|0:0,0:0:0:0:
236,248,92356,1,0,0:0:0:0:
236,248,92443,2,0,P|211:218|180:220,1,46.7500014266968,8|0,0:0|0:0,0:0:0:0:
88,344,92618,2,0,P|126:365|156:332,1,93.5000028533936,2|0,0:0|0:0,0:0:0:0:
104,144,92967,1,0,1:0:0:0:
0,272,93141,1,10,0:2:0:0:
228,256,93315,1,2,0:2:0:0:
228,256,93403,1,0,0:0:0:0:
228,256,93490,5,0,1:0:0:0:
212,164,93664,2,0,P|240:168|264:168,1,46.7500014266968,2|0,0:0|0:0,0:0:0:0:
199,63,93839,2,0,P|244:77|290:72,1,93.5000028533936,8|0,0:0|0:0,0:0:0:0:
352,32,94100,1,0,0:0:0:0:
308,20,94187,5,2,0:2:0:0:
404,20,94362,2,0,P|403:43|394:64,1,46.7500014266968,0|0,1:2|0:0,0:0:0:0:
504,20,94536,2,0,P|501:66|480:115,1,93.5000028533936,8|0,0:0|0:0,0:0:0:0:
432,220,94798,1,0,0:0:0:0:
420,180,94885,5,2,1:2:0:0:
232,176,95060,2,0,P|256:180|308:160,1,46.7500014266968,2|0,0:2|0:0,0:0:0:0:
352,132,95234,1,10,0:0:0:0:
404,328,95408,2,0,P|387:312|380:290,1,46.7500014266968,2|0,0:0|0:0,0:0:0:0:
352,132,95583,5,2,0:0:0:0:
296,368,95757,2,0,L|304:292,1,46.7500014266968,2|0,1:2|0:0,0:0:0:0:
244,52,95932,2,0,L|260:104,1,46.7500014266968,10|0,0:0|0:0,0:0:0:0:
478,215,96106,2,0,L|398:223,1,46.7500014266968,2|0,0:0|0:0,0:0:0:0:
112,244,96280,6,0,P|112:220|108:197,1,46.7500014266968,2|0,1:2|3:0,0:0:0:0:
296,312,96455,2,0,P|292:288|296:244,1,46.7500014266968,2|0,0:0|0:0,0:0:0:0:
472,232,96629,2,0,P|481:210|464:108,1,93.5000028533936,10|2,0:0|0:0,0:0:0:0:
384,12,96891,1,0,0:0:0:0:
384,12,96978,6,0,P|383:35|387:58,1,46.7500014266968,2|0,0:0|3:0,0:0:0:0:
276,28,97153,2,0,P|280:52|276:96,1,46.7500014266968,2|0,1:2|0:0,0:0:0:0:
180,0,97327,2,0,P|172:22|198:122,1,93.5000028533936,10|2,0:0|0:0,0:0:0:0:
100,200,97589,1,0,0:0:0:0:
108,197,97676,6,0,P|69:171|21:153,1,93.5000028533936,2|0,1:2|0:0,0:0:0:0:
168,360,98025,2,0,L|183:258,1,93.5000028533936,8|0,0:0|0:0,0:0:0:0:
188,220,98286,1,0,0:0:0:0:
188,220,98373,1,0,0:0:0:0:
300,332,98548,2,0,P|271:335|252:324,1,46.7500014266968,0|0,1:0|0:0,0:0:0:0:
88,328,98722,2,0,L|95:272,1,46.7500014266968,10|0,0:2|0:0,0:0:0:0:
198,143,98897,1,0,0:0:0:0:
340,240,99071,5,2,1:2:0:0:
316,60,99246,2,0,P|292:88|288:128,1,46.7500014266968
384,144,99419,1,8,0:0:0:0:
208,48,99594,2,0,P|175:38|100:48,1,93.5000028533936,2|0,0:2|0:0,0:0:0:0:
192,224,99942,1,0,1:0:0:0:
320,56,100118,2,0,P|311:34|297:15,2,46.7500014266968,8|0|2,0:0|0:0|0:2,0:0:0:0:
328,244,100379,1,0,0:0:0:0:
336,248,100467,6,0,P|296:280|247:275,1,93.5000028533936,2|0,1:2|0:0,0:0:0:0:
76,196,100815,1,8,0:0:0:0:
260,120,100990,1,2,0:2:0:0:
260,120,101077,1,0,0:0:0:0:
260,120,101164,1,0,0:0:0:0:
168,300,101339,1,0,1:0:0:0:
172,320,101426,1,0,0:0:0:0:
184,336,101513,1,10,0:2:0:0:
340,376,101687,1,0,0:0:0:0:
380,352,101775,1,0,0:0:0:0:
384,304,101862,6,0,B|450:288|438:360|509:343,1,140.25000428009,8|0,1:3|0:0,0:0:0:0:
488,236,102211,6,0,P|484:200|476:240,1,110.499994941712,8|0,1:3|0:0,0:0:0:0:
384,292,102472,1,0,0:0:0:0:
384,304,102560,6,0,P|360:280|361:253,1,55.2499974708558,8|0,1:3|0:0,0:0:0:0:
392,76,102734,1,8,0:3:0:0:
411,134,102821,1,8,0:3:0:0:
352,152,102908,1,8,0:3:0:0:
176,68,103083,1,8,0:3:0:0:
264,0,103257,6,0,P|281:45|283:91,1,93.5000028533936,6|0,1:0|0:0,0:0:0:0:
276,136,103519,1,0,0:0:0:0:
276,136,103606,2,0,P|301:166|332:164,1,46.7500014266968,8|0,0:0|0:0,0:0:0:0:
424,40,103781,2,0,P|386:19|356:52,1,93.5000028533936,2|0,0:0|0:0,0:0:0:0:
408,240,104130,1,0,1:0:0:0:
512,112,104304,1,10,0:2:0:0:
284,128,104478,1,2,0:2:0:0:
284,128,104566,1,0,0:0:0:0:
284,128,104653,5,0,1:2:0:0:
300,220,104827,2,0,P|272:216|248:216,1,46.7500014266968,2|0,0:0|0:0,0:0:0:0:
313,321,105002,2,0,P|268:307|222:312,1,93.5000028533936,8|0,0:0|0:0,0:0:0:0:
160,352,105263,1,0,0:0:0:0:
204,364,105350,5,2,0:2:0:0:
108,364,105525,2,0,P|109:341|118:320,1,46.7500014266968,0|0,1:0|0:0,0:0:0:0:
8,364,105699,2,0,P|11:318|32:269,1,93.5000028533936,8|0,0:0|0:0,0:0:0:0:
80,164,105961,1,0,0:0:0:0:
92,204,106048,5,2,1:2:0:0:
280,208,106223,2,0,P|256:204|204:224,1,46.7500014266968,2|0,0:0|0:0,0:0:0:0:
160,252,106397,1,10,0:0:0:0:
108,56,106571,2,0,P|125:72|132:94,1,46.7500014266968,2|0,0:0|0:0,0:0:0:0:
160,252,106746,5,2,0:2:0:0:
216,16,106920,2,0,L|208:92,1,46.7500014266968,2|0,1:2|0:0,0:0:0:0:
268,332,107095,2,0,L|252:280,1,46.7500014266968,10|0,0:0|0:0,0:0:0:0:
34,169,107269,2,0,L|114:161,1,46.7500014266968,2|0,0:0|0:0,0:0:0:0:
400,140,107443,6,0,P|400:164|404:187,1,46.7500014266968,2|0,1:2|3:0,0:0:0:0:
216,72,107618,2,0,P|220:96|216:140,1,46.7500014266968,2|0,0:0|0:0,0:0:0:0:
40,152,107792,2,0,P|31:174|48:276,1,93.5000028533936,10|2,0:0|0:0,0:0:0:0:
128,372,108054,1,0,0:0:0:0:
128,372,108141,6,0,P|129:349|125:326,1,46.7500014266968,2|0,0:2|3:0,0:0:0:0:
236,356,108316,2,0,P|232:332|236:288,1,46.7500014266968,2|0,1:2|0:0,0:0:0:0:
332,384,108490,2,0,P|340:362|314:262,1,93.5000028533936,10|2,0:2|0:2,0:0:0:0:
412,188,108752,1,0,0:0:0:0:
404,187,108839,6,0,P|443:213|491:231,1,93.5000028533936,2|0,1:2|0:0,0:0:0:0:
344,24,109188,2,0,L|331:125,1,93.5000028533936,8|0,0:0|0:0,0:0:0:0:
324,164,109449,1,0,0:0:0:0:
324,164,109536,1,0,0:0:0:0:
212,52,109711,2,0,P|241:49|260:60,1,46.7500014266968,0|0,1:0|0:0,0:0:0:0:
424,56,109885,2,0,L|417:112,1,46.7500014266968,10|0,0:0|0:0,0:0:0:0:
314,241,110060,1,0,0:0:0:0:
172,144,110234,5,2,1:2:0:0:
196,324,110409,2,0,P|220:296|224:256,1,46.7500014266968
128,240,110582,1,10,0:2:0:0:
304,336,110757,2,0,P|337:346|412:336,1,93.5000028533936,2|0,0:2|0:0,0:0:0:0:
320,160,111105,1,0,1:0:0:0:
192,328,111281,2,0,P|201:350|215:369,2,46.7500014266968,8|0|2,0:2|0:0|0:0,0:0:0:0:
184,140,111542,1,0,0:0:0:0:
176,136,111630,6,0,P|216:104|265:109,1,93.5000028533936,2|0,1:2|0:0,0:0:0:0:
436,188,111978,1,8,0:2:0:0:
252,264,112153,1,2,0:2:0:0:
252,264,112240,1,0,0:0:0:0:
252,264,112327,1,0,0:0:0:0:
344,84,112502,1,2,1:2:0:0:
340,64,112589,1,0,0:0:0:0:
328,48,112676,1,8,0:0:0:0:
172,8,112850,1,0,0:0:0:0:
132,32,112938,1,0,0:0:0:0:
128,80,113025,6,0,P|98:35|45:28,1,110.499994941712,0|0,1:0|0:0,0:0:0:0:
180,188,113373,6,0,P|233:184|266:142,1,93.5000028533936,8|0,0:0|0:0,0:0:0:0:
68,176,113722,6,0,P|44:224|64:273,1,76.4999976654053,0|0,0:0|1:0,0:0:0:0:
132,368,114071,6,0,P|152:368|180:352,1,34,8|0,0:0|3:0,0:0:0:0:
248,268,114246,1,0,0:0:0:0:
