osu file format v14

[General]
AudioFilename: audio.mp3
AudioLeadIn: 0
PreviewTime: 91048
Countdown: 0
SampleSet: None
StackLeniency: 0.7
Mode: 0
LetterboxInBreaks: 0
WidescreenStoryboard: 0
SamplesMatchPlaybackRate: 1

[Editor]
DistanceSpacing: 1
BeatDivisor: 8
GridSize: 4
TimelineZoom: 1.7

[Metadata]
Title:Giniro Hikousen (Ttm bootleg Edit)
TitleUnicode:銀色飛行船 (Ttm bootleg Edit)
Artist:supercell
ArtistUnicode:supercell
Creator:TT Mouse
Version:reMix lnsane
Source:ねらわれた学園
Tags:Nerawareta_Gakuen yf_bmp ryo koeda こゑだ
BeatmapID:2089152
BeatmapSetID:998885

[Difficulty]
HPDrainRate:5
CircleSize:4.2
OverallDifficulty:9
ApproachRate:9.2
SliderMultiplier:3.2
SliderTickRate:4

[Events]
//Background and Video events
0,0,"BG.jpg",0,0
//Break Periods
//Storyboard Layer 0 (Background)
//Storyboard Layer 1 (Fail)
//Storyboard Layer 2 (Pass)
//Storyboard Layer 3 (Foreground)
//Storyboard Sound Samples
Sample,10990,0,"reverse snare.wav",60
Sample,11164,0,"C#5c.mp3",60
Sample,11164,0,"Break impact.wav",60
Sample,11164,0,"A4b1.mp3",60
Sample,11164,0,"fC#6.wav",60
Sample,11164,0,"A4.wav",60
Sample,11164,0,"soft-hitwhistle10.wav",70
Sample,11339,0,"A4.wav",60
Sample,11513,0,"A4.wav",60
Sample,11513,0,"soft-hitclap10.wav",70
Sample,11687,0,"A4.wav",60
Sample,11862,0,"A4.wav",60
Sample,12036,0,"A4.wav",60
Sample,12036,0,"soft-hitwhistle10.wav",70
Sample,12211,0,"A4.wav",60
Sample,12211,0,"soft-hitclap10.wav",70
Sample,12385,0,"A4.wav",60
Sample,12560,0,"A4.wav",60
Sample,12560,0,"soft-hitwhistle10.wav",70
Sample,12734,0,"A4.wav",60
Sample,12908,0,"A4.wav",60
Sample,12908,0,"soft-hitclap10.wav",70
Sample,13083,0,"A4.wav",60
Sample,13257,0,"fD6.wav",60
Sample,13257,0,"A4.wav",60
Sample,13432,0,"soft-hitwhistle10.wav",70
Sample,13432,0,"A4.wav",60
Sample,13606,0,"soft-hitclap10.wav",70
Sample,13606,0,"A4.wav",60
Sample,13780,0,"fA5.wav",60
Sample,13780,0,"A4.wav",60
Sample,13955,0,"B4b1.mp3",60
Sample,13955,0,"soft-hitwhistle10.wav",70
Sample,13955,0,"fB5.wav",60
Sample,13955,0,"B4.wav",60
Sample,13955,0,"B4c.mp3",60
Sample,14129,0,"B4.wav",60
Sample,14304,0,"soft-hitclap10.wav",70
Sample,14304,0,"B4.wav",60
Sample,14478,0,"B4.wav",60
Sample,14478,0,"fE6.wav",60
Sample,14653,0,"B4.wav",60
Sample,14827,0,"B4.wav",60
Sample,14827,0,"soft-hitwhistle10.wav",70
Sample,15001,0,"soft-hitclap10.wav",70
Sample,15001,0,"B4.wav",60
Sample,15176,0,"B4.wav",60
Sample,15350,0,"B4.wav",60
Sample,15350,0,"soft-hitwhistle10.wav",70
Sample,15525,0,"B4.wav",60
Sample,15699,0,"B4.wav",60
Sample,15699,0,"soft-hitclap10.wav",70
Sample,15874,0,"B4.wav",60
Sample,16048,0,"E5.wav",60
Sample,16048,0,"f2C#6.wav",60
Sample,16222,0,"soft-hitwhistle10.wav",70
Sample,16222,0,"E5.wav",60
Sample,16397,0,"f2E6.wav",60
Sample,16397,0,"E5.wav",60
Sample,16397,0,"soft-hitclap10.wav",70
Sample,16571,0,"E5.wav",60
Sample,16746,0,"A41.wav",60
Sample,16746,0,"soft-hitwhistle10.wav",70
Sample,16746,0,"f2D6.wav",60
Sample,16746,0,"D5c.mp3",60
Sample,16746,0,"D5b1.mp3",60
Sample,16746,0,"white noise up.mp3",50
Sample,16920,0,"A41.wav",60
Sample,17094,0,"f3C#6.wav",60
Sample,17094,0,"A41.wav",60
Sample,17094,0,"soft-hitclap10.wav",70
Sample,17269,0,"A41.wav",60
Sample,17269,0,"f2A5.wav",60
Sample,17443,0,"B41.wav",60
Sample,17618,0,"soft-hitwhistle10.wav",70
Sample,17618,0,"B41.wav",60
Sample,17792,0,"B41.wav",60
Sample,17792,0,"soft-hitclap10.wav",70
Sample,17967,0,"B41.wav",60
Sample,18141,0,"soft-hitwhistle10.wav",70
Sample,18141,0,"B41.wav",60
Sample,18315,0,"B41.wav",60
Sample,18490,0,"B41.wav",60
Sample,18490,0,"soft-hitclap10.wav",70
Sample,18664,0,"B41.wav",60
Sample,18839,0,"f4C#6.wav",60
Sample,18839,0,"D5.wav",60
Sample,19013,0,"soft-hitwhistle10.wav",70
Sample,19013,0,"D5.wav",60
Sample,19187,0,"soft-hitclap10.wav",70
Sample,19187,0,"D5.wav",60
Sample,19362,0,"f2B5.wav",60
Sample,19362,0,"D5.wav",60
Sample,19536,0,"A4.wav",60
Sample,19536,0,"soft-hitwhistle10.wav",70
Sample,19536,0,"A4b1.mp3",60
Sample,19536,0,"A4c.mp3",60
Sample,19536,0,"f3A5.wav",60
Sample,19711,0,"A4.wav",60
Sample,19885,0,"A4.wav",60
Sample,19885,0,"soft-hitclap10.wav",70
Sample,20060,0,"A4.wav",60
Sample,20234,0,"A4.wav",60
Sample,20408,0,"A4.wav",60
Sample,20408,0,"soft-hitwhistle10.wav",70
Sample,20583,0,"A4.wav",60
Sample,20757,0,"A4.wav",60
Sample,20757,0,"f5C#6.wav",60
Sample,20932,0,"f3B5.wav",60
Sample,20932,0,"soft-hitwhistle10.wav",70
Sample,20932,0,"A4.wav",60
Sample,21106,0,"A4.wav",60
Sample,21280,0,"A4.wav",60
Sample,21455,0,"A4.wav",60
Sample,21455,0,"soft-hitwhistle10.wav",70
Sample,21629,0,"A4.wav",60
Sample,21804,0,"A4.wav",60
Sample,21978,0,"soft-hitwhistle10.wav",70
Sample,21978,0,"A4.wav",60
Sample,22153,0,"f4A5.wav",60
Sample,22153,0,"A4.wav",60
Sample,22327,0,"A4b1.mp3",60
Sample,22327,0,"f6C#6.wav",60
Sample,22327,0,"B4c2.mp3",60
Sample,22327,0,"A4b.wav",60
Sample,22327,0,"soft-hitwhistle10.wav",70
Sample,22501,0,"A4b.wav",60
Sample,22676,0,"A4b.wav",60
Sample,22850,0,"A4b.wav",60
Sample,22850,0,"soft-hitwhistle10.wav",70
Sample,23025,0,"A4b.wav",60
Sample,23199,0,"A4b.wav",60
Sample,23373,0,"A4b.wav",60
Sample,23373,0,"soft-hitwhistle10.wav",70
Sample,23548,0,"A4b.wav",60
Sample,23722,0,"A4d.wav",60
Sample,23722,0,"soft-hitwhistle10.wav",70
Sample,23897,0,"A4d.wav",60
Sample,24071,0,"A4d.wav",60
Sample,24071,0,"soft-hitwhistle10.wav",70
Sample,24246,0,"A4d.wav",60
Sample,24246,0,"soft-hitwhistle10.wav",70
Sample,24420,0,"A4d.wav",60
Sample,24420,0,"soft click.wav",60
Sample,24594,0,"A4d.wav",60
Sample,24769,0,"A4d.wav",60
Sample,24943,0,"A4d.wav",60
Sample,25118,0,"soft-hitwhistle11.wav",15
Sample,25118,0,"C#5E4c2.mp3",60
Sample,25118,0,"white noise down.mp3",50
Sample,25118,0,"A4b1.mp3",60
Sample,25118,0,"pC#6.wav",45
Sample,25118,0,"A42.wav",60
Sample,25292,0,"A42.wav",60
Sample,25292,0,"pA5.wav",30
Sample,25467,0,"pB5.wav",30
Sample,25467,0,"soft-hitwhistle11.wav",15
Sample,25467,0,"A42.wav",60
Sample,25641,0,"pC#6.wav",45
Sample,25641,0,"A42.wav",60
Sample,25815,0,"pA5.wav",30
Sample,25815,0,"soft-hitwhistle11.wav",15
Sample,25815,0,"A42.wav",60
Sample,25990,0,"pB5.wav",30
Sample,25990,0,"A42.wav",60
Sample,26164,0,"pC#6.wav",45
Sample,26164,0,"A42.wav",60
Sample,26164,0,"soft-hitwhistle11.wav",15
Sample,26339,0,"A42.wav",60
Sample,26339,0,"pA5.wav",30
Sample,26513,0,"pB5.wav",30
Sample,26513,0,"A42.wav",60
Sample,26513,0,"soft-hitwhistle11.wav",15
Sample,26687,0,"pC#6.wav",45
Sample,26687,0,"A42.wav",60
Sample,26862,0,"A42.wav",60
Sample,26862,0,"soft-hitwhistle11.wav",15
Sample,26862,0,"pA5.wav",30
Sample,27036,0,"A42.wav",60
Sample,27036,0,"pB5.wav",30
Sample,27211,0,"soft-hitwhistle11.wav",15
Sample,27211,0,"pC#6.wav",45
Sample,27211,0,"A42.wav",60
Sample,27385,0,"A42.wav",60
Sample,27385,0,"pA5.wav",30
Sample,27560,0,"A42.wav",60
Sample,27560,0,"pB5.wav",30
Sample,27560,0,"soft-hitwhistle11.wav",15
Sample,27734,0,"pC#6.wav",45
Sample,27734,0,"A42.wav",60
Sample,27908,0,"E4b1.mp3",60
Sample,27908,0,"pG#5.wav",45
Sample,27908,0,"soft-hitwhistle12.wav",15
Sample,27908,0,"E42.wav",60
Sample,27908,0,"G#4c2.mp3",60
Sample,28083,0,"E42.wav",60
Sample,28083,0,"pE5.wav",30
Sample,28257,0,"E42.wav",60
Sample,28257,0,"soft-hitwhistle12.wav",15
Sample,28257,0,"pF#5.wav",30
Sample,28432,0,"pG#5.wav",45
Sample,28432,0,"E42.wav",60
Sample,28606,0,"soft-hitwhistle12.wav",15
Sample,28606,0,"E42.wav",60
Sample,28606,0,"pE5.wav",30
Sample,28780,0,"E42.wav",60
Sample,28780,0,"pF#5.wav",30
Sample,28955,0,"E42.wav",60
Sample,28955,0,"soft-hitwhistle12.wav",15
Sample,28955,0,"pG#5.wav",45
Sample,29129,0,"pE5.wav",30
Sample,29129,0,"E42.wav",60
Sample,29304,0,"soft-hitwhistle12.wav",15
Sample,29304,0,"pF#5.wav",30
Sample,29304,0,"E42.wav",60
Sample,29478,0,"E42.wav",60
Sample,29478,0,"pG#5.wav",45
Sample,29653,0,"pE5.wav",30
Sample,29653,0,"soft-hitwhistle12.wav",15
Sample,29653,0,"E42.wav",60
Sample,29827,0,"pF#5.wav",30
Sample,29827,0,"E42.wav",60
Sample,30001,0,"E42.wav",60
Sample,30001,0,"pG#5.wav",45
Sample,30001,0,"soft-hitwhistle12.wav",15
Sample,30176,0,"E42.wav",60
Sample,30176,0,"pE5.wav",30
Sample,30350,0,"E42.wav",60
Sample,30350,0,"soft-hitwhistle12.wav",15
Sample,30350,0,"pF#5.wav",30
Sample,30525,0,"E42.wav",60
Sample,30525,0,"pG#5.wav",45
Sample,30699,0,"soft-hitwhistle13.wav",15
Sample,30699,0,"pC#6.wav",45
Sample,30699,0,"F#4b1.mp3",60
Sample,30699,0,"C#5F#4c2.mp3",60
Sample,30699,0,"F#42.wav",60
Sample,30873,0,"pA5.wav",30
Sample,30873,0,"F#42.wav",60
Sample,31048,0,"F#42.wav",60
Sample,31048,0,"pB5.wav",30
Sample,31048,0,"soft-hitwhistle13.wav",15
Sample,31222,0,"pC#6.wav",45
Sample,31222,0,"F#42.wav",60
Sample,31397,0,"soft-hitwhistle13.wav",15
Sample,31397,0,"F#42.wav",60
Sample,31397,0,"pA5.wav",30
Sample,31571,0,"F#42.wav",60
Sample,31571,0,"pB5.wav",30
Sample,31746,0,"pC#6.wav",45
Sample,31746,0,"F#42.wav",60
Sample,31746,0,"soft-hitwhistle13.wav",15
Sample,31920,0,"pA5.wav",30
Sample,31920,0,"F#42.wav",60
Sample,32094,0,"pB5.wav",30
Sample,32094,0,"F#42.wav",60
Sample,32094,0,"soft-hitwhistle13.wav",15
Sample,32269,0,"F#42.wav",60
Sample,32269,0,"pC#6.wav",45
Sample,32443,0,"F#42.wav",60
Sample,32443,0,"pA5.wav",30
Sample,32443,0,"soft-hitwhistle13.wav",15
Sample,32618,0,"pB5.wav",30
Sample,32618,0,"F#42.wav",60
Sample,32792,0,"pC#6.wav",45
Sample,32792,0,"soft-hitwhistle13.wav",15
Sample,32792,0,"F#42.wav",60
Sample,32967,0,"F#42.wav",60
Sample,32967,0,"pA5.wav",30
Sample,33141,0,"pB5.wav",30
Sample,33141,0,"soft-hitwhistle13.wav",15
Sample,33141,0,"F#42.wav",60
Sample,33315,0,"F#42.wav",60
Sample,33315,0,"pC#6.wav",45
Sample,33490,0,"D4b1.mp3",60
Sample,33490,0,"pD6.wav",45
Sample,33490,0,"soft-hitwhistle14.wav",15
Sample,33490,0,"D42.wav",60
Sample,33490,0,"D4c2.mp3",60
Sample,33664,0,"D42.wav",60
Sample,33664,0,"pA5.wav",30
Sample,33839,0,"D42.wav",60
Sample,33839,0,"soft-hitwhistle14.wav",15
Sample,33839,0,"pC#6.wav",30
Sample,34013,0,"pD6.wav",45
Sample,34013,0,"D42.wav",60
Sample,34187,0,"soft-hitwhistle14.wav",15
Sample,34187,0,"D42.wav",60
Sample,34187,0,"pA5.wav",30
Sample,34362,0,"pC#6.wav",30
Sample,34362,0,"D42.wav",60
Sample,34536,0,"pD6.wav",45
Sample,34536,0,"D42.wav",60
Sample,34536,0,"soft-hitwhistle14.wav",15
Sample,34711,0,"pA5.wav",30
Sample,34711,0,"D42.wav",60
Sample,34885,0,"soft-hitwhistle14.wav",15
Sample,34885,0,"pC#6.wav",30
Sample,34885,0,"D42.wav",60
Sample,35060,0,"D42.wav",60
Sample,35060,0,"pD6.wav",45
Sample,35234,0,"pA5.wav",30
Sample,35234,0,"soft-hitwhistle14.wav",15
Sample,35234,0,"D42.wav",60
Sample,35408,0,"pC#6.wav",30
Sample,35408,0,"D42.wav",60
Sample,35583,0,"pD6.wav",45
Sample,35583,0,"D42.wav",60
Sample,35583,0,"soft-hitwhistle14.wav",15
Sample,35757,0,"pA5.wav",30
Sample,35757,0,"D42.wav",60
Sample,35932,0,"pC#6.wav",30
Sample,35932,0,"D42.wav",60
Sample,35932,0,"soft-hitwhistle14.wav",15
Sample,36106,0,"D42.wav",60
Sample,36106,0,"pD6.wav",45
Sample,36280,0,"C#5E4c2.mp3",60
Sample,36280,0,"A4b1.mp3",60
Sample,36280,0,"A42.wav",60
Sample,36280,0,"pC#6.wav",45
Sample,36280,0,"soft-hitwhistle11.wav",15
Sample,36455,0,"pA5.wav",30
Sample,36455,0,"A42.wav",60
Sample,36629,0,"A42.wav",60
Sample,36629,0,"pB5.wav",30
Sample,36629,0,"soft-hitwhistle11.wav",15
Sample,36804,0,"pC#6.wav",45
Sample,36804,0,"A42.wav",60
Sample,36978,0,"pA5.wav",30
Sample,36978,0,"A42.wav",60
Sample,36978,0,"soft-hitwhistle11.wav",15
Sample,37153,0,"A42.wav",60
Sample,37153,0,"pB5.wav",30
Sample,37327,0,"soft-hitwhistle11.wav",15
Sample,37327,0,"A42.wav",60
Sample,37327,0,"pC#6.wav",45
Sample,37501,0,"pA5.wav",30
Sample,37501,0,"A42.wav",60
Sample,37676,0,"A42.wav",60
Sample,37676,0,"pB5.wav",30
Sample,37676,0,"soft-hitwhistle11.wav",15
Sample,37850,0,"pC#6.wav",45
Sample,37850,0,"A42.wav",60
Sample,38025,0,"soft-hitwhistle11.wav",15
Sample,38025,0,"A42.wav",60
Sample,38025,0,"pA5.wav",30
Sample,38199,0,"A42.wav",60
Sample,38199,0,"pB5.wav",30
Sample,38374,0,"pC#6.wav",45
Sample,38374,0,"A42.wav",60
Sample,38374,0,"soft-hitwhistle11.wav",15
Sample,38548,0,"pA5.wav",30
Sample,38548,0,"A42.wav",60
Sample,38722,0,"pB5.wav",30
Sample,38722,0,"A42.wav",60
Sample,38722,0,"soft-hitwhistle11.wav",15
Sample,38897,0,"A42.wav",60
Sample,38897,0,"pC#6.wav",45
Sample,39071,0,"G#4c2.mp3",60
Sample,39071,0,"E42.wav",60
Sample,39071,0,"soft-hitwhistle12.wav",15
Sample,39071,0,"E4b1.mp3",60
Sample,39071,0,"pB5.wav",45
Sample,39246,0,"E42.wav",60
Sample,39246,0,"pF#5.wav",30
Sample,39420,0,"soft-hitwhistle12.wav",15
Sample,39420,0,"pG#5.wav",30
Sample,39420,0,"E42.wav",60
Sample,39594,0,"pB5.wav",45
Sample,39594,0,"E42.wav",60
Sample,39769,0,"E42.wav",60
Sample,39769,0,"soft-hitwhistle12.wav",15
Sample,39769,0,"pF#5.wav",30
Sample,39943,0,"pG#5.wav",30
Sample,39943,0,"E42.wav",60
Sample,40118,0,"soft-hitwhistle12.wav",15
Sample,40118,0,"pB5.wav",45
Sample,40118,0,"E42.wav",60
Sample,40292,0,"pF#5.wav",30
Sample,40292,0,"E42.wav",60
Sample,40467,0,"soft-hitwhistle12.wav",15
Sample,40467,0,"E42.wav",60
Sample,40467,0,"pG#5.wav",30
Sample,40641,0,"pB5.wav",45
Sample,40641,0,"E42.wav",60
Sample,40815,0,"pF#5.wav",30
Sample,40815,0,"soft-hitwhistle12.wav",15
Sample,40815,0,"E42.wav",60
Sample,40990,0,"pG#5.wav",30
Sample,40990,0,"E42.wav",60
Sample,41164,0,"E42.wav",60
Sample,41164,0,"soft-hitwhistle12.wav",15
Sample,41164,0,"pB5.wav",45
Sample,41339,0,"E42.wav",60
Sample,41339,0,"pF#5.wav",30
Sample,41513,0,"soft-hitwhistle12.wav",15
Sample,41513,0,"E42.wav",60
Sample,41513,0,"pG#5.wav",30
Sample,41687,0,"pB5.wav",45
Sample,41687,0,"E42.wav",60
Sample,41862,0,"soft-hitwhistle14.wav",15
Sample,41862,0,"D4b1.mp3",60
Sample,41862,0,"D42.wav",60
Sample,41862,0,"pA5.wav",45
Sample,41862,0,"A4A5c3.mp3",45
Sample,41862,0,"white noise up.mp3",50
Sample,42036,0,"D42.wav",60
Sample,42036,0,"pD5.wav",30
Sample,42211,0,"D42.wav",60
Sample,42211,0,"soft-hitwhistle14.wav",15
Sample,42211,0,"pF#5.wav",30
Sample,42385,0,"D42.wav",60
Sample,42385,0,"pA5.wav",45
Sample,42560,0,"D42.wav",60
Sample,42560,0,"pD5.wav",30
Sample,42560,0,"soft-hitwhistle14.wav",15
Sample,42734,0,"pF#5.wav",30
Sample,42734,0,"D42.wav",60
Sample,42908,0,"D42.wav",60
Sample,42908,0,"pA5.wav",45
Sample,42908,0,"soft-hitwhistle14.wav",15
Sample,43083,0,"pD5.wav",30
Sample,43083,0,"D42.wav",60
Sample,43257,0,"pF#5.wav",30
Sample,43257,0,"D42.wav",60
Sample,43257,0,"soft-hitwhistle14.wav",15
Sample,43432,0,"pA5.wav",45
Sample,43432,0,"D42.wav",60
Sample,43606,0,"D42.wav",60
Sample,43606,0,"pD5.wav",30
Sample,43606,0,"soft-hitwhistle14.wav",15
Sample,43780,0,"D42.wav",60
Sample,43780,0,"pF#5.wav",30
Sample,43955,0,"pG#5.wav",45
Sample,43955,0,"D42.wav",60
Sample,43955,0,"soft-hitwhistle14.wav",15
Sample,44129,0,"pD5.wav",30
Sample,44129,0,"D42.wav",60
Sample,44304,0,"D42.wav",60
Sample,44304,0,"pF#5.wav",30
Sample,44304,0,"soft-hitwhistle14.wav",15
Sample,44478,0,"D42.wav",60
Sample,44478,0,"pG#5.wav",45
Sample,44653,0,"A32.wav",60
Sample,44653,0,"A4C#5c3.mp3",60
Sample,44653,0,"A4b1.mp3",60
Sample,44653,0,"soft-hitwhistle11.wav",15
Sample,44653,0,"pA5.wav",45
Sample,44827,0,"pB4.wav",30
Sample,44827,0,"A32.wav",60
Sample,45001,0,"A32.wav",60
Sample,45001,0,"soft-hitwhistle11.wav",15
Sample,45001,0,"pF#5.wav",30
Sample,45176,0,"pA5.wav",45
Sample,45176,0,"A32.wav",60
Sample,45350,0,"soft-hitwhistle11.wav",15
Sample,45350,0,"pB4.wav",30
Sample,45350,0,"A32.wav",60
Sample,45525,0,"pF#5.wav",30
Sample,45525,0,"A32.wav",60
Sample,45699,0,"soft-hitwhistle11.wav",15
Sample,45699,0,"A32.wav",60
Sample,45699,0,"pA5.wav",45
Sample,45874,0,"pB4.wav",30
Sample,45874,0,"A32.wav",60
Sample,46048,0,"soft-hitwhistle11.wav",15
Sample,46048,0,"pF#5.wav",30
Sample,46048,0,"A32.wav",60
Sample,46222,0,"pA5.wav",45
Sample,46222,0,"A32.wav",60
Sample,46397,0,"A32.wav",60
Sample,46397,0,"soft-hitwhistle11.wav",15
Sample,46397,0,"pB4.wav",30
Sample,46571,0,"pF#5.wav",30
Sample,46571,0,"A32.wav",60
Sample,46746,0,"soft-hitwhistle11.wav",15
Sample,46746,0,"A32.wav",60
Sample,46746,0,"pA5.wav",45
Sample,46920,0,"A32.wav",60
Sample,46920,0,"pB4.wav",30
Sample,47094,0,"soft-hitwhistle11.wav",15
Sample,47094,0,"A32.wav",60
Sample,47094,0,"pF#5.wav",30
Sample,47269,0,"pA5.wav",45
Sample,47269,0,"A32.wav",60
Sample,47443,0,"soft-hitwhistle11.wav",15
Sample,47443,0,"A4b1.mp3",60
Sample,47443,0,"pA5.wav",45
Sample,47443,0,"A32.wav",60
Sample,47443,0,"A4D5c3.mp3",60
Sample,47618,0,"A32.wav",60
Sample,47618,0,"pB4.wav",30
Sample,47792,0,"pF#5.wav",30
Sample,47792,0,"soft-hitwhistle11.wav",15
Sample,47792,0,"A32.wav",60
Sample,47967,0,"pA5.wav",45
Sample,47967,0,"A32.wav",60
Sample,48141,0,"soft-hitwhistle11.wav",15
Sample,48141,0,"A32.wav",60
Sample,48141,0,"pB4.wav",30
Sample,48315,0,"pF#5.wav",30
Sample,48315,0,"A32.wav",60
Sample,48490,0,"A32.wav",60
Sample,48490,0,"soft-hitwhistle11.wav",15
Sample,48490,0,"pA5.wav",45
Sample,48664,0,"pB4.wav",30
Sample,48664,0,"A32.wav",60
Sample,48839,0,"pF#5.wav",30
Sample,48839,0,"soft-hitwhistle11.wav",15
Sample,48839,0,"A32.wav",60
Sample,49013,0,"A32.wav",60
Sample,49013,0,"pA5.wav",45
Sample,49187,0,"A32.wav",60
Sample,49187,0,"soft-hitwhistle11.wav",15
Sample,49187,0,"pB4.wav",30
Sample,49362,0,"A32.wav",60
Sample,49362,0,"pF#5.wav",30
Sample,49536,0,"A32.wav",60
Sample,49536,0,"pA5.wav",45
Sample,49536,0,"soft-hitwhistle11.wav",15
Sample,49711,0,"pB4.wav",30
Sample,49711,0,"A32.wav",60
Sample,49885,0,"A32.wav",60
Sample,49885,0,"soft-hitwhistle11.wav",15
Sample,49885,0,"pF#5.wav",30
Sample,50060,0,"pA5.wav",45
Sample,50060,0,"reverse snare.wav",60
Sample,50060,0,"A32.wav",60
Sample,50234,0,"soft-hitwhistle10.wav",80
Sample,50234,0,"pC#6.wav",58
Sample,50234,0,"loop1.wav",70
Sample,50234,0,"Break impact.wav",60
Sample,50234,0,"A4E53.wav",60
Sample,50234,0,"A4C#6c4.mp3",60
Sample,50234,0,"white noise down.mp3",50
Sample,50234,0,"A4b1.mp3",60
Sample,50408,0,"A4E53.wav",60
Sample,50408,0,"pA5.wav",37
Sample,50408,0,"loop2.wav",70
Sample,50496,0,"loop3.wav",70
Sample,50583,0,"A4E53.wav",60
Sample,50583,0,"pB5.wav",37
Sample,50583,0,"soft-hitclap10.wav",80
Sample,50583,0,"loop1.wav",70
Sample,50670,0,"loop3.wav",70
Sample,50757,0,"A4E53.wav",60
Sample,50757,0,"loop2.wav",70
Sample,50757,0,"pC#6.wav",58
Sample,50844,0,"loop3.wav",70
Sample,50932,0,"A4E53.wav",60
Sample,50932,0,"pA5.wav",37
Sample,50932,0,"loop1.wav",70
Sample,51106,0,"loop2.wav",70
Sample,51106,0,"soft-hitwhistle10.wav",80
Sample,51106,0,"A4E53.wav",60
Sample,51106,0,"pB5.wav",37
Sample,51193,0,"loop3.wav",70
Sample,51280,0,"pC#6.wav",58
Sample,51280,0,"soft-hitclap10.wav",80
Sample,51280,0,"A4E53.wav",60
Sample,51280,0,"loop1.wav",70
Sample,51368,0,"loop3.wav",70
Sample,51455,0,"A4E53.wav",60
Sample,51455,0,"pA5.wav",37
Sample,51455,0,"loop2.wav",70
Sample,51542,0,"loop3.wav",70
Sample,51629,0,"loop1.wav",70
Sample,51629,0,"A4E53.wav",60
Sample,51629,0,"pB5.wav",37
Sample,51629,0,"soft-hitwhistle10.wav",80
Sample,51804,0,"A4E53.wav",60
Sample,51804,0,"loop2.wav",70
Sample,51804,0,"pC#6.wav",58
Sample,51891,0,"loop3.wav",70
Sample,51978,0,"soft-hitclap10.wav",80
Sample,51978,0,"pA5.wav",37
Sample,51978,0,"A4E53.wav",60
Sample,51978,0,"loop1.wav",70
Sample,52065,0,"loop3.wav",70
Sample,52153,0,"A4E53.wav",60
Sample,52153,0,"loop2.wav",70
Sample,52153,0,"pB5.wav",37
Sample,52240,0,"loop3.wav",70
Sample,52327,0,"loop1.wav",70
Sample,52327,0,"pC#6.wav",58
Sample,52327,0,"A4E53.wav",60
Sample,52501,0,"soft-hitwhistle10.wav",80
Sample,52501,0,"pA5.wav",37
Sample,52501,0,"A4E53.wav",60
Sample,52501,0,"loop2.wav",70
Sample,52589,0,"loop3.wav",70
Sample,52676,0,"soft-hitclap10.wav",80
Sample,52676,0,"pB5.wav",37
Sample,52676,0,"loop1.wav",70
Sample,52676,0,"A4E53.wav",60
Sample,52763,0,"loop3.wav",70
Sample,52850,0,"A4E53.wav",60
Sample,52850,0,"pC#6.wav",58
Sample,52850,0,"loop2.wav",70
Sample,52937,0,"loop3.wav",70
Sample,53025,0,"soft-hitwhistle10.wav",80
Sample,53025,0,"pG#5.wav",58
Sample,53025,0,"G#4B5c4.mp3",60
Sample,53025,0,"E4B43.wav",60
Sample,53025,0,"loop1.wav",70
Sample,53025,0,"E4b1.mp3",60
Sample,53199,0,"E4B43.wav",60
Sample,53199,0,"pE5.wav",37
Sample,53199,0,"loop2.wav",70
Sample,53286,0,"loop3.wav",70
Sample,53373,0,"pF#5.wav",37
Sample,53373,0,"soft-hitclap10.wav",80
Sample,53373,0,"E4B43.wav",60
Sample,53374,0,"loop1.wav",70
Sample,53461,0,"loop3.wav",70
Sample,53548,0,"pG#5.wav",58
Sample,53548,0,"loop2.wav",70
Sample,53548,0,"E4B43.wav",60
Sample,53635,0,"loop3.wav",70
Sample,53722,0,"E4B43.wav",60
Sample,53722,0,"pE5.wav",37
Sample,53722,0,"loop1.wav",70
Sample,53897,0,"pF#5.wav",37
Sample,53897,0,"loop2.wav",70
Sample,53897,0,"soft-hitwhistle10.wav",80
Sample,53897,0,"E4B43.wav",60
Sample,53984,0,"loop3.wav",70
Sample,54071,0,"pG#5.wav",58
Sample,54071,0,"soft-hitclap10.wav",80
Sample,54071,0,"loop1.wav",70
Sample,54071,0,"E4B43.wav",60
Sample,54158,0,"loop3.wav",70
Sample,54246,0,"pE5.wav",37
Sample,54246,0,"E4B43.wav",60
Sample,54246,0,"loop2.wav",70
Sample,54333,0,"loop3.wav",70
Sample,54420,0,"pF#5.wav",37
Sample,54420,0,"E4B43.wav",60
Sample,54420,0,"soft-hitwhistle10.wav",80
Sample,54420,0,"loop1.wav",70
Sample,54594,0,"E4B43.wav",60
Sample,54594,0,"loop2.wav",70
Sample,54594,0,"pG#5.wav",58
Sample,54682,0,"loop3.wav",70
Sample,54769,0,"E4B43.wav",60
Sample,54769,0,"soft-hitclap10.wav",80
Sample,54769,0,"pE5.wav",37
Sample,54769,0,"loop1.wav",70
Sample,54856,0,"loop3.wav",70
Sample,54943,0,"E4B43.wav",60
Sample,54943,0,"loop2.wav",70
Sample,54943,0,"pF#5.wav",37
Sample,55030,0,"loop3.wav",70
Sample,55118,0,"loop1.wav",70
Sample,55118,0,"pG#5.wav",58
Sample,55118,0,"E4B43.wav",60
Sample,55292,0,"soft-hitwhistle10.wav",80
Sample,55292,0,"E4B43.wav",60
Sample,55292,0,"loop2.wav",70
Sample,55292,0,"pE5.wav",37
Sample,55379,0,"loop3.wav",70
Sample,55467,0,"loop1.wav",70
Sample,55467,0,"pF#5.wav",37
Sample,55467,0,"soft-hitclap10.wav",80
Sample,55467,0,"E4B43.wav",60
Sample,55554,0,"loop3.wav",70
Sample,55641,0,"E4B43.wav",60
Sample,55641,0,"pG#5.wav",58
Sample,55641,0,"loop2.wav",70
Sample,55728,0,"loop3.wav",70
Sample,55815,0,"soft-hitwhistle10.wav",80
Sample,55815,0,"F#4C#53.wav",60
Sample,55815,0,"A4C#6c4.mp3",60
Sample,55815,0,"loop1.wav",70
Sample,55815,0,"pC#6.wav",58
Sample,55815,0,"F#4b1.mp3",60
Sample,55990,0,"pA5.wav",37
Sample,55990,0,"loop2.wav",70
Sample,55990,0,"F#4C#53.wav",60
Sample,56077,0,"loop3.wav",70
Sample,56164,0,"F#4C#53.wav",60
Sample,56164,0,"loop1.wav",70
Sample,56164,0,"soft-hitclap10.wav",80
Sample,56164,0,"pB5.wav",37
Sample,56251,0,"loop3.wav",70
Sample,56339,0,"loop2.wav",70
Sample,56339,0,"F#4C#53.wav",60
Sample,56339,0,"pC#6.wav",58
Sample,56426,0,"loop3.wav",70
Sample,56513,0,"pA5.wav",37
Sample,56513,0,"loop1.wav",70
Sample,56513,0,"F#4C#53.wav",60
Sample,56687,0,"soft-hitwhistle10.wav",80
Sample,56687,0,"loop2.wav",70
Sample,56687,0,"pB5.wav",37
Sample,56687,0,"F#4C#53.wav",60
Sample,56775,0,"loop3.wav",70
Sample,56862,0,"F#4C#53.wav",60
Sample,56862,0,"soft-hitclap10.wav",80
Sample,56862,0,"loop1.wav",70
Sample,56862,0,"pC#6.wav",58
Sample,56949,0,"loop3.wav",70
Sample,57036,0,"F#4C#53.wav",60
Sample,57036,0,"pA5.wav",37
Sample,57036,0,"loop2.wav",70
Sample,57124,0,"loop3.wav",70
Sample,57211,0,"soft-hitwhistle10.wav",80
Sample,57211,0,"F#4C#53.wav",60
Sample,57211,0,"loop1.wav",70
Sample,57211,0,"pB5.wav",37
Sample,57385,0,"loop2.wav",70
Sample,57385,0,"F#4C#53.wav",60
Sample,57385,0,"pC#6.wav",58
Sample,57472,0,"loop3.wav",70
Sample,57560,0,"F#4C#53.wav",60
Sample,57560,0,"loop1.wav",70
Sample,57560,0,"pA5.wav",37
Sample,57560,0,"soft-hitclap10.wav",80
Sample,57647,0,"loop3.wav",70
Sample,57734,0,"loop2.wav",70
Sample,57734,0,"pB5.wav",37
Sample,57734,0,"F#4C#53.wav",60
Sample,57821,0,"loop3.wav",70
Sample,57908,0,"pC#6.wav",58
Sample,57908,0,"loop1.wav",70
Sample,57908,0,"F#4C#53.wav",60
Sample,58083,0,"F#4C#53.wav",60
Sample,58083,0,"loop2.wav",70
Sample,58083,0,"pA5.wav",37
Sample,58083,0,"soft-hitwhistle10.wav",80
Sample,58170,0,"loop3.wav",70
Sample,58257,0,"F#4C#53.wav",60
Sample,58257,0,"loop1.wav",70
Sample,58257,0,"soft-hitclap10.wav",80
Sample,58257,0,"pB5.wav",37
Sample,58344,0,"loop3.wav",70
Sample,58432,0,"pC#6.wav",58
Sample,58432,0,"F#4C#53.wav",60
Sample,58432,0,"loop2.wav",70
Sample,58519,0,"loop3.wav",70
Sample,58606,0,"soft-hitwhistle10.wav",80
Sample,58606,0,"D4b1.mp3",60
Sample,58606,0,"A4D6c4.mp3",60
Sample,58606,0,"loop1.wav",70
Sample,58606,0,"D4A43.wav",60
Sample,58606,0,"pD6.wav",58
Sample,58780,0,"D4A43.wav",60
Sample,58780,0,"pA5.wav",37
Sample,58780,0,"loop2.wav",70
Sample,58868,0,"loop3.wav",70
Sample,58955,0,"D4A43.wav",60
Sample,58955,0,"soft-hitclap10.wav",80
Sample,58955,0,"pC#6.wav",37
Sample,58955,0,"loop1.wav",70
Sample,59042,0,"loop3.wav",70
Sample,59129,0,"loop2.wav",70
Sample,59129,0,"pD6.wav",58
Sample,59129,0,"D4A43.wav",60
Sample,59217,0,"loop3.wav",70
Sample,59304,0,"D4A43.wav",60
Sample,59304,0,"pA5.wav",37
Sample,59304,0,"loop1.wav",70
Sample,59478,0,"D4A43.wav",60
Sample,59478,0,"pC#6.wav",37
Sample,59478,0,"loop2.wav",70
Sample,59478,0,"soft-hitwhistle10.wav",80
Sample,59565,0,"loop3.wav",70
Sample,59653,0,"pD6.wav",58
Sample,59653,0,"soft-hitclap10.wav",80
Sample,59653,0,"D4A43.wav",60
Sample,59653,0,"loop1.wav",70
Sample,59740,0,"loop3.wav",70
Sample,59827,0,"D4A43.wav",60
Sample,59827,0,"pA5.wav",37
Sample,59827,0,"loop2.wav",70
Sample,59914,0,"loop3.wav",70
Sample,60001,0,"soft-hitwhistle10.wav",80
Sample,60001,0,"pC#6.wav",37
Sample,60001,0,"loop1.wav",70
Sample,60001,0,"D4A43.wav",60
Sample,60176,0,"pD6.wav",58
Sample,60176,0,"D4A43.wav",60
Sample,60176,0,"loop2.wav",70
Sample,60263,0,"loop3.wav",70
Sample,60350,0,"soft-hitclap10.wav",80
Sample,60350,0,"pA5.wav",37
Sample,60350,0,"D4A43.wav",60
Sample,60350,0,"loop1.wav",70
Sample,60437,0,"loop3.wav",70
Sample,60525,0,"D4A43.wav",60
Sample,60525,0,"loop2.wav",70
Sample,60525,0,"pC#6.wav",37
Sample,60612,0,"loop3.wav",70
Sample,60699,0,"pD6.wav",58
Sample,60699,0,"loop1.wav",70
Sample,60699,0,"D4A43.wav",60
Sample,60873,0,"soft-hitwhistle10.wav",80
Sample,60873,0,"D4A43.wav",60
Sample,60873,0,"pA5.wav",37
Sample,60874,0,"loop2.wav",70
Sample,60961,0,"loop3.wav",70
Sample,61048,0,"loop1.wav",70
Sample,61048,0,"pC#6.wav",37
Sample,61048,0,"D4A43.wav",60
Sample,61048,0,"soft-hitclap10.wav",80
Sample,61135,0,"loop3.wav",70
Sample,61222,0,"D4A43.wav",60
Sample,61222,0,"pD6.wav",58
Sample,61222,0,"loop2.wav",70
Sample,61310,0,"loop3.wav",70
Sample,61397,0,"A4E53.wav",60
Sample,61397,0,"loop1.wav",70
Sample,61397,0,"soft-hitwhistle10.wav",80
Sample,61397,0,"A4b1.mp3",60
Sample,61397,0,"A4C#6c4.mp3",60
Sample,61397,0,"pC#6.wav",58
Sample,61571,0,"pA5.wav",37
Sample,61571,0,"loop2.wav",70
Sample,61571,0,"A4E53.wav",60
Sample,61658,0,"loop3.wav",70
Sample,61746,0,"loop1.wav",70
Sample,61746,0,"A4E53.wav",60
Sample,61746,0,"soft-hitclap10.wav",80
Sample,61746,0,"pB5.wav",37
Sample,61833,0,"loop3.wav",70
Sample,61920,0,"pC#6.wav",58
Sample,61920,0,"A4E53.wav",60
Sample,61920,0,"loop2.wav",70
Sample,62007,0,"loop3.wav",70
Sample,62094,0,"A4E53.wav",60
Sample,62094,0,"loop1.wav",70
Sample,62094,0,"pA5.wav",37
Sample,62269,0,"pB5.wav",37
Sample,62269,0,"A4E53.wav",60
Sample,62269,0,"loop2.wav",70
Sample,62269,0,"soft-hitwhistle10.wav",80
Sample,62356,0,"loop3.wav",70
Sample,62443,0,"A4E53.wav",60
Sample,62443,0,"loop1.wav",70
Sample,62443,0,"pC#6.wav",58
Sample,62443,0,"soft-hitclap10.wav",80
Sample,62530,0,"loop3.wav",70
Sample,62618,0,"pA5.wav",37
Sample,62618,0,"loop2.wav",70
Sample,62618,0,"A4E53.wav",60
Sample,62705,0,"loop3.wav",70
Sample,62792,0,"A4E53.wav",60
Sample,62792,0,"pB5.wav",37
Sample,62792,0,"loop1.wav",70
Sample,62792,0,"soft-hitwhistle10.wav",80
Sample,62967,0,"pC#6.wav",58
Sample,62967,0,"A4E53.wav",60
Sample,62967,0,"loop2.wav",70
Sample,63054,0,"loop3.wav",70
Sample,63141,0,"loop1.wav",70
Sample,63141,0,"A4E53.wav",60
Sample,63141,0,"soft-hitclap10.wav",80
Sample,63141,0,"pA5.wav",37
Sample,63228,0,"loop3.wav",70
Sample,63315,0,"pB5.wav",37
Sample,63315,0,"A4E53.wav",60
Sample,63315,0,"loop2.wav",70
Sample,63403,0,"loop3.wav",70
Sample,63490,0,"loop1.wav",70
Sample,63490,0,"A4E53.wav",60
Sample,63490,0,"pC#6.wav",58
Sample,63664,0,"A4E53.wav",60
Sample,63664,0,"soft-hitwhistle10.wav",80
Sample,63664,0,"loop2.wav",70
Sample,63664,0,"pA5.wav",37
Sample,63751,0,"loop3.wav",70
Sample,63839,0,"A4E53.wav",60
Sample,63839,0,"soft-hitclap10.wav",80
Sample,63839,0,"pB5.wav",37
Sample,63839,0,"loop1.wav",70
Sample,63926,0,"loop3.wav",70
Sample,64013,0,"pC#6.wav",58
Sample,64013,0,"A4E53.wav",60
Sample,64013,0,"loop2.wav",70
Sample,64100,0,"loop3.wav",70
Sample,64187,0,"soft-hitwhistle10.wav",80
Sample,64187,0,"loop1.wav",70
Sample,64187,0,"E4b1.mp3",60
Sample,64187,0,"A4B5c4.mp3",60
Sample,64187,0,"E4B43.wav",60
Sample,64187,0,"pB5.wav",58
Sample,64362,0,"loop2.wav",70
Sample,64362,0,"E4B43.wav",60
Sample,64362,0,"pF#5.wav",37
Sample,64449,0,"loop3.wav",70
Sample,64536,0,"pG#5.wav",37
Sample,64536,0,"E4B43.wav",60
Sample,64536,0,"loop1.wav",70
Sample,64536,0,"soft-hitclap10.wav",80
Sample,64624,0,"loop3.wav",70
Sample,64711,0,"E4B43.wav",60
Sample,64711,0,"pB5.wav",58
Sample,64711,0,"loop2.wav",70
Sample,64798,0,"loop3.wav",70
Sample,64885,0,"pF#5.wav",37
Sample,64885,0,"loop1.wav",70
Sample,64885,0,"E4B43.wav",60
Sample,65060,0,"pG#5.wav",37
Sample,65060,0,"soft-hitwhistle10.wav",80
Sample,65060,0,"E4B43.wav",60
Sample,65060,0,"loop2.wav",70
Sample,65147,0,"loop3.wav",70
Sample,65234,0,"loop1.wav",70
Sample,65234,0,"E4B43.wav",60
Sample,65234,0,"pB5.wav",58
Sample,65234,0,"soft-hitclap10.wav",80
Sample,65321,0,"loop3.wav",70
Sample,65408,0,"loop2.wav",70
Sample,65408,0,"pF#5.wav",37
Sample,65408,0,"E4B43.wav",60
Sample,65496,0,"loop3.wav",70
Sample,65583,0,"loop1.wav",70
Sample,65583,0,"soft-hitwhistle10.wav",80
Sample,65583,0,"pG#5.wav",37
Sample,65583,0,"E4B43.wav",60
Sample,65757,0,"E4B43.wav",60
Sample,65757,0,"pB5.wav",58
Sample,65757,0,"loop2.wav",70
Sample,65844,0,"loop3.wav",70
Sample,65932,0,"loop1.wav",70
Sample,65932,0,"pF#5.wav",37
Sample,65932,0,"soft-hitclap10.wav",80
Sample,65932,0,"E4B43.wav",60
Sample,66019,0,"loop3.wav",70
Sample,66106,0,"E4B43.wav",60
Sample,66106,0,"loop2.wav",70
Sample,66106,0,"pG#5.wav",37
Sample,66193,0,"loop3.wav",70
Sample,66280,0,"pB5.wav",58
Sample,66280,0,"loop1.wav",70
Sample,66280,0,"E4B43.wav",60
Sample,66455,0,"loop2.wav",70
Sample,66455,0,"pF#5.wav",37
Sample,66455,0,"E4B43.wav",60
Sample,66455,0,"soft-hitwhistle10.wav",80
Sample,66542,0,"loop3.wav",70
Sample,66629,0,"E4B43.wav",60
Sample,66629,0,"loop1.wav",70
Sample,66629,0,"soft-hitclap10.wav",80
Sample,66629,0,"pG#5.wav",37
Sample,66717,0,"loop3.wav",70
Sample,66804,0,"E4B43.wav",60
Sample,66804,0,"reverse snare.wav",60
Sample,66804,0,"loop2.wav",70
Sample,66804,0,"pB5.wav",58
Sample,66891,0,"loop3.wav",70
Sample,66978,0,"Break impact.wav",60
Sample,66978,0,"A4A5c4.mp3",60
Sample,66978,0,"D4A43.wav",60
Sample,66978,0,"pA5.wav",58
Sample,66978,0,"loop1.wav",50
Sample,66978,0,"D4b1.mp3",60
Sample,66978,0,"soft-hitwhistle10.wav",60
Sample,67153,0,"loop2.wav",50
Sample,67153,0,"pD5.wav",37
Sample,67153,0,"D4A43.wav",60
Sample,67240,0,"loop3.wav",50
Sample,67327,0,"pF#5.wav",37
Sample,67327,0,"loop1.wav",50
Sample,67327,0,"D4A43.wav",60
Sample,67414,0,"loop3.wav",50
Sample,67501,0,"loop2.wav",50
Sample,67501,0,"D4A43.wav",60
Sample,67501,0,"soft-hitwhistle10.wav",60
Sample,67501,0,"pA5.wav",58
Sample,67589,0,"loop3.wav",50
Sample,67676,0,"loop1.wav",50
Sample,67676,0,"D4A43.wav",60
Sample,67676,0,"pD5.wav",37
Sample,67850,0,"pF#5.wav",37
Sample,67850,0,"D4A43.wav",60
Sample,67850,0,"loop2.wav",50
Sample,67937,0,"loop3.wav",50
Sample,68025,0,"D4A43.wav",60
Sample,68025,0,"pA5.wav",58
Sample,68025,0,"loop1.wav",50
Sample,68025,0,"soft-hitwhistle10.wav",60
Sample,68112,0,"loop3.wav",50
Sample,68199,0,"D4A43.wav",60
Sample,68199,0,"loop2.wav",50
Sample,68199,0,"pD5.wav",37
Sample,68286,0,"loop3.wav",50
Sample,68373,0,"D4A43.wav",60
Sample,68373,0,"pF#5.wav",37
Sample,68374,0,"loop1.wav",50
Sample,68548,0,"D4A43.wav",60
Sample,68548,0,"pA5.wav",58
Sample,68548,0,"loop2.wav",50
Sample,68548,0,"soft-hitwhistle10.wav",60
Sample,68635,0,"loop3.wav",50
Sample,68722,0,"pD5.wav",37
Sample,68722,0,"soft-hitwhistle10.wav",60
Sample,68722,0,"loop1.wav",50
Sample,68722,0,"D4A43.wav",60
Sample,68810,0,"loop3.wav",50
Sample,68897,0,"pF#5.wav",37
Sample,68897,0,"loop2.wav",50
Sample,68897,0,"D4A43.wav",60
Sample,68984,0,"loop3.wav",50
Sample,69071,0,"pG#5.wav",58
Sample,69071,0,"loop1.wav",50
Sample,69071,0,"D4A43.wav",60
Sample,69071,0,"G#4E5c4.mp3",60
Sample,69246,0,"D4A43.wav",60
Sample,69246,0,"soft-hitwhistle10.wav",60
Sample,69246,0,"pD5.wav",37
Sample,69246,0,"loop2.wav",50
Sample,69333,0,"loop3.wav",50
Sample,69420,0,"loop1.wav",50
Sample,69420,0,"pF#5.wav",37
Sample,69420,0,"D4A43.wav",60
Sample,69507,0,"loop3.wav",50
Sample,69594,0,"loop2.wav",50
Sample,69594,0,"pG#5.wav",58
Sample,69594,0,"D4A43.wav",60
Sample,69682,0,"loop3.wav",50
Sample,69769,0,"E4A3.wav",60
Sample,69769,0,"E4b1.mp3",60
Sample,69769,0,"soft-hitwhistle10.wav",60
Sample,69769,0,"pA5.wav",58
Sample,69769,0,"E5A4c5.mp3",60
Sample,69769,0,"loop1.wav",50
Sample,69943,0,"pB4.wav",37
Sample,69943,0,"loop2.wav",50
Sample,69943,0,"E4A3.wav",60
Sample,70030,0,"loop3.wav",50
Sample,70118,0,"E4A3.wav",60
Sample,70118,0,"loop1.wav",50
Sample,70118,0,"pF#5.wav",37
Sample,70205,0,"loop3.wav",50
Sample,70292,0,"E4A3.wav",60
Sample,70292,0,"loop2.wav",50
Sample,70292,0,"soft-hitwhistle10.wav",60
Sample,70292,0,"pA5.wav",58
Sample,70379,0,"loop3.wav",50
Sample,70467,0,"E4A3.wav",60
Sample,70467,0,"pB4.wav",37
Sample,70467,0,"loop1.wav",50
Sample,70641,0,"pF#5.wav",37
Sample,70641,0,"E4A3.wav",60
Sample,70641,0,"loop2.wav",50
Sample,70728,0,"loop3.wav",50
Sample,70815,0,"loop1.wav",50
Sample,70815,0,"soft-hitwhistle10.wav",60
Sample,70815,0,"pA5.wav",58
Sample,70815,0,"E4A3.wav",60
Sample,70903,0,"loop3.wav",50
Sample,70990,0,"loop2.wav",50
Sample,70990,0,"pB4.wav",37
Sample,70990,0,"E4A3.wav",60
Sample,71077,0,"loop3.wav",50
Sample,71164,0,"loop1.wav",50
Sample,71164,0,"E4A3.wav",60
Sample,71164,0,"pF#5.wav",37
Sample,71339,0,"pA5.wav",58
Sample,71339,0,"loop2.wav",50
Sample,71339,0,"soft-hitwhistle10.wav",60
Sample,71339,0,"E4A3.wav",60
Sample,71426,0,"loop3.wav",50
Sample,71513,0,"E4A3.wav",60
Sample,71513,0,"soft-hitwhistle10.wav",60
Sample,71513,0,"loop1.wav",50
Sample,71513,0,"pB4.wav",37
Sample,71600,0,"loop3.wav",50
Sample,71687,0,"loop2.wav",50
Sample,71687,0,"E4A3.wav",60
Sample,71687,0,"pF#5.wav",37
Sample,71687,0,"soft-hitwhistle31.wav",50
Sample,71775,0,"loop3.wav",50
Sample,71862,0,"E4A3.wav",60
Sample,71862,0,"loop1.wav",50
Sample,71862,0,"soft-hitwhistle32.wav",50
Sample,71862,0,"pA5.wav",58
Sample,72036,0,"loop2.wav",50
Sample,72036,0,"E4A3.wav",60
Sample,72036,0,"pB4.wav",37
Sample,72124,0,"loop3.wav",50
Sample,72211,0,"pF#5.wav",37
Sample,72211,0,"soft-hitclap10.wav",60
Sample,72211,0,"E4A3.wav",60
Sample,72211,0,"loop1.wav",50
Sample,72298,0,"loop3.wav",50
Sample,72385,0,"reverse snare.wav",60
Sample,72385,0,"loop2.wav",50
Sample,72385,0,"E4A3.wav",60
Sample,72385,0,"pA5.wav",58
Sample,72472,0,"loop3.wav",50
Sample,72560,0,"F#4b1.mp3",60
Sample,72560,0,"soft-hitwhistle33.wav",50
Sample,72560,0,"Break impact.wav",60
Sample,72560,0,"soft-hitwhistle10.wav",80
Sample,72560,0,"loop1.wav",70
Sample,72560,0,"E5G#4c5.mp3",60
Sample,72560,0,"F#4C#53.wav",60
Sample,72560,0,"pG#5.wav",58
Sample,72734,0,"F#4C#53.wav",60
Sample,72734,0,"pE5.wav",37
Sample,72734,0,"soft-hitwhistle31.wav",50
Sample,72734,0,"loop2.wav",70
Sample,72821,0,"loop3.wav",70
Sample,72908,0,"soft-hitclap10.wav",80
Sample,72908,0,"pF#5.wav",37
Sample,72908,0,"loop1.wav",70
Sample,72908,0,"F#4C#53.wav",60
Sample,72908,0,"soft-hitwhistle33.wav",50
Sample,72996,0,"loop3.wav",70
Sample,73083,0,"soft-hitwhistle34.wav",50
Sample,73083,0,"pG#5.wav",58
Sample,73083,0,"F#4C#53.wav",60
Sample,73083,0,"loop2.wav",70
Sample,73170,0,"loop3.wav",70
Sample,73257,0,"loop1.wav",70
Sample,73257,0,"pE5.wav",37
Sample,73257,0,"F#4C#53.wav",60
Sample,73432,0,"pF#5.wav",37
Sample,73432,0,"F#4C#53.wav",60
Sample,73432,0,"loop2.wav",70
Sample,73432,0,"soft-hitwhistle10.wav",80
Sample,73432,0,"soft-hitwhistle35.wav",50
Sample,73519,0,"loop3.wav",70
Sample,73606,0,"soft-hitclap10.wav",80
Sample,73606,0,"loop1.wav",70
Sample,73606,0,"F#4C#53.wav",60
Sample,73606,0,"pG#5.wav",58
Sample,73693,0,"loop3.wav",70
Sample,73780,0,"loop2.wav",70
Sample,73780,0,"F#4C#53.wav",60
Sample,73780,0,"pE5.wav",37
Sample,73868,0,"loop3.wav",70
Sample,73955,0,"soft-hitwhistle10.wav",80
Sample,73955,0,"loop1.wav",70
Sample,73955,0,"pF#5.wav",37
Sample,73955,0,"F#4C#53.wav",60
Sample,74129,0,"F#4C#53.wav",60
Sample,74129,0,"loop2.wav",70
Sample,74129,0,"pG#5.wav",58
Sample,74217,0,"loop3.wav",70
Sample,74304,0,"soft-hitclap10.wav",80
Sample,74304,0,"F#4C#53.wav",60
Sample,74304,0,"pE5.wav",37
Sample,74304,0,"loop1.wav",70
Sample,74391,0,"loop3.wav",70
Sample,74478,0,"loop2.wav",70
Sample,74478,0,"pF#5.wav",37
Sample,74478,0,"F#4C#53.wav",60
Sample,74565,0,"loop3.wav",70
Sample,74653,0,"loop1.wav",70
Sample,74653,0,"F#4C#53.wav",60
Sample,74653,0,"pG#5.wav",58
Sample,74827,0,"pE5.wav",37
Sample,74827,0,"loop2.wav",70
Sample,74827,0,"F#4C#53.wav",60
Sample,74827,0,"soft-hitwhistle10.wav",80
Sample,74914,0,"loop3.wav",70
Sample,75001,0,"F#4C#53.wav",60
Sample,75001,0,"loop1.wav",70
Sample,75001,0,"soft-hitclap10.wav",80
Sample,75001,0,"pF#5.wav",37
Sample,75089,0,"loop3.wav",70
Sample,75176,0,"F#4C#53.wav",60
Sample,75176,0,"soft-hitwhistle38.wav",50
Sample,75176,0,"loop2.wav",70
Sample,75176,0,"pG#5.wav",58
Sample,75263,0,"loop3.wav",70
Sample,75350,0,"loop1.wav",70
Sample,75350,0,"E5B4c5.mp3",60
Sample,75350,0,"E4b1.mp3",60
Sample,75350,0,"soft-hitwhistle10.wav",80
Sample,75350,0,"pB5.wav",58
Sample,75350,0,"E4B43.wav",60
Sample,75350,0,"soft-hitwhistle33.wav",50
Sample,75524,0,"soft-hitwhistle31.wav",50
Sample,75525,0,"loop2.wav",70
Sample,75525,0,"E4B43.wav",60
Sample,75525,0,"pF#5.wav",37
Sample,75612,0,"loop3.wav",70
Sample,75698,0,"soft-hitwhistle33.wav",50
Sample,75699,0,"loop1.wav",70
Sample,75699,0,"E4B43.wav",60
Sample,75699,0,"soft-hitclap10.wav",80
Sample,75699,0,"pG#5.wav",37
Sample,75786,0,"loop3.wav",70
Sample,75873,0,"E4B43.wav",60
Sample,75873,0,"pB5.wav",58
Sample,75873,0,"soft-hitwhistle34.wav",50
Sample,75874,0,"loop2.wav",70
Sample,75961,0,"loop3.wav",70
Sample,76048,0,"E4B43.wav",60
Sample,76048,0,"loop1.wav",70
Sample,76048,0,"pF#5.wav",37
Sample,76222,0,"soft-hitwhistle10.wav",80
Sample,76222,0,"E4B43.wav",60
Sample,76222,0,"pG#5.wav",37
Sample,76222,0,"soft-hitwhistle35.wav",50
Sample,76222,0,"loop2.wav",70
Sample,76310,0,"loop3.wav",70
Sample,76397,0,"soft-hitclap10.wav",80
Sample,76397,0,"E4B43.wav",60
Sample,76397,0,"pB5.wav",58
Sample,76397,0,"loop1.wav",70
Sample,76484,0,"loop3.wav",70
Sample,76571,0,"pF#5.wav",37
Sample,76571,0,"E4B43.wav",60
Sample,76571,0,"loop2.wav",70
Sample,76658,0,"loop3.wav",70
Sample,76746,0,"soft-hitwhistle10.wav",80
Sample,76746,0,"E4B43.wav",60
Sample,76746,0,"pG#5.wav",37
Sample,76746,0,"loop1.wav",70
Sample,76920,0,"pB5.wav",58
Sample,76920,0,"E4B43.wav",60
Sample,76920,0,"loop2.wav",70
Sample,77007,0,"loop3.wav",70
Sample,77094,0,"E4B43.wav",60
Sample,77094,0,"soft-hitclap10.wav",80
Sample,77094,0,"pF#5.wav",37
Sample,77094,0,"loop1.wav",70
Sample,77182,0,"loop3.wav",70
Sample,77269,0,"E4B43.wav",60
Sample,77269,0,"pG#5.wav",37
Sample,77269,0,"loop2.wav",70
Sample,77356,0,"loop3.wav",70
Sample,77443,0,"E4B43.wav",60
Sample,77443,0,"pB5.wav",58
Sample,77443,0,"loop1.wav",70
Sample,77618,0,"soft-hitwhistle10.wav",80
Sample,77618,0,"loop2.wav",70
Sample,77618,0,"pF#5.wav",37
Sample,77618,0,"E4B43.wav",60
Sample,77705,0,"loop3.wav",70
Sample,77792,0,"soft-hitclap10.wav",80
Sample,77792,0,"pG#5.wav",37
Sample,77792,0,"loop1.wav",70
Sample,77792,0,"E4B43.wav",60
Sample,77879,0,"loop3.wav",70
Sample,77967,0,"soft-hitwhistle35.wav",50
Sample,77967,0,"loop2.wav",70
Sample,77967,0,"E4B43.wav",60
Sample,77967,0,"pB5.wav",58
Sample,78054,0,"loop3.wav",70
Sample,78141,0,"pA5.wav",58
Sample,78141,0,"D4A43.wav",60
Sample,78141,0,"loop1.wav",70
Sample,78141,0,"D4b1.mp3",60
Sample,78141,0,"soft-hitwhistle33.wav",50
Sample,78141,0,"soft-hitwhistle10.wav",80
Sample,78141,0,"E5A4c5.mp3",60
Sample,78315,0,"soft-hitwhistle31.wav",50
Sample,78315,0,"pE5.wav",37
Sample,78315,0,"loop2.wav",70
Sample,78315,0,"D4A43.wav",60
Sample,78403,0,"loop3.wav",70
Sample,78489,0,"soft-hitwhistle33.wav",50
Sample,78490,0,"D4A43.wav",60
Sample,78490,0,"loop1.wav",70
Sample,78490,0,"soft-hitclap10.wav",80
Sample,78490,0,"pF#5.wav",37
Sample,78577,0,"loop3.wav",70
Sample,78664,0,"soft-hitwhistle34.wav",50
Sample,78664,0,"loop2.wav",70
Sample,78664,0,"pA5.wav",58
Sample,78664,0,"D4A43.wav",60
Sample,78751,0,"loop3.wav",70
Sample,78839,0,"D4A43.wav",60
Sample,78839,0,"loop1.wav",70
Sample,78839,0,"pE5.wav",37
Sample,79013,0,"loop2.wav",70
Sample,79013,0,"soft-hitwhistle38.wav",50
Sample,79013,0,"D4A43.wav",60
Sample,79013,0,"pF#5.wav",37
Sample,79013,0,"soft-hitwhistle10.wav",80
Sample,79100,0,"loop3.wav",70
Sample,79187,0,"pA5.wav",58
Sample,79187,0,"loop1.wav",70
Sample,79187,0,"soft-hitclap10.wav",80
Sample,79187,0,"D4A43.wav",60
Sample,79275,0,"loop3.wav",70
Sample,79362,0,"D4A43.wav",60
Sample,79362,0,"loop2.wav",70
Sample,79362,0,"pE5.wav",37
Sample,79449,0,"loop3.wav",70
Sample,79536,0,"soft-hitwhistle10.wav",80
Sample,79536,0,"D4B43.wav",60
Sample,79536,0,"loop1.wav",70
Sample,79536,0,"pF#5.wav",37
Sample,79711,0,"loop2.wav",70
Sample,79711,0,"D4B43.wav",60
Sample,79711,0,"pA5.wav",58
Sample,79798,0,"loop3.wav",70
Sample,79885,0,"pE5.wav",37
Sample,79885,0,"loop1.wav",70
Sample,79885,0,"soft-hitclap10.wav",80
Sample,79885,0,"D4B43.wav",60
Sample,79972,0,"loop3.wav",70
Sample,80060,0,"D4B43.wav",60
Sample,80060,0,"loop2.wav",70
Sample,80060,0,"pF#5.wav",37
Sample,80147,0,"loop3.wav",70
Sample,80234,0,"D4B43.wav",60
Sample,80234,0,"loop1.wav",70
Sample,80234,0,"pA5.wav",58
Sample,80408,0,"loop2.wav",70
Sample,80408,0,"D4B43.wav",60
Sample,80408,0,"pE5.wav",37
Sample,80408,0,"soft-hitwhistle10.wav",80
Sample,80496,0,"loop3.wav",70
Sample,80583,0,"D4B43.wav",60
Sample,80583,0,"loop1.wav",70
Sample,80583,0,"soft-hitclap10.wav",80
Sample,80583,0,"pF#5.wav",37
Sample,80670,0,"loop3.wav",70
Sample,80757,0,"D4B43.wav",60
Sample,80757,0,"soft-hitwhistle38.wav",50
Sample,80757,0,"loop2.wav",70
Sample,80757,0,"pA5.wav",58
Sample,80844,0,"loop3.wav",70
Sample,80931,0,"soft-hitwhistle33.wav",50
Sample,80932,0,"B3F#4.wav",60
Sample,80932,0,"pC#6.wav",58
Sample,80932,0,"B3b1.mp3",60
Sample,80932,0,"E5C#5c5.mp3",60
Sample,80932,0,"soft-hitwhistle10.wav",80
Sample,80932,0,"loop1.wav",70
Sample,81105,0,"soft-hitwhistle31.wav",50
Sample,81106,0,"loop2.wav",70
Sample,81106,0,"pA5.wav",37
Sample,81106,0,"B3F#4.wav",60
Sample,81193,0,"loop3.wav",70
Sample,81279,0,"soft-hitwhistle33.wav",50
Sample,81280,0,"soft-hitclap10.wav",80
Sample,81280,0,"B3F#4.wav",60
Sample,81280,0,"loop1.wav",70
Sample,81280,0,"pB5.wav",37
Sample,81368,0,"loop3.wav",70
Sample,81454,0,"soft-hitwhistle34.wav",50
Sample,81455,0,"pC#6.wav",58
Sample,81455,0,"B3F#4.wav",60
Sample,81455,0,"loop2.wav",70
Sample,81542,0,"loop3.wav",70
Sample,81629,0,"pA5.wav",37
Sample,81629,0,"loop1.wav",70
Sample,81629,0,"B3F#4.wav",60
Sample,81803,0,"soft-hitwhistle31.wav",50
Sample,81804,0,"soft-hitwhistle10.wav",80
Sample,81804,0,"loop2.wav",70
Sample,81804,0,"pB5.wav",37
Sample,81804,0,"B3F#4.wav",60
Sample,81891,0,"loop3.wav",70
Sample,81978,0,"soft-hitclap10.wav",80
Sample,81978,0,"loop1.wav",70
Sample,81978,0,"pC#6.wav",58
Sample,81978,0,"B3F#4.wav",60
Sample,82065,0,"loop3.wav",70
Sample,82153,0,"loop2.wav",70
Sample,82153,0,"pA5.wav",37
Sample,82153,0,"B3F#4.wav",60
Sample,82240,0,"loop3.wav",70
Sample,82327,0,"soft-hitwhistle10.wav",80
Sample,82327,0,"loop1.wav",70
Sample,82327,0,"pB5.wav",37
Sample,82327,0,"B3F#4.wav",60
Sample,82501,0,"pC#6.wav",58
Sample,82501,0,"B3F#4.wav",60
Sample,82501,0,"loop2.wav",70
Sample,82589,0,"loop3.wav",70
Sample,82676,0,"B3F#4.wav",60
Sample,82676,0,"pA5.wav",37
Sample,82676,0,"soft-hitclap10.wav",80
Sample,82676,0,"loop1.wav",70
Sample,82763,0,"loop3.wav",70
Sample,82850,0,"pB5.wav",37
Sample,82850,0,"loop2.wav",70
Sample,82850,0,"B3F#4.wav",60
Sample,82937,0,"loop3.wav",70
Sample,83025,0,"B3F#4.wav",60
Sample,83025,0,"pC#6.wav",58
Sample,83025,0,"loop1.wav",70
Sample,83199,0,"loop2.wav",70
Sample,83199,0,"soft-hitwhistle10.wav",80
Sample,83199,0,"B3F#4.wav",60
Sample,83199,0,"pA5.wav",37
Sample,83286,0,"loop3.wav",70
Sample,83373,0,"pB5.wav",37
Sample,83373,0,"B3F#4.wav",60
Sample,83373,0,"soft-hitclap10.wav",80
Sample,83374,0,"loop1.wav",70
Sample,83461,0,"loop3.wav",70
Sample,83548,0,"pC#6.wav",58
Sample,83548,0,"loop2.wav",70
Sample,83548,0,"B3F#4.wav",60
Sample,83548,0,"reverse snare.wav",60
Sample,83635,0,"loop3.wav",70
Sample,83722,0,"D4A43.wav",60
Sample,83722,0,"soft-hitclap9.wav",45
Sample,83722,0,"Break impact.wav",60
Sample,83722,0,"soft-hitwhistle10.wav",80
Sample,83722,0,"D4b1.mp3",60
Sample,83722,0,"A5E5c5.mp3",60
Sample,83722,0,"pE6.wav",58
Sample,83722,0,"white noise up.mp3",50
Sample,83897,0,"pB5.wav",37
Sample,83897,0,"D4A43.wav",60
Sample,84071,0,"soft-hitclap9.wav",45
Sample,84071,0,"pC#6.wav",37
Sample,84071,0,"D4A43.wav",60
Sample,84071,0,"soft-hitwhistle10.wav",80
Sample,84246,0,"D4A43.wav",60
Sample,84246,0,"pE6.wav",58
Sample,84420,0,"soft-hitwhistle10.wav",80
Sample,84420,0,"soft-hitclap9.wav",45
Sample,84420,0,"D4A43.wav",60
Sample,84420,0,"pB5.wav",37
Sample,84594,0,"pC#6.wav",37
Sample,84594,0,"D4A43.wav",60
Sample,84769,0,"soft-hitclap9.wav",45
Sample,84769,0,"D4A43.wav",60
Sample,84769,0,"pE6.wav",58
Sample,84769,0,"soft-hitwhistle10.wav",80
Sample,84943,0,"pB5.wav",37
Sample,84943,0,"D4A43.wav",60
Sample,85118,0,"soft-hitwhistle10.wav",80
Sample,85118,0,"soft-hitclap9.wav",45
Sample,85118,0,"D4A43.wav",60
Sample,85118,0,"pC#6.wav",37
Sample,85292,0,"D4A43.wav",60
Sample,85292,0,"pE6.wav",58
Sample,85467,0,"soft-hitclap9.wav",45
Sample,85467,0,"D4A43.wav",60
Sample,85467,0,"pB5.wav",37
Sample,85467,0,"soft-hitwhistle10.wav",80
Sample,85641,0,"D4A43.wav",60
Sample,85641,0,"pC#6.wav",37
Sample,85815,0,"D4A43.wav",60
Sample,85815,0,"soft-hitclap9.wav",45
Sample,85815,0,"soft-hitwhistle10.wav",80
Sample,85815,0,"pE6.wav",58
Sample,85990,0,"D4A43.wav",60
Sample,85990,0,"pB5.wav",37
Sample,86164,0,"soft-hitclap9.wav",45
Sample,86164,0,"pC#6.wav",37
Sample,86164,0,"D4A43.wav",60
Sample,86164,0,"soft-hitwhistle10.wav",80
Sample,86339,0,"pE6.wav",58
Sample,86339,0,"D4A43.wav",60
Sample,86513,0,"E4B43.wav",60
Sample,86513,0,"E6B5c5.mp3",60
Sample,86513,0,"E4b1.mp3",60
Sample,86513,0,"soft-hitwhistle10.wav",80
Sample,86513,0,"pA6.wav",58
Sample,86513,0,"soft-hitclap9.wav",45
Sample,86687,0,"soft-hitclap9.wav",45
Sample,86687,0,"E4B43.wav",60
Sample,86687,0,"pE6.wav",37
Sample,86687,0,"soft-hitwhistle10.wav",80
Sample,86862,0,"E4B43.wav",60
Sample,86862,0,"soft-hitclap9.wav",45
Sample,86862,0,"pF#6.wav",37
Sample,86862,0,"soft-hitwhistle10.wav",80
Sample,87036,0,"soft-hitclap9.wav",45
Sample,87036,0,"E4B43.wav",60
Sample,87036,0,"pA6.wav",58
Sample,87036,0,"soft-hitwhistle10.wav",80
Sample,87211,0,"E4B43.wav",60
Sample,87211,0,"soft-hitclap9.wav",45
Sample,87211,0,"soft-hitwhistle10.wav",80
Sample,87211,0,"pE6.wav",37
Sample,87385,0,"soft-hitclap9.wav",45
Sample,87385,0,"pF#6.wav",37
Sample,87385,0,"soft-hitwhistle10.wav",80
Sample,87385,0,"E4B43.wav",60
Sample,87560,0,"E4B43.wav",60
Sample,87560,0,"soft-hitclap9.wav",45
Sample,87560,0,"pA6.wav",58
Sample,87560,0,"soft-hitwhistle10.wav",80
Sample,87734,0,"soft-hitclap9.wav",45
Sample,87734,0,"pE6.wav",37
Sample,87734,0,"soft-hitwhistle10.wav",80
Sample,87734,0,"E4B43.wav",60
Sample,87908,0,"soft-hitwhistle9.wav",45
Sample,87908,0,"pF#6.wav",37
Sample,87908,0,"E4B43.wav",60
Sample,87996,0,"soft-hitwhistle9.wav",48
Sample,88083,0,"soft-hitwhistle9.wav",50
Sample,88083,0,"E4B43.wav",60
Sample,88083,0,"pA6.wav",58
Sample,88170,0,"soft-hitwhistle9.wav",53
Sample,88257,0,"soft-hitwhistle9.wav",56
Sample,88257,0,"E4B43.wav",60
Sample,88257,0,"pE6.wav",37
Sample,88344,0,"soft-hitwhistle9.wav",59
Sample,88432,0,"E4B43.wav",60
Sample,88432,0,"soft-hitwhistle9.wav",62
Sample,88432,0,"pF#6.wav",37
Sample,88519,0,"soft-hitwhistle9.wav",65
Sample,88606,0,"E4B43.wav",60
Sample,88606,0,"pA6.wav",58
Sample,88606,0,"soft-hitwhistle9.wav",68
Sample,88693,0,"soft-hitwhistle9.wav",71
Sample,88780,0,"soft-hitwhistle9.wav",74
Sample,88780,0,"pE6.wav",37
Sample,88780,0,"E4B43.wav",60
Sample,88868,0,"soft-hitwhistle9.wav",77
Sample,88955,0,"E4B43.wav",60
Sample,88955,0,"pF#6.wav",37
Sample,88955,0,"soft-hitwhistle9.wav",80
Sample,89129,0,"pB6.wav",58
Sample,89129,0,"soft-hitwhistle9.wav",83
Sample,89129,0,"E4B43.wav",60
Sample,90525,0,"R1.wav",60
Sample,90612,0,"R2.wav",60
Sample,90699,0,"R3.wav",60
Sample,90786,0,"R4.wav",70
Sample,90874,0,"R5.wav",70
Sample,90961,0,"R6.wav",70
Sample,91048,0,"R7.wav",75
Sample,91135,0,"R8.wav",75
Sample,91222,0,"R9.wav",75
Sample,91310,0,"R10.wav",65
Sample,91397,0,"R11.wav",60
Sample,91484,0,"R12.wav",55
Sample,91571,0,"R13.wav",45
Sample,91658,0,"R14.wav",35
Sample,91746,0,"reverse snare2.wav",60
Sample,91920,0,"reverse snare.wav",60
Sample,92094,0,"G#5D#54.wav",60
Sample,92094,0,"Break impact2.wav",80
Sample,92094,0,"soft-hitwhistle10.wav",85
Sample,92094,0,"D#5G#4c6.mp3",60
Sample,92094,0,"G#4b2.mp3",60
Sample,92094,0,"white noise down.mp3",50
Sample,92094,0,"Break impact.wav",60
Sample,92094,0,"loop1.wav",75
Sample,92094,0,"kick impact",60
Sample,92269,0,"loop2.wav",75
Sample,92269,0,"G#5D#54.wav",60
Sample,92356,0,"loop3.wav",75
Sample,92443,0,"loop1.wav",75
Sample,92443,0,"G#5D#54.wav",60
Sample,92443,0,"soft-hitclap10.wav",85
Sample,92530,0,"loop3.wav",75
Sample,92618,0,"loop2.wav",75
Sample,92618,0,"G#5D#54.wav",60
Sample,92705,0,"loop3.wav",75
Sample,92792,0,"loop1.wav",75
Sample,92792,0,"G#5D#54.wav",60
Sample,92967,0,"soft-hitwhistle10.wav",85
Sample,92967,0,"G#5D#54.wav",60
Sample,92967,0,"loop2.wav",75
Sample,93054,0,"loop3.wav",75
Sample,93141,0,"soft-hitclap10.wav",85
Sample,93141,0,"loop1.wav",75
Sample,93141,0,"G#5D#54.wav",60
Sample,93228,0,"loop3.wav",75
Sample,93315,0,"G#5D#54.wav",60
Sample,93315,0,"loop2.wav",75
Sample,93403,0,"loop3.wav",75
Sample,93490,0,"F5A#4c6.mp3",60
Sample,93490,0,"loop1.wav",75
Sample,93490,0,"A#5D#54.wav",60
Sample,93490,0,"A#4b2.mp3",60
Sample,93490,0,"soft-hitwhistle10.wav",85
Sample,93664,0,"A#5D#54.wav",60
Sample,93664,0,"loop2.wav",75
Sample,93751,0,"loop3.wav",75
Sample,93839,0,"A#5D#54.wav",60
Sample,93839,0,"soft-hitclap10.wav",85
Sample,93839,0,"loop1.wav",75
Sample,93926,0,"loop3.wav",75
Sample,94013,0,"A#5D#54.wav",60
Sample,94013,0,"loop2.wav",75
Sample,94100,0,"loop3.wav",75
Sample,94187,0,"A#5D#54.wav",60
Sample,94187,0,"loop1.wav",75
Sample,94362,0,"soft-hitwhistle10.wav",85
Sample,94362,0,"A#5D#54.wav",60
Sample,94362,0,"loop2.wav",75
Sample,94449,0,"loop3.wav",75
Sample,94536,0,"loop1.wav",75
Sample,94536,0,"soft-hitclap10.wav",85
Sample,94536,0,"A#5D#54.wav",60
Sample,94624,0,"loop3.wav",75
Sample,94711,0,"A#5D#54.wav",60
Sample,94711,0,"loop2.wav",75
Sample,94798,0,"loop3.wav",75
Sample,94885,0,"D#5b2.mp3",60
Sample,94885,0,"loop1.wav",75
Sample,94885,0,"soft-hitwhistle10.wav",85
Sample,94885,0,"A#5D#5c6.mp3",60
Sample,94885,0,"soft-hitwhistle24.wav",50
Sample,95060,0,"loop2.wav",75
Sample,95060,0,"soft-hitwhistle24.wav",50
Sample,95147,0,"loop3.wav",75
Sample,95234,0,"loop1.wav",75
Sample,95234,0,"soft-hitwhistle24.wav",50
Sample,95234,0,"soft-hitclap10.wav",85
Sample,95321,0,"loop3.wav",75
Sample,95408,0,"soft-hitwhistle25.wav",50
Sample,95408,0,"loop2.wav",75
Sample,95496,0,"loop3.wav",75
Sample,95583,0,"loop1.wav",75
Sample,95583,0,"soft-hitwhistle24.wav",50
Sample,95757,0,"loop2.wav",75
Sample,95757,0,"soft-hitwhistle10.wav",85
Sample,95757,0,"soft-hitwhistle24.wav",50
Sample,95844,0,"loop3.wav",75
Sample,95932,0,"soft-hitclap10.wav",85
Sample,95932,0,"loop1.wav",75
Sample,95932,0,"soft-hitwhistle25.wav",50
Sample,96019,0,"loop3.wav",75
Sample,96106,0,"soft-hitwhistle24.wav",50
Sample,96106,0,"loop2.wav",75
Sample,96193,0,"loop3.wav",75
Sample,96280,0,"soft-hitwhistle10.wav",85
Sample,96280,0,"soft-hitwhistle26.wav",50
Sample,96280,0,"G#5C5c6.mp3",60
Sample,96280,0,"G#4sb2.mp3",60
Sample,96280,0,"loop1.wav",75
Sample,96455,0,"loop2.wav",75
Sample,96455,0,"soft-hitwhistle26.wav",50
Sample,96542,0,"loop3.wav",75
Sample,96629,0,"soft-hitwhistle26.wav",50
Sample,96629,0,"loop1.wav",75
Sample,96629,0,"soft-hitclap10.wav",85
Sample,96717,0,"loop3.wav",75
Sample,96804,0,"loop2.wav",75
Sample,96804,0,"soft-hitwhistle26.wav",50
Sample,96891,0,"loop3.wav",75
Sample,96978,0,"loop1.wav",75
Sample,96978,0,"G4sb2.mp3",60
Sample,96978,0,"A#5c6.mp3",60
Sample,96978,0,"soft-hitwhistle27.wav",50
Sample,97153,0,"loop2.wav",75
Sample,97153,0,"soft-hitwhistle27.wav",50
Sample,97153,0,"soft-hitwhistle10.wav",85
Sample,97240,0,"loop3.wav",75
Sample,97327,0,"soft-hitwhistle27.wav",50
Sample,97327,0,"soft-hitclap10.wav",85
Sample,97327,0,"loop1.wav",75
Sample,97414,0,"loop3.wav",75
Sample,97501,0,"loop2.wav",75
Sample,97501,0,"soft-hitwhistle27.wav",50
Sample,97589,0,"loop3.wav",75
Sample,97676,0,"D#5G#4c6.mp3",60
Sample,97676,0,"soft-hitwhistle10.wav",85
Sample,97676,0,"loop1.wav",75
Sample,97676,0,"F4b2.mp3",60
Sample,97676,0,"C6F54.wav",60
Sample,97850,0,"loop2.wav",75
Sample,97850,0,"C6F54.wav",60
Sample,97937,0,"loop3.wav",75
Sample,98025,0,"loop1.wav",75
Sample,98025,0,"C6F54.wav",60
Sample,98025,0,"soft-hitclap10.wav",85
Sample,98112,0,"loop3.wav",75
Sample,98199,0,"C6F54.wav",60
Sample,98199,0,"loop2.wav",75
Sample,98286,0,"loop3.wav",75
Sample,98373,0,"C6F54.wav",60
Sample,98374,0,"loop1.wav",75
Sample,98548,0,"loop2.wav",75
Sample,98548,0,"C6F54.wav",60
Sample,98548,0,"soft-hitwhistle10.wav",85
Sample,98635,0,"loop3.wav",75
Sample,98722,0,"soft-hitclap10.wav",85
Sample,98722,0,"loop1.wav",75
Sample,98722,0,"C6F54.wav",60
Sample,98810,0,"loop3.wav",75
Sample,98897,0,"loop2.wav",75
Sample,98897,0,"C6F54.wav",60
Sample,98984,0,"loop3.wav",75
Sample,99071,0,"G#5C#54.wav",60
Sample,99071,0,"C#4b2.mp3",60
Sample,99071,0,"soft-hitwhistle10.wav",85
Sample,99071,0,"loop1.wav",75
Sample,99071,0,"A#4F4c6.mp3",60
Sample,99246,0,"loop2.wav",75
Sample,99246,0,"G#5C#54.wav",60
Sample,99333,0,"loop3.wav",75
Sample,99420,0,"loop1.wav",75
Sample,99420,0,"soft-hitclap10.wav",85
Sample,99420,0,"G#5C#54.wav",60
Sample,99507,0,"loop3.wav",75
Sample,99594,0,"G#5C#54.wav",60
Sample,99594,0,"loop2.wav",75
Sample,99682,0,"loop3.wav",75
Sample,99769,0,"loop1.wav",75
Sample,99769,0,"G#5C#54.wav",60
Sample,99943,0,"soft-hitwhistle10.wav",85
Sample,99943,0,"G#5C#54.wav",60
Sample,99943,0,"loop2.wav",75
Sample,100030,0,"loop3.wav",75
Sample,100118,0,"G#5C#54.wav",60
Sample,100118,0,"soft-hitclap10.wav",85
Sample,100118,0,"loop1.wav",75
Sample,100205,0,"loop3.wav",75
Sample,100292,0,"G#5C#54.wav",60
Sample,100292,0,"loop2.wav",75
Sample,100379,0,"loop3.wav",75
Sample,100467,0,"F5A#4c6.mp3",60
Sample,100467,0,"D#4b2.mp3",60
Sample,100467,0,"loop1.wav",75
Sample,100467,0,"soft-hitwhistle10.wav",85
Sample,100467,0,"A#5D#54.wav",60
Sample,100641,0,"loop2.wav",75
Sample,100641,0,"A#5D#54.wav",60
Sample,100728,0,"loop3.wav",75
Sample,100815,0,"soft-hitclap10.wav",85
Sample,100815,0,"loop1.wav",75
Sample,100815,0,"A#5D#54.wav",60
Sample,100903,0,"loop3.wav",75
Sample,100990,0,"A#5D#54.wav",60
Sample,100990,0,"loop2.wav",75
Sample,101077,0,"loop3.wav",75
Sample,101164,0,"A#5D#54.wav",60
Sample,101164,0,"loop1.wav",75
Sample,101339,0,"A#5D#54.wav",60
Sample,101339,0,"loop2.wav",75
Sample,101339,0,"soft-hitwhistle10.wav",85
Sample,101426,0,"loop3.wav",75
Sample,101513,0,"A#5D#54.wav",60
Sample,101513,0,"loop1.wav",75
Sample,101513,0,"soft-hitclap10.wav",85
Sample,101600,0,"loop3.wav",75
Sample,101687,0,"loop2.wav",75
Sample,101687,0,"A#5D#54.wav",60
Sample,101775,0,"loop3.wav",75
Sample,101862,0,"G#4sb2.mp3",60
Sample,101862,0,"soft-hitwhistle10.wav",85
Sample,101862,0,"G#4D#4c6.mp3",60
Sample,101862,0,"loop1.wav",75
Sample,101862,0,"G#54.wav",60
Sample,101862,0,"soft-hitclap8.wav",80
Sample,102036,0,"G#54.wav",60
Sample,102036,0,"loop2.wav",75
Sample,102124,0,"loop3.wav",75
Sample,102211,0,"G#54.wav",60
Sample,102211,0,"loop1.wav",75
Sample,102211,0,"soft-hitclap10.wav",85
Sample,102211,0,"soft-hitclap8.wav",90
Sample,102298,0,"loop3.wav",75
Sample,102385,0,"G#54.wav",60
Sample,102385,0,"loop2.wav",75
Sample,102472,0,"loop3.wav",75
Sample,102560,0,"G4sb2.mp3",60
Sample,102560,0,"loop1.wav",75
Sample,102560,0,"G54.wav",60
Sample,102560,0,"soft-hitclap8.wav",100
Sample,102560,0,"soft-hitclap10.wav",85
Sample,102734,0,"soft-hitwhistle10.wav",85
Sample,102734,0,"G54.wav",60
Sample,102734,0,"loop2.wav",75
Sample,102821,0,"soft-hitwhistle10.wav",85
Sample,102821,0,"loop3.wav",75
Sample,102908,0,"soft-hitclap10.wav",85
Sample,102908,0,"G54.wav",60
Sample,102908,0,"loop1.wav",75
Sample,102996,0,"loop3.wav",75
Sample,103083,0,"G54.wav",60
Sample,103083,0,"loop2.wav",75
Sample,103083,0,"reverse snare3.wav",60
Sample,103170,0,"loop3.wav",75
Sample,103257,0,"loop1.wav",75
Sample,103257,0,"soft-hitwhistle10.wav",85
Sample,103257,0,"Break impact.wav",60
Sample,103257,0,"D#5G#4c6.mp3",60
Sample,103257,0,"G#4b2.mp3",60
Sample,103257,0,"G#5D#54.wav",60
Sample,103257,0,"Break impact2.wav",60
Sample,103432,0,"G#5D#54.wav",60
Sample,103432,0,"loop2.wav",75
Sample,103519,0,"loop3.wav",75
Sample,103606,0,"G#5D#54.wav",60
Sample,103606,0,"soft-hitclap10.wav",85
Sample,103606,0,"loop1.wav",75
Sample,103693,0,"loop3.wav",75
Sample,103780,0,"G#5D#54.wav",60
Sample,103780,0,"loop2.wav",75
Sample,103868,0,"loop3.wav",75
Sample,103955,0,"G#5D#54.wav",60
Sample,103955,0,"loop1.wav",75
Sample,104129,0,"G#5D#54.wav",60
Sample,104129,0,"loop2.wav",75
Sample,104129,0,"soft-hitwhistle10.wav",85
Sample,104217,0,"loop3.wav",75
Sample,104304,0,"loop1.wav",75
Sample,104304,0,"soft-hitclap10.wav",85
Sample,104304,0,"G#5D#54.wav",60
Sample,104391,0,"loop3.wav",75
Sample,104478,0,"loop2.wav",75
Sample,104478,0,"G#5D#54.wav",60
Sample,104565,0,"loop3.wav",75
Sample,104653,0,"F5A#4c6.mp3",60
Sample,104653,0,"soft-hitwhistle10.wav",85
Sample,104653,0,"loop1.wav",75
Sample,104653,0,"A#5D#54.wav",60
Sample,104653,0,"A#4b2.mp3",60
Sample,104827,0,"loop2.wav",75
Sample,104827,0,"A#5D#54.wav",60
Sample,104914,0,"loop3.wav",75
Sample,105001,0,"soft-hitclap10.wav",85
Sample,105001,0,"loop1.wav",75
Sample,105001,0,"A#5D#54.wav",60
Sample,105089,0,"loop3.wav",75
Sample,105176,0,"A#5D#54.wav",60
Sample,105176,0,"loop2.wav",75
Sample,105263,0,"loop3.wav",75
Sample,105350,0,"A#5D#54.wav",60
Sample,105350,0,"loop1.wav",75
Sample,105525,0,"soft-hitwhistle10.wav",85
Sample,105525,0,"A#5D#54.wav",60
Sample,105525,0,"loop2.wav",75
Sample,105612,0,"loop3.wav",75
Sample,105699,0,"A#5D#54.wav",60
Sample,105699,0,"soft-hitclap10.wav",85
Sample,105699,0,"loop1.wav",75
Sample,105786,0,"loop3.wav",75
Sample,105873,0,"A#5D#54.wav",60
Sample,105874,0,"loop2.wav",75
Sample,105961,0,"loop3.wav",75
Sample,106048,0,"soft-hitwhistle24.wav",50
Sample,106048,0,"loop1.wav",75
Sample,106048,0,"soft-hitwhistle10.wav",85
Sample,106048,0,"A#5D#5c6.mp3",60
Sample,106048,0,"D#5b2.mp3",60
Sample,106222,0,"soft-hitwhistle24.wav",50
Sample,106222,0,"loop2.wav",75
Sample,106310,0,"loop3.wav",75
Sample,106397,0,"soft-hitwhistle24.wav",50
Sample,106397,0,"loop1.wav",75
Sample,106397,0,"soft-hitclap10.wav",85
Sample,106484,0,"loop3.wav",75
Sample,106571,0,"loop2.wav",75
Sample,106571,0,"soft-hitwhistle25.wav",50
Sample,106658,0,"loop3.wav",75
Sample,106746,0,"loop1.wav",75
Sample,106746,0,"soft-hitwhistle24.wav",50
Sample,106920,0,"soft-hitwhistle10.wav",85
Sample,106920,0,"soft-hitwhistle24.wav",50
Sample,106920,0,"loop2.wav",75
Sample,107007,0,"loop3.wav",75
Sample,107094,0,"soft-hitwhistle25.wav",50
Sample,107094,0,"soft-hitclap10.wav",85
Sample,107094,0,"loop1.wav",75
Sample,107182,0,"loop3.wav",75
Sample,107269,0,"loop2.wav",75
Sample,107269,0,"soft-hitwhistle24.wav",50
Sample,107356,0,"loop3.wav",75
Sample,107443,0,"loop1.wav",75
Sample,107443,0,"soft-hitwhistle26.wav",50
Sample,107443,0,"G#4sb2.mp3",60
Sample,107443,0,"G#5C5c6.mp3",60
Sample,107443,0,"soft-hitwhistle10.wav",85
Sample,107618,0,"soft-hitwhistle26.wav",50
Sample,107618,0,"loop2.wav",75
Sample,107705,0,"loop3.wav",75
Sample,107792,0,"soft-hitwhistle26.wav",50
Sample,107792,0,"soft-hitclap10.wav",85
Sample,107792,0,"loop1.wav",75
Sample,107879,0,"loop3.wav",75
Sample,107967,0,"loop2.wav",75
Sample,107967,0,"soft-hitwhistle26.wav",50
Sample,108054,0,"loop3.wav",75
Sample,108141,0,"G4sb2.mp3",60
Sample,108141,0,"soft-hitwhistle27.wav",50
Sample,108141,0,"loop1.wav",75
Sample,108141,0,"A#5c6.mp3",60
Sample,108315,0,"soft-hitwhistle10.wav",85
Sample,108315,0,"soft-hitwhistle27.wav",50
Sample,108315,0,"loop2.wav",75
Sample,108403,0,"loop3.wav",75
Sample,108490,0,"loop1.wav",75
Sample,108490,0,"soft-hitclap10.wav",85
Sample,108490,0,"soft-hitwhistle27.wav",50
Sample,108577,0,"loop3.wav",75
Sample,108664,0,"loop2.wav",75
Sample,108664,0,"soft-hitwhistle27.wav",50
Sample,108751,0,"loop3.wav",75
Sample,108839,0,"C6F54.wav",60
Sample,108839,0,"D#5G#4c6.mp3",60
Sample,108839,0,"F4b2.mp3",60
Sample,108839,0,"soft-hitwhistle10.wav",85
Sample,108839,0,"loop1.wav",75
Sample,109013,0,"C6F54.wav",60
Sample,109013,0,"loop2.wav",75
Sample,109100,0,"loop3.wav",75
Sample,109187,0,"soft-hitclap10.wav",85
Sample,109187,0,"loop1.wav",75
Sample,109187,0,"C6F54.wav",60
Sample,109275,0,"loop3.wav",75
Sample,109362,0,"C6F54.wav",60
Sample,109362,0,"loop2.wav",75
Sample,109449,0,"loop3.wav",75
Sample,109536,0,"loop1.wav",75
Sample,109536,0,"C6F54.wav",60
Sample,109711,0,"loop2.wav",75
Sample,109711,0,"soft-hitwhistle10.wav",85
Sample,109711,0,"C6F54.wav",60
Sample,109798,0,"loop3.wav",75
Sample,109885,0,"soft-hitclap10.wav",85
Sample,109885,0,"C6F54.wav",60
Sample,109885,0,"loop1.wav",75
Sample,109972,0,"loop3.wav",75
Sample,110060,0,"C6F54.wav",60
Sample,110060,0,"loop2.wav",75
Sample,110147,0,"loop3.wav",75
Sample,110234,0,"A#4F4c6.mp3",60
Sample,110234,0,"loop1.wav",75
Sample,110234,0,"soft-hitwhistle10.wav",85
Sample,110234,0,"G#5C#54.wav",60
Sample,110234,0,"C#4b2.mp3",60
Sample,110408,0,"G#5C#54.wav",60
Sample,110408,0,"loop2.wav",75
Sample,110496,0,"loop3.wav",75
Sample,110583,0,"soft-hitclap10.wav",85
Sample,110583,0,"G#5C#54.wav",60
Sample,110583,0,"loop1.wav",75
Sample,110670,0,"loop3.wav",75
Sample,110757,0,"loop2.wav",75
Sample,110757,0,"G#5C#54.wav",60
Sample,110844,0,"loop3.wav",75
Sample,110932,0,"loop1.wav",75
Sample,110932,0,"G#5C#54.wav",60
Sample,111106,0,"loop2.wav",75
Sample,111106,0,"G#5C#54.wav",60
Sample,111106,0,"soft-hitwhistle10.wav",85
Sample,111193,0,"loop3.wav",75
Sample,111280,0,"loop1.wav",75
Sample,111280,0,"soft-hitclap10.wav",85
Sample,111280,0,"G#5C#54.wav",60
Sample,111368,0,"loop3.wav",75
Sample,111455,0,"loop2.wav",75
Sample,111455,0,"G#5C#54.wav",60
Sample,111542,0,"loop3.wav",75
Sample,111629,0,"F5A#4c6.mp3",60
Sample,111629,0,"soft-hitwhistle10.wav",85
Sample,111629,0,"D#4b2.mp3",60
Sample,111629,0,"A#5D#54.wav",60
Sample,111629,0,"loop1.wav",75
Sample,111804,0,"loop2.wav",75
Sample,111804,0,"A#5D#54.wav",60
Sample,111891,0,"loop3.wav",75
Sample,111978,0,"loop1.wav",75
Sample,111978,0,"A#5D#54.wav",60
Sample,111978,0,"soft-hitclap10.wav",85
Sample,112065,0,"loop3.wav",75
Sample,112153,0,"loop2.wav",75
Sample,112153,0,"A#5D#54.wav",60
Sample,112240,0,"loop3.wav",75
Sample,112327,0,"loop1.wav",75
Sample,112327,0,"A#5D#54.wav",60
Sample,112501,0,"loop2.wav",75
Sample,112501,0,"A#5D#54.wav",60
Sample,112501,0,"soft-hitwhistle10.wav",85
Sample,112589,0,"loop3.wav",75
Sample,112676,0,"A#5D#54.wav",60
Sample,112676,0,"soft-hitclap10.wav",85
Sample,112676,0,"loop1.wav",75
Sample,112763,0,"loop3.wav",75
Sample,112850,0,"loop2.wav",75
Sample,112850,0,"A#5D#54.wav",60
Sample,112937,0,"loop3.wav",75
Sample,113025,0,"G#4b2.mp3",60
Sample,113025,0,"G#4D#4c6.mp3",60
Sample,113025,0,"soft-hitwhistle10.wav",85
Sample,113025,0,"G#54.wav",45
Sample,113199,0,"G#54.wav",45
Sample,113373,0,"G#54.wav",45
Sample,113373,0,"soft-hitclap10.wav",85
Sample,113548,0,"G#54.wav",45
Sample,113722,0,"A#5.wav",60
Sample,113897,0,"soft-hitwhistle10.wav",85
Sample,113897,0,"G#54.wav",45
Sample,114071,0,"soft-hitclap10.wav",85
Sample,114071,0,"G#54.wav",45
Sample,114246,0,"G#54.wav",45

[TimingPoints]
8374,697.674418604651,4,2,1,40,1,0
10467,-100,4,2,1,20,0,0
10815,-166.666666666667,4,2,1,40,0,0
11164,-100,4,2,1,40,0,0
24594,-100,4,2,1,20,0,0
25118,-200,4,2,11,35,0,0
27908,-200,4,2,12,35,0,0
30699,-200,4,2,13,35,0,0
33490,-200,4,2,14,35,0,0
36280,-200,4,2,11,35,0,0
39071,-200,4,2,12,35,0,0
41862,-200,4,2,14,35,0,0
44653,-200,4,2,11,43,0,0
47443,-200,4,2,11,53,0,0
49885,-166.666666666667,4,2,11,60,0,0
50234,-83.3333333333333,4,2,1,70,0,0
50583,-83.3333333333333,4,2,1,53,0,0
68897,-83.3333333333333,4,2,1,5,0,0
69071,-83.3333333333333,4,2,1,70,0,0
71687,-83.3333333333333,4,2,31,70,0,0
71862,-83.3333333333333,4,2,32,70,0,0
72560,-83.3333333333333,4,2,33,70,0,0
72734,-83.3333333333333,4,2,1,70,0,0
72908,-83.3333333333333,4,2,1,70,0,0
73083,-83.3333333333333,4,2,34,70,0,0
73432,-83.3333333333333,4,2,35,70,0,0
73606,-83.3333333333333,4,2,1,70,0,0
75176,-83.3333333333333,4,2,38,70,0,0
75350,-83.3333333333333,4,2,33,70,0,0
75524,-83.3333333333333,4,2,31,70,0,0
75698,-83.3333333333333,4,2,33,70,0,0
75873,-83.3333333333333,4,2,34,70,0,0
76222,-83.3333333333333,4,2,35,70,0,0
76397,-83.3333333333333,4,2,1,70,0,0
77967,-83.3333333333333,4,2,35,70,0,0
78141,-83.3333333333333,4,2,33,70,0,0
78315,-83.3333333333333,4,2,31,70,0,0
78489,-83.3333333333333,4,2,33,70,0,0
78664,-83.3333333333333,4,2,34,70,0,0
79013,-83.3333333333333,4,2,38,70,0,0
79187,-83.3333333333333,4,2,1,70,0,0
80757,-83.3333333333333,4,2,38,70,0,0
80931,-83.3333333333333,4,2,33,70,0,0
81105,-83.3333333333333,4,2,31,70,0,0
81279,-83.3333333333333,4,2,33,70,0,0
81454,-83.3333333333333,4,2,34,70,0,0
81803,-83.3333333333333,4,2,31,70,0,0
81978,-83.3333333333333,4,2,1,70,0,0
83373,-83.3333333333333,4,2,1,45,0,0
83722,-125,4,2,9,70,0,0
86513,-125,4,1,1,70,0,0
87908,-125,4,1,1,35,0,0
88257,-125,4,1,1,44,0,0
88606,-125,4,1,1,49,0,0
88955,-125,4,2,1,54,0,0
91397,-125,4,2,1,60,0,0
91746,-100,4,2,1,60,0,0
92094,-83.3333333333333,4,3,1,70,0,1
92269,-83.3333333333333,4,3,1,45,0,1
92618,-83.3333333333333,4,3,1,70,0,1
94885,-83.3333333333333,4,3,24,55,0,1
95060,-83.3333333333333,4,3,24,55,0,1
95408,-83.3333333333333,4,3,25,55,0,1
95583,-83.3333333333333,4,3,24,55,0,1
95932,-83.3333333333333,4,3,25,55,0,1
96106,-83.3333333333333,4,3,24,55,0,1
96280,-100,4,3,26,55,0,1
96629,-71.4285714285714,4,3,26,65,0,1
96978,-100,4,3,27,65,0,1
97327,-71.4285714285714,4,3,27,65,0,1
97676,-83.3333333333333,4,3,27,65,0,1
99071,-83.3333333333333,4,3,1,65,0,1
106048,-83.3333333333333,4,3,24,55,0,1
106222,-83.3333333333333,4,3,24,55,0,1
106571,-83.3333333333333,4,3,25,55,0,1
106746,-83.3333333333333,4,3,24,55,0,1
107095,-83.3333333333333,4,3,25,55,0,1
107269,-83.3333333333333,4,3,24,55,0,1
107443,-100,4,3,26,65,0,1
107792,-71.4285714285714,4,3,26,65,0,1
108141,-100,4,3,27,65,0,1
108490,-71.4285714285714,4,3,27,65,0,1
108839,-83.3333333333333,4,3,27,55,0,1
112414,-83.3333333333333,4,3,27,5,0,1
112501,-83.3333333333333,4,3,27,70,0,1
113025,-200,4,2,1,60,0,0

[Colours]
Combo1 : 173,175,252
Combo2 : 174,242,227
Combo3 : 142,193,255
Combo4 : 208,204,208

[HitObjects]
447,325,10467,5,0,0:0:0:0:
447,325,10641,1,0,0:0:0:0:
447,325,10815,2,0,P|480:329|472:298,1,71.9999978027344
414,259,11164,6,0,B|374:248|334:286|334:286|300:320|264:312,1,160,4|8,2:2|0:0,0:0:0:0:
229,159,11687,2,0,P|298:176|252:240,1,160,2|2,0:0|0:0,0:0:0:0:
112,307,12211,1,10,0:0:0:0:
229,363,12385,1,0,0:1:0:0:
100,301,12560,2,0,L|124:107,1,160,0|8,0:0|0:0,0:0:0:0:
239,53,13083,1,2,0:2:0:0:
334,245,13257,2,0,P|291:227|274:182,1,80,2|0,0:2|0:0,0:0:0:0:
57,85,13606,2,0,P|98:92|125:135,1,80,10|0,0:0|0:0,0:0:0:0:
346,166,13955,6,0,B|307:95|336:11,1,160,2|8,0:2|0:0,0:0:0:0:
488,125,14478,2,0,P|492:78|474:40,1,80,2|0,0:2|0:0,0:0:0:0:
449,282,14827,1,2,0:0:0:0:
425,194,15001,1,8,0:0:0:0:
512,212,15176,1,0,0:1:0:0:
366,367,15350,2,0,L|359:262,1,80,2|0,0:2|0:0,0:0:0:0:
145,240,15699,1,8,0:0:0:0:
226,274,15874,1,2,0:0:0:0:
300,220,16048,2,0,P|302:180|281:146,2,80,2|0|10,0:0|0:0|0:0,0:0:0:0:
218,366,16571,1,0,0:0:0:0:
67,324,16746,6,0,B|49:146,1,160,4|8,0:2|0:0,0:0:0:0:
199,28,17269,2,0,B|202:66|169:94|169:94|130:122|132:165,1,160,2|2,0:0|0:0,0:0:0:0:
222,295,17792,2,0,P|266:323|313:317,1,80,8|0,0:0|0:0,0:0:0:0:
363,86,18141,1,2,0:2:0:0:
471,218,18315,1,0,0:0:0:0:
495,139,18490,1,8,0:0:0:0:
355,66,18664,1,2,0:2:0:0:
372,172,18839,2,0,P|301:208|222:204,1,160,2|10,0:0|0:0,0:0:0:0:
372,172,19362,1,2,0:0:0:0:
135,319,19536,6,0,P|174:324|208:345,1,80,4|0,0:0|0:0,0:0:0:0:
20,279,19885,2,0,P|51:254|90:245,1,80,8|2,0:0|0:0,0:0:0:0:
208,345,20234,1,0,0:0:0:0:
145,188,20408,2,0,L|120:18,1,160,2|0,0:0|0:0,0:0:0:0:
278,75,20932,2,0,B|308:60|290:26|290:26|232:39|224:104,1,160,2|0,0:0|0:0,0:0:0:0:
131,182,21455,2,0,L|106:12,1,160,2|0,0:0|0:0,0:0:0:0:
159,322,21978,1,2,0:0:0:0:
449,263,22327,6,0,B|407:267|386:306|386:306|359:345|300:350,1,160,2|0,0:0|0:0,0:0:0:0:
460,273,22850,2,0,B|418:277|397:316|397:316|370:355|311:360,1,160,2|0,0:0|0:0,0:0:0:0:
133,235,23374,2,0,P|176:231|221:262,1,80,2|0,0:0|0:0,0:0:0:0:
239,381,23722,1,2,0:2:0:0:
239,381,23897,1,0,0:0:0:0:
451,206,24071,5,2,0:2:0:0:
448,191,24246,1,2,0:2:0:0:
281,35,24420,5,2,0:0:0:0:
276,59,24594,1,2,0:0:0:0:
296,69,24769,1,2,0:0:0:0:
306,43,24943,1,2,0:0:0:0:
203,128,25118,6,0,L|211:183,1,40,6|0,0:0|0:0,0:0:0:0:
280,151,25467,2,0,L|289:209,1,40,2|0,0:0|0:0,0:0:0:0:
128,284,25815,2,0,L|120:339,1,40,2|0,0:0|0:0,0:0:0:0:
51,307,26164,2,0,L|42:365,1,40,2|0,0:0|0:0,0:0:0:0:
263,354,26513,2,0,L|270:315,1,40,2|0,0:0|0:0,0:0:0:0:
341,331,26862,2,0,L|347:292,1,40,2|0,0:0|0:0,0:0:0:0:
312,125,27211,1,2,0:0:0:0:
369,190,27385,1,0,0:0:0:0:
447,167,27560,2,0,L|474:95,1,60,2|0,0:0|0:0,0:0:0:0:
473,90,27908,6,0,L|424:87,1,40,2|0,0:0|0:0,0:0:0:0:
423,8,28257,2,0,L|375:33,1,40,2|0,0:0|0:0,0:0:0:0:
159,210,28606,2,0,L|207:207,1,40,2|0,0:0|0:0,0:0:0:0:
209,128,28955,2,0,L|257:153,1,40,2|0,0:0|0:0,0:0:0:0:
432,351,29304,2,0,L|383:348,1,40,2|0,0:0|0:0,0:0:0:0:
382,269,29653,2,0,L|334:294,1,40,2|0,0:0|0:0,0:0:0:0:
124,356,30001,1,2,0:0:0:0:
211,360,30176,1,0,0:0:0:0:
248,280,30350,2,0,L|218:225,1,60,2|0,0:0|0:0,0:0:0:0:
211,215,30699,6,0,L|204:263,1,40,2|0,0:0|0:0,0:0:0:0:
141,180,31048,2,0,L|132:228,1,40,2|0,0:0|0:0,0:0:0:0:
24,79,31397,2,0,L|31:127,1,40,2|0,0:0|0:0,0:0:0:0:
94,44,31746,2,0,L|103:92,1,40,2|0,0:0|0:0,0:0:0:0:
304,95,32094,2,0,L|257:80,1,40,2|0,0:0|0:0,0:0:0:0:
349,31,32443,2,0,L|302:14,1,40,2|0,0:0|0:0,0:0:0:0:
430,147,32792,2,0,L|452:215,1,60,2|0,0:0|0:0,0:0:0:0:
447,232,33141,1,2,0:0:0:0:
359,258,33315,1,0,0:0:0:0:
283,213,33490,6,0,L|290:165,1,40,6|0,0:0|0:0,0:0:0:0:
221,117,33839,2,0,L|214:159,1,40,2|0,0:0|0:0,0:0:0:0:
137,303,34187,2,0,L|144:255,1,40,2|0,0:0|0:0,0:0:0:0:
75,207,34536,2,0,L|68:249,1,40,2|0,0:0|0:0,0:0:0:0:
282,373,34885,2,0,L|326:367,1,40,2|0,0:0|0:0,0:0:0:0:
270,294,35234,2,0,L|230:300,1,40,2|0,0:0|0:0,0:0:0:0:
314,220,35583,1,2,0:0:0:0:
387,269,35757,1,0,0:0:0:0:
391,174,35932,2,0,P|378:137|379:103,1,60,2|0,0:0|0:0,0:0:0:0:
392,95,36280,6,0,L|448:101,1,40,2|0,0:0|0:0,0:0:0:0:
360,15,36629,2,0,L|405:23,1,40,2|0,0:0|0:0,0:0:0:0:
221,146,36978,2,0,L|165:152,1,40,2|0,0:0|0:0,0:0:0:0:
253,66,37327,2,0,L|208:74,1,40,2|0,0:0|0:0,0:0:0:0:
385,297,37676,2,0,L|441:303,1,40,2|0,0:0|0:0,0:0:0:0:
353,217,38025,2,0,L|398:225,1,40,2|0,0:0|0:0,0:0:0:0:
280,360,38374,2,0,P|288:311|267:279,1,80,2|0,0:0|0:0,0:0:0:0:
191,242,38897,1,0,0:0:0:0:
77,358,39071,6,0,L|123:372,1,40,2|0,0:0|0:0,0:0:0:0:
76,272,39420,2,0,L|28:289,1,40,2|0,0:0|0:0,0:0:0:0:
170,146,39769,2,0,L|216:132,1,40,2|0,0:0|0:0,0:0:0:0:
169,232,40118,2,0,L|121:215,1,40,2|0,0:0|0:0,0:0:0:0:
74,65,40467,2,0,L|87:111,1,40,2|0,0:0|0:0,0:0:0:0:
47,184,40816,2,0,L|8:167,1,40,2|0,0:0|0:0,0:0:0:0:
164,41,41164,2,0,P|195:55|246:47,1,80,2|2,0:0|0:0,0:0:0:0:
316,4,41687,1,0,0:0:0:0:
435,143,41862,6,0,L|428:187,1,40,6|0,0:0|0:0,0:0:0:0:
345,213,42211,2,0,L|352:174,1,40,2|0,0:0|0:0,0:0:0:0:
435,143,42560,2,0,L|428:187,1,40,2|0,0:0|0:0,0:0:0:0:
360,212,42909,2,0,L|366:172,1,40,2|0,0:0|0:0,0:0:0:0:
435,143,43257,2,0,L|428:187,1,40,2|0,0:0|0:0,0:0:0:0:
375,209,43606,2,0,L|381:169,1,40,2|0,0:0|0:0,0:0:0:0:
265,293,43955,2,0,P|303:302|341:290,1,80,2|2,0:0|0:0,0:0:0:0:
341,290,44478,1,0,0:0:0:0:
185,332,44653,6,0,P|188:353|207:384,1,40,2|0,0:0|0:0,0:0:0:0:
130,325,45001,2,0,P|113:338|95:370,1,40,2|0,0:0|0:0,0:0:0:0:
89,247,45350,2,0,P|69:239|32:240,1,40,2|0,0:0|0:0,0:0:0:0:
151,157,45699,2,0,P|148:136|129:105,1,40,2|0,0:0|0:0,0:0:0:0:
273,192,46048,2,0,P|289:178|307:146,1,40,2|0,0:0|0:0,0:0:0:0:
294,291,46397,2,0,P|313:298|350:297,1,40,2|0,0:0|0:0,0:0:0:0:
228,336,46746,2,0,P|231:356|250:388,1,40,2|0,0:0|0:0,0:0:0:0:
181,323,47094,2,0,P|164:336|146:368,1,40,2|0,0:0|0:0,0:0:0:0:
165,274,47443,6,0,P|145:266|108:267,1,40,2|0,0:0|0:0,0:0:0:0:
226,185,47792,2,0,P|222:164|204:133,1,40,2|0,0:0|0:0,0:0:0:0:
353,214,48141,2,0,P|369:200|387:168,1,40,2|0,0:0|0:0,0:0:0:0:
377,355,48490,2,0,P|396:362|433:361,1,40,2|0,0:0|0:0,0:0:0:0:
282,238,48839,2,0,P|285:258|304:290,1,40,2|0,0:0|0:0,0:0:0:0:
359,55,49187,2,0,P|342:68|324:100,1,40,2|0,0:0|0:0,0:0:0:0:
512,143,49536,1,2,0:0:0:0:
383,175,49711,1,0,0:0:0:0:
457,278,49885,2,0,B|456:256|467:242|467:242|480:224|474:202,1,71.9999978027344,2|0,0:0|0:0,0:0:0:0:
512,143,50234,6,0,B|479:115|420:146|420:146|348:182|303:146,1,191.999994140625,4|8,0:0|0:0,0:0:0:0:
134,114,50757,2,0,P|123:64|148:19,1,95.9999970703126,2|0,0:0|0:0,0:0:0:0:
167,209,51106,1,2,0:0:0:0:
85,275,51280,1,8,0:0:0:0:
224,362,51455,1,0,3:0:0:0:
224,362,51542,1,0,3:0:0:0:
224,362,51629,38,0,L|243:240,1,95.9999970703126,2|0,1:2|0:0,0:0:0:0:
262,129,51978,1,8,0:0:0:0:
319,310,52153,1,10,0:0:0:0:
77,358,52327,1,0,0:0:0:0:
209,274,52501,1,2,0:0:0:0:
49,165,52676,2,0,B|62:191|45:214|45:214|26:243|33:255,1,95.9999970703126,8|0,0:0|0:0,0:0:0:0:
269,92,53025,6,0,P|176:92|119:18,1,191.999994140625,0|8,0:0|0:0,0:0:0:0:
283,74,53548,1,2,0:0:0:0:
440,37,53722,1,0,0:0:0:0:
342,267,53897,2,0,B|335:218|335:218|360:169,1,95.9999970703126,0|8,0:0|0:0,0:0:0:0:
464,375,54246,1,0,3:0:0:0:
464,375,54333,1,0,3:0:0:0:
464,375,54420,38,0,L|243:349,1,191.999994140625,2|0,1:2|0:0,0:0:0:0:
185,370,54943,1,8,0:0:0:0:
208,158,55118,1,2,0:0:0:0:
91,300,55292,1,8,0:0:0:0:
309,282,55467,2,0,P|314:233|347:195,1,95.9999970703126,8|2,0:0|0:0,0:0:0:0:
156,22,55815,6,0,L|119:228,1,191.999994140625,4|8,0:0|0:0,0:0:0:0:
241,128,56339,2,0,P|309:100|360:102,1,95.9999970703126,2|0,0:0|0:0,0:0:0:0:
180,329,56687,1,0,0:0:0:0:
180,329,56862,2,0,P|112:301|61:303,1,95.9999970703126,10|0,0:0|0:0,0:0:0:0:
301,285,57211,38,0,B|340:310|340:310|498:283,1,191.999994140625,2|8,0:0|0:0,0:0:0:0:
263,361,57734,1,2,0:0:0:0:
233,183,57908,2,0,P|226:135|219:87,1,95.9999970703126
474,241,58257,1,8,3:2:0:0:
437,263,58344,1,0,3:0:0:0:
425,304,58432,1,0,3:0:0:0:
444,342,58519,1,0,3:0:0:0:
468,358,58606,6,0,P|436:246|342:212,1,191.999994140625,0|8,1:0|0:0,0:0:0:0:
412,96,59129,2,0,P|457:80|491:48,1,95.9999970703126,10|0,0:2|0:0,0:0:0:0:
206,77,59478,1,2,0:0:0:0:
206,77,59653,2,0,P|184:75|104:23,1,95.9999970703126,8|0,0:0|0:0,0:0:0:0:
298,169,60001,38,0,L|275:371,1,191.999994140625
204,280,60525,1,8,0:0:0:0:
16,372,60699,1,0,0:0:0:0:
104,221,60873,1,10,0:0:0:0:
114,346,61048,2,0,B|102:330|102:302|102:302|116:282|121:256,1,95.9999970703126,8|0,0:0|0:0,0:0:0:0:
119,61,61397,6,0,P|174:16|186:108,1,191.999994140625,4|8,0:0|0:0,0:0:0:0:
98,145,61920,2,0,P|165:134|203:149,1,95.9999970703126,2|0,0:0|0:0,0:0:0:0:
342,233,62269,1,0,0:0:0:0:
342,233,62443,2,0,P|390:249|447:224,1,95.9999970703126,8|0,0:0|0:0,0:0:0:0:
475,85,62792,38,0,L|261:102,1,191.999994140625,2|8,0:0|0:0,0:0:0:0:
176,319,63315,1,0,3:2:0:0:
173,330,63403,1,0,3:0:0:0:
171,339,63490,2,0,P|203:336|234:282,1,95.9999970703126,0|0,1:0|0:0,0:0:0:0:
238,267,63839,1,8,0:0:0:0:
438,364,64013,1,8,0:0:0:0:
238,267,64187,6,0,P|268:296|278:255,1,95.9999970703126,2|0,0:0|0:0,0:0:0:0:
465,143,64536,2,0,B|481:193|459:241|459:241|438:294|451:330,1,191.999994140625,8|0,0:0|0:0,0:0:0:0:
387,188,65060,1,2,0:0:0:0:
302,72,65234,2,0,B|341:101|341:101|388:92,1,95.9999970703126,8|0,0:0|0:0,0:0:0:0:
444,350,65583,38,0,P|372:374|381:276,1,191.999994140625,0|8,0:0|0:0,0:0:0:0:
465,143,66106,1,2,0:0:0:0:
239,149,66280,2,0,L|258:257,1,95.9999970703126
278,374,66629,1,8,0:0:0:0:
142,252,66804,2,0,L|95:239,1,47.9999985351563,2|0,0:0|0:0,0:0:0:0:
40,373,66978,6,0,B|83:364|91:328|91:328|67:175,1,191.999994140625,2|0,0:0|0:0,0:0:0:0:
31,370,67501,2,0,B|74:361|82:325|82:325|58:172,1,191.999994140625,2|0,0:0|0:0,0:0:0:0:
239,87,68025,6,0,B|227:54|182:33|135:38|135:38|120:77|160:116,1,191.999994140625,2|0,0:0|0:0,0:0:0:0:
344,368,68548,2,0,L|359:307,1,47.9999985351563,2|0,0:0|0:0,0:0:0:0:
379,234,68722,2,0,B|343:220|304:241|304:241|281:281|249:285,1,143.999995605469,2|0,0:0|0:0,0:0:0:0:
227,283,69071,1,0,0:0:0:0:
189,188,69246,2,0,P|227:169|242:210,1,95.9999970703126,2|0,0:0|0:0,0:0:0:0:
456,365,69594,1,0,3:0:0:0:
456,365,69682,1,0,3:0:0:0:
456,365,69769,6,0,L|481:160,1,191.999994140625,2|0,1:2|0:0,0:0:0:0:
351,32,70292,2,0,P|367:80|401:47,1,95.9999970703126,2|0,0:0|0:0,0:0:0:0:
278,213,70641,1,0,0:0:0:0:
278,213,70815,2,0,L|404:233,1,95.9999970703126,2|0,0:0|0:0,0:0:0:0:
202,159,71164,5,0,0:0:0:0:
246,99,71339,1,2,0:0:0:0:
240,77,71513,1,2,0:0:0:0:
141,318,71687,1,0,0:0:0:0:
141,318,71862,2,0,B|142:264|99:230|99:230|55:193|66:129,1,191.999994140625,0|8,0:0|0:0,0:0:0:0:
292,379,72560,5,2,0:0:0:0:
180,338,72734,1,2,0:0:0:0:
66,361,72908,1,8,0:0:0:0:
196,210,73083,2,0,L|208:107,1,95.9999970703126,8|0,0:0|0:0,0:0:0:0:
344,85,73432,2,0,P|389:71|425:40,1,95.9999970703126,2|8,0:0|0:0,0:0:0:0:
425,40,73780,1,0,0:0:0:0:
295,188,73955,22,0,P|343:269|426:314,1,191.999994140625,0|8,0:0|0:0,0:0:0:0:
201,171,74478,2,0,B|145:169|111:207|111:207|166:210|218:266,1,191.999994140625
84,57,75001,2,0,P|38:43|2:12,1,95.9999970703126,8|0,0:0|0:0,0:0:0:0:
201,171,75350,5,2,0:0:0:0:
274,115,75524,1,0,0:0:0:0:
277,22,75699,1,8,0:0:0:0:
410,168,75873,2,0,L|502:205,1,95.9999970703126,8|0,0:0|0:0,0:0:0:0:
397,290,76222,2,0,P|355:313|331:354,1,95.9999970703126,0|8,0:0|0:0,0:0:0:0:
331,354,76571,1,0,0:0:0:0:
304,224,76746,38,0,P|326:139|269:40,1,191.999994140625,0|8,0:0|0:0,0:0:0:0:
126,169,77269,2,0,B|123:102|167:75|167:75|215:70|252:124,1,191.999994140625
89,295,77792,2,0,P|59:245|2:231,1,95.9999970703126,8|0,0:0|0:0,0:0:0:0:
299,347,78141,5,2,0:0:0:0:
179,318,78315,1,0,0:0:0:0:
74,380,78490,1,8,0:0:0:0:
150,176,78664,2,0,B|143:138|125:104|125:104|161:125|200:124,1,143.999995605469,8|0,0:0|0:0,0:0:0:0:
210,116,79013,1,0,0:0:0:0:
342,320,79187,1,8,3:2:0:0:
328,283,79275,1,0,3:0:0:0:
294,263,79362,1,0,3:0:0:0:
256,268,79449,1,0,3:0:0:0:
226,292,79536,38,0,P|255:235|314:211,1,95.9999970703126,0|0,1:0|0:0,0:0:0:0:
460,239,79885,1,0,0:0:0:0:
287,139,80060,2,0,L|494:110,1,191.999994140625,8|0,0:0|0:0,0:0:0:0:
418,360,80583,2,0,P|374:317|365:257,1,95.9999970703126,8|0,0:0|0:0,0:0:0:0:
244,51,80932,5,2,0:0:0:0:
219,139,81106,1,0,0:0:0:0:
128,182,81280,1,8,0:0:0:0:
368,267,81455,2,0,L|395:175,1,95.9999970703126,8|0,0:0|0:0,0:0:0:0:
250,322,81804,1,0,0:0:0:0:
188,254,81978,1,8,0:0:0:0:
277,226,82153,1,0,0:0:0:0:
408,352,82327,38,0,B|361:350|346:293|346:293|332:236|265:231,1,191.999994140625,0|8,0:0|0:0,0:0:0:0:
56,335,82850,1,2,0:0:0:0:
143,345,83025,2,0,L|218:354,1,47.9999985351563,0|0,1:0|0:0,0:0:0:0:
73,235,83199,2,0,L|62:188,1,47.9999985351563,0|0,1:0|0:0,0:0:0:0:
182,231,83373,1,8,1:1:0:0:
230,160,83548,1,8,1:0:0:0:
170,99,83722,6,0,L|180:35,1,64,0|0,1:0|0:0,0:0:0:0:
167,84,84071,2,0,L|178:21,1,64,0|0,1:0|0:0,0:0:0:0:
368,157,84420,6,0,L|357:93,1,64,0|0,1:0|0:0,0:0:0:0:
365,170,84769,2,0,L|354:106,1,64,0|0,1:0|0:0,0:0:0:0:
113,295,85118,6,0,L|51:280,1,64,0|0,1:0|0:0,0:0:0:0:
103,300,85467,2,0,L|41:285,1,64,0|0,1:0|0:0,0:0:0:0:
348,351,85815,6,0,L|410:335,1,64,0|0,1:0|0:0,0:0:0:0:
358,356,86164,2,0,L|420:340,1,64,0|0,1:0|0:0,0:0:0:0:
79,353,86513,5,0,0:0:0:0:
116,348,86687,1,0,0:0:0:0:
175,280,86862,1,0,0:0:0:0:
143,159,87036,1,0,0:0:0:0:
114,162,87211,5,0,0:0:0:0:
199,233,87385,1,0,0:0:0:0:
349,197,87560,1,0,0:0:0:0:
385,0,87734,1,0,0:0:0:0:
480,200,87908,5,0,0:0:0:0:
483,191,87995,1,0,0:0:0:0:
486,182,88082,1,0,0:0:0:0:
489,173,88169,1,0,0:0:0:0:
492,164,88256,1,0,0:0:0:0:
495,155,88343,1,0,0:0:0:0:
498,146,88431,1,0,0:0:0:0:
501,137,88518,1,0,0:0:0:0:
504,124,88605,1,0,0:0:0:0:
499,115,88692,1,0,0:0:0:0:
495,106,88779,1,0,0:0:0:0:
490,97,88868,1,0,0:0:0:0:
483,89,88955,2,0,L|496:159,1,64,0|0,1:0|1:0,0:0:0:0:
316,316,90525,6,0,L|360:325,9,32
233,338,91397,38,0,L|224:370,1,32
157,338,91571,2,0,L|147:372,1,32
227,204,91746,22,0,P|279:188|336:218,1,120,0|0,1:0|0:0,0:0:0:0:
342,204,92094,6,0,L|320:68,1,95.9999970703126,4|0,1:2|1:0,0:0:0:0:
306,34,92356,1,0,1:0:0:0:
306,34,92443,1,8,1:2:0:0:
448,171,92618,2,0,P|451:212|405:258,1,95.9999970703126,0|0,1:0|0:0,0:0:0:0:
198,283,92967,1,0,0:0:0:0:
142,124,93141,1,8,0:2:0:0:
211,38,93315,1,0,0:0:0:0:
211,38,93490,2,0,L|232:143,1,95.9999970703126
277,353,93839,5,8,0:2:0:0:
189,250,94013,2,0,P|128:218|2:247,1,191.999994140625
349,300,94536,2,0,B|334:199,1,95.9999970703126,8|0,0:2|0:0,0:0:0:0:
489,29,94885,6,0,P|460:66|416:83,1,95.9999970703126,2|0,3:2|3:2,0:0:0:0:
242,235,95234,1,8,3:2:0:0:
411,180,95408,2,0,L|466:195,1,47.9999985351563
318,43,95583,1,2,3:2:0:0:
319,157,95757,1,0,0:0:0:0:
77,70,95932,1,8,3:2:0:0:
204,93,96106,1,0,0:0:0:0:
235,177,96280,6,0,L|223:215,1,40,8|0,1:2|2:0,0:0:0:0:
115,334,96455,2,0,L|132:371,1,40,8|0,1:2|2:0,0:0:0:0:
65,179,96629,2,0,B|71:165|115:166|115:166|141:186|142:217,1,111.999996582031,2|0,1:1|0:0,0:0:0:0:
361,344,96978,6,0,L|353:295,1,40,8|0,1:2|2:0,0:0:0:0:
485,262,97153,2,0,L|500:220,1,40,8|0,1:2|2:0,0:0:0:0:
433,110,97327,2,0,B|426:95|383:96|383:96|357:116|356:147,1,111.999996582031,2|0,1:1|0:0,0:0:0:0:
245,158,97589,1,0,0:0:0:0:
244,148,97676,6,0,B|240:53,1,95.9999970703126,4|0,1:1|0:0,0:0:0:0:
309,352,98025,2,0,L|332:254,1,95.9999970703126,8|0,1:2|1:0,0:0:0:0:
425,35,98373,1,0,0:0:0:0:
461,166,98548,1,0,0:0:0:0:
361,121,98722,2,0,B|409:112|409:112|456:144,1,95.9999970703126,8|0,1:2|0:0,0:0:0:0:
229,200,99071,6,0,B|215:158|249:107|249:107|285:53|273:19,1,191.999994140625,4|8,0:2|3:2,0:0:0:0:
41,224,99594,2,0,B|76:236|130:200|130:200|181:166|248:185,1,191.999994140625
352,280,100118,2,0,P|356:336|320:372,1,95.9999970703126,8|0,3:2|0:0,0:0:0:0:
158,124,100467,6,0,P|207:134|237:168,1,95.9999970703126,2|0,0:0|0:0,0:0:0:0:
228,272,100815,1,8,3:2:0:0:
311,52,100990,6,0,P|337:90|336:138,1,95.9999970703126,2|0,0:0|0:0,0:0:0:0:
228,272,101339,1,0,0:0:0:0:
500,146,101513,1,10,3:2:0:0:
466,259,101687,1,2,3:2:0:0:
284,362,101862,6,0,L|271:267,1,95.9999970703126,0|0,1:0|0:0,0:0:0:0:
80,94,102211,2,0,L|94:189,1,95.9999970703126,0|0,1:0|0:0,0:0:0:0:
68,365,102560,1,0,0:0:0:0:
195,248,102734,1,2,3:0:0:0:
168,278,102821,1,2,3:0:0:0:
182,311,102908,1,2,3:0:0:0:
87,90,103083,2,0,L|99:35,1,47.9999985351563,8|0,0:0|0:0,0:0:0:0:
34,224,103257,6,0,P|105:162|199:151,1,191.999994140625,4|8,3:1|0:2,0:0:0:0:
447,91,103780,2,0,P|407:59|361:51,1,95.9999970703126
217,107,104129,1,0,0:0:0:0:
161,266,104303,1,8,0:2:0:0:
230,352,104477,1,0,0:0:0:0:
230,352,104653,6,0,L|265:235,1,95.9999970703126
306,99,105001,1,8,0:2:0:0:
266,242,105176,2,0,P|340:184|435:179,1,191.999994140625
177,6,105699,2,0,P|212:36|267:41,1,95.9999970703126,8|0,0:2|0:0,0:0:0:0:
61,215,106048,5,2,3:2:0:0:
117,145,106222,1,0,0:0:0:0:
143,252,106397,1,8,0:2:0:0:
30,202,106571,2,0,L|39:155,1,47.9999985351563
160,330,106746,1,2,3:2:0:0:
69,357,106920,1,0,0:0:0:0:
324,363,107094,1,8,0:2:0:0:
257,292,107269,1,0,0:0:0:0:
245,140,107443,6,0,L|285:119,1,40,2|0,1:2|2:0,0:0:0:0:
469,82,107618,2,0,L|442:53,1,40,0|0,1:0|2:0,0:0:0:0:
387,199,107792,2,0,B|363:169|356:142|371:129|371:129|402:107|393:175,1,111.999996582031,2|0,1:1|0:0,0:0:0:0:
203,359,108141,6,0,L|165:373,1,40,2|0,1:2|2:0,0:0:0:0:
167,146,108316,2,0,L|153:109,1,40,0|0,1:0|2:0,0:0:0:0:
297,237,108490,2,0,B|292:275|278:299|258:297|258:297|221:291|275:249,1,111.999996582031,2|0,1:1|0:0,0:0:0:0:
380,328,108751,1,0,1:0:0:0:
389,318,108839,6,0,P|447:305|501:324,1,95.9999970703126,4|0,1:2|0:0,0:0:0:0:
88,285,109187,2,0,P|131:244|187:234,1,95.9999970703126,8|0,3:2|0:0,3:0:0:0:
358,54,109536,1,0,0:0:0:0:
333,147,109711,1,0,0:0:0:0:
461,126,109885,2,0,B|433:87|433:87|369:76,1,95.9999970703126,8|0,3:2|0:0,0:0:0:0:
243,229,110234,6,0,P|254:130|224:32,1,191.999994140625,0|8,0:0|0:2,0:0:0:0:
31,55,110757,2,0,P|125:23|227:32,1,191.999994140625
52,260,111280,2,0,P|38:214|36:166,1,95.9999970703126,8|0,0:2|0:0,0:0:0:0:
352,229,111629,6,0,P|304:205|252:204,1,95.9999970703126
152,230,111978,1,8,0:2:0:0:
95,359,112153,2,0,P|153:318|224:316,1,143.999995605469,0|0,0:0|2:0,0:0:0:0:
257,292,112501,1,0,0:0:0:0:
339,371,112676,1,8,0:2:0:0:
451,339,112850,1,0,0:0:0:0:
466,118,113025,6,0,L|507:99,2,40,0|0|2,0:0|0:0|0:2,0:0:0:0:
479,25,113548,1,2,0:0:0:0:
353,190,113722,2,0,L|365:229,2,40,0|0|2,0:0|0:0|0:2,0:0:0:0:
350,183,114246,1,2,0:0:0:0:
