osu file format v14

[General]
AudioFilename: audio.mp3
AudioLeadIn: 0
PreviewTime: 167469
Countdown: 1
SampleSet: None
StackLeniency: 0.7
Mode: 0
LetterboxInBreaks: 0
WidescreenStoryboard: 0

[Editor]
Bookmarks: 92821,120351,132351,142939,169057,196586,201527,231174,242469,253763,281292
DistanceSpacing: 3.1
BeatDivisor: 4
GridSize: 16
TimelineZoom: 2.2

[Metadata]
Title:Melt 10th ANNIVERSARY MIX
TitleUnicode:メルト 10th ANNIVERSARY MIX
Artist:supercell & Nagi Yanagi
ArtistUnicode:supercell & やなぎなぎ
Creator:Alsty-
Version:Meruuto~
Source:
Tags:Ryo melt Meruto
BeatmapID:1611587
BeatmapSetID:766643

[Difficulty]
HPDrainRate:6
CircleSize:4
OverallDifficulty:8
ApproachRate:9
SliderMultiplier:1.9
SliderTickRate:1

[Events]
//Background and Video events
0,0,"thumb-1920-838819.jpg",0,0
//Break Periods
2,120374,132104
2,231374,247516
//Storyboard Layer 0 (Background)
//Storyboard Layer 1 (Fail)
//Storyboard Layer 2 (Pass)
//Storyboard Layer 3 (Foreground)
//Storyboard Sound Samples

[TimingPoints]
528,352.941176470588,4,1,0,100,1,0
1939,-200,4,1,0,100,0,0
44822,352.941176470588,4,1,0,100,1,0
56469,-133.333333333333,4,1,0,100,0,0
66704,-100,4,1,0,100,0,0
132351,-200,4,1,0,100,0,0
142939,-100,4,1,0,100,0,0
168351,-200,4,1,0,100,0,0
169057,-100,4,1,0,100,0,0
197292,-200,4,1,0,100,0,0
205763,-100,4,1,0,100,0,0
230469,-200,4,1,0,100,0,0
253763,-100,4,1,0,100,0,0
290469,431.654676258993,4,1,0,100,1,0
292195,-200,4,1,0,100,0,0

[HitObjects]
256,192,1939,6,0,B|224:144|112:192|256:320|80:96|304:96,1,285
352,240,3527,6,0,B|464:192|272:256|256:256,1,166.25
192,192,4763,1,0,0:0:0:0:
176,288,5292,6,0,B|112:352|272:224,1,166.25
336,240,6439,6,0,P|368:272|288:192,1,142.5
256,192,7145,12,0,11645,0:0:0:0:
176,208,12086,6,0,B|192:144|256:112|288:128,1,142.5
400,144,12792,6,0,B|384:192|352:192|320:224|288:240,1,142.5
256,192,13675,12,0,14645,0:0:0:0:
336,112,16233,6,0,B|384:160|384:208|288:256,1,190
176,288,17116,6,0,B|107:259|107:211|256:128,1,237.5
224,144,18351,2,0,P|256:80|288:80,1,95
352,256,19410,6,0,P|384:192|368:160,1,95
256,224,20822,5,0,0:0:0:0:
128,112,21527,1,0,0:0:0:0:
272,112,22586,1,0,0:0:0:0:
256,192,22675,12,0,25939,0:0:0:0:
368,112,28763,5,0,0:0:0:0:
368,112,29469,2,0,B|416:64|176:256,1,261.25
144,256,31586,5,0,0:0:0:0:
144,256,32116,2,0,B|80:304|320:96,1,261.25
256,256,34145,5,0,0:0:0:0:
256,256,34763,2,0,B|256:352|192:256|256:176|320:256|256:368|176:256|256:160|336:256|256:384|160:256|256:144|352:256|256:400|144:256|256:128|368:256|224:80,1,285
256,192,35910,12,0,39880,0:0:0:0:
368,288,44822,6,0,P|368:240|368:256,7,47.5
272,208,45527,6,0,P|256:192|224:160,7,47.5
144,80,46233,6,0,L|144:128,7,47.5
144,224,46939,6,0,P|160:240|192:272,1,47.5
240,208,47116,2,0,L|192:160,2,47.5
96,160,47645,6,0,P|144:128|192:144,1,95
160,208,47998,2,0,P|208:208|240:176,1,95
384,272,48351,2,0,P|352:304|272:288,1,95
240,256,48704,2,0,P|288:224|320:240,1,95
352,112,49057,6,0,P|288:112|256:112,1,95
160,112,49410,1,0,0:0:0:0:
144,192,49586,1,0,0:0:0:0:
144,192,49674,1,0,0:0:0:0:
144,192,49763,5,0,0:0:0:0:
336,192,49939,1,0,0:0:0:0:
144,192,50116,1,0,0:0:0:0:
256,304,50292,1,0,0:0:0:0:
400,304,50469,6,0,L|400:208,1,95
336,128,50822,2,0,P|240:80|128:112,1,190
112,192,51351,1,0,0:0:0:0:
128,288,51527,6,0,P|176:240|208:240,1,95
192,320,51880,2,0,P|240:304|272:256,1,95
352,112,52233,2,0,P|352:176|320:192,1,95
272,128,52586,2,0,P|240:176|256:208,1,95
96,256,52939,5,0,0:0:0:0:
128,160,53116,1,0,0:0:0:0:
160,64,53292,6,0,L|304:64,1,142.5
320,112,53645,2,0,L|160:112,1,142.5
160,160,53998,2,0,L|304:160,1,142.5
304,208,54351,2,0,L|160:208,1,142.5
160,224,54704,5,0,0:0:0:0:
256,96,54880,1,0,0:0:0:0:
256,96,54969,1,0,0:0:0:0:
256,96,55057,1,0,0:0:0:0:
352,224,55233,5,0,0:0:0:0:
352,224,55321,1,0,0:0:0:0:
352,224,55410,1,0,0:0:0:0:
144,144,55586,1,0,0:0:0:0:
224,224,55763,5,0,0:0:0:0:
208,256,55851,1,0,0:0:0:0:
176,288,55939,1,0,0:0:0:0:
144,288,56027,1,0,0:0:0:0:
112,288,56116,1,0,0:0:0:0:
384,144,56469,6,0,L|288:256,1,142.500005435944
144,144,57174,2,0,L|208:192,1,71.2500027179719
320,80,57527,2,0,L|272:144,2,71.2500027179719
96,288,58586,6,0,L|96:128,1,142.500005435944
192,80,59292,2,0,L|256:128,1,71.2500027179719
208,208,59645,2,0,L|320:304,1,142.500005435944
400,192,60351,5,0,0:0:0:0:
224,64,60704,1,0,0:0:0:0:
272,192,61057,1,0,0:0:0:0:
368,64,61410,1,0,0:0:0:0:
368,272,61763,2,0,P|288:288|208:272,1,142.500005435944
112,256,62469,6,0,P|80:176|112:112,1,142.500005435944
192,64,63174,6,0,P|288:48|352:64,1,142.500005435944
416,112,63880,6,0,P|448:176|416:240,1,142.500005435944
320,208,64410,2,0,P|272:176|240:176,1,71.2500027179719
256,192,64674,12,0,66704,0:0:0:0:
176,160,67057,5,0,0:0:0:0:
336,256,67410,5,0,0:0:0:0:
416,144,67586,1,0,0:0:0:0:
320,80,67763,2,0,P|240:48|144:80,1,190
64,176,68292,6,0,L|48:272,1,95
144,176,68645,2,0,L|176:288,1,95
272,176,68998,2,0,L|224:80,1,95
352,176,69351,2,0,L|384:80,1,95
368,80,69880,5,0,0:0:0:0:
176,128,70057,1,0,0:0:0:0:
320,192,70233,2,0,B|304:256|240:272|160:288,1,190
80,224,70763,5,0,0:0:0:0:
80,224,70939,2,0,L|80:128,1,95
144,48,71292,2,0,P|208:32|256:80,1,95
256,160,71645,1,0,0:0:0:0:
368,192,71821,1,0,0:0:0:0:
368,192,71910,5,0,0:0:0:0:
368,192,71998,1,0,0:0:0:0:
336,304,72174,1,0,0:0:0:0:
336,304,72263,1,0,0:0:0:0:
336,304,72351,2,0,L|224:272,1,95
96,208,72704,5,0,0:0:0:0:
192,96,72880,1,0,0:0:0:0:
352,192,73057,2,0,L|224:192,1,95
384,80,73410,5,0,0:0:0:0:
432,256,73586,1,0,0:0:0:0:
240,192,73763,2,0,L|336:192,1,95
304,336,74116,5,0,0:0:0:0:
144,256,74292,1,0,0:0:0:0:
320,112,74469,2,0,L|256:192,1,95
96,192,74821,5,0,0:0:0:0:
240,64,74998,1,0,0:0:0:0:
288,256,75174,2,0,L|224:176,1,95
144,96,75527,5,0,0:0:0:0:
336,96,75704,1,0,0:0:0:0:
208,192,75880,1,0,0:0:0:0:
208,192,75969,1,0,0:0:0:0:
208,192,76057,5,0,0:0:0:0:
272,112,76233,2,0,P|320:64|352:32,1,95
336,208,76586,5,0,0:0:0:0:
176,96,76763,1,0,0:0:0:0:
176,224,76939,1,0,0:0:0:0:
304,112,77116,1,0,0:0:0:0:
80,160,77292,2,0,L|48:256,2,95
192,192,77821,6,0,L|288:112,1,95
320,112,78174,1,0,0:0:0:0:
320,112,78263,1,0,0:0:0:0:
320,112,78351,2,0,L|384:208,1,95
160,192,78704,6,0,B|160:128|192:96|192:112,2,95
256,256,79233,1,0,0:0:0:0:
352,192,79410,2,0,B|352:128|320:96|320:112,2,95
176,192,79939,5,0,0:0:0:0:
256,112,80116,2,0,B|304:112|352:144|336:144,1,95
256,272,80469,2,0,B|320:272|352:240|336:240,1,95
144,192,80821,1,0,0:0:0:0:
336,128,81174,5,0,0:0:0:0:
192,256,81351,1,0,0:0:0:0:
224,128,81527,6,0,P|176:96|128:96,1,95
144,176,81880,2,0,P|96:176|64:208,1,95
160,256,82233,2,0,P|112:288|96:320,1,95
288,128,82586,6,0,P|336:96|384:96,1,95
368,176,82939,2,0,P|416:176|448:208,1,95
352,256,83292,2,0,P|400:288|416:320,1,95
288,320,83557,6,0,L|256:272,1,47.5
208,192,83821,1,0,0:0:0:0:
192,176,83910,1,0,0:0:0:0:
176,160,83998,1,0,0:0:0:0:
112,288,84174,5,0,0:0:0:0:
288,128,84351,2,0,P|336:176|320:224,1,95
160,160,84704,5,0,0:0:0:0:
256,272,84880,1,0,0:0:0:0:
416,256,85057,2,0,P|416:192|384:144,1,95
288,64,85410,5,0,0:0:0:0:
160,176,85586,1,0,0:0:0:0:
240,304,85763,2,0,P|336:288|384:208,1,190
352,160,86292,2,0,L|256:144,1,95
128,192,86645,5,0,0:0:0:0:
192,288,86821,2,0,P|112:272|64:288,2,95
320,288,87351,1,0,0:0:0:0:
368,224,87527,1,0,0:0:0:0:
416,160,87704,1,0,0:0:0:0:
368,96,87880,1,0,0:0:0:0:
304,48,88057,1,0,0:0:0:0:
288,160,88233,6,0,P|192:144|160:128,1,95
96,96,88586,1,0,0:0:0:0:
128,272,88763,1,0,0:0:0:0:
192,176,88939,1,0,0:0:0:0:
224,320,89116,1,0,0:0:0:0:
304,272,89292,5,0,0:0:0:0:
336,96,89469,1,0,0:0:0:0:
400,192,89645,1,0,0:0:0:0:
432,48,89822,1,0,0:0:0:0:
384,128,89998,5,0,0:0:0:0:
368,112,90086,1,0,0:0:0:0:
352,96,90174,1,0,0:0:0:0:
336,112,90263,1,0,0:0:0:0:
320,128,90351,1,0,0:0:0:0:
304,144,90439,1,0,0:0:0:0:
288,160,90527,1,0,0:0:0:0:
272,176,90616,1,0,0:0:0:0:
256,192,90704,1,0,0:0:0:0:
128,144,90880,5,0,0:0:0:0:
144,160,90969,1,0,0:0:0:0:
160,176,91057,1,0,0:0:0:0:
160,192,91145,1,0,0:0:0:0:
160,208,91233,5,0,0:0:0:0:
112,320,91410,5,0,0:0:0:0:
128,304,91498,1,0,0:0:0:0:
144,288,91586,1,0,0:0:0:0:
160,272,91674,1,0,0:0:0:0:
176,288,91763,1,0,0:0:0:0:
192,304,91851,1,0,0:0:0:0:
224,320,91939,1,0,0:0:0:0:
240,304,92027,1,0,0:0:0:0:
272,272,92116,1,0,0:0:0:0:
304,240,92204,1,0,0:0:0:0:
336,208,92292,1,0,0:0:0:0:
368,176,92380,1,0,0:0:0:0:
400,144,92469,6,0,B|352:112|288:96|288:80,1,95
192,96,92821,6,0,P|128:96|112:128,1,95
208,208,93174,1,0,0:0:0:0:
208,208,93263,1,0,0:0:0:0:
208,208,93351,2,0,P|240:256|224:288,1,95
336,288,93704,5,0,0:0:0:0:
400,208,93880,2,0,L|320:144,1,95
240,80,94233,6,0,P|160:160|176:144,1,95
96,80,94586,2,0,L|176:160,1,95
112,224,94939,2,0,L|176:128,1,95
224,224,95292,2,0,B|160:144|160:144,1,95
304,144,95645,5,0,0:0:0:0:
416,272,95821,1,0,0:0:0:0:
320,240,95998,1,0,0:0:0:0:
208,304,96174,1,0,0:0:0:0:
208,304,96263,5,0,0:0:0:0:
208,304,96351,2,0,L|128:240,1,95
112,128,96704,1,0,0:0:0:0:
240,80,96880,1,0,0:0:0:0:
240,80,96969,5,0,0:0:0:0:
240,80,97057,2,0,L|336:144,1,95
368,224,97410,1,0,0:0:0:0:
144,304,97586,1,0,0:0:0:0:
224,176,97763,1,0,0:0:0:0:
272,336,97939,1,0,0:0:0:0:
272,336,98292,5,0,0:0:0:0:
208,144,98469,2,0,P|160:112|96:96,1,95
128,192,98821,2,0,P|176:224|224:240,1,95
320,128,99174,1,0,0:0:0:0:
400,192,99351,1,0,0:0:0:0:
384,288,99527,2,0,P|320:256|256:272,1,95
256,192,99880,6,0,L|336:128,1,95
160,128,100233,1,0,0:0:0:0:
112,288,100410,1,0,0:0:0:0:
80,192,100586,2,0,L|208:224,1,95
256,320,100939,6,0,P|304:320|352:288,1,95
272,240,101292,2,0,P|320:208|336:176,1,95
272,112,101645,1,0,0:0:0:0:
352,48,101821,1,0,0:0:0:0:
400,192,101998,6,0,L|208:192,1,190
96,144,102527,1,0,0:0:0:0:
144,256,102704,2,0,L|144:304,2,47.5
96,144,103057,5,0,0:0:0:0:
208,80,103233,2,0,L|256:64,2,47.5
400,96,103586,5,0,0:0:0:0:
384,112,103674,1,0,0:0:0:0:
368,128,103763,1,0,0:0:0:0:
352,144,103851,1,0,0:0:0:0:
336,160,103939,1,0,0:0:0:0:
320,176,104027,1,0,0:0:0:0:
304,192,104116,2,0,P|256:160|208:160,1,95
128,208,104469,5,0,0:0:0:0:
160,288,104645,2,0,P|208:288|240:256,1,95
336,304,104998,5,0,0:0:0:0:
416,256,105174,2,0,P|432:192|416:160,1,95
320,96,105527,2,0,L|272:192,1,95
208,128,105880,6,0,L|160:224,1,95
240,256,106233,2,0,L|192:352,1,95
96,352,106586,2,0,L|144:256,1,95
176,192,106939,2,0,L|272:192,1,95
368,192,107292,2,0,P|384:240|352:272,2,95
304,112,107821,5,0,0:0:0:0:
224,80,107998,1,0,0:0:0:0:
144,96,108174,1,0,0:0:0:0:
112,176,108351,2,0,P|192:240|224:256,1,95
320,192,108704,6,0,P|304:256|272:304,1,95
128,304,109057,2,0,P|176:240|208:224,1,95
288,224,109410,2,0,P|320:176|336:128,1,95
224,96,109763,5,0,0:0:0:0:
224,288,109939,1,0,0:0:0:0:
288,192,110116,1,0,0:0:0:0:
160,176,110292,2,0,B|96:224|96:272|96:272|160:320,1,190
240,256,110821,5,0,0:0:0:0:
384,304,110998,1,0,0:0:0:0:
352,192,111174,2,0,P|288:112|192:112,1,190
128,96,111704,2,0,P|80:144|64:176,1,95
160,240,112057,5,0,0:0:0:0:
304,160,112233,1,0,0:0:0:0:
256,256,112410,1,0,0:0:0:0:
368,288,112586,2,0,P|400:224|368:112,1,190
304,192,113116,2,0,P|240:272|144:288,1,190
144,176,113645,5,0,0:0:0:0:
208,64,113821,1,0,0:0:0:0:
208,64,113910,1,0,0:0:0:0:
208,64,113998,5,0,0:0:0:0:
320,128,114174,1,0,0:0:0:0:
320,128,114263,1,0,0:0:0:0:
320,128,114351,5,0,0:0:0:0:
240,224,114527,1,0,0:0:0:0:
240,224,114616,1,0,0:0:0:0:
240,224,114704,2,0,P|304:256|352:256,1,95
416,192,115057,6,0,P|368:160|304:160,1,95
192,304,115410,1,0,0:0:0:0:
96,288,115586,1,0,0:0:0:0:
192,144,115763,1,0,0:0:0:0:
96,192,115939,1,0,0:0:0:0:
304,192,116116,2,0,P|336:128|304:96,1,95
432,160,116469,5,0,0:0:0:0:
400,320,116645,1,0,0:0:0:0:
464,256,116821,1,0,0:0:0:0:
256,224,116998,1,0,0:0:0:0:
336,144,117174,1,0,0:0:0:0:
336,144,117263,1,0,0:0:0:0:
336,144,117351,2,0,P|256:96|224:96,1,95
176,160,117704,5,0,0:0:0:0:
112,224,117880,1,0,0:0:0:0:
80,128,118057,1,0,0:0:0:0:
48,48,118233,6,0,L|176:48,1,95
448,336,118586,2,0,P|352:336|352:336,1,95
48,128,118939,2,0,L|160:128,1,95
448,256,119292,2,0,L|352:256,1,95
192,240,119645,5,0,0:0:0:0:
304,96,119821,1,0,0:0:0:0:
304,240,119998,1,0,0:0:0:0:
192,96,120174,1,0,0:0:0:0:
320,112,132704,6,0,P|352:144|352:192,1,95
352,192,133410,1,0,0:0:0:0:
240,160,133586,1,0,0:0:0:0:
272,256,133763,1,0,0:0:0:0:
160,224,133939,1,0,0:0:0:0:
80,144,134116,2,0,P|96:80|128:48,1,95
224,112,134821,6,0,P|256:96|272:96,2,47.5
160,192,135351,2,0,P|192:224|192:240,1,47.5
320,208,135704,2,0,P|288:240|288:256,1,47.5
336,128,136233,5,0,0:0:0:0:
400,192,136586,2,0,P|400:240|352:256,2,95
304,192,137645,1,0,0:0:0:0:
192,80,137998,6,0,L|192:112,7,23.75
128,144,138704,2,0,L|128:176,7,23.75
192,224,139410,2,0,L|192:256,7,23.75
128,288,140116,2,0,L|128:320,7,23.75
192,240,140821,2,0,L|192:208,7,23.75
128,176,141527,2,0,L|128:144,7,23.75
192,112,142233,2,0,L|192:80,7,23.75
272,80,142939,6,0,L|320:96,1,47.5
272,144,143116,2,0,L|336:160,1,47.5
272,208,143292,2,0,L|336:224,1,47.5
272,272,143469,2,0,L|336:288,1,47.5
400,304,143645,5,0,0:0:0:0:
448,256,143821,1,0,0:0:0:0:
416,192,143998,2,0,P|416:144|384:112,1,95
272,112,144351,1,0,0:0:0:0:
192,128,144527,1,0,0:0:0:0:
160,208,144704,1,0,0:0:0:0:
192,288,144880,1,0,0:0:0:0:
288,288,145057,6,0,P|336:272|352:224,1,95
272,208,145410,2,0,P|304:160|352:144,1,95
416,144,145763,2,0,P|384:80|352:64,1,95
256,64,146116,5,0,0:0:0:0:
96,192,146292,1,0,0:0:0:0:
144,64,146469,1,0,0:0:0:0:
208,240,146645,1,0,0:0:0:0:
96,192,146821,1,0,0:0:0:0:
304,128,146998,1,0,0:0:0:0:
240,320,147174,2,0,L|128:320,1,95
288,240,147527,6,0,L|384:240,1,95
416,144,147880,1,0,0:0:0:0:
416,144,147969,5,0,0:0:0:0:
416,144,148057,2,0,P|368:96|304:80,1,95
224,80,148410,2,0,P|160:80|112:112,1,95
112,224,148763,5,0,0:0:0:0:
144,192,148851,1,0,0:0:0:0:
176,176,148939,1,0,0:0:0:0:
224,176,149027,1,0,0:0:0:0:
256,192,149116,1,0,0:0:0:0:
288,224,149204,1,0,0:0:0:0:
336,208,149292,5,0,0:0:0:0:
400,288,149469,1,0,0:0:0:0:
400,288,149557,1,0,0:0:0:0:
400,288,149645,6,0,P|432:208|416:176,1,95
384,80,149998,1,0,0:0:0:0:
144,80,150174,1,0,0:0:0:0:
144,80,150263,1,0,0:0:0:0:
144,80,150351,6,0,P|112:128|128:160,1,95
192,256,150704,1,0,0:0:0:0:
288,64,150880,1,0,0:0:0:0:
336,192,151057,1,0,0:0:0:0:
96,112,151233,1,0,0:0:0:0:
192,64,151410,1,0,0:0:0:0:
192,256,151586,1,0,0:0:0:0:
192,256,151674,5,0,0:0:0:0:
192,256,151763,2,0,P|224:224|272:224,1,95
416,272,152116,1,0,0:0:0:0:
432,192,152292,6,0,L|352:128,1,95
304,224,152645,2,0,L|224:144,1,95
64,192,152998,2,0,L|144:288,1,95
192,192,153351,2,0,L|272:288,1,95
368,192,153704,1,0,0:0:0:0:
272,80,153880,1,0,0:0:0:0:
272,320,154057,1,0,0:0:0:0:
272,320,154145,1,0,0:0:0:0:
272,320,154233,1,0,0:0:0:0:
176,192,154410,5,0,0:0:0:0:
96,80,154586,2,0,P|48:176|80:256,1,190
240,192,155116,5,0,0:0:0:0:
448,192,155292,1,0,0:0:0:0:
304,288,155469,1,0,0:0:0:0:
304,96,155645,2,0,P|352:64|400:80,1,95
368,176,155998,5,0,0:0:0:0:
208,272,156174,1,0,0:0:0:0:
288,96,156351,2,0,P|224:80|192:80,1,95
208,160,156704,5,0,0:0:0:0:
368,176,156880,1,0,0:0:0:0:
208,272,157057,2,0,P|128:272|112:224,1,95
112,176,157410,5,0,0:0:0:0:
288,96,157586,1,0,0:0:0:0:
224,272,157763,2,0,P|288:272|320:240,1,95
272,192,158116,5,0,0:0:0:0:
432,288,158292,1,0,0:0:0:0:
432,80,158469,2,0,P|384:48|320:48,1,95
368,128,158821,2,0,P|304:128|272:96,1,95
192,64,159174,5,0,0:0:0:0:
224,256,159351,1,0,0:0:0:0:
272,64,159527,1,0,0:0:0:0:
128,144,159704,1,0,0:0:0:0:
128,144,159792,5,0,0:0:0:0:
128,144,159880,1,0,0:0:0:0:
384,224,160057,1,0,0:0:0:0:
384,224,160145,5,0,0:0:0:0:
384,224,160233,1,0,0:0:0:0:
176,304,160410,1,0,0:0:0:0:
176,304,160498,5,0,0:0:0:0:
176,304,160586,2,0,L|288:144,1,190
336,64,161116,1,0,0:0:0:0:
224,64,161292,2,0,L|96:224,1,190
64,288,161821,5,0,0:0:0:0:
144,144,161998,1,0,0:0:0:0:
192,288,162174,2,0,P|240:288|272:256,1,95
320,144,162527,1,0,0:0:0:0:
384,288,162704,1,0,0:0:0:0:
272,288,162880,5,0,0:0:0:0:
416,176,163057,1,0,0:0:0:0:
160,176,163233,1,0,0:0:0:0:
240,64,163410,1,0,0:0:0:0:
240,288,163586,1,0,0:0:0:0:
128,288,163763,2,0,P|48:224|96:144,1,190
160,96,164292,5,0,0:0:0:0:
256,48,164469,1,0,0:0:0:0:
352,96,164645,1,0,0:0:0:0:
416,160,164821,6,0,L|416:256,1,95
336,160,165174,2,0,L|256:256,1,95
304,96,165527,2,0,L|192:96,1,95
128,128,165880,2,0,L|208:208,1,95
48,128,166233,2,0,P|48:224|48:224,1,95
128,288,166586,5,0,0:0:0:0:
160,272,166674,1,0,0:0:0:0:
192,272,166763,1,0,0:0:0:0:
224,256,166851,1,0,0:0:0:0:
256,272,166939,1,0,0:0:0:0:
288,288,167027,1,0,0:0:0:0:
320,272,167116,1,0,0:0:0:0:
336,240,167204,1,0,0:0:0:0:
352,208,167292,1,0,0:0:0:0:
384,192,167380,1,0,0:0:0:0:
400,160,167469,1,0,0:0:0:0:
384,128,167557,1,0,0:0:0:0:
368,96,167645,1,0,0:0:0:0:
336,80,167733,5,0,0:0:0:0:
304,80,167821,1,0,0:0:0:0:
272,96,167910,1,0,0:0:0:0:
224,112,167998,1,0,0:0:0:0:
176,128,168086,1,0,0:0:0:0:
160,160,168174,1,0,0:0:0:0:
144,208,168263,1,0,0:0:0:0:
144,224,168351,2,0,B|176:240|192:256|144:288|112:256|128:240,1,95
320,96,169057,6,0,P|384:96|400:128,1,95
304,208,169410,1,0,0:0:0:0:
304,208,169499,1,0,0:0:0:0:
304,208,169587,2,0,P|272:256|288:288,1,95
176,288,169940,5,0,0:0:0:0:
112,208,170116,2,0,L|192:144,1,95
304,80,170469,6,0,P|320:128|368:160,1,95
400,80,170821,2,0,P|384:128|320:176,1,95
400,240,171174,2,0,P|384:192|336:144,1,95
304,240,171527,2,0,P|320:192|368:144,1,95
176,128,171881,5,0,0:0:0:0:
96,272,172057,1,0,0:0:0:0:
192,240,172234,1,0,0:0:0:0:
304,304,172410,1,0,0:0:0:0:
304,304,172499,5,0,0:0:0:0:
304,304,172587,2,0,L|384:240,1,95
400,128,172940,1,0,0:0:0:0:
272,80,173116,1,0,0:0:0:0:
272,80,173205,5,0,0:0:0:0:
272,80,173293,2,0,L|176:144,1,95
144,224,173646,1,0,0:0:0:0:
368,304,173822,1,0,0:0:0:0:
288,176,173999,1,0,0:0:0:0:
240,336,174175,1,0,0:0:0:0:
240,336,174528,5,0,0:0:0:0:
304,144,174705,2,0,P|352:112|416:96,1,95
384,192,175057,2,0,P|336:224|288:240,1,95
192,128,175410,1,0,0:0:0:0:
112,192,175587,1,0,0:0:0:0:
128,288,175763,2,0,P|192:256|256:272,1,95
256,192,176116,6,0,L|176:128,1,95
352,128,176469,1,0,0:0:0:0:
400,288,176646,1,0,0:0:0:0:
432,192,176822,2,0,L|304:224,1,95
256,320,177175,6,0,P|208:320|160:288,1,95
240,240,177528,2,0,P|192:208|176:176,1,95
240,112,177881,1,0,0:0:0:0:
160,48,178057,1,0,0:0:0:0:
112,192,178234,6,0,L|304:192,1,190
416,144,178763,1,0,0:0:0:0:
352,272,178940,1,0,0:0:0:0:
352,272,179028,1,0,0:0:0:0:
352,272,179116,5,0,0:0:0:0:
416,144,179293,5,0,0:0:0:0:
288,144,179469,1,0,0:0:0:0:
288,144,179557,1,0,0:0:0:0:
288,144,179646,1,0,0:0:0:0:
112,96,179822,5,0,0:0:0:0:
128,112,179910,1,0,0:0:0:0:
144,128,179999,1,0,0:0:0:0:
160,144,180087,1,0,0:0:0:0:
176,160,180175,1,0,0:0:0:0:
192,176,180263,1,0,0:0:0:0:
208,192,180352,2,0,P|256:160|304:160,1,95
384,208,180705,5,0,0:0:0:0:
352,288,180881,2,0,P|304:288|272:256,1,95
176,304,181234,5,0,0:0:0:0:
96,256,181410,2,0,P|80:192|96:160,1,95
192,96,181763,2,0,L|240:192,1,95
304,128,182116,6,0,L|352:224,1,95
272,256,182469,2,0,L|320:352,1,95
416,352,182822,2,0,L|368:256,1,95
336,192,183175,2,0,L|240:192,1,95
144,192,183528,2,0,P|128:240|160:272,2,95
208,112,184057,5,0,0:0:0:0:
288,80,184234,1,0,0:0:0:0:
368,96,184410,1,0,0:0:0:0:
400,176,184587,2,0,P|320:240|288:256,1,95
192,192,184940,6,0,P|208:256|240:304,1,95
384,304,185293,2,0,P|336:240|304:224,1,95
224,224,185646,2,0,P|192:176|176:128,1,95
288,96,185999,5,0,0:0:0:0:
288,288,186175,1,0,0:0:0:0:
224,192,186352,1,0,0:0:0:0:
352,176,186528,2,0,B|416:224|416:272|416:272|352:320,1,190
272,256,187057,5,0,0:0:0:0:
128,304,187234,1,0,0:0:0:0:
160,192,187410,2,0,P|224:112|320:112,1,190
384,96,187940,2,0,P|432:144|448:176,1,95
352,240,188293,5,0,0:0:0:0:
208,160,188469,1,0,0:0:0:0:
256,256,188646,1,0,0:0:0:0:
144,288,188822,2,0,P|112:224|144:112,1,190
208,192,189352,2,0,P|272:272|368:288,1,190
368,176,189881,5,0,0:0:0:0:
304,64,190057,1,0,0:0:0:0:
304,64,190146,1,0,0:0:0:0:
304,64,190234,5,0,0:0:0:0:
192,128,190410,1,0,0:0:0:0:
192,128,190499,1,0,0:0:0:0:
192,128,190587,5,0,0:0:0:0:
272,224,190763,1,0,0:0:0:0:
272,224,190852,1,0,0:0:0:0:
272,224,190940,2,0,P|208:256|160:256,1,95
96,192,191293,6,0,P|144:160|208:160,1,95
320,304,191646,1,0,0:0:0:0:
416,288,191822,1,0,0:0:0:0:
320,144,191999,1,0,0:0:0:0:
416,192,192175,1,0,0:0:0:0:
208,192,192352,2,0,P|176:128|208:96,1,95
80,160,192705,5,0,0:0:0:0:
112,320,192881,1,0,0:0:0:0:
48,256,193057,1,0,0:0:0:0:
256,224,193234,1,0,0:0:0:0:
176,144,193410,1,0,0:0:0:0:
176,144,193499,1,0,0:0:0:0:
176,144,193587,2,0,P|256:96|288:96,1,95
336,160,193940,5,0,0:0:0:0:
400,224,194116,1,0,0:0:0:0:
432,128,194293,1,0,0:0:0:0:
464,48,194469,6,0,L|336:48,1,95
64,336,194822,2,0,P|160:336|160:336,1,95
464,128,195175,2,0,L|352:128,1,95
64,256,195528,2,0,L|160:256,1,95
320,240,195881,5,0,0:0:0:0:
208,96,196057,1,0,0:0:0:0:
208,240,196234,1,0,0:0:0:0:
320,96,196410,1,0,0:0:0:0:
272,176,196586,5,0,0:0:0:0:
176,144,196763,1,0,0:0:0:0:
96,128,196939,2,0,P|64:176|96:208,1,95
192,64,197292,2,0,B|256:48|272:80|352:64|368:112,2,190
160,192,199057,5,0,0:0:0:0:
224,256,199410,1,0,0:0:0:0:
288,320,199763,1,0,0:0:0:0:
352,240,200116,2,0,P|384:144|336:64,1,190
256,144,201174,5,0,0:0:0:0:
112,144,201527,1,0,0:0:0:0:
176,288,201880,1,0,0:0:0:0:
272,224,202057,1,0,0:0:0:0:
320,192,202233,2,0,L|368:160,1,47.5
256,112,202586,2,0,L|224:112,4,23.75
144,192,203292,5,0,0:0:0:0:
160,288,203469,1,0,0:0:0:0:
256,96,203645,2,0,B|320:80|352:96|352:96,1,95
416,176,204174,2,0,L|368:224,1,47.5
304,144,204527,1,0,0:0:0:0:
304,256,204704,2,0,L|224:192,1,95
176,112,205410,5,0,0:0:0:0:
176,256,205763,5,0,0:0:0:0:
176,256,206116,5,0,0:0:0:0:
176,256,206469,5,0,0:0:0:0:
288,144,206645,1,0,0:0:0:0:
288,288,206821,1,0,0:0:0:0:
176,144,206998,1,0,0:0:0:0:
352,224,207174,2,0,P|384:208|416:160,1,95
320,96,207527,5,0,0:0:0:0:
320,96,207616,1,0,0:0:0:0:
320,96,207704,1,0,0:0:0:0:
320,96,207792,1,0,0:0:0:0:
320,96,207880,1,0,0:0:0:0:
192,48,208057,1,0,0:0:0:0:
128,128,208233,5,0,0:0:0:0:
144,144,208321,1,0,0:0:0:0:
160,160,208410,1,0,0:0:0:0:
176,176,208498,1,0,0:0:0:0:
192,192,208586,6,0,L|352:64,1,190
448,176,209116,2,0,L|304:304,1,190
192,304,209645,2,0,L|64:128,1,190
176,64,210174,2,0,L|400:64,1,190
320,160,210704,6,0,L|208:160,1,95
224,240,211057,2,0,L|336:240,1,95
400,176,211410,2,0,B|320:128|256:112|176:144|128:176,1,285
128,208,212116,2,0,B|208:240|272:256|352:224|400:192,1,285
256,304,212821,2,0,L|256:80,1,190
256,48,213351,5,0,0:0:0:0:
160,96,213527,1,0,0:0:0:0:
80,176,213704,1,0,0:0:0:0:
112,272,213880,1,0,0:0:0:0:
176,352,214057,1,0,0:0:0:0:
272,288,214233,6,0,B|416:208|304:64|64:80|496:272|0:176|64:48|144:256|320:320,1,570
416,256,215469,1,0,0:0:0:0:
416,80,215645,1,0,0:0:0:0:
384,80,215821,1,0,0:0:0:0:
352,80,215998,1,0,0:0:0:0:
320,80,216174,1,0,0:0:0:0:
288,80,216351,1,0,0:0:0:0:
288,144,216527,5,0,0:0:0:0:
256,144,216704,1,0,0:0:0:0:
224,144,216880,1,0,0:0:0:0:
192,144,217057,2,0,L|48:272,1,190
192,272,217763,2,0,L|352:128,1,190
448,304,218469,2,0,L|256:304,1,190
64,48,219174,2,0,L|256:48,1,190
304,112,219880,5,0,0:0:0:0:
288,128,220057,1,0,0:0:0:0:
272,144,220233,1,0,0:0:0:0:
192,160,220410,5,0,0:0:0:0:
208,176,220586,1,0,0:0:0:0:
224,192,220763,1,0,0:0:0:0:
304,208,220939,5,0,0:0:0:0:
288,224,221116,1,0,0:0:0:0:
272,240,221292,1,0,0:0:0:0:
208,288,221469,5,0,0:0:0:0:
128,208,221645,1,0,0:0:0:0:
128,96,221821,2,0,P|176:96|208:128,1,95
256,192,222174,2,0,P|336:192|352:144,1,95
400,112,222527,5,0,0:0:0:0:
336,256,222704,2,0,L|256:192,1,95
176,256,223057,2,0,L|256:192,1,95
176,128,223410,2,0,L|256:192,1,95
336,128,223763,2,0,L|256:192,1,95
256,80,224116,2,0,L|64:80,1,190
256,304,224821,2,0,L|448:304,1,190
224,64,225527,5,0,0:0:0:0:
208,80,225704,1,0,0:0:0:0:
192,96,225880,1,0,0:0:0:0:
288,128,226057,5,0,0:0:0:0:
304,144,226233,1,0,0:0:0:0:
320,160,226410,1,0,0:0:0:0:
224,192,226586,5,0,0:0:0:0:
208,208,226763,1,0,0:0:0:0:
192,224,226939,1,0,0:0:0:0:
288,256,227116,5,0,0:0:0:0:
304,272,227292,1,0,0:0:0:0:
320,288,227469,1,0,0:0:0:0:
176,288,227645,5,0,0:0:0:0:
144,256,227821,1,0,0:0:0:0:
112,224,227998,2,0,L|176:144,1,95
400,224,228351,2,0,L|336:144,1,95
336,144,228616,1,0,0:0:0:0:
336,144,228704,5,0,0:0:0:0:
112,160,228880,2,0,L|176:240,1,95
176,240,229145,1,0,0:0:0:0:
176,240,229233,5,0,0:0:0:0:
400,160,229410,2,0,L|336:240,1,95
336,240,229674,1,0,0:0:0:0:
336,240,229763,5,0,0:0:0:0:
256,80,229939,2,0,P|256:192|256:192,1,95
256,192,230204,1,0,0:0:0:0:
256,192,230292,1,0,0:0:0:0:
256,288,230469,2,0,L|256:96,1,190
144,176,248116,5,0,0:0:0:0:
288,288,248645,5,0,0:0:0:0:
224,96,248821,1,0,0:0:0:0:
336,128,249174,5,0,0:0:0:0:
192,272,249351,1,0,0:0:0:0:
224,112,249527,1,0,0:0:0:0:
192,272,249704,1,0,0:0:0:0:
368,192,249880,1,0,0:0:0:0:
288,272,250057,5,0,0:0:0:0:
160,160,250233,2,0,L|192:128,3,23.75
112,224,250586,2,0,L|96:256,3,23.75
256,192,250939,12,0,253410,0:0:0:0:
320,288,253763,6,0,P|384:288|400:256,1,95
400,128,254116,1,0,0:0:0:0:
304,176,254293,2,0,P|272:128|288:96,1,95
176,96,254646,5,0,0:0:0:0:
112,176,254822,2,0,L|192:240,1,95
304,304,255175,6,0,P|320:256|368:224,1,95
400,304,255527,2,0,P|384:256|320:208,1,95
400,144,255880,2,0,P|384:192|336:240,1,95
304,144,256233,2,0,P|320:192|368:240,1,95
176,256,256587,5,0,0:0:0:0:
96,112,256763,1,0,0:0:0:0:
48,224,256940,1,0,0:0:0:0:
256,128,257116,1,0,0:0:0:0:
256,128,257205,5,0,0:0:0:0:
256,128,257293,2,0,L|336:192,1,95
416,256,257646,1,0,0:0:0:0:
272,304,257822,1,0,0:0:0:0:
272,304,257911,5,0,0:0:0:0:
272,304,257999,2,0,L|176:240,1,95
96,176,258352,1,0,0:0:0:0:
368,80,258528,1,0,0:0:0:0:
304,240,258705,1,0,0:0:0:0:
240,48,258881,1,0,0:0:0:0:
240,48,259234,5,0,0:0:0:0:
304,240,259411,2,0,P|352:272|416:288,1,95
384,192,259763,2,0,P|336:160|288:144,1,95
192,256,260116,1,0,0:0:0:0:
112,192,260293,1,0,0:0:0:0:
128,96,260469,2,0,P|192:128|256:112,1,95
256,192,260822,6,0,L|176:256,1,95
352,256,261175,1,0,0:0:0:0:
400,96,261352,1,0,0:0:0:0:
432,192,261528,2,0,L|304:160,1,95
256,64,261881,6,0,P|208:64|160:96,1,95
240,144,262234,2,0,P|192:176|176:208,1,95
240,272,262587,1,0,0:0:0:0:
160,336,262763,1,0,0:0:0:0:
112,192,262940,6,0,L|304:192,1,190
416,240,263469,1,0,0:0:0:0:
352,112,263646,1,0,0:0:0:0:
352,112,263734,1,0,0:0:0:0:
352,112,263822,5,0,0:0:0:0:
416,240,263999,5,0,0:0:0:0:
288,240,264175,1,0,0:0:0:0:
288,240,264263,1,0,0:0:0:0:
288,240,264352,1,0,0:0:0:0:
112,288,264528,5,0,0:0:0:0:
128,272,264616,1,0,0:0:0:0:
144,256,264705,1,0,0:0:0:0:
160,240,264793,1,0,0:0:0:0:
176,224,264881,1,0,0:0:0:0:
192,208,264969,1,0,0:0:0:0:
208,192,265058,2,0,P|256:224|304:224,1,95
384,176,265411,5,0,0:0:0:0:
352,96,265587,2,0,P|304:96|272:128,1,95
176,80,265940,5,0,0:0:0:0:
96,128,266116,2,0,P|80:192|96:224,1,95
192,288,266469,2,0,L|240:192,1,95
304,256,266822,6,0,L|352:160,1,95
272,128,267175,2,0,L|320:32,1,95
416,32,267528,2,0,L|368:128,1,95
336,192,267881,2,0,L|240:192,1,95
144,192,268234,2,0,P|128:144|160:112,2,95
208,272,268763,5,0,0:0:0:0:
288,304,268940,1,0,0:0:0:0:
368,288,269116,1,0,0:0:0:0:
400,208,269293,2,0,P|320:144|288:128,1,95
192,192,269646,6,0,P|208:128|240:80,1,95
384,80,269999,2,0,P|336:144|304:160,1,95
224,160,270352,2,0,P|192:208|176:256,1,95
288,288,270705,5,0,0:0:0:0:
288,96,270881,1,0,0:0:0:0:
176,208,271058,1,0,0:0:0:0:
352,208,271234,2,0,B|416:160|416:112|416:112|352:64,1,190
272,128,271763,5,0,0:0:0:0:
128,80,271940,1,0,0:0:0:0:
160,192,272116,2,0,P|224:272|320:272,1,190
384,288,272646,2,0,P|432:240|448:208,1,95
304,96,272999,5,0,0:0:0:0:
208,224,273175,1,0,0:0:0:0:
320,224,273352,1,0,0:0:0:0:
144,96,273528,2,0,P|112:160|144:272,1,190
208,192,274058,2,0,P|272:112|368:96,1,190
368,208,274587,5,0,0:0:0:0:
304,320,274763,1,0,0:0:0:0:
304,320,274852,1,0,0:0:0:0:
304,320,274940,5,0,0:0:0:0:
192,256,275116,1,0,0:0:0:0:
192,256,275205,1,0,0:0:0:0:
192,256,275293,5,0,0:0:0:0:
272,160,275469,1,0,0:0:0:0:
272,160,275558,1,0,0:0:0:0:
272,160,275646,2,0,P|208:128|160:128,1,95
96,192,275999,6,0,P|144:224|208:224,1,95
288,64,276352,1,0,0:0:0:0:
400,64,276528,1,0,0:0:0:0:
320,240,276705,1,0,0:0:0:0:
416,192,276881,1,0,0:0:0:0:
208,192,277058,2,0,P|176:256|208:288,1,95
80,224,277411,5,0,0:0:0:0:
112,48,277587,1,0,0:0:0:0:
32,128,277763,1,0,0:0:0:0:
256,160,277940,1,0,0:0:0:0:
176,240,278116,1,0,0:0:0:0:
176,240,278205,1,0,0:0:0:0:
176,240,278293,2,0,P|256:288|288:288,1,95
336,224,278646,5,0,0:0:0:0:
400,160,278822,1,0,0:0:0:0:
432,256,278999,1,0,0:0:0:0:
464,336,279175,6,0,L|336:336,1,95
64,48,279528,2,0,P|160:48|160:48,1,95
464,256,279881,2,0,L|352:256,1,95
64,128,280234,2,0,L|160:128,1,95
208,192,280586,5,0,0:0:0:0:
304,192,280763,1,0,0:0:0:0:
64,192,280939,1,0,0:0:0:0:
448,192,281116,1,0,0:0:0:0:
144,288,281998,6,0,P|144:240|144:256,7,47.5
240,208,282703,6,0,P|256:192|288:160,7,47.5
368,80,283409,6,0,L|368:128,7,47.5
368,224,284115,6,0,P|352:240|320:272,1,47.5
272,208,284292,2,0,L|320:160,2,47.5
416,160,284821,6,0,P|368:128|320:144,1,95
352,208,285174,2,0,P|304:208|272:176,1,95
128,272,285527,2,0,P|160:304|240:288,1,95
272,256,285880,2,0,P|224:224|192:240,1,95
160,112,286233,6,0,P|224:112|256:112,1,95
352,112,286586,1,0,0:0:0:0:
368,192,286762,1,0,0:0:0:0:
368,192,286850,1,0,0:0:0:0:
368,192,286939,5,0,0:0:0:0:
176,192,287115,1,0,0:0:0:0:
368,192,287292,1,0,0:0:0:0:
256,304,287468,1,0,0:0:0:0:
112,304,287645,6,0,L|112:208,1,95
176,128,287998,2,0,P|272:80|384:112,1,190
400,192,288527,1,0,0:0:0:0:
384,288,288703,6,0,P|336:240|304:240,1,95
320,320,289056,2,0,P|272:304|240:256,1,95
160,112,289409,2,0,P|160:176|192:192,1,95
240,128,289762,2,0,P|272:176|256:208,1,95
416,256,290115,5,0,0:0:0:0:
384,160,290292,1,0,0:0:0:0:
352,80,290469,2,0,L|144:80,1,190
160,288,291332,2,0,L|352:288,1,190
256,192,292195,2,0,B|416:64|416:352|48:352|48:32|416:32|240:176|256:144,1,427.5
256,192,295001,5,0,0:0:0:0:
256,192,295109,12,0,302771,0:0:0:0:
