osu file format v14

[General]
AudioFilename: audio.mp3
AudioLeadIn: 0
PreviewTime: -1
Countdown: 0
SampleSet: None
StackLeniency: 0.7
Mode: 0
LetterboxInBreaks: 0
WidescreenStoryboard: 0

[Editor]
DistanceSpacing: 0.8
BeatDivisor: 1
GridSize: 32
TimelineZoom: 1

[Metadata]
Title:witch doctor
TitleUnicode:witch doctor
Artist:super mario world
ArtistUnicode:super mario world
Creator:fullpowers
Version:Easy
Source:
Tags:
BeatmapID:1270268
BeatmapSetID:601266

[Difficulty]
HPDrainRate:5
CircleSize:5
OverallDifficulty:5
ApproachRate:5
SliderMultiplier:1.4
SliderTickRate:1

[Events]
//Background and Video events
0,0,"dddddd.png",0,0
//Break Periods
2,25210,30868
2,38268,47633
//Storyboard Layer 0 (Background)
//Storyboard Layer 1 (Fail)
//Storyboard Layer 2 (Pass)
//Storyboard Layer 3 (Foreground)
//Storyboard Sound Samples

[TimingPoints]
-48.7394957983193,176.470588235294,4,1,0,100,1,0

[HitObjects]
256,192,13715,5,0,0:0:0:0:
256,192,14068,1,0,0:0:0:0:
256,192,14421,1,0,0:0:0:0:
256,192,14598,1,0,0:0:0:0:
256,192,14774,1,0,0:0:0:0:
256,192,15304,1,0,0:0:0:0:
256,192,15657,1,0,0:0:0:0:
64,192,16010,1,0,0:0:0:0:
128,192,16186,1,0,0:0:0:0:
192,192,16363,1,0,0:0:0:0:
384,192,16715,1,0,0:0:0:0:
128,160,17068,1,0,0:0:0:0:
416,224,17598,1,0,0:0:0:0:
352,224,17774,1,0,0:0:0:0:
288,192,17951,1,0,0:0:0:0:
224,192,18127,1,0,0:0:0:0:
128,160,18304,1,0,0:0:0:0:
96,128,19010,1,0,0:0:0:0:
96,128,19363,1,0,0:0:0:0:
96,160,19892,1,0,0:0:0:0:
96,160,20245,1,0,0:0:0:0:
96,160,20598,1,0,0:0:0:0:
96,160,20774,1,0,0:0:0:0:
256,160,20951,1,0,0:0:0:0:
32,192,21304,1,0,0:0:0:0:
224,64,21657,1,0,0:0:0:0:
96,352,22186,1,0,0:0:0:0:
128,256,22363,1,0,0:0:0:0:
160,192,22539,1,0,0:0:0:0:
256,160,22715,1,0,0:0:0:0:
160,224,22892,1,0,0:0:0:0:
32,32,23245,1,0,0:0:0:0:
224,128,23598,1,0,0:0:0:0:
160,224,23774,1,0,0:0:0:0:
192,64,24127,1,0,0:0:0:0:
256,128,24304,1,0,0:0:0:0:
192,192,24480,1,0,0:0:0:0:
96,256,24657,1,0,0:0:0:0:
192,224,24833,1,0,0:0:0:0:
192,224,25010,1,0,0:0:0:0:
256,192,32068,12,0,38068,0:0:0:0:
256,224,48833,5,0,0:0:0:0:
256,224,49186,1,0,0:0:0:0:
256,224,49363,1,0,0:0:0:0:
256,224,49539,1,0,0:0:0:0:
256,224,49715,1,0,0:0:0:0:
256,224,49892,1,0,0:0:0:0:
256,224,50068,1,0,0:0:0:0:
96,224,50421,1,0,0:0:0:0:
128,160,50598,1,0,0:0:0:0:
160,288,50774,1,0,0:0:0:0:
160,160,50951,1,0,0:0:0:0:
160,288,51127,1,0,0:0:0:0:
224,128,51480,1,0,0:0:0:0:
160,192,51657,1,0,0:0:0:0:
96,256,51833,1,0,0:0:0:0:
160,224,52010,1,0,0:0:0:0:
224,288,52186,1,0,0:0:0:0:
352,192,52363,1,0,0:0:0:0:
224,256,52539,1,0,0:0:0:0:
384,96,52892,1,0,0:0:0:0:
256,160,53245,1,0,0:0:0:0:
224,192,53421,1,0,0:0:0:0:
320,224,53598,1,0,0:0:0:0:
224,224,53774,1,0,0:0:0:0:
128,256,53951,1,0,0:0:0:0:
192,160,54127,1,0,0:0:0:0:
224,224,54304,1,0,0:0:0:0:
96,96,54657,1,0,0:0:0:0:
160,96,54833,1,0,0:0:0:0:
160,160,55010,1,0,0:0:0:0:
160,256,55186,1,0,0:0:0:0:
256,160,55363,1,0,0:0:0:0:
160,224,55539,1,0,0:0:0:0:
288,160,55892,1,0,0:0:0:0:
224,224,56068,1,0,0:0:0:0:
320,128,56245,1,0,0:0:0:0:
160,192,56598,1,0,0:0:0:0:
128,96,56774,1,0,0:0:0:0:
352,160,57127,1,0,0:0:0:0:
192,160,57304,1,0,0:0:0:0:
128,256,57480,1,0,0:0:0:0:
192,192,57657,1,0,0:0:0:0:
128,128,58186,1,0,0:0:0:0:
128,128,58539,1,0,0:0:0:0:
128,128,58715,1,0,0:0:0:0:
352,160,59068,5,0,0:0:0:0:
224,128,59245,1,0,0:0:0:0:
160,192,59421,1,0,0:0:0:0:
256,128,59598,1,0,0:0:0:0:
224,224,59774,1,0,0:0:0:0:
192,128,59951,1,0,0:0:0:0:
160,224,60127,1,0,0:0:0:0:
192,128,60304,1,0,0:0:0:0:
160,256,60480,1,0,0:0:0:0:
192,128,60657,1,0,0:0:0:0:
160,288,61010,1,0,0:0:0:0:
128,224,61186,1,0,0:0:0:0:
256,192,61363,12,0,61892,0:0:0:0:
