osu file format v14

[General]
AudioFilename: audio.mp3
AudioLeadIn: 0
PreviewTime: 9560
Countdown: 0
SampleSet: Soft
StackLeniency: 0.3
Mode: 0
LetterboxInBreaks: 0
WidescreenStoryboard: 0

[Editor]
Bookmarks: 430,10030,29230,38830,48444,68244,86830
DistanceSpacing: 3
BeatDivisor: 5
GridSize: 4
TimelineZoom: 2.999999

[Metadata]
Title:Sequence Start
TitleUnicode:Sequence Start
Artist:sungazer
ArtistUnicode:sungazer
Creator:dsco
Version:Play
Source:
Tags:experimental electronic dnb drum and bass groove time signature instrumental jazz fusion adam neely sun gazer gaze shawn crowder quintuplet
BeatmapID:1371397
BeatmapSetID:647360

[Difficulty]
HPDrainRate:6
CircleSize:4
OverallDifficulty:9
ApproachRate:9.6
SliderMultiplier:3.19999990463257
SliderTickRate:1

[Events]
//Background and Video events
0,0,"12.jpg",0,0
//Break Periods
//Storyboard Layer 0 (Background)
//Storyboard Layer 1 (Fail)
//Storyboard Layer 2 (Pass)
//Storyboard Layer 3 (Foreground)
//Storyboard Layer 4 (Overlay)
//Storyboard Sound Samples

[TimingPoints]
447,600,4,2,0,60,1,0
9068,606.060606060606,4,2,0,60,1,0
9675,591.133004926108,4,2,0,60,1,0
10030,600,4,2,0,60,1,0
10030,-80,4,2,0,60,0,0
11830,591.133004926108,4,2,0,60,1,0
12421,594.059405940594,4,2,0,60,1,0
12421,-80,4,2,0,60,0,0
13015,612.244897959184,4,2,0,60,1,0
13627,600,4,2,0,60,1,0
13627,-80,4,2,0,60,0,0
14227,582.52427184466,4,2,0,60,1,0
14227,-80,4,2,0,60,0,0
14809,600,4,2,0,60,1,0
14809,-80,4,2,0,60,0,0
16009,612.244897959184,4,2,0,60,1,0
16009,-80,4,2,0,60,0,0
16621,588.235294117647,4,2,0,60,1,0
17209,600,4,2,0,60,1,0
17209,-80,4,2,0,60,0,0
17809,603.015075376884,4,2,0,60,1,0
17809,-80,4,2,0,60,0,0
18532,618.556701030928,4,2,0,60,1,0
18532,-80,4,2,0,60,0,0
19026,597.014925373134,4,2,0,60,1,0
19026,-80,4,2,0,60,0,0
20220,600,4,2,0,60,1,0
20220,-80,4,2,0,60,0,0
22620,606.060606060606,4,2,0,60,1,0
23226,594.059405940594,4,2,0,60,1,0
23226,-80,4,2,0,60,0,0
23820,606.060606060606,4,2,0,60,1,0
23820,-80,4,2,0,60,0,0
24426,588.235294117647,4,2,0,60,1,0
24426,-80,4,2,0,60,0,0
25014,600,4,2,0,60,1,0
25014,-80,4,2,0,60,0,0
30414,612.244897959184,4,2,0,60,1,0
30414,-80,4,2,0,60,0,0
31026,618.556701030928,4,2,0,60,1,0
31026,-80,4,2,0,60,0,0
31644,594.059405940594,4,2,0,60,1,0
31644,-80,4,2,0,60,0,0
32238,597.014925373134,4,2,0,60,1,0
32238,-80,4,2,0,60,0,0
34029,612.244897959184,4,2,0,60,1,0
34029,-80,4,2,0,60,0,0
34641,600,4,2,0,60,1,0
34641,-80,4,2,0,60,0,0
36441,594.059405940594,4,2,0,60,1,0
36441,-80,4,2,0,60,0,0
37629,588.235294117647,4,2,0,60,1,0
37629,-80,4,2,0,60,0,0
38217,600,4,2,0,60,1,0
38217,-80,4,2,0,60,0,0
38817,603.015075376884,4,2,0,60,1,0
38817,-80,4,2,0,60,0,0
39420,606.060606060606,4,2,0,60,1,0
39420,-80,4,2,0,60,0,0
40026,612.244897959184,4,2,0,60,1,0
40638,600,4,2,0,60,1,0
40638,-80,4,2,0,60,0,0
41238,588.235294117647,4,2,0,60,1,0
41238,-80,4,2,0,60,0,0
41826,606.060606060606,4,2,0,60,1,0
41826,-80,4,2,0,60,0,0
43038,600,4,2,0,60,1,0
43038,-80,4,2,0,60,0,0
45438,588.235294117647,4,2,0,60,1,0
45438,-80,4,2,0,60,0,0
46026,571.428571428571,4,2,0,60,1,0
46026,-80,4,2,0,60,0,0
46597,594.059405940594,4,2,0,60,1,0
46597,-80,4,2,0,60,0,0
47191,606.060606060606,4,2,0,60,1,0
47191,-80,4,2,0,60,0,0
47797,606.060606060606,4,2,0,60,1,0
48403,600,4,2,0,60,1,0
48403,-80,4,2,0,60,0,0
49003,604.534005037783,4,2,0,60,1,0
49003,-80,4,2,0,60,0,0
51421,598.503740648379,4,2,0,60,1,0
51421,-80,4,2,0,60,0,0
53815,576.923076923077,4,2,0,60,1,0
53815,-80,4,2,0,60,0,0
54391,588.235294117647,4,2,0,60,1,0
54391,-80,4,2,0,60,0,0
54979,618.556701030928,4,2,0,60,1,0
55597,612.244897959184,4,2,0,60,1,0
55597,-80,4,2,0,60,0,0
56821,600,4,2,0,60,1,0
58621,612.244897959184,4,2,0,60,1,0
58621,-80,4,2,0,60,0,0
59845,600,4,2,0,60,1,0
60445,597.014925373134,4,2,0,60,1,0
60445,-80,4,2,0,60,0,0
61042,603.015075376884,4,2,0,60,1,0
61645,576.923076923077,4,2,0,60,1,0
61645,-80,4,2,0,60,0,0
62221,588.235294117647,4,2,0,60,1,0
62809,609.137055837563,4,2,0,60,1,0
62809,-80,4,2,0,60,0,0
64027,631.578947368421,4,2,0,60,1,0
64027,-80,4,2,0,60,0,0
64658,588.235294117647,4,2,0,60,1,0
65246,566.037735849057,4,2,0,60,1,0
65246,-80,4,2,0,60,0,0
65812,600,4,2,0,60,1,0
66412,612.244897959184,4,2,0,60,1,0
66412,-80,4,2,0,60,0,0
67636,603.015075376884,4,2,0,30,1,0
68239,-72.7272727272727,4,2,0,70,0,1
68842,612.244897959184,4,2,0,70,1,1
68842,-72.7272727272727,4,2,0,70,0,1
70066,600,4,2,0,70,1,1
70066,-72.7272727272727,4,2,0,70,0,1
71266,588.235294117647,4,2,0,70,1,1
71266,-72.7272727272727,4,2,0,70,0,1
71854,582.52427184466,4,2,0,70,1,1
71854,-72.7272727272727,4,2,0,70,0,1
72436,594.059405940594,4,2,0,70,1,1
72436,-72.7272727272727,4,2,0,70,0,1
73624,594.059405940594,4,2,0,70,1,1
73624,-72.7272727272727,4,2,0,70,0,1
74812,606.060606060606,4,2,0,70,1,1
74812,-72.7272727272727,4,2,0,70,0,1
75418,600,4,2,0,70,1,1
76018,591.133004926108,4,2,0,70,1,1
76609,594.059405940594,4,2,0,70,1,1
77203,609.137055837563,4,2,0,70,1,1
77203,-72.7272727272727,4,2,0,70,0,1
79030,600,4,2,0,70,1,1
79030,-72.7272727272727,4,2,0,70,0,1
81430,609.137055837563,4,2,0,70,1,1
81430,-72.7272727272727,4,2,0,70,0,1
82648,582.52427184466,4,2,0,70,1,1
82648,-72.7272727272727,4,2,0,70,0,1
84395,612.244897959184,4,2,0,70,1,1
84395,-72.7272727272727,4,2,0,70,0,1
85007,600,4,2,0,70,1,1
85607,625,4,2,0,70,1,1
86232,606.060606060606,4,2,0,70,1,1
86838,600,4,2,0,70,1,0

[Colours]
Combo1 : 230,176,79
Combo2 : 204,130,132

[HitObjects]
61,145,8847,5,0,0:0:0:0:
61,145,8967,1,2,0:0:0:0:
61,145,9068,1,8,0:0:0:0:
93,301,9189,1,8,0:0:0:0:
22,262,9310,1,0,0:0:0:0:
99,34,9431,5,12,0:0:0:0:
99,34,9675,1,2,0:0:0:0:
178,22,9793,1,2,0:0:0:0:
256,11,9911,1,0,0:0:0:0:
234,250,10030,6,0,L|327:236,1,79.9999976158142,6|0,0:0|0:0,0:0:0:0:
392,226,10270,1,0,0:0:0:0:
342,163,10390,1,0,0:0:0:0:
362,301,10510,1,0,0:0:0:0:
444,75,10630,5,8,0:0:0:0:
364,86,10750,1,0,0:0:0:0:
284,97,10870,1,0,0:0:0:0:
232,158,10990,1,0,0:0:0:0:
152,147,11110,1,0,0:0:0:0:
210,295,11230,5,2,0:0:0:0:
152,147,11350,2,0,L|52:133,1,79.9999976158142,2|0,0:0|0:0,0:0:0:0:
260,232,11590,2,0,L|160:218,1,79.9999976158142,2|0,0:0|0:0,0:0:0:0:
367,317,11830,5,8,0:0:0:0:
447,305,11948,1,0,0:0:0:0:
435,226,12066,1,0,0:0:0:0:
356,238,12184,1,0,0:0:0:0:
368,317,12302,1,0,0:0:0:0:
344,159,12421,6,0,L|244:145,1,79.9999976158142,6|0,0:0|0:0,0:0:0:0:
185,136,12658,1,0,0:0:0:0:
234,72,12777,1,0,0:0:0:0:
214,211,12896,1,0,0:0:0:0:
393,95,13015,5,8,0:0:0:0:
344,159,13137,1,0,0:0:0:0:
461,126,13259,1,0,0:0:0:0:
307,72,13382,1,0,0:0:0:0:
422,240,13504,1,0,0:0:0:0:
431,0,13627,5,2,0:0:0:0:
422,240,13747,2,0,L|418:342,1,79.9999976158142,2|0,0:0|0:0,0:0:0:0:
229,172,13987,2,0,L|232:92,1,79.9999976158142,2|0,0:0|0:0,0:0:0:0:
326,206,14227,5,8,0:0:0:0:
322,285,14343,1,0,0:0:0:0:
318,364,14460,1,0,0:0:0:0:
165,316,14576,2,0,L|244:319,1,79.9999976158142,0|0,0:0|0:0,0:0:0:0:
483,175,14809,6,0,L|403:171,1,79.9999976158142,6|0,0:0|0:0,0:0:0:0:
326,206,15049,1,0,0:0:0:0:
258,163,15169,1,0,0:0:0:0:
335,128,15289,1,0,0:0:0:0:
122,239,15409,5,8,0:0:0:0:
239,347,15529,2,0,L|319:343,1,79.9999976158142,0|0,0:0|0:0,0:0:0:0:
398,339,15769,1,0,0:0:0:0:
355,272,15889,1,0,0:0:0:0:
427,130,16009,5,2,0:0:0:0:
355,272,16131,2,0,L|275:276,1,79.9999976158142,2|0,0:0|0:0,0:0:0:0:
347,133,16376,2,0,L|427:129,1,79.9999976158142,2|0,0:0|0:0,0:0:0:0:
318,343,16621,5,8,0:0:0:0:
239,347,16738,1,0,0:0:0:0:
160,351,16856,1,0,0:0:0:0:
117,283,16973,1,0,0:0:0:0:
196,287,17091,1,0,0:0:0:0:
326,194,17209,6,0,L|322:87,1,79.9999976158142,6|0,0:0|0:0,0:0:0:0:
399,89,17449,1,0,0:0:0:0:
396,9,17569,1,0,0:0:0:0:
242,52,17689,1,0,0:0:0:0:
330,275,17809,6,0,L|421:270,1,79.9999976158142,8|0,0:0|0:0,0:0:0:0:
490,265,18050,1,0,0:0:0:0:
416,359,18170,1,0,0:0:0:0:
445,198,18291,1,0,0:0:0:0:
245,185,18412,5,2,0:0:0:0:
445,198,18532,2,0,L|365:193,1,79.9999976158142,2|0,0:0|0:0,0:0:0:0:
124,176,18779,1,2,0:0:0:0:
245,185,18903,1,0,0:0:0:0:
123,81,19026,5,8,0:0:0:0:
171,277,19145,1,0,0:0:0:0:
262,53,19264,1,0,0:0:0:0:
24,200,19384,2,0,L|103:204,1,79.9999976158142,0|0,0:0|0:0,0:0:0:0:
263,212,19623,5,6,0:0:0:0:
316,271,19742,2,0,L|395:274,1,79.9999976158142,0|0,0:0|0:0,0:0:0:0:
475,279,19981,1,0,0:0:0:0:
257,324,20100,1,0,0:0:0:0:
436,164,20220,6,0,L|441:73,1,79.9999976158142,8|0,0:0|0:0,0:0:0:0:
418,6,20460,1,0,0:0:0:0:
310,124,20580,2,0,L|231:116,1,79.9999976158142,0|0,0:0|0:0,0:0:0:0:
125,238,20820,5,2,0:0:0:0:
230,115,20940,2,0,L|235:24,1,79.9999976158142,2|0,0:0|0:0,0:0:0:0:
83,91,21180,2,0,L|78:170,1,79.9999976158142,2|0,0:0|0:0,0:0:0:0:
293,282,21420,5,8,0:0:0:0:
372,277,21540,1,0,0:0:0:0:
452,273,21660,1,0,0:0:0:0:
479,198,21780,1,0,0:0:0:0:
399,194,21900,1,0,0:0:0:0:
346,361,22020,6,0,L|253:356,1,79.9999976158142,6|0,0:0|0:0,0:0:0:0:
214,295,22260,1,0,0:0:0:0:
185,370,22380,1,0,0:0:0:0:
293,282,22500,1,0,0:0:0:0:
100,139,22620,5,8,0:0:0:0:
96,59,22741,1,0,0:0:0:0:
217,55,22862,1,0,0:0:0:0:
225,215,22983,1,0,0:0:0:0:
28,225,23104,1,0,0:0:0:0:
16,2,23226,5,2,0:0:0:0:
28,225,23344,2,0,L|31:304,1,79.9999976158142,2|0,0:0|0:0,0:0:0:0:
100,139,23582,2,0,L|96:59,1,79.9999976158142,2|0,0:0|0:0,0:0:0:0:
178,217,23820,5,8,0:0:0:0:
181,296,23941,1,0,0:0:0:0:
110,259,24062,1,0,0:0:0:0:
250,255,24183,2,0,L|329:251,1,79.9999976158142,0|0,0:0|0:0,0:0:0:0:
447,39,24426,6,0,L|368:43,1,79.9999976158142,6|0,0:0|0:0,0:0:0:0:
304,94,24661,1,0,0:0:0:0:
224,89,24778,1,0,0:0:0:0:
144,84,24896,1,0,0:0:0:0:
377,139,25014,5,8,0:0:0:0:
268,22,25134,2,0,L|189:18,1,79.9999976158142,0|0,0:0|0:0,0:0:0:0:
144,84,25374,1,0,0:0:0:0:
65,80,25494,1,0,0:0:0:0:
128,226,25614,5,2,0:0:0:0:
65,80,25734,2,0,L|69:1,1,79.9999976158142,2|0,0:0|0:0,0:0:0:0:
224,90,25974,2,0,L|220:169,1,79.9999976158142,2|0,0:0|0:0,0:0:0:0:
383,100,26214,5,8,0:0:0:0:
387,20,26334,1,0,0:0:0:0:
309,40,26454,1,0,0:0:0:0:
304,119,26574,1,0,0:0:0:0:
454,173,26694,1,0,0:0:0:0:
299,198,26814,6,0,L|305:104,1,79.9999976158142,6|0,0:0|0:0,0:0:0:0:
309,40,27054,1,0,0:0:0:0:
237,76,27174,1,0,0:0:0:0:
371,160,27294,1,0,0:0:0:0:
244,362,27414,6,0,L|152:353,1,79.9999976158142,8|0,0:0|0:0,0:0:0:0:
84,346,27654,1,0,0:0:0:0:
177,269,27774,1,0,0:0:0:0:
74,145,27894,1,0,0:0:0:0:
198,42,28014,5,2,0:0:0:0:
177,269,28134,1,2,0:0:0:0:
301,166,28254,1,8,0:0:0:0:
74,145,28374,1,10,0:0:0:0:
187,155,28494,1,0,0:0:0:0:
403,289,28614,6,0,L|298:280,1,79.9999976158142,8|0,0:0|0:0,0:0:0:0:
63,259,28854,1,8,0:0:0:0:
187,155,28974,1,8,0:0:0:0:
166,382,29094,1,2,0:0:0:0:
301,166,29214,6,0,L|310:55,1,79.9999976158142,6|0,0:0|0:0,0:0:0:0:
313,6,29454,1,0,0:0:0:0:
445,96,29574,1,2,0:0:0:0:
438,175,29694,1,0,0:0:0:0:
213,238,29814,6,0,L|134:232,1,79.9999976158142,8|0,0:0|0:0,0:0:0:0:
53,224,30054,1,0,0:0:0:0:
86,296,30174,1,0,0:0:0:0:
245,308,30294,1,0,0:0:0:0:
179,165,30414,6,0,L|185:85,1,79.9999976158142,2|0,0:0|0:0,0:0:0:0:
148,11,30658,1,0,0:0:0:0:
300,58,30781,1,2,0:0:0:0:
293,137,30903,1,0,0:0:0:0:
427,335,31026,6,0,L|420:255,1,79.9999976158142,8|0,0:0|0:0,0:0:0:0:
453,182,31273,1,0,0:0:0:0:
446,102,31397,1,2,0:0:0:0:
293,137,31520,1,0,0:0:0:0:
175,28,31644,6,0,L|162:189,1,159.999995231628,2|0,0:0|0:0,0:0:0:0:
206,255,32000,1,2,0:0:0:0:
201,334,32119,1,0,0:0:0:0:
419,235,32238,5,8,0:0:0:0:
462,39,32357,1,0,0:0:0:0:
281,124,32476,1,0,0:0:0:0:
324,320,32596,2,0,L|331:355,4,20,2|0|0|0|0,2:0|2:0|2:0|2:0|2:0,2:0:0:0:
400,252,32835,5,2,0:0:0:0:
434,95,32954,1,0,0:0:0:0:
289,163,33073,1,0,0:0:0:0:
324,320,33193,2,0,L|331:355,4,20,2|0|0|0|0,2:0|2:0|2:0|2:0|2:0,2:0:0:0:
381,269,33432,5,8,0:0:0:0:
406,151,33551,1,0,0:0:0:0:
297,202,33670,1,0,0:0:0:0:
324,320,33790,2,0,L|331:355,4,20,2|0|0|0|8,2:0|2:0|2:0|2:0|2:0,2:0:0:0:
187,269,34029,6,0,L|193:183,1,79.9999976158142,6|0,0:0|0:0,0:0:0:0:
157,117,34273,1,0,0:0:0:0:
316,128,34396,1,2,0:0:0:0:
387,92,34518,1,0,0:0:0:0:
266,274,34641,6,0,L|186:268,1,79.9999976158142,8|0,0:0|0:0,0:0:0:0:
116,309,34881,1,0,0:0:0:0:
36,303,35001,1,0,0:0:0:0:
181,360,35121,1,0,0:0:0:0:
335,319,35241,6,0,L|340:239,1,79.9999976158142,2|0,0:0|0:0,0:0:0:0:
305,166,35481,1,0,0:0:0:0:
357,20,35601,1,2,0:0:0:0:
350,99,35721,1,0,0:0:0:0:
134,205,35841,6,0,L|54:198,1,79.9999976158142,8|0,0:0|0:0,0:0:0:0:
20,125,36081,1,0,0:0:0:0:
65,59,36201,1,2,0:0:0:0:
224,72,36321,1,0,0:0:0:0:
214,231,36441,6,0,L|333:220,1,79.9999976158142,2|0,0:0|0:0,0:0:0:0:
373,217,36678,1,0,0:0:0:0:
458,351,36797,2,0,L|378:344,1,79.9999976158142,2|0,0:0|0:0,0:0:0:0:
231,151,37035,5,8,0:0:0:0:
430,133,37153,1,0,0:0:0:0:
319,299,37272,1,0,0:0:0:0:
120,281,37391,2,0,L|86:277,4,20,2|0|0|0|8,2:0|2:0|2:0|2:0|2:0,2:0:0:0:
209,177,37629,5,2,0:0:0:0:
368,162,37746,1,0,0:0:0:0:
279,295,37864,1,0,0:0:0:0:
120,281,37981,2,0,L|86:277,4,20,2|0|0|0|0,2:0|2:0|2:0|2:0|2:0,2:0:0:0:
187,203,38217,5,8,0:0:0:0:
306,191,38337,1,0,0:0:0:0:
239,291,38457,1,0,0:0:0:0:
120,281,38577,2,0,L|86:277,4,20,2|0|0|0|8,2:0|2:0|2:0|2:0|2:0,2:0:0:0:
235,85,38817,6,0,L|379:69,1,79.9999976158142,6|0,0:0|0:0,0:0:0:0:
394,67,39058,1,0,0:0:0:0:
465,210,39178,1,2,0:0:0:0:
385,201,39299,1,0,0:0:0:0:
154,267,39420,6,0,L|160:346,1,79.9999976158142,8|0,0:0|0:0,0:0:0:0:
239,340,39662,1,0,0:0:0:0:
318,333,39783,1,0,0:0:0:0:
263,182,39904,1,0,0:0:0:0:
409,246,40026,5,2,2:0:0:0:
428,247,40087,1,0,2:0:0:0:
448,249,40148,1,0,2:0:0:0:
468,250,40209,1,0,2:0:0:0:
488,252,40270,1,0,2:0:0:0:
376,137,40393,1,2,0:0:0:0:
455,130,40515,1,0,0:0:0:0:
228,50,40638,6,0,L|144:39,1,79.9999976158142,8|0,0:0|0:0,0:0:0:0:
69,55,40878,1,0,0:0:0:0:
121,115,40998,1,2,0:0:0:0:
68,264,41118,1,0,0:0:0:0:
205,345,41238,6,0,L|309:332,1,79.9999976158142,2|0,0:0|0:0,0:0:0:0:
356,370,41473,1,0,0:0:0:0:
445,237,41590,2,0,L|431:132,1,79.9999976158142,2|0,0:0|0:0,0:0:0:0:
225,39,41826,5,8,0:0:0:0:
300,266,41947,1,0,0:0:0:0:
375,115,42068,1,0,0:0:0:0:
150,190,42189,2,0,L|117:201,4,20,2|0|0|0|0,2:0|2:0|2:0|2:0|2:0,2:0:0:0:
213,65,42432,5,2,0:0:0:0:
275,254,42553,1,0,0:0:0:0:
337,128,42674,1,0,0:0:0:0:
150,190,42795,2,0,L|117:201,4,20,2|0|0|0|0,2:0|2:0|2:0|2:0|2:0,2:0:0:0:
200,90,43038,5,8,0:0:0:0:
249,241,43158,1,0,0:0:0:0:
299,140,43278,1,0,0:0:0:0:
150,190,43398,2,0,L|117:201,4,20,2|0|0|0|8,2:0|2:0|2:0|2:0|2:0,2:0:0:0:
348,292,43638,6,0,L|427:298,1,79.9999976158142,6|0,0:0|0:0,0:0:0:0:
508,305,43878,1,0,0:0:0:0:
374,216,43998,1,2,0:0:0:0:
294,222,44118,1,0,0:0:0:0:
79,113,44238,6,0,L|165:122,1,79.9999976158142,8|0,0:0|0:0,0:0:0:0:
220,70,44478,1,0,0:0:0:0:
270,132,44598,1,0,0:0:0:0:
146,232,44718,1,0,0:0:0:0:
214,376,44838,6,0,L|210:291,1,79.9999976158142,2|0,0:0|0:0,0:0:0:0:
269,240,45078,1,0,0:0:0:0:
408,317,45198,1,2,0:0:0:0:
328,314,45318,1,0,0:0:0:0:
156,146,45438,6,0,L|66:142,1,79.9999976158142,8|0,0:0|0:0,0:0:0:0:
6,102,45673,1,0,0:0:0:0:
6,182,45790,1,2,0:0:0:0:
76,62,45908,1,0,0:0:0:0:
171,282,46026,6,0,L|250:278,1,79.9999976158142,6|0,0:0|0:0,0:0:0:0:
306,220,46254,1,0,0:0:0:0:
222,83,46368,2,0,L|225:162,1,79.9999976158142,2|0,0:0|0:0,0:0:0:0:
361,360,46597,5,6,0:0:0:0:
369,160,46715,1,0,0:0:0:0:
480,326,46834,1,0,0:0:0:0:
293,258,46953,2,0,L|263:247,4,20,2|0|0|0|0,2:0|2:0|2:0|2:0|2:0,2:0:0:0:
486,204,47191,5,6,0:0:0:0:
284,334,47312,1,0,0:0:0:0:
368,109,47433,1,0,0:0:0:0:
434,342,47554,2,0,L|444:376,4,20,2|0|0|0|0,2:0|2:0|2:0|2:0|2:0,2:0:0:0:
222,105,47797,5,6,0:0:0:0:
486,204,47918,1,0,0:0:0:0:
215,275,48039,1,0,0:0:0:0:
389,56,48160,1,2,0:0:0:0:
379,338,48281,1,8,0:0:0:0:
222,105,48403,6,0,L|126:98,1,79.9999976158142,6|0,0:0|0:0,0:0:0:0:
62,93,48643,1,0,0:0:0:0:
107,26,48763,1,0,0:0:0:0:
97,166,48883,1,0,0:0:0:0:
256,345,49003,5,8,0:0:0:0:
250,265,49123,1,0,0:0:0:0:
244,185,49244,1,0,0:0:0:0:
314,146,49365,1,0,0:0:0:0:
320,65,49486,1,0,0:0:0:0:
421,188,49607,5,2,0:0:0:0:
320,65,49728,2,0,L|224:58,1,79.9999976158142,2|0,0:0|0:0,0:0:0:0:
98,132,49970,2,0,L|177:126,1,79.9999976158142,2|0,0:0|0:0,0:0:0:0:
330,271,50212,5,8,0:0:0:0:
250,265,50332,1,0,0:0:0:0:
189,317,50453,1,0,0:0:0:0:
109,311,50574,1,0,0:0:0:0:
57,250,50695,1,0,0:0:0:0:
195,169,50816,6,0,L|198:89,1,79.9999976158142,6|0,0:0|0:0,0:0:0:0:
202,9,51058,1,0,0:0:0:0:
269,51,51179,1,0,0:0:0:0:
131,47,51300,1,0,0:0:0:0:
125,287,51421,5,8,0:0:0:0:
183,341,51540,1,0,0:0:0:0:
301,336,51660,1,0,0:0:0:0:
409,220,51780,1,0,0:0:0:0:
401,20,51899,1,0,0:0:0:0:
321,246,52019,5,2,0:0:0:0:
401,20,52139,2,0,L|406:159,1,79.9999976158142,2|0,0:0|0:0,0:0:0:0:
255,185,52378,2,0,L|251:105,1,79.9999976158142,2|0,0:0|0:0,0:0:0:0:
101,190,52618,5,8,0:0:0:0:
105,270,52737,1,0,0:0:0:0:
108,349,52857,1,0,0:0:0:0:
258,294,52977,2,0,L|337:297,1,79.9999976158142,0|0,0:0|0:0,0:0:0:0:
437,170,53216,6,0,L|357:173,1,79.9999976158142,6|0,0:0|0:0,0:0:0:0:
296,120,53455,1,0,0:0:0:0:
216,123,53575,1,0,0:0:0:0:
155,70,53695,1,0,0:0:0:0:
229,298,53815,5,8,0:0:0:0:
74,339,53930,2,0,L|71:259,1,79.9999976158142
67,99,54161,1,0,0:0:0:0:
20,164,54276,1,0,0:0:0:0:
168,223,54391,5,2,0:0:0:0:
315,160,54508,1,2,0:0:0:0:
291,236,54626,1,0,0:0:0:0:
420,329,54743,2,0,L|407:251,1,79.9999976158142,2|0,0:0|0:0,0:0:0:0:
482,20,54979,5,8,0:0:0:0:
469,99,55102,1,0,0:0:0:0:
456,178,55226,1,0,0:0:0:0:
394,127,55350,1,0,0:0:0:0:
381,48,55473,1,0,0:0:0:0:
262,155,55597,6,0,L|172:149,1,79.9999976158142,6|0,0:0|0:0,0:0:0:0:
134,84,55841,1,0,0:0:0:0:
54,78,55964,1,0,0:0:0:0:
206,30,56086,1,0,0:0:0:0:
298,251,56209,5,12,0:0:0:0:
256,192,56331,12,0,58021,0:0:0:0:
152,243,58501,5,0,0:0:0:0:
291,48,58621,6,0,L|290:142,1,79.9999976158142,8|0,0:0|0:0,0:0:0:0:
289,207,58865,1,0,0:0:0:0:
357,247,58988,1,0,0:0:0:0:
356,326,59110,1,0,0:0:0:0:
463,207,59233,5,2,0:0:0:0:
356,326,59355,2,0,L|276:325,1,79.9999976158142,2|0,0:0|0:0,0:0:0:0:
121,370,59600,2,0,L|200:370,1,79.9999976158142,2|0,0:0|0:0,0:0:0:0:
285,143,59845,5,8,0:0:0:0:
285,63,59965,1,0,0:0:0:0:
229,5,60085,1,0,0:0:0:0:
157,40,60205,1,0,0:0:0:0:
76,39,60325,1,0,0:0:0:0:
137,186,60445,6,0,L|216:185,1,79.9999976158142,6|0,0:0|0:0,0:0:0:0:
276,238,60683,1,0,0:0:0:0:
355,237,60803,1,0,0:0:0:0:
218,292,60922,1,0,0:0:0:0:
320,74,61042,5,8,0:0:0:0:
399,73,61162,1,0,0:0:0:0:
459,173,61283,1,0,0:0:0:0:
381,309,61403,1,0,0:0:0:0:
184,312,61524,1,0,0:0:0:0:
360,141,61645,5,2,0:0:0:0:
184,312,61760,2,0,L|104:311,1,79.9999976158142,2|0,0:0|0:0,0:0:0:0:
32,80,61991,2,0,L|111:80,1,79.9999976158142,2|0,0:0|0:0,0:0:0:0:
293,237,62221,5,8,0:0:0:0:
213,236,62338,1,0,0:0:0:0:
357,305,62456,1,0,0:0:0:0:
426,162,62573,1,0,0:0:0:0:
212,59,62691,1,0,0:0:0:0:
115,186,62809,6,0,L|119:271,1,79.9999976158142,6|0,0:0|0:0,0:0:0:0:
172,326,63052,1,0,0:0:0:0:
251,322,63174,1,0,0:0:0:0:
309,378,63296,1,0,0:0:0:0:
486,216,63418,5,8,0:0:0:0:
439,62,63539,2,0,L|432:150,1,79.9999976158142,0|0,0:0|0:0,0:0:0:0:
363,183,63783,1,0,0:0:0:0:
357,263,63905,1,0,0:0:0:0:
204,214,64027,5,2,0:0:0:0:
173,56,64153,2,0,L|252:49,1,79.9999976158142,0|0,0:0|0:0,0:0:0:0:
324,12,64405,1,2,0:0:0:0:
403,18,64532,1,0,0:0:0:0:
197,135,64658,5,8,0:0:0:0:
118,142,64775,1,0,0:0:0:0:
125,221,64893,1,0,0:0:0:0:
204,214,65010,1,0,0:0:0:0:
197,135,65128,1,0,0:0:0:0:
302,255,65246,6,0,L|478:240,1,159.999995231628,6|0,0:0|0:0,0:0:0:0:
499,170,65585,1,0,0:0:0:0:
419,176,65698,1,0,0:0:0:0:
243,13,65812,5,8,0:0:0:0:
84,32,65932,1,0,0:0:0:0:
84,32,66052,1,0,0:0:0:0:
84,32,66172,1,0,0:0:0:0:
84,32,66292,1,0,0:0:0:0:
162,258,66412,5,2,0:0:0:0:
173,98,66534,1,2,0:0:0:0:
304,188,66656,1,0,0:0:0:0:
315,348,66779,1,2,0:0:0:0:
266,284,66901,1,0,0:0:0:0:
405,20,67024,5,8,0:0:0:0:
389,260,67146,1,0,0:0:0:0:
361,102,67269,1,0,0:0:0:0:
430,142,67391,2,0,L|511:134,1,79.9999976158142
256,192,67575,12,0,68178,0:0:0:0:
84,64,68239,6,0,L|179:62,1,87.9999982166291,12|0,0:0|0:0,0:0:0:0:
255,90,68480,1,0,0:0:0:0:
343,88,68600,1,0,0:0:0:0:
388,13,68721,1,0,0:0:0:0:
373,188,68842,6,0,L|370:283,1,87.9999982166291,2|2,0:0|0:0,0:0:0:0:
292,317,69086,1,0,0:0:0:0:
289,229,69209,1,2,0:0:0:0:
424,116,69331,1,0,0:0:0:0:
214,276,69454,5,8,0:0:0:0:
126,271,69576,1,0,0:0:0:0:
86,192,69699,1,0,0:0:0:0:
174,197,69821,1,0,0:0:0:0:
214,276,69944,1,0,0:0:0:0:
332,146,70066,6,0,L|339:49,1,87.9999982166291,6|0,0:0|0:0,0:0:0:0:
410,6,70306,1,0,0:0:0:0:
416,93,70426,1,0,0:0:0:0:
422,180,70546,1,0,0:0:0:0:
207,26,70666,5,8,0:0:0:0:
119,19,70786,1,0,0:0:0:0:
201,114,70906,1,0,0:0:0:0:
25,100,71026,1,0,0:0:0:0:
195,202,71146,1,0,0:0:0:0:
452,136,71266,5,2,0:0:0:0:
195,202,71383,2,0,L|202:97,1,87.9999982166291,2|0,0:0|0:0,0:0:0:0:
446,223,71618,2,0,L|440:311,1,87.9999982166291,2|0,0:0|0:0,0:0:0:0:
292,90,71854,5,8,0:0:0:0:
297,2,71970,1,0,0:0:0:0:
370,50,72087,1,0,0:0:0:0:
282,207,72203,2,0,L|194:201,1,87.9999982166291,0|0,0:0|0:0,0:0:0:0:
113,359,72436,6,0,L|200:353,1,87.9999982166291,6|0,0:0|0:0,0:0:0:0:
271,300,72673,1,0,0:0:0:0:
358,306,72792,1,0,0:0:0:0:
204,222,72911,1,0,0:0:0:0:
358,7,73030,5,8,0:0:0:0:
456,153,73148,2,0,L|349:145,1,87.9999982166291,0|0,0:0|0:0,0:0:0:0:
311,78,73386,1,0,0:0:0:0:
223,71,73505,1,0,0:0:0:0:
67,152,73624,6,0,L|174:144,1,87.9999982166291,2|2,0:0|0:0,0:0:0:0:
204,222,73861,1,0,0:0:0:0:
291,215,73980,1,2,0:0:0:0:
154,325,74099,1,0,0:0:0:0:
413,374,74218,5,8,0:0:0:0:
325,367,74336,1,0,0:0:0:0:
378,296,74455,1,0,0:0:0:0:
466,289,74574,1,0,0:0:0:0:
415,216,74693,1,0,0:0:0:0:
481,52,74812,6,0,L|265:33,1,175.999996433258,6|0,0:0|0:0,0:0:0:0:
85,185,75175,1,8,0:0:0:0:
260,169,75296,1,8,0:0:0:0:
159,25,75418,5,6,0:0:0:0:
151,112,75538,1,0,0:0:0:0:
175,197,75658,1,0,0:0:0:0:
159,371,75778,1,8,0:0:0:0:
318,298,75898,1,8,0:0:0:0:
176,53,76018,5,6,0:0:0:0:
169,131,76136,1,2,0:0:0:0:
190,207,76254,1,0,0:0:0:0:
176,364,76372,1,8,0:0:0:0:
318,298,76490,1,8,0:0:0:0:
191,80,76609,5,14,0:0:0:0:
185,150,76727,1,0,0:0:0:0:
204,218,76846,1,0,0:0:0:0:
191,357,76965,1,2,0:0:0:0:
318,298,77084,1,2,0:0:0:0:
77,277,77203,6,0,L|69:189,1,87.9999982166291,6|0,0:0|0:0,0:0:0:0:
19,116,77446,1,0,0:0:0:0:
11,28,77568,1,0,0:0:0:0:
91,66,77690,1,0,0:0:0:0:
352,42,77812,5,8,0:0:0:0:
264,50,77933,1,0,0:0:0:0:
272,138,78055,1,0,0:0:0:0:
280,226,78177,1,0,0:0:0:0:
368,218,78299,1,0,0:0:0:0:
200,189,78421,5,2,0:0:0:0:
368,218,78543,2,0,L|360:305,1,87.9999982166291,2|0,0:0|0:0,0:0:0:0:
192,363,78786,2,0,L|184:275,1,87.9999982166291,2|0,0:0|0:0,0:0:0:0:
305,38,79030,5,8,0:0:0:0:
297,125,79150,1,0,0:0:0:0:
289,212,79270,1,0,0:0:0:0:
498,372,79390,1,0,0:0:0:0:
489,285,79510,1,0,0:0:0:0:
324,348,79630,6,0,L|228:337,1,87.9999982166291,6|0,0:0|0:0,0:0:0:0:
181,268,79870,1,0,0:0:0:0:
93,277,79990,1,0,0:0:0:0:
16,119,80110,1,0,0:0:0:0:
267,199,80230,5,8,0:0:0:0:
354,190,80350,1,0,0:0:0:0:
240,124,80470,1,0,0:0:0:0:
310,284,80590,1,0,0:0:0:0:
358,69,80710,1,0,0:0:0:0:
163,247,80830,5,2,0:0:0:0:
426,218,80950,1,2,0:0:0:0:
240,124,81070,1,0,0:0:0:0:
310,284,81190,1,2,0:0:0:0:
354,190,81310,1,0,0:0:0:0:
124,322,81430,5,8,0:0:0:0:
79,251,81551,1,0,0:0:0:0:
117,176,81673,1,0,0:0:0:0:
44,15,81795,2,0,L|52:120,1,87.9999982166291,0|0,0:0|0:0,0:0:0:0:
163,247,82039,6,0,L|268:239,1,87.9999982166291,6|0,0:0|0:0,0:0:0:0:
331,275,82282,1,0,0:0:0:0:
418,268,82404,1,0,0:0:0:0:
281,378,82526,1,0,0:0:0:0:
153,146,82648,5,8,0:0:0:0:
148,58,82764,1,0,0:0:0:0:
235,53,82881,1,0,0:0:0:0:
239,140,82997,1,0,0:0:0:0:
153,146,83114,1,0,0:0:0:0:
161,320,83230,5,2,0:0:0:0:
153,146,83347,2,0,L|146:43,1,87.9999982166291,2|0,0:0|0:0,0:0:0:0:
326,136,83580,2,0,L|331:223,1,87.9999982166291,2|0,0:0|0:0,0:0:0:0:
493,38,83813,5,8,0:0:0:0:
317,48,83929,1,0,0:0:0:0:
414,196,84046,1,0,0:0:0:0:
407,64,84162,1,0,0:0:0:0:
468,127,84279,1,0,0:0:0:0:
421,328,84395,6,0,L|333:322,1,87.9999982166291,6|0,0:0|0:0,0:0:0:0:
255,284,84639,1,0,0:0:0:0:
261,372,84762,1,0,0:0:0:0:
327,234,84884,1,0,0:0:0:0:
102,150,85007,5,8,0:0:0:0:
190,144,85127,1,0,0:0:0:0:
180,11,85247,1,0,0:0:0:0:
5,24,85367,1,0,0:0:0:0:
20,244,85487,1,0,0:0:0:0:
285,226,85607,5,2,0:0:0:0:
20,244,85732,1,2,0:0:0:0:
224,74,85857,1,8,0:0:0:0:
159,332,85982,1,10,0:0:0:0:
94,169,86107,1,2,0:0:0:0:
320,311,86232,5,8,0:0:0:0:
452,301,86353,1,0,0:0:0:0:
442,169,86474,1,2,0:0:0:0:
310,179,86595,1,2,0:0:0:0:
320,311,86716,1,0,0:0:0:0:
432,37,86838,5,6,0:0:0:0:
