osu file format v14

[General]
AudioFilename: audio.mp3
AudioLeadIn: 0
PreviewTime: 9560
Countdown: 0
SampleSet: Soft
StackLeniency: 0.6
Mode: 0
LetterboxInBreaks: 0
WidescreenStoryboard: 1

[Editor]
Bookmarks: 430,10030,29240,38830,48444,58644,68230,86830
DistanceSpacing: 1
BeatDivisor: 5
GridSize: 4
TimelineZoom: 1.4

[Metadata]
Title:Sequence Start
TitleUnicode:Sequence Start
Artist:sungazer
ArtistUnicode:sungazer
Creator:dsco
Version:Normal
Source:
Tags:experimental electronic dnb drum and bass groove time signature instrumental jazz fusion adam neely sun gazer gaze shawn crowder quintuplet
BeatmapID:2903323
BeatmapSetID:647360

[Difficulty]
HPDrainRate:2.5
CircleSize:2.5
OverallDifficulty:2.5
ApproachRate:4
SliderMultiplier:1.1
SliderTickRate:1

[Events]
//Background and Video events
0,0,"12.jpg",0,0
//Break Periods
2,46226,47083
2,56409,57301
//Storyboard Layer 0 (Background)
//Storyboard Layer 1 (Fail)
//Storyboard Layer 2 (Pass)
//Storyboard Layer 3 (Foreground)
//Storyboard Layer 4 (Overlay)
//Storyboard Sound Samples

[TimingPoints]
447,600,4,2,0,60,1,0
9068,606.060606060606,4,2,0,60,1,0
9675,591.133004926108,4,2,0,60,1,0
10030,600,4,2,0,60,1,0
11830,591.133004926108,4,2,0,60,1,0
12421,594.059405940594,4,2,0,60,1,0
13015,612.244897959184,4,2,0,60,1,0
13627,600,4,2,0,60,1,0
14227,582.52427184466,4,2,0,60,1,0
14809,600,4,2,0,60,1,0
16009,612.244897959184,4,2,0,60,1,0
16621,588.235294117647,4,2,0,60,1,0
17209,600,4,2,0,60,1,0
17809,603.015075376884,4,2,0,60,1,0
18532,618.556701030928,4,2,0,60,1,0
19026,597.014925373134,4,2,0,60,1,0
20220,600,4,2,0,60,1,0
22620,606.060606060606,4,2,0,60,1,0
23226,594.059405940594,4,2,0,60,1,0
23820,606.060606060606,4,2,0,60,1,0
24426,588.235294117647,4,2,0,60,1,0
25014,600,4,2,0,60,1,0
30414,612.244897959184,4,2,0,60,1,0
31026,618.556701030928,4,2,0,60,1,0
31644,594.059405940594,4,2,0,60,1,0
32238,597.014925373134,4,2,0,60,1,0
34029,612.244897959184,4,2,0,60,1,0
34641,600,4,2,0,60,1,0
36441,594.059405940594,4,2,0,60,1,0
37629,588.235294117647,4,2,0,60,1,0
38217,600,4,2,0,60,1,0
38817,603.015075376884,4,2,0,60,1,0
39420,606.060606060606,4,2,0,60,1,0
40026,612.244897959184,4,2,0,60,1,0
40638,600,4,2,0,60,1,0
41238,588.235294117647,4,2,0,60,1,0
41826,606.060606060606,4,2,0,60,1,0
43038,600,4,2,0,60,1,0
45438,588.235294117647,4,2,0,60,1,0
46026,571.428571428571,4,2,0,60,1,0
46597,594.059405940594,4,2,0,60,1,0
47191,606.060606060606,4,2,0,60,1,0
47797,606.060606060606,4,2,0,60,1,0
48403,600,4,2,0,60,1,0
49003,604.534005037783,4,2,0,60,1,0
51421,598.503740648379,4,2,0,60,1,0
53815,576.923076923077,4,2,0,60,1,0
54391,588.235294117647,4,2,0,60,1,0
54979,618.556701030928,4,2,0,60,1,0
55597,612.244897959184,4,2,0,60,1,0
56821,600,4,2,0,60,1,0
58621,612.244897959184,4,2,0,60,1,0
59845,600,4,2,0,60,1,0
60445,597.014925373134,4,2,0,60,1,0
61042,603.015075376884,4,2,0,60,1,0
61645,576.923076923077,4,2,0,60,1,0
62221,588.235294117647,4,2,0,60,1,0
62809,609.137055837563,4,2,0,60,1,0
64027,631.578947368421,4,2,0,60,1,0
64658,588.235294117647,4,2,0,60,1,0
65246,566.037735849057,4,2,0,60,1,0
65812,600,4,2,0,60,1,0
66412,612.244897959184,4,2,0,60,1,0
67636,603.015075376884,4,2,0,60,1,0
68239,-100,4,2,0,70,0,1
68842,612.244897959184,4,2,0,70,1,1
70066,600,4,2,0,70,1,1
71266,588.235294117647,4,2,0,70,1,1
71854,582.52427184466,4,2,0,70,1,1
72436,594.059405940594,4,2,0,70,1,1
73624,594.059405940594,4,2,0,70,1,1
74812,606.060606060606,4,2,0,70,1,1
75418,600,4,2,0,70,1,1
76018,591.133004926108,4,2,0,70,1,1
76609,594.059405940594,4,2,0,70,1,1
77203,609.137055837563,4,2,0,70,1,1
79030,600,4,2,0,70,1,1
81430,609.137055837563,4,2,0,70,1,1
82648,582.52427184466,4,2,0,70,1,1
84395,612.244897959184,4,2,0,70,1,1
85007,600,4,2,0,70,1,1
85607,625,4,2,0,70,1,1
86232,606.060606060606,4,2,0,70,1,1
86838,600,4,2,0,70,1,0

[Colours]
Combo1 : 230,176,79
Combo2 : 204,130,132

[HitObjects]
130,296,10030,6,0,L|123:177,1,110,6|8,0:0|0:0,0:0:0:0:
24,135,11230,2,0,L|27:63,1,66,2|2,0:0|0:0,0:0:0:0:
30,25,11830,1,8,0:0:0:0:
138,45,12421,6,0,P|191:15|250:19,1,110,6|8,0:0|0:0,0:0:0:0:
347,42,13627,2,0,L|352:119,1,66,2|2,0:0|0:0,0:0:0:0:
309,124,14227,2,0,L|314:201,1,66,8|0,0:0|0:0,0:0:0:0:
344,219,14809,5,6,0:0:0:0:
452,238,15409,2,0,P|475:274|469:351,1,110,8|2,0:0|0:0,0:0:0:0:
367,381,16621,1,8,0:0:0:0:
284,311,17209,6,0,P|242:276|188:273,1,110,6|8,0:0|0:0,0:0:0:0:
99,336,18412,2,0,P|69:355|34:360,1,67,2|2,0:0|0:0,0:0:0:0:
0,338,19026,1,8,0:0:0:0:
48,239,19623,5,6,0:0:0:0:
14,134,20220,1,8,0:0:0:0:
71,40,20820,2,0,L|151:34,1,66,2|2,0:0|0:0,0:0:0:0:
180,29,21420,1,8,0:0:0:0:
264,100,22020,6,0,B|273:124|263:156|255:147|245:178|254:207,1,110,6|8,0:0|0:0,0:0:0:0:
347,264,23226,2,0,L|426:259,1,66,2|2,0:0|0:0,0:0:0:0:
456,257,23820,2,0,L|461:178,1,66,8|0,0:0|0:0,0:0:0:0:
460,147,24426,6,0,P|426:103|423:31,1,110,6|8,0:0|0:0,0:0:0:0:
317,7,25614,2,0,P|283:51|280:123,1,110,2|8,0:0|0:0,0:0:0:0:
177,153,26814,5,6,0:0:0:0:
74,191,27414,1,8,0:0:0:0:
159,262,28014,2,0,L|155:346,1,66,2|10,0:0|0:0,0:0:0:0:
154,372,28614,2,0,L|238:368,1,66,8|8,0:0|0:0,0:0:0:0:
264,365,29214,5,6,0:0:0:0:
367,328,29814,2,0,P|352:297|351:251,1,66,8|0,0:0|0:0,0:0:0:0:
372,228,30414,2,0,L|490:220,1,110,2|8,0:0|0:0,0:0:0:0:
501,112,31644,5,2,0:0:0:0:
421,35,32238,2,0,L|341:31,1,66,8|2,0:0|2:0,0:0:0:0:
319,57,32835,2,0,L|239:53,1,66,2|2,0:0|2:0,0:0:0:0:
217,79,33432,2,0,L|137:75,1,66,8|2,0:0|2:0,0:0:0:0:
115,101,34029,5,6,0:0:0:0:
188,183,34641,2,0,P|204:214|207:258,1,66,8|0,0:0|0:0,0:0:0:0:
239,275,35241,2,0,L|360:282,1,110,2|8,0:0|0:0,0:0:0:0:
428,357,36441,5,2,0:0:0:0:
477,258,37035,2,0,P|446:225|433:195,1,66,8|2,0:0|2:0,0:0:0:0:
392,201,37629,2,0,P|381:157|385:124,1,66,2|2,0:0|2:0,0:0:0:0:
347,108,38217,2,0,P|359:65|379:38,1,66,8|2,0:0|2:0,0:0:0:0:
354,4,38817,5,6,0:0:0:0:
247,33,39420,2,0,L|167:26,1,66,8|0,0:0|0:0,0:0:0:0:
152,60,40026,2,0,P|113:44|33:59,1,110,2|8,2:0|0:0,0:0:0:0:
2,151,41238,5,2,0:0:0:0:
68,238,41826,2,0,L|140:233,1,66,8|2,0:0|2:0,0:0:0:0:
177,231,42432,2,0,L|172:303,1,66,2|2,0:0|2:0,0:0:0:0:
170,340,43038,2,0,L|242:335,1,66,8|2,0:0|2:0,0:0:0:0:
269,363,43638,5,6,0:0:0:0:
371,323,44238,2,0,P|380:286|375:244,1,66,8|0,0:0|0:0,0:0:0:0:
348,226,44838,2,0,P|330:187|339:112,1,110,2|8,0:0|0:0,0:0:0:0:
416,47,46026,5,6,0:0:0:0:
416,47,48403,6,0,L|298:42,1,110,6|8,0:0|0:0,0:0:0:0:
210,96,49607,2,0,L|215:171,1,66,2|2,0:0|0:0,0:0:0:0:
182,192,50212,1,8,0:0:0:0:
267,261,50816,6,0,B|288:240|288:240|384:255,1,110,6|8,0:0|0:0,0:0:0:0:
310,346,52019,1,2,0:0:0:0:
201,349,52618,1,8,0:0:0:0:
117,277,53216,6,0,L|3:267,1,110,6|8,0:0|0:0,0:0:0:0:
16,157,54391,1,2,0:0:0:0:
125,164,54979,2,0,P|114:130|116:88,1,66,8|0,0:0|0:0,0:0:0:0:
143,67,55597,6,0,L|229:63,1,66,6|0,0:0|0:0,0:0:0:0:
241,34,56209,1,12,0:0:0:0:
241,34,58621,5,8,0:0:0:0:
339,82,59233,2,0,L|335:156,1,66,2|2,0:0|0:0,0:0:0:0:
362,182,59845,1,8,0:0:0:0:
297,270,60445,6,0,P|248:248|183:258,1,110,6|8,0:0|0:0,0:0:0:0:
96,201,61645,2,0,L|89:120,1,66,2|2,0:0|0:0,0:0:0:0:
54,109,62221,1,8,0:0:0:0:
113,16,62809,6,0,P|175:38|235:26,1,110,6|8,0:0|0:0,0:0:0:0:
299,106,64027,2,0,P|361:84|421:96,1,110,2|8,0:0|0:0,0:0:0:0:
256,192,65246,12,0,67636,0:0:0:0:
256,192,68239,6,0,L|256:82,1,110,12|2,0:0|0:0,0:0:0:0:
161,137,69454,1,8,0:0:0:0:
161,249,70066,2,0,L|89:261,1,66,6|0,0:0|0:0,0:0:0:0:
52,267,70666,2,0,P|24:207|30:153,1,110,8|2,0:0|0:0,0:0:0:0:
137,155,71854,1,8,0:0:0:0:
204,70,72436,6,0,L|325:78,1,110,6|8,0:0|0:0,0:0:0:0:
419,45,73624,2,0,L|427:115,1,66,2|2,0:0|0:0,0:0:0:0:
467,128,74218,1,8,0:0:0:0:
402,216,74812,6,0,P|394:249|401:294,1,66,6|8,0:0|0:0,0:0:0:0:
360,305,75418,2,0,P|327:297|282:304,1,66,6|8,0:0|0:0,0:0:0:0:
271,263,76018,2,0,P|279:230|272:185,1,66,6|8,0:0|0:0,0:0:0:0:
313,174,76609,2,0,P|346:182|391:175,1,66,14|2,0:0|0:0,0:0:0:0:
412,152,77203,5,6,0:0:0:0:
370,50,77812,2,0,L|248:44,1,110,8|2,0:0|0:0,0:0:0:0:
153,16,79030,2,0,L|72:20,1,66,8|0,0:0|0:0,0:0:0:0:
43,23,79630,5,6,0:0:0:0:
88,123,80230,2,0,L|78:240,2,110,8|2|8,0:0|0:0|0:0,0:0:0:0:
197,128,82039,6,0,P|252:95|312:91,1,110,6|8,0:0|0:0,0:0:0:0:
402,60,83230,2,0,P|429:94|453:107,1,66,2|2,0:0|0:0,0:0:0:0:
490,116,83813,1,8,0:0:0:0:
425,204,84395,6,0,L|428:325,1,110,6|8,0:0|0:0,0:0:0:0:
322,346,85607,2,0,L|244:340,1,66,2|10,0:0|0:0,0:0:0:0:
215,357,86232,2,0,L|209:279,1,66,8|2,0:0|0:0,0:0:0:0:
176,262,86838,5,6,0:0:0:0:
