osu file format v14

[General]
AudioFilename: audio.mp3
AudioLeadIn: 0
PreviewTime: 9560
Countdown: 0
SampleSet: Soft
StackLeniency: 0.3
Mode: 0
LetterboxInBreaks: 0
WidescreenStoryboard: 1

[Editor]
Bookmarks: 430,10030,29230,38840,48444,68230,86830
DistanceSpacing: 1.2
BeatDivisor: 5
GridSize: 4
TimelineZoom: 1.4

[Metadata]
Title:Sequence Start
TitleUnicode:Sequence Start
Artist:sungazer
ArtistUnicode:sungazer
Creator:dsco
Version:Light Insane
Source:
Tags:experimental electronic dnb drum and bass groove time signature instrumental jazz fusion adam neely sun gazer gaze shawn crowder quintuplet
BeatmapID:1811742
BeatmapSetID:647360

[Difficulty]
HPDrainRate:4
CircleSize:4.5
OverallDifficulty:7
ApproachRate:8
SliderMultiplier:3.10000000596047
SliderTickRate:1

[Events]
//Background and Video events
0,0,"12.jpg",0,0
//Break Periods
2,56898,57751
//Storyboard Layer 0 (Background)
//Storyboard Layer 1 (Fail)
//Storyboard Layer 2 (Pass)
//Storyboard Layer 3 (Foreground)
//Storyboard Layer 4 (Overlay)
//Storyboard Sound Samples

[TimingPoints]
447,600,4,2,0,60,1,0
9068,606.060606060606,4,2,0,60,1,0
9675,591.133004926108,4,2,0,60,1,0
10030,600,4,2,0,60,1,0
11830,591.133004926108,4,2,0,60,1,0
12421,594.059405940594,4,2,0,60,1,0
13015,612.244897959184,4,2,0,60,1,0
13627,600,4,2,0,60,1,0
14227,582.52427184466,4,2,0,60,1,0
14809,600,4,2,0,60,1,0
16009,612.244897959184,4,2,0,60,1,0
16621,588.235294117647,4,2,0,60,1,0
17209,600,4,2,0,60,1,0
17809,603.015075376884,4,2,0,60,1,0
18532,618.556701030928,4,2,0,60,1,0
19026,597.014925373134,4,2,0,60,1,0
20220,600,4,2,0,60,1,0
22620,606.060606060606,4,2,0,60,1,0
23226,594.059405940594,4,2,0,60,1,0
23820,606.060606060606,4,2,0,60,1,0
24426,588.235294117647,4,2,0,60,1,0
25014,600,4,2,0,60,1,0
30414,612.244897959184,4,2,0,60,1,0
31026,618.556701030928,4,2,0,60,1,0
31644,594.059405940594,4,2,0,60,1,0
32238,597.014925373134,4,2,0,60,1,0
32835,-125,4,2,0,60,0,0
33432,-166.666666666667,4,2,0,60,0,0
34029,612.244897959184,4,2,0,60,1,0
34641,600,4,2,0,60,1,0
36441,594.059405940594,4,2,0,60,1,0
37629,588.235294117647,4,2,0,60,1,0
37629,-125,4,2,0,60,0,0
38217,600,4,2,0,60,1,0
38217,-166.666666666667,4,2,0,60,0,0
38817,603.015075376884,4,2,0,60,1,0
39420,606.060606060606,4,2,0,60,1,0
40026,612.244897959184,4,2,0,60,1,0
40638,600,4,2,0,60,1,0
41238,588.235294117647,4,2,0,60,1,0
41826,606.060606060606,4,2,0,60,1,0
42432,-125,4,2,0,60,0,0
43038,600,4,2,0,60,1,0
43038,-166.666666666667,4,2,0,60,0,0
43638,-100,4,2,0,60,0,0
45438,588.235294117647,4,2,0,60,1,0
46026,571.428571428571,4,2,0,60,1,0
46597,594.059405940594,4,2,0,60,1,0
46597,-90.9090909090909,4,2,0,60,0,0
47191,606.060606060606,4,2,0,60,1,0
47191,-83.3333333333333,4,2,0,60,0,0
47797,606.060606060606,4,2,0,60,1,0
47797,-76.9230769230769,4,2,0,60,0,0
48403,600,4,2,0,60,1,0
49003,604.534005037783,4,2,0,60,1,0
51421,598.503740648379,4,2,0,60,1,0
53815,576.923076923077,4,2,0,60,1,0
54391,588.235294117647,4,2,0,60,1,0
54979,618.556701030928,4,2,0,60,1,0
55597,612.244897959184,4,2,0,60,1,0
56821,600,4,2,0,60,1,0
58621,612.244897959184,4,2,0,60,1,0
59845,600,4,2,0,60,1,0
60445,597.014925373134,4,2,0,60,1,0
61042,603.015075376884,4,2,0,60,1,0
61645,576.923076923077,4,2,0,60,1,0
62221,588.235294117647,4,2,0,60,1,0
62809,609.137055837563,4,2,0,60,1,0
64027,631.578947368421,4,2,0,60,1,0
64658,588.235294117647,4,2,0,60,1,0
65246,566.037735849057,4,2,0,60,1,0
65812,600,4,2,0,60,1,0
66412,612.244897959184,4,2,0,60,1,0
67636,603.015075376884,4,2,0,60,1,0
68239,-100,4,2,0,70,0,1
68842,612.244897959184,4,2,0,70,1,1
70066,600,4,2,0,70,1,1
71266,588.235294117647,4,2,0,70,1,1
71854,582.52427184466,4,2,0,70,1,1
72436,594.059405940594,4,2,0,70,1,1
73624,594.059405940594,4,2,0,70,1,1
74812,606.060606060606,4,2,0,70,1,1
75418,600,4,2,0,70,1,1
75418,-125,4,2,0,70,0,1
76018,591.133004926108,4,2,0,70,1,1
76018,-142.857142857143,4,2,0,70,0,1
76609,594.059405940594,4,2,0,70,1,1
76609,-166.666666666667,4,2,0,70,0,1
77203,609.137055837563,4,2,0,70,1,1
79030,600,4,2,0,70,1,1
81430,609.137055837563,4,2,0,70,1,1
82648,582.52427184466,4,2,0,70,1,1
84395,612.244897959184,4,2,0,70,1,1
85007,600,4,2,0,70,1,1
85607,625,4,2,0,70,1,1
86232,606.060606060606,4,2,0,70,1,1
86838,600,4,2,0,70,1,0

[Colours]
Combo1 : 230,176,79
Combo2 : 204,130,132

[HitObjects]
190,189,10030,6,0,P|165:133|190:57,1,124.000000238419,6|0,0:0|0:0,0:0:0:0:
238,29,10390,1,0,0:0:0:0:
238,29,10510,1,0,0:0:0:0:
238,29,10630,2,0,L|379:18,1,124.000000238419,8|0,0:0|0:0,0:0:0:0:
435,11,10990,1,0,0:0:0:0:
512,138,11230,5,2,0:0:0:0:
439,120,11350,2,0,P|395:173|397:252,1,124.000000238419,2|2,0:0|0:0,0:0:0:0:
347,369,11830,2,0,P|338:308|297:263,1,124.000000238419,8|0,0:0|0:0,0:0:0:0:
226,239,12184,2,0,L|161:245,1,62.0000001192093,0|0,0:0|0:0,0:0:0:0:
103,201,12421,6,0,L|38:207,2,62.0000001192093,6|0|0,0:0|0:0|0:0,0:0:0:0:
144,138,12777,2,0,P|165:112|174:69,1,62.0000001192093,0|0,0:0|0:0,0:0:0:0:
230,36,13015,2,0,P|291:85|377:80,1,124.000000238419,8|0,0:0|0:0,0:0:0:0:
389,141,13382,2,0,L|457:132,1,62.0000001192093,0|0,0:0|0:0,0:0:0:0:
508,180,13627,5,2,0:0:0:0:
463,239,13747,2,0,L|454:384,1,124.000000238419,2|2,0:0|0:0,0:0:0:0:
312,319,14227,2,0,L|304:195,1,124.000000238419,8|0,0:0|0:0,0:0:0:0:
243,151,14576,1,0,0:0:0:0:
167,278,14809,6,0,P|145:236|26:212,1,124.000000238419,6|0,0:0|0:0,0:0:0:0:
23,152,15169,1,0,0:0:0:0:
23,152,15289,1,0,0:0:0:0:
23,152,15409,2,0,L|41:4,1,124.000000238419,8|0,0:0|0:0,0:0:0:0:
107,0,15769,1,0,0:0:0:0:
214,102,16009,5,2,0:0:0:0:
250,38,16131,2,0,P|297:1|408:15,1,124.000000238419,2|2,0:0|0:0,0:0:0:0:
480,80,16621,2,0,L|494:237,1,124.000000238419,8|0,0:0|0:0,0:0:0:0:
439,258,16973,2,0,L|364:244,1,62.0000001192093,0|0,0:0|0:0,0:0:0:0:
315,287,17209,6,0,L|324:395,2,62.0000001192093,6|0|0,0:0|0:0|0:0,0:0:0:0:
254,242,17569,1,0,0:0:0:0:
254,242,17689,1,0,0:0:0:0:
254,242,17809,2,0,L|259:180,2,62.0000001192093,8|0|0,0:0|0:0|0:0,0:0:0:0:
190,282,18170,2,0,P|157:258|121:251,1,62.0000001192093,0|0,0:0|0:0,0:0:0:0:
65,275,18412,5,2,0:0:0:0:
12,221,18532,2,0,P|59:181|74:93,1,124.000000238419,2|2,0:0|0:0,0:0:0:0:
203,46,19026,2,0,P|221:104|268:143,1,124.000000238419,8|0,0:0|0:0,0:0:0:0:
336,113,19384,1,0,0:0:0:0:
465,186,19623,6,0,L|453:338,1,124.000000238419,6|0,0:0|0:0,0:0:0:0:
390,272,19981,1,0,0:0:0:0:
390,272,20100,1,0,0:0:0:0:
390,272,20220,2,0,L|399:148,1,124.000000238419,8|0,0:0|0:0,0:0:0:0:
336,113,20580,1,0,0:0:0:0:
211,194,20820,5,2,0:0:0:0:
148,152,20940,2,0,L|24:159,1,124.000000238419,2|2,0:0|0:0,0:0:0:0:
139,64,21420,2,0,L|262:56,1,124.000000238419,8|0,0:0|0:0,0:0:0:0:
317,109,21780,2,0,P|355:131|397:132,1,62.0000001192093,0|0,0:0|0:0,0:0:0:0:
443,112,22020,6,0,L|459:35,2,62.0000001192093,6|0|0,0:0|0:0|0:0,0:0:0:0:
433,186,22380,2,0,L|445:246,1,62.0000001192093,0|0,0:0|0:0,0:0:0:0:
393,300,22620,2,0,L|260:281,1,124.000000238419,8|0,0:0|0:0,0:0:0:0:
207,323,22983,2,0,L|89:306,1,62.0000001192093,0|0,0:0|0:0,0:0:0:0:
91,365,23226,5,2,0:0:0:0:
30,322,23344,2,0,P|65:274|74:195,1,124.000000238419,2|2,0:0|0:0,0:0:0:0:
222,183,23820,2,0,P|187:135|178:56,1,124.000000238419,8|0,0:0|0:0,0:0:0:0:
121,22,24183,1,0,0:0:0:0:
268,15,24426,6,0,L|425:30,1,124.000000238419,6|0,0:0|0:0,0:0:0:0:
465,36,24778,1,0,0:0:0:0:
465,36,24896,1,0,0:0:0:0:
465,36,25014,2,0,L|480:193,1,124.000000238419,8|0,0:0|0:0,0:0:0:0:
420,208,25374,2,0,L|414:285,1,62.0000001192093,0|0,0:0|0:0,0:0:0:0:
353,312,25614,5,2,0:0:0:0:
398,371,25734,2,0,P|451:333|546:338,1,124.000000238419,2|2,0:0|0:0,0:0:0:0:
494,177,26214,2,0,P|441:139|346:144,1,124.000000238419,8|0,0:0|0:0,0:0:0:0:
326,86,26574,2,0,L|251:98,1,62.0000001192093,0|0,0:0|0:0,0:0:0:0:
199,58,26814,6,0,P|211:33|212:-4,2,62.0000001192093,6|0|0,0:0|0:0|0:0,0:0:0:0:
133,95,27174,1,0,0:0:0:0:
133,95,27294,1,0,0:0:0:0:
133,95,27414,2,0,P|105:98|72:115,2,62.0000001192093,8|0|0,0:0|0:0|0:0,0:0:0:0:
199,135,27774,2,0,P|214:157|246:177,1,62.0000001192093,0|0,0:0|0:0,0:0:0:0:
291,232,28014,6,0,L|299:329,1,62.0000001192093,2|2,0:0|0:0,0:0:0:0:
339,354,28254,1,8,0:0:0:0:
409,331,28374,2,0,L|417:234,1,62.0000001192093,10|0,0:0|0:0,0:0:0:0:
472,222,28614,2,0,P|432:179|427:101,1,124.000000238419,8|8,0:0|0:0,0:0:0:0:
480,69,28974,1,8,0:0:0:0:
425,18,29094,1,2,0:0:0:0:
366,63,29214,6,0,L|217:80,1,124.000000238419,6|0,0:0|0:0,0:0:0:0:
168,85,29574,1,2,0:0:0:0:
72,199,29814,2,0,P|84:253|53:318,1,124.000000238419,8|0,0:0|0:0,0:0:0:0:
103,374,30174,2,0,L|171:370,1,62.0000001192093,0|0,0:0|0:0,0:0:0:0:
224,324,30414,6,0,L|360:332,1,124.000000238419,2|0,0:0|0:0,0:0:0:0:
422,336,30781,1,2,0:0:0:0:
492,205,31026,2,0,P|435:155|424:71,1,124.000000238419,8|0,0:0|0:0,0:0:0:0:
370,56,31397,2,0,L|298:46,1,62.0000001192093,2|0,0:0|0:0,0:0:0:0:
241,13,31644,6,0,L|102:29,1,124.000000238419,2|0,0:0|0:0,0:0:0:0:
43,37,32000,1,2,0:0:0:0:
113,167,32238,5,8,0:0:0:0:
111,187,32357,1,0,0:0:0:0:
109,208,32476,1,0,0:0:0:0:
107,228,32596,2,0,L|100:308,1,62.0000001192093,2|0,0:0|0:0,0:0:0:0:
158,339,32835,5,2,0:0:0:0:
174,337,32954,1,0,0:0:0:0:
190,335,33073,1,0,0:0:0:0:
206,334,33193,2,0,L|270:328,1,49.6000000953675,2|0,0:0|0:0,0:0:0:0:
303,274,33432,5,8,0:0:0:0:
315,275,33551,1,0,0:0:0:0:
327,276,33670,1,0,0:0:0:0:
339,277,33790,2,0,L|387:281,1,37.1999989362717,2|8,0:0|0:0,0:0:0:0:
441,244,34029,6,0,P|423:199|448:110,1,124.000000238419,6|0,0:0|0:0,0:0:0:0:
502,91,34396,1,2,0:0:0:0:
376,11,34641,2,0,L|216:20,1,124.000000238419,8|0,0:0|0:0,0:0:0:0:
198,69,35001,2,0,L|135:65,1,62.0000001192093,0|0,0:0|0:0,0:0:0:0:
69,97,35241,6,0,P|67:161|28:207,1,124.000000238419,2|0,0:0|0:0,0:0:0:0:
66,270,35601,1,2,0:0:0:0:
198,336,35841,2,0,L|346:322,1,124.000000238419,8|0,0:0|0:0,0:0:0:0:
366,264,36201,2,0,L|372:203,1,62.0000001192093,2|0,0:0|0:0,0:0:0:0:
325,143,36441,6,0,P|345:112|337:23,1,124.000000238419,2|0,0:0|0:0,0:0:0:0:
267,6,36797,1,2,0:0:0:0:
174,122,37035,5,8,0:0:0:0:
153,120,37153,1,0,0:0:0:0:
133,119,37272,1,0,0:0:0:0:
112,116,37391,2,0,L|42:110,1,62.0000001192093,2|8,0:0|0:0,0:0:0:0:
0,167,37629,5,2,0:0:0:0:
1,183,37746,1,0,0:0:0:0:
2,199,37864,1,0,0:0:0:0:
4,216,37981,2,0,L|8:272,1,49.6000000953675,2|0,0:0|0:0,0:0:0:0:
76,304,38217,5,8,0:0:0:0:
75,316,38337,1,0,0:0:0:0:
75,328,38457,1,0,0:0:0:0:
73,341,38577,2,0,L|69:382,1,37.1999989362717,2|8,0:0|0:0,0:0:0:0:
144,369,38817,6,0,P|206:344|285:359,1,124.000000238419,6|0,0:0|0:0,0:0:0:0:
315,296,39178,1,2,0:0:0:0:
461,321,39420,2,0,P|430:264|456:179,1,124.000000238419,8|0,0:0|0:0,0:0:0:0:
394,145,39783,2,0,P|418:116|455:103,1,62.0000001192093,0|0,0:0|0:0,0:0:0:0:
504,68,40026,6,0,L|361:51,1,124.000000238419,2|0,0:0|0:0,0:0:0:0:
323,4,40393,1,2,0:0:0:0:
182,53,40638,2,0,L|174:196,1,124.000000238419,8|0,0:0|0:0,0:0:0:0:
115,222,40998,2,0,L|109:320,1,62.0000001192093,2|0,0:0|0:0,0:0:0:0:
141,352,41238,6,0,P|193:317|287:329,1,124.000000238419,2|0,0:0|0:0,0:0:0:0:
311,269,41590,1,2,0:0:0:0:
456,236,41826,5,8,0:0:0:0:
441,221,41947,1,0,0:0:0:0:
431,203,42068,1,0,0:0:0:0:
425,183,42189,2,0,P|428:153|449:117,1,62.0000001192093,2|0,0:0|0:0,0:0:0:0:
394,68,42432,5,2,0:0:0:0:
382,79,42553,1,0,0:0:0:0:
368,87,42674,1,0,0:0:0:0:
352,92,42795,2,0,P|327:90|298:73,1,49.6000000953675,2|0,0:0|0:0,0:0:0:0:
235,101,43038,5,8,0:0:0:0:
226,92,43158,1,0,0:0:0:0:
215,86,43278,1,0,0:0:0:0:
203,82,43398,2,0,P|184:83|163:95,1,37.1999989362717,2|0,0:0|0:0,0:0:0:0:
111,140,43638,6,0,L|101:269,1,124.000000238419,6|0,0:0|0:0,0:0:0:0:
47,316,43998,1,2,0:0:0:0:
188,361,44238,2,0,L|317:351,1,124.000000238419,8|0,0:0|0:0,0:0:0:0:
358,292,44598,2,0,L|364:204,1,62.0000001192093,0|0,0:0|0:0,0:0:0:0:
427,192,44838,6,0,P|397:140|410:61,1,124.000000238419,2|0,0:0|0:0,0:0:0:0:
463,36,45198,1,2,0:0:0:0:
316,8,45438,2,0,P|265:43|177:30,1,124.000000238419,8|0,0:0|0:0,0:0:0:0:
150,94,45790,2,0,P|117:71|75:71,1,62.0000001192093,2|0,0:0|0:0,0:0:0:0:
26,92,46026,6,0,L|13:227,1,124.000000238419,6|0,0:0|0:0,0:0:0:0:
64,271,46368,1,2,0:0:0:0:
165,379,46597,6,0,L|150:230,1,136.400004424858,6|0,0:0|0:0,0:0:0:0:
207,182,46953,1,2,0:0:0:0:
299,64,47191,6,0,L|283:226,1,148.799995745087,6|0,0:0|0:0,0:0:0:0:
344,278,47554,1,2,0:0:0:0:
458,375,47797,6,0,L|441:199,1,161.199992930794,6|0,0:0|0:0,0:0:0:0:
384,166,48160,1,2,0:0:0:0:
431,108,48281,1,8,0:0:0:0:
490,156,48403,6,0,P|458:104|465:23,1,124.000000238419,6|0,0:0|0:0,0:0:0:0:
392,6,48763,1,0,0:0:0:0:
392,6,48883,1,0,0:0:0:0:
392,6,49003,2,0,P|346:51|263:55,1,124.000000238419,8|0,0:0|0:0,0:0:0:0:
222,26,49365,1,0,0:0:0:0:
74,46,49607,5,2,0:0:0:0:
134,88,49728,2,0,L|144:233,1,124.000000238419,2|2,0:0|0:0,0:0:0:0:
244,321,50212,2,0,L|235:197,1,124.000000238419,8|0,0:0|0:0,0:0:0:0:
260,127,50574,2,0,L|324:134,1,62.0000001192093
386,95,50816,6,0,L|381:24,2,62.0000001192093,6|0|0,0:0|0:0|0:0,0:0:0:0:
440,146,51179,2,0,L|444:207,1,62.0000001192093
395,264,51421,2,0,P|376:293|283:318,1,124.000000238419,8|0,0:0|0:0,0:0:0:0:
228,356,51780,2,0,P|202:334|171:325,1,62.0000001192093
109,359,52019,5,2,0:0:0:0:
47,317,52139,2,0,L|37:183,1,124.000000238419,2|2,0:0|0:0,0:0:0:0:
176,249,52618,2,0,L|186:115,1,124.000000238419,8|0,0:0|0:0,0:0:0:0:
194,50,52977,1,0,0:0:0:0:
331,0,53216,6,0,P|384:42|442:47,1,124.000000238419,6|0,0:0|0:0,0:0:0:0:
505,96,53575,1,0,0:0:0:0:
505,96,53695,1,0,0:0:0:0:
505,96,53815,2,0,P|483:126|480:230,1,124.000000238419,8|0,0:0|0:0,0:0:0:0:
422,264,54161,2,0,P|444:294|450:334,1,62.0000001192093
390,362,54391,6,0,L|321:355,1,62.0000001192093,2|2,0:0|0:0,0:0:0:0:
264,316,54626,1,0,0:0:0:0:
264,316,54743,2,0,L|195:323,1,62.0000001192093,2|0,0:0|0:0,0:0:0:0:
135,289,54979,2,0,P|167:238|161:140,1,124.000000238419,8|0,0:0|0:0,0:0:0:0:
222,120,55350,1,0,0:0:0:0:
222,120,55473,1,0,0:0:0:0:
222,120,55597,6,0,L|213:54,2,62.0000001192093,6|0|0,0:0|0:0|0:0,0:0:0:0:
289,170,55964,1,0,0:0:0:0:
289,170,56086,1,0,0:0:0:0:
289,170,56209,2,0,P|315:150|355:146,2,62.0000001192093,12|0|0,0:0|0:0|0:0,0:0:0:0:
219,197,56576,2,0,L|138:187,1,62.0000001192094
447,108,58501,5,0,0:0:0:0:
408,44,58621,2,0,P|351:42|293:-17,1,124.000000238419,8|0,0:0|0:0,0:0:0:0:
234,33,58988,2,0,P|205:8|169:2,1,62.0000001192093
112,28,59233,5,2,0:0:0:0:
157,87,59355,2,0,L|145:250,1,124.000000238419,2|2,0:0|0:0,0:0:0:0:
0,237,59845,2,0,L|12:400,1,124.000000238419,8|0,0:0|0:0,0:0:0:0:
81,384,60205,2,0,L|87:292,1,62.0000001192093
143,275,60445,6,0,L|136:183,2,62.0000001192093,6|0|0,0:0|0:0|0:0,0:0:0:0:
211,303,60803,2,0,L|272:307,1,62.0000001192093
331,353,61042,2,0,P|377:312|462:309,1,124.000000238419,8|0,0:0|0:0,0:0:0:0:
493,253,61403,2,0,L|504:187,1,62.0000001192093
439,151,61645,5,2,0:0:0:0:
496,104,61760,2,0,L|486:-22,1,124.000000238419,2|2,2:0|2:0,2:0:0:0:
340,5,62221,2,0,L|330:128,1,124.000000238419,8|0,0:0|0:0,0:0:0:0:
262,161,62573,2,0,P|233:139|200:135,1,62.0000001192093,0|0,0:0|0:0,0:0:0:0:
136,153,62809,6,0,P|95:187|21:189,1,124.000000238419,6|0,0:0|0:0,0:0:0:0:
0,264,63174,1,0,0:0:0:0:
0,264,63296,1,0,0:0:0:0:
0,264,63418,2,0,P|19:291|28:332,1,62.0000001192093,8|0,0:0|0:0,0:0:0:0:
94,358,63661,1,0,0:0:0:0:
94,358,63783,2,0,P|103:328|121:303,1,62.0000001192093,0|0,0:0|0:0,0:0:0:0:
194,286,64027,6,0,L|268:298,2,62.0000001192093,2|0|0,0:0|0:0|0:0,0:0:0:0:
146,227,64405,2,0,L|135:154,1,62.0000001192093,2|0,0:0|0:0,0:0:0:0:
90,107,64658,6,0,P|64:128|31:137,2,62.0000001192093,8|0|0,0:0|0:0|0:0,0:0:0:0:
117,37,65010,1,0,0:0:0:0:
187,12,65128,1,0,0:0:0:0:
255,41,65246,1,6,0:0:0:0:
256,192,65359,12,6,67636,0:0:0:0:
92,269,68239,6,0,P|137:284|222:251,1,124.000000238419,12|0,0:0|0:0,0:0:0:0:
262,212,68600,1,0,0:0:0:0:
262,212,68721,1,0,0:0:0:0:
262,212,68842,6,0,L|272:68,1,124.000000238419,2|0,0:0|0:0,0:0:0:0:
329,42,69209,2,0,L|395:35,1,62.0000001192093,2|0,0:0|0:0,0:0:0:0:
450,79,69454,2,0,L|516:86,2,62.0000001192093,8|0|0,0:0|0:0|0:0,0:0:0:0:
402,135,69821,1,0,0:0:0:0:
402,135,69944,1,0,0:0:0:0:
402,135,70066,6,0,L|336:142,2,62.0000001192093,6|0|0,0:0|0:0|0:0,0:0:0:0:
448,205,70426,1,0,0:0:0:0:
448,205,70546,1,0,0:0:0:0:
448,205,70666,2,0,L|514:212,2,62.0000001192093,8|0|0,0:0|0:0|0:0,0:0:0:0:
400,261,71026,2,0,L|334:268,1,62.0000001192093,0|0,0:0|0:0,0:0:0:0:
286,320,71266,5,2,0:0:0:0:
327,381,71383,2,0,P|269:345|201:351,1,124.000000238419,2|2,0:0|0:0,0:0:0:0:
116,233,71854,2,0,P|177:232|227:198,1,124.000000238419,8|0,0:0|0:0,0:0:0:0:
243,124,72203,1,0,0:0:0:0:
141,10,72436,6,0,L|277:20,1,124.000000238419,6|0,0:0|0:0,0:0:0:0:
320,83,72792,1,0,0:0:0:0:
320,83,72911,1,0,0:0:0:0:
320,83,73030,2,0,L|456:73,1,124.000000238419,8|0,0:0|0:0,0:0:0:0:
500,122,73386,1,0,0:0:0:0:
428,252,73624,6,0,L|435:331,2,62.0000001192093,2|2|0,0:0|0:0|0:0,0:0:0:0:
363,213,73980,2,0,P|320:233|291:233,1,62.0000001192093,2|0,0:0|0:0,0:0:0:0:
237,203,74218,2,0,L|231:141,1,62.0000001192093,8|0,0:0|0:0,0:0:0:0:
164,107,74455,1,0,0:0:0:0:
164,107,74574,2,0,L|169:45,1,62.0000001192093
98,21,74812,6,0,L|87:144,1,124.000000238419,6|0,0:0|0:0,0:0:0:0:
136,201,75175,1,8,0:0:0:0:
157,200,75296,1,8,0:0:0:0:
178,198,75418,6,0,L|301:187,1,99.200000190735,6|0,0:0|0:0,0:0:0:0:
334,132,75778,1,8,0:0:0:0:
353,133,75898,1,8,0:0:0:0:
371,134,76018,6,0,L|478:143,1,86.7999975179675,6|0,0:0|0:0,0:0:0:0:
503,201,76372,1,8,0:0:0:0:
503,217,76490,1,8,0:0:0:0:
505,232,76609,6,0,L|512:322,1,74.3999978725435,14|0,0:0|0:0,0:0:0:0:
458,359,76965,1,2,0:0:0:0:
396,316,77084,1,2,0:0:0:0:
325,339,77203,6,0,P|286:302|209:285,1,124.000000238419,6|0,0:0|0:0,0:0:0:0:
153,250,77568,1,0,0:0:0:0:
153,250,77690,1,0,0:0:0:0:
153,250,77812,2,0,L|14:265,1,124.000000238419,8|0,0:0|0:0,0:0:0:0:
0,195,78177,1,0,0:0:0:0:
28,48,78421,5,2,0:0:0:0:
84,96,78543,2,0,P|137:140|199:140,1,124.000000238419,2|2,0:0|0:0,0:0:0:0:
304,48,79030,2,0,P|357:4|419:4,1,124.000000238419,8|0,0:0|0:0,0:0:0:0:
438,69,79390,2,0,P|460:79|487:121,1,62.0000001192093
431,161,79630,6,0,L|336:175,2,62.0000001192093,6|0|0,0:0|0:0|0:0,0:0:0:0:
489,222,79990,1,0,0:0:0:0:
489,222,80110,1,0,0:0:0:0:
489,222,80230,2,0,P|489:301|527:348,1,124.000000238419,8|0,0:0|0:0,0:0:0:0:
450,377,80590,2,0,L|381:368,1,62.0000001192093,0|0,0:0|0:0,0:0:0:0:
334,317,80830,5,2,0:0:0:0:
334,317,80950,2,0,L|325:226,1,62.0000001192093,2|0,0:0|0:0,0:0:0:0:
270,207,81190,2,0,L|261:116,1,62.0000001192093,2|0,0:0|0:0,0:0:0:0:
209,93,81430,1,8,0:0:0:0:
209,93,81551,2,0,P|180:111|123:108,1,62.0000001192093,0|0,0:0|0:0,0:0:0:0:
111,177,81795,2,0,P|82:159|25:162,1,62.0000001192093,0|0,0:0|0:0,0:0:0:0:
0,206,82039,6,0,L|11:334,1,124.000000238419,6|0,0:0|0:0,0:0:0:0:
73,369,82404,2,0,P|93:341|124:328,1,62.0000001192093,0|0,0:0|0:0,0:0:0:0:
170,275,82648,5,8,0:0:0:0:
170,275,82764,2,0,L|249:287,1,62.0000001192093,0|0,0:0|0:0,0:0:0:0:
290,238,82997,1,0,0:0:0:0:
411,324,83230,1,2,0:0:0:0:
464,272,83347,2,0,P|439:214|454:145,1,124.000000238419,2|2,0:0|0:0,0:0:0:0:
450,6,83813,6,0,L|526:0,2,62.0000001192093,8|0|0,0:0|0:0|0:0,0:0:0:0:
392,54,84162,1,0,0:0:0:0:
392,54,84279,1,0,0:0:0:0:
392,54,84395,2,0,P|331:104|255:91,1,124.000000238419,6|0,0:0|0:0,0:0:0:0:
213,109,84762,2,0,L|149:101,1,62.0000001192093
106,160,85007,6,0,P|87:222|28:250,1,124.000000238419,8|0,0:0|0:0,0:0:0:0:
0,315,85367,1,0,0:0:0:0:
0,315,85487,1,0,0:0:0:0:
0,315,85607,6,0,L|14:391,1,62.0000001192093,2|2,0:0|0:0,0:0:0:0:
86,384,85857,1,8,0:0:0:0:
148,343,85982,1,10,0:0:0:0:
215,374,86107,1,2,0:0:0:0:
280,338,86232,6,0,L|431:331,1,124.000000238419,8|2,0:0|0:0,0:0:0:0:
455,277,86595,1,2,0:0:0:0:
415,214,86716,1,0,0:0:0:0:
436,142,86838,5,6,0:0:0:0:
