osu file format v14

[General]
AudioFilename: audio.mp3
AudioLeadIn: 0
PreviewTime: 9560
Countdown: 0
SampleSet: Soft
StackLeniency: 0.5
Mode: 0
LetterboxInBreaks: 0
WidescreenStoryboard: 1

[Editor]
Bookmarks: 10030,29240,38830,48444,68230,86830
DistanceSpacing: 0.8
BeatDivisor: 5
GridSize: 4
TimelineZoom: 1.4

[Metadata]
Title:Sequence Start
TitleUnicode:Sequence Start
Artist:sungazer
ArtistUnicode:sungazer
Creator:dsco
Version:Hard
Source:
Tags:experimental electronic dnb drum and bass groove time signature instrumental jazz fusion adam neely sun gazer gaze shawn crowder quintuplet
BeatmapID:1688392
BeatmapSetID:647360

[Difficulty]
HPDrainRate:4
CircleSize:4
OverallDifficulty:6
ApproachRate:7.5
SliderMultiplier:2.50000000596047
SliderTickRate:1

[Events]
//Background and Video events
0,0,"12.jpg",0,0
//Break Periods
2,56409,57796
2,65446,67414
//Storyboard Layer 0 (Background)
//Storyboard Layer 1 (Fail)
//Storyboard Layer 2 (Pass)
//Storyboard Layer 3 (Foreground)
//Storyboard Layer 4 (Overlay)
//Storyboard Sound Samples

[TimingPoints]
447,600,4,2,0,60,1,0
9068,606.060606060606,4,2,0,60,1,0
9675,591.133004926108,4,2,0,60,1,0
10030,600,4,2,0,60,1,0
11830,591.133004926108,4,2,0,60,1,0
12421,594.059405940594,4,2,0,60,1,0
13015,612.244897959184,4,2,0,60,1,0
13627,600,4,2,0,60,1,0
14227,582.52427184466,4,2,0,60,1,0
14809,600,4,2,0,60,1,0
16009,612.244897959184,4,2,0,60,1,0
16621,588.235294117647,4,2,0,60,1,0
17209,600,4,2,0,60,1,0
17809,603.015075376884,4,2,0,60,1,0
18532,618.556701030928,4,2,0,60,1,0
19026,597.014925373134,4,2,0,60,1,0
20220,600,4,2,0,60,1,0
22620,606.060606060606,4,2,0,60,1,0
23226,594.059405940594,4,2,0,60,1,0
23820,606.060606060606,4,2,0,60,1,0
24426,588.235294117647,4,2,0,60,1,0
25014,600,4,2,0,60,1,0
30414,612.244897959184,4,2,0,60,1,0
31026,618.556701030928,4,2,0,60,1,0
31644,594.059405940594,4,2,0,60,1,0
32238,597.014925373134,4,2,0,60,1,0
34029,612.244897959184,4,2,0,60,1,0
34641,600,4,2,0,60,1,0
36441,594.059405940594,4,2,0,60,1,0
37629,588.235294117647,4,2,0,60,1,0
38217,600,4,2,0,60,1,0
38817,603.015075376884,4,2,0,60,1,0
39420,606.060606060606,4,2,0,60,1,0
40026,612.244897959184,4,2,0,60,1,0
40638,600,4,2,0,60,1,0
41238,588.235294117647,4,2,0,60,1,0
41826,606.060606060606,4,2,0,60,1,0
43038,600,4,2,0,60,1,0
45438,588.235294117647,4,2,0,60,1,0
46026,571.428571428571,4,2,0,60,1,0
46597,594.059405940594,4,2,0,60,1,0
47191,606.060606060606,4,2,0,60,1,0
47797,606.060606060606,4,2,0,60,1,0
48403,600,4,2,0,60,1,0
49003,604.534005037783,4,2,0,60,1,0
51421,598.503740648379,4,2,0,60,1,0
53815,576.923076923077,4,2,0,60,1,0
54391,588.235294117647,4,2,0,60,1,0
54979,618.556701030928,4,2,0,60,1,0
55597,612.244897959184,4,2,0,60,1,0
56821,600,4,2,0,60,1,0
58621,612.244897959184,4,2,0,60,1,0
59845,600,4,2,0,60,1,0
60445,597.014925373134,4,2,0,60,1,0
61042,603.015075376884,4,2,0,60,1,0
61645,576.923076923077,4,2,0,60,1,0
62221,588.235294117647,4,2,0,60,1,0
62809,609.137055837563,4,2,0,60,1,0
64027,631.578947368421,4,2,0,60,1,0
64658,588.235294117647,4,2,0,60,1,0
65246,566.037735849057,4,2,0,60,1,0
65812,600,4,2,0,60,1,0
66412,612.244897959184,4,2,0,60,1,0
67636,603.015075376884,4,2,0,60,1,0
68239,-100,4,2,0,70,0,1
68842,612.244897959184,4,2,0,70,1,1
70066,600,4,2,0,70,1,1
71266,588.235294117647,4,2,0,70,1,1
71854,582.52427184466,4,2,0,70,1,1
72436,594.059405940594,4,2,0,70,1,1
73624,594.059405940594,4,2,0,70,1,1
74812,606.060606060606,4,2,0,70,1,1
75418,600,4,2,0,70,1,1
76018,591.133004926108,4,2,0,70,1,1
76609,594.059405940594,4,2,0,70,1,1
77203,609.137055837563,4,2,0,70,1,1
79030,600,4,2,0,70,1,1
81430,609.137055837563,4,2,0,70,1,1
82648,582.52427184466,4,2,0,70,1,1
84395,612.244897959184,4,2,0,70,1,1
85007,600,4,2,0,70,1,1
85607,625,4,2,0,70,1,1
86232,606.060606060606,4,2,0,70,1,1
86838,600,4,2,0,70,1,0

[Colours]
Combo1 : 230,176,79
Combo2 : 204,130,132

[HitObjects]
425,116,9068,6,0,L|430:66,2,50.0000001192094,8|0|0,0:0|0:0|0:0,0:0:0:0:
398,143,9431,2,0,L|408:242,1,100.000000238419,12|0,0:0|0:0,0:0:0:0:
380,269,9793,2,0,L|330:264,1,50.0000001192093,2|0,0:0|0:0,0:0:0:0:
301,293,10030,5,6,0:0:0:0:
192,341,10390,2,0,L|142:337,1,50.0000001192093,0|0,0:0|0:0,0:0:0:0:
112,363,10630,1,8,0:0:0:0:
63,254,10990,2,0,L|67:204,1,50.0000001192093,0|0,0:0|0:0,0:0:0:0:
71,164,11230,5,2,0:0:0:0:
76,123,11350,2,0,P|114:155|163:162,1,100.000000238419,2|2,0:0|0:0,0:0:0:0:
219,105,11830,2,0,P|257:73|306:66,1,100.000000238419,8|0,0:0|0:0,0:0:0:0:
345,79,12184,1,0,0:0:0:0:
398,139,12421,6,0,L|411:288,1,150.000000357628,6|0,0:0|0:0,0:0:0:0:
444,311,12896,1,0,0:0:0:0:
412,336,13015,2,0,P|348:300|275:305,1,150.000000357628,8|0,0:0|0:0,0:0:0:0:
207,344,13627,5,2,0:0:0:0:
178,316,13747,2,0,L|169:216,1,100.000000238419,2|2,0:0|0:0,0:0:0:0:
93,193,14227,2,0,L|100:93,1,100.000000238419,8|0,0:0|0:0,0:0:0:0:
104,53,14576,1,0,0:0:0:0:
172,10,14809,5,6,0:0:0:0:
256,96,15169,2,0,L|305:86,1,50.0000001192093,0|0,0:0|0:0,0:0:0:0:
334,112,15409,2,0,P|363:73|408:54,1,100.000000238419,8|0,0:0|0:0,0:0:0:0:
425,17,15769,1,0,0:0:0:0:
491,63,16009,5,2,0:0:0:0:
478,100,16131,2,0,L|484:199,1,100.000000238419,2|2,0:0|0:0,0:0:0:0:
424,250,16621,2,0,P|386:218|337:208,1,100.000000238419,8|0,0:0|0:0,0:0:0:0:
313,177,16973,1,0,0:0:0:0:
248,223,17209,5,6,0:0:0:0:
276,340,17569,2,0,L|343:328,1,50.0000001192093,0|0,0:0|0:0,0:0:0:0:
364,343,17809,2,0,L|355:239,1,100.000000238419,8|0,0:0|0:0,0:0:0:0:
385,219,18170,1,0,0:0:0:0:
343,150,18412,5,2,0:0:0:0:
339,110,18532,2,0,P|289:98|249:56,1,100.000000238419,2|2,0:0|0:0,0:0:0:0:
186,23,19026,2,0,P|137:36|97:78,1,100.000000238419,8|0,0:0|0:0,0:0:0:0:
66,86,19384,1,0,0:0:0:0:
109,152,19623,5,6,0:0:0:0:
48,255,19981,2,0,L|54:317,1,50.0000001192093,0|0,0:0|0:0,0:0:0:0:
34,340,20220,1,8,0:0:0:0:
137,279,20580,2,0,L|199:285,1,50.0000001192093,0|0,0:0|0:0,0:0:0:0:
226,289,20820,5,2,0:0:0:0:
251,319,20940,2,0,L|375:309,1,100.000000238419,2|2,0:0|0:0,0:0:0:0:
402,249,21420,2,0,P|366:201|362:132,1,100.000000238419,8|0,0:0|0:0,0:0:0:0:
329,134,21780,1,0,0:0:0:0:
279,70,22020,6,0,P|237:99|126:93,1,100.000000238419,6|0,0:0|0:0,0:0:0:0:
107,77,22500,1,0,0:0:0:0:
70,93,22620,2,0,L|44:273,1,150.000000357628,8|0,0:0|0:0,0:0:0:0:
97,305,23226,5,2,0:0:0:0:
131,285,23344,2,0,L|261:302,1,100.000000238419,2|2,0:0|0:0,0:0:0:0:
301,350,23820,2,0,L|428:322,1,100.000000238419,8|0,0:0|0:0,0:0:0:0:
436,318,24183,1,0,0:0:0:0:
480,251,24426,5,6,0:0:0:0:
403,158,24778,2,0,L|409:98,1,50.0000001192093,0|0,0:0|0:0,0:0:0:0:
382,77,25014,2,0,L|265:90,1,100.000000238419,8|0,0:0|0:0,0:0:0:0:
251,113,25374,1,0,0:0:0:0:
180,75,25614,5,2,0:0:0:0:
144,93,25734,2,0,P|121:73|50:63,1,100.000000238419,2|2,0:0|0:0,0:0:0:0:
1,121,26214,2,0,L|9:231,1,100.000000238419,8|0,0:0|0:0,0:0:0:0:
42,242,26574,2,0,L|32:298,1,50.0000001192093,0|0,0:0|0:0,0:0:0:0:
56,324,26814,5,6,0:0:0:0:
160,383,27174,2,0,L|219:377,1,50.0000001192093,0|0,0:0|0:0,0:0:0:0:
236,347,27414,2,0,P|285:380|343:382,1,100.000000238419,8|0,0:0|0:0,0:0:0:0:
359,364,27774,2,0,L|418:358,1,50.0000001192093,0|0,0:0|0:0,0:0:0:0:
448,354,28014,5,2,0:0:0:0:
469,277,28254,2,0,L|528:283,2,50.0000005960464,8|10|0,0:0|0:0|0:0,0:0:0:0:
447,243,28614,2,0,L|437:136,1,100.000001192093,8|8,0:0|0:0,0:0:0:0:
431,103,28974,1,8,0:0:0:0:
382,39,29214,6,0,P|337:76|247:78,1,150.000001788139,6|2,0:0|0:0,0:0:0:0:
193,136,29814,2,0,P|148:99|58:97,1,150.000001788139,8|0,0:0|0:0,0:0:0:0:
25,118,30294,1,0,0:0:0:0:
0,149,30414,2,0,L|8:266,1,100.000001192093,2|0,0:0|0:0,0:0:0:0:
12,288,30781,1,2,0:0:0:0:
87,314,31026,6,0,P|123:283|217:287,1,100.000001192093,8|0,0:0|0:0,0:0:0:0:
206,249,31397,2,0,L|265:257,1,50.0000005960464,2|0,0:0|0:0,0:0:0:0:
295,261,31644,1,2,0:0:0:0:
383,341,32000,2,0,L|446:336,1,50.0000005960464,2|0,0:0|0:0,0:0:0:0:
467,316,32238,6,0,P|463:265|509:211,1,100.000001192093,8|0,0:0|0:0,0:0:0:0:
470,188,32596,1,2,0:0:0:0:
407,137,32835,2,0,L|281:126,1,100.000001192093,2|0,0:0|0:0,0:0:0:0:
267,125,33193,1,2,0:0:0:0:
206,72,33432,2,0,P|162:112|86:108,1,100.000001192093,8|0,0:0|0:0,0:0:0:0:
87,136,33790,2,0,L|77:201,1,50.0000005960464,2|8,0:0|0:0,0:0:0:0:
73,225,34029,6,0,P|138:230|197:301,1,150.000001788139,6|2,0:0|0:0,0:0:0:0:
259,334,34641,2,0,P|324:329|383:258,1,150.000001788139,8|0,0:0|0:0,0:0:0:0:
453,237,35241,2,0,L|464:119,1,100.000001192093,2|0,0:0|0:0,0:0:0:0:
466,97,35601,1,2,0:0:0:0:
402,47,35841,6,0,P|360:75|276:65,1,100.000001192093,8|0,0:0|0:0,0:0:0:0:
275,95,36201,2,0,L|218:85,1,50.0000005960464,2|0,0:0|0:0,0:0:0:0:
189,102,36441,1,2,0:0:0:0:
121,144,36678,2,0,P|110:171|88:190,1,50.0000005960464,0|2,0:0|0:0,0:0:0:0:
36,239,37035,6,0,P|72:290|74:345,1,100.000001192093,8|0,0:0|0:0,0:0:0:0:
108,350,37391,1,2,0:0:0:0:
184,374,37629,2,0,L|306:360,1,100.000001192093,2|0,0:0|0:0,0:0:0:0:
323,357,37981,1,2,0:0:0:0:
360,286,38217,2,0,L|482:300,1,100.000001192093,8|0,0:0|0:0,0:0:0:0:
489,270,38577,2,0,P|471:233|473:197,1,50.0000005960464,2|8,0:0|0:0,0:0:0:0:
482,186,38817,6,0,L|498:3,1,150.000001788139,6|2,0:0|0:0,0:0:0:0:
420,6,39420,2,0,L|406:155,1,150.000001788139,8|0,0:0|0:0,0:0:0:0:
383,187,39904,1,0,0:0:0:0:
356,216,40026,6,0,P|304:176|211:179,1,150.000001788139,2|2,0:0|0:0,0:0:0:0:
186,193,40515,1,0,0:0:0:0:
160,224,40638,1,8,0:0:0:0:
55,164,40998,2,0,L|48:111,1,50.0000005960464,2|0,0:0|0:0,0:0:0:0:
61,76,41238,2,0,L|189:93,1,100.000001192093,2|0,0:0|0:0,0:0:0:0:
193,66,41590,1,2,0:0:0:0:
272,75,41826,6,0,P|306:41|366:30,1,100.000001192093,8|0,0:0|0:0,0:0:0:0:
385,2,42189,1,2,0:0:0:0:
446,52,42432,2,0,L|456:163,1,100.000001192093,2|0,0:0|0:0,0:0:0:0:
489,172,42795,1,2,0:0:0:0:
435,231,43038,2,0,L|425:342,1,100.000001192093,8|0,0:0|0:0,0:0:0:0:
392,351,43398,2,0,P|371:339|334:339,1,50.0000005960464,2|8,0:0|0:0,0:0:0:0:
308,351,43638,6,0,L|138:362,1,150.000001788139,6|2,0:0|0:0,0:0:0:0:
95,311,44238,2,0,P|140:257|141:154,1,150.000001788139,8|0,0:0|0:0,0:0:0:0:
133,142,44718,1,0,0:0:0:0:
147,104,44838,6,0,L|272:88,1,100.000001192093,2|0,0:0|0:0,0:0:0:0:
286,86,45198,1,2,0:0:0:0:
354,45,45438,1,8,0:0:0:0:
465,90,45790,2,0,L|459:148,1,50.0000005960464,2|0,0:0|0:0,0:0:0:0:
488,168,46026,6,0,P|489:220|519:266,1,100.000001192093,6|0,0:0|0:0,0:0:0:0:
499,298,46368,1,2,0:0:0:0:
446,358,46597,2,0,P|394:359|348:389,1,100.000001192093,6|0,0:0|0:0,0:0:0:0:
316,369,46953,1,2,0:0:0:0:
256,316,47191,6,0,P|255:264|225:218,1,100.000001192093,6|0,0:0|0:0,0:0:0:0:
245,186,47554,1,2,0:0:0:0:
298,126,47797,2,0,P|350:125|396:95,1,100.000001192093,6|0,0:0|0:0,0:0:0:0:
428,115,48160,2,0,L|434:52,1,50.0000005960464,2|8,0:0|0:0,0:0:0:0:
436,25,48403,5,6,0:0:0:0:
318,0,48763,2,0,L|264:4,1,50.0000005960464,0|0,0:0|0:0,0:0:0:0:
242,34,49003,1,8,0:0:0:0:
124,59,49365,2,0,L|70:55,1,50.0000005960464,0|0,0:0|0:0,0:0:0:0:
46,84,49607,5,2,0:0:0:0:
24,117,49728,2,0,P|56:162|48:227,1,100.000001192093,2|2,0:0|0:0,0:0:0:0:
102,271,50212,2,0,P|104:221|134:182,1,100.000001192093,8|0,0:0|0:0,0:0:0:0:
145,144,50574,1,0,0:0:0:0:
217,109,50816,6,0,L|376:125,1,150.000001788139,6|0,0:0|0:0,0:0:0:0:
397,99,51300,1,0,0:0:0:0:
422,129,51421,2,0,P|377:178|374:272,1,150.000001788139,8|0,0:0|0:0,0:0:0:0:
321,322,52019,5,2,0:0:0:0:
288,298,52139,2,0,L|173:312,1,100.000001192093,2|2,0:0|0:0,0:0:0:0:
130,255,52618,2,0,L|15:241,1,100.000001192093,8|0,0:0|0:0,0:0:0:0:
14,206,52977,1,0,0:0:0:0:
66,145,53216,5,6,0:0:0:0:
185,158,53575,2,0,L|252:165,1,50.0000005960464
264,136,53815,2,0,P|302:106|322:43,1,100.000001192093,8|0,0:0|0:0,0:0:0:0:
354,36,54161,1,0,0:0:0:0:
427,67,54391,6,0,L|437:177,1,100.000001192093,2|0,0:0|0:0,0:0:0:0:
442,206,54743,1,2,0:0:0:0:
387,264,54979,2,0,P|348:239|280:237,1,100.000001192093,8|0,0:0|0:0,0:0:0:0:
260,253,55350,2,0,L|196:259,1,50.0000005960464
183,287,55597,5,6,0:0:0:0:
158,318,55719,2,0,P|125:283|41:272,1,100.000001192093
40,195,56209,1,12,0:0:0:0:
106,49,58621,5,8,0:0:0:0:
214,101,58988,2,0,L|272:94,1,50.0000005960464
302,106,59233,5,2,0:0:0:0:
337,88,59355,2,0,P|360:131|356:186,1,100.000001192093,2|2,0:0|0:0,0:0:0:0:
292,226,59845,2,0,L|180:210,1,100.000001192093,8|0,0:0|0:0,0:0:0:0:
159,233,60205,1,0,0:0:0:0:
90,191,60445,6,0,L|78:36,1,150.000001788139,6|0,0:0|0:0,0:0:0:0:
104,10,60922,1,0,0:0:0:0:
129,40,61042,2,0,P|190:62|286:31,1,150.000001788139,8|0,0:0|0:0,0:0:0:0:
340,3,61645,5,2,0:0:0:0:
367,32,61760,2,0,L|470:24,1,100.000001192093,2|2,0:0|0:0,0:0:0:0:
475,103,62221,2,0,L|375:110,1,100.000001192093,8|0,0:0|0:0,0:0:0:0:
355,145,62573,2,0,L|293:138,1,50.0000005960464,0|0,0:0|0:0,0:0:0:0:
273,163,62809,5,6,0:0:0:0:
236,277,63174,2,0,L|244:348,1,50.0000005960464,0|0,0:0|0:0,0:0:0:0:
263,360,63418,2,0,P|315:326|371:333,1,100.000001192093,8|0,0:0|0:0,0:0:0:0:
385,305,63783,2,0,L|440:311,1,50.0000005960464,0|0,0:0|0:0,0:0:0:0:
474,316,64027,6,0,P|456:249|492:173,1,150.000001788139,2|2,0:0|0:0,0:0:0:0:
472,140,64532,1,0,0:0:0:0:
449,106,64658,1,8,0:0:0:0:
338,152,65010,2,0,L|283:147,1,50.0000005960464,0|0,0:0|0:0,0:0:0:0:
247,144,65246,5,6,0:0:0:0:
322,97,68239,5,12,0:0:0:0:
228,170,68600,2,0,L|172:167,1,50.0000005960464
137,168,68842,2,0,P|137:240|74:296,1,150.000001788139,2|2,0:0|0:0,0:0:0:0:
64,327,69331,1,0,0:0:0:0:
76,365,69454,2,0,L|248:381,1,150.000001788139,8|0,0:0|0:0,0:0:0:0:
288,329,70066,5,6,0:0:0:0:
224,226,70426,2,0,L|231:157,1,50.0000005960464,0|0,0:0|0:0,0:0:0:0:
259,150,70666,2,0,P|216:124|196:60,1,100.000001192093,8|0,0:0|0:0,0:0:0:0:
173,46,71026,2,0,L|109:38,1,50.0000005960464,0|0,0:0|0:0,0:0:0:0:
83,34,71266,5,2,0:0:0:0:
51,59,71383,2,0,P|59:112|21:181,1,100.000001192093,2|2,0:0|0:0,0:0:0:0:
105,206,71854,2,0,P|97:259|135:328,1,100.000001192093,8|0,0:0|0:0,0:0:0:0:
95,338,72203,1,0,0:0:0:0:
169,368,72436,5,6,0:0:0:0:
272,306,72792,2,0,P|296:327|326:333,1,50.0000005960464,0|0,0:0|0:0,0:0:0:0:
351,318,73030,2,0,L|497:309,1,100.000001192093,8|0,0:0|0:0,0:0:0:0:
490,308,73386,1,0,0:0:0:0:
464,232,73624,6,0,L|483:82,1,150.000001788139,2|2,0:0|0:0,0:0:0:0:
452,56,74099,1,0,0:0:0:0:
423,28,74218,2,0,P|376:70|291:75,1,150.000001788139,8|0,0:0|0:0,0:0:0:0:
230,126,74812,5,6,0:0:0:0:
127,188,75175,2,0,L|70:195,1,50.0000005960464,8|8,0:0|0:0,0:0:0:0:
43,171,75418,1,6,0:0:0:0:
105,274,75778,2,0,L|112:331,1,50.0000005960464,8|8,0:0|0:0,0:0:0:0:
88,358,76018,5,6,0:0:0:0:
191,296,76372,2,0,L|248:289,1,50.0000005960464,8|8,0:0|0:0,0:0:0:0:
275,313,76609,1,14,0:0:0:0:
213,210,76965,2,0,L|206:153,1,50.0000005960464,2|2,0:0|0:0,0:0:0:0:
201,120,77203,6,0,P|258:128|335:75,1,150.000001788139,6|0,0:0|0:0,0:0:0:0:
369,63,77690,1,0,0:0:0:0:
403,83,77812,2,0,L|417:243,1,150.000001788139,8|0,0:0|0:0,0:0:0:0:
375,301,78421,5,2,0:0:0:0:
339,283,78543,2,0,P|308:324|250:343,1,100.000001192093,2|2,0:0|0:0,0:0:0:0:
189,311,79030,2,0,P|158:270|100:251,1,100.000001192093,8|0,0:0|0:0,0:0:0:0:
80,230,79390,2,0,L|73:168,1,50.0000005960464,0|0,0:0|0:0,0:0:0:0:
68,140,79630,6,0,L|244:156,1,150.000001788139,6|0,0:0|0:0,0:0:0:0:
248,128,80110,1,0,0:0:0:0:
271,160,80230,2,0,P|231:213|238:298,1,150.000001788139,8|0,0:0|0:0,0:0:0:0:
302,337,80830,5,2,0:0:0:0:
334,313,80950,2,0,L|462:332,1,100.000001192093,2|2,0:0|0:0,0:0:0:0:
465,304,81310,1,0,0:0:0:0:
497,280,81430,2,0,P|470:244|475:142,1,150.000001788139,8|0,0:0|0:0,0:0:0:0:
436,72,82039,5,6,0:0:0:0:
330,129,82404,2,0,L|271:123,1,50.0000005960464,0|0,0:0|0:0,0:0:0:0:
249,97,82648,2,0,L|128:85,1,100.000001192093,8|0,0:0|0:0,0:0:0:0:
116,64,82997,1,0,0:0:0:0:
44,100,83230,5,2,0:0:0:0:
70,129,83347,2,0,L|57:233,1,100.000001192093,2|2,0:0|0:0,0:0:0:0:
128,265,83813,2,0,L|141:369,1,100.000001192093,8|0,0:0|0:0,0:0:0:0:
177,380,84162,1,0,0:0:0:0:
242,334,84395,6,0,P|316:348|386:294,1,150.000001788139,6|0,0:0|0:0,0:0:0:0:
393,273,84884,1,0,0:0:0:0:
376,236,85007,2,0,L|361:65,1,150.000001788139,8|0,0:0|0:0,0:0:0:0:
300,35,85607,6,0,P|260:66|200:68,1,100.000001192093,2|8,0:0|0:0,0:0:0:0:
178,92,85982,2,0,L|115:82,1,50.0000005960464,10|2,0:0|0:0,0:0:0:0:
95,106,86232,2,0,P|81:159|33:194,1,100.000001192093,8|2,0:0|0:0,0:0:0:0:
14,208,86595,2,0,L|4:273,1,50.0000005960464,2|0,0:0|0:0,0:0:0:0:
0,296,86838,1,6,0:0:0:0:
