osu file format v14

[General]
AudioFilename: audio.mp3
AudioLeadIn: 0
PreviewTime: 9560
Countdown: 0
SampleSet: Soft
StackLeniency: 0.3
Mode: 0
LetterboxInBreaks: 0
WidescreenStoryboard: 1

[Editor]
Bookmarks: 430,10030,29230,38830,48444,68244,86830
DistanceSpacing: 1
BeatDivisor: 5
GridSize: 4
TimelineZoom: 1.8

[Metadata]
Title:Sequence Start
TitleUnicode:Sequence Start
Artist:sungazer
ArtistUnicode:sungazer
Creator:dsco
Version:Expert
Source:
Tags:experimental electronic dnb drum and bass groove time signature instrumental jazz fusion adam neely sun gazer gaze shawn crowder quintuplet
BeatmapID:1688391
BeatmapSetID:647360

[Difficulty]
HPDrainRate:5
CircleSize:5
OverallDifficulty:8
ApproachRate:9.2
SliderMultiplier:3.00000000596046
SliderTickRate:1

[Events]
//Background and Video events
0,0,"12.jpg",0,0
//Break Periods
//Storyboard Layer 0 (Background)
//Storyboard Layer 1 (Fail)
//Storyboard Layer 2 (Pass)
//Storyboard Layer 3 (Foreground)
//Storyboard Layer 4 (Overlay)
//Storyboard Sound Samples

[TimingPoints]
447,600,4,2,0,60,1,0
9068,606.060606060606,4,2,0,60,1,0
9068,-80,4,2,0,60,0,0
9675,591.133004926108,4,2,0,60,1,0
10030,600,4,2,0,60,1,0
10030,-80,4,2,0,60,0,0
11830,591.133004926108,4,2,0,60,1,0
11830,-80,4,2,0,60,0,0
12421,594.059405940594,4,2,0,60,1,0
12421,-80,4,2,0,60,0,0
13015,612.244897959184,4,2,0,60,1,0
13627,600,4,2,0,60,1,0
13627,-80,4,2,0,60,0,0
14227,582.52427184466,4,2,0,60,1,0
14227,-80,4,2,0,60,0,0
14809,600,4,2,0,60,1,0
14809,-80,4,2,0,60,0,0
16009,612.244897959184,4,2,0,60,1,0
16009,-80,4,2,0,60,0,0
16621,588.235294117647,4,2,0,60,1,0
16621,-80,4,2,0,60,0,0
17209,600,4,2,0,60,1,0
17209,-80,4,2,0,60,0,0
17809,603.015075376884,4,2,0,60,1,0
18532,618.556701030928,4,2,0,60,1,0
18532,-80,4,2,0,60,0,0
19026,597.014925373134,4,2,0,60,1,0
19026,-80,4,2,0,60,0,0
20220,600,4,2,0,60,1,0
20220,-80,4,2,0,60,0,0
22620,606.060606060606,4,2,0,60,1,0
23226,594.059405940594,4,2,0,60,1,0
23226,-80,4,2,0,60,0,0
23820,606.060606060606,4,2,0,60,1,0
23820,-80,4,2,0,60,0,0
24426,588.235294117647,4,2,0,60,1,0
24426,-80,4,2,0,60,0,0
25014,600,4,2,0,60,1,0
25014,-80,4,2,0,60,0,0
30414,612.244897959184,4,2,0,60,1,0
30414,-80,4,2,0,60,0,0
31026,618.556701030928,4,2,0,60,1,0
31026,-80,4,2,0,60,0,0
31644,594.059405940594,4,2,0,60,1,0
31644,-80,4,2,0,60,0,0
32238,597.014925373134,4,2,0,60,1,0
32238,-80,4,2,0,60,0,0
34029,612.244897959184,4,2,0,60,1,0
34029,-80,4,2,0,60,0,0
34641,600,4,2,0,60,1,0
34641,-80,4,2,0,60,0,0
36441,594.059405940594,4,2,0,60,1,0
36441,-80,4,2,0,60,0,0
37629,588.235294117647,4,2,0,60,1,0
37629,-80,4,2,0,60,0,0
38217,600,4,2,0,60,1,0
38217,-80,4,2,0,60,0,0
38817,603.015075376884,4,2,0,60,1,0
38817,-80,4,2,0,60,0,0
39420,606.060606060606,4,2,0,60,1,0
39420,-80,4,2,0,60,0,0
40026,612.244897959184,4,2,0,60,1,0
40026,-80,4,2,0,60,0,0
40638,600,4,2,0,60,1,0
40638,-80,4,2,0,60,0,0
41238,588.235294117647,4,2,0,60,1,0
41238,-80,4,2,0,60,0,0
41826,606.060606060606,4,2,0,60,1,0
41826,-80,4,2,0,60,0,0
43038,600,4,2,0,60,1,0
43038,-80,4,2,0,60,0,0
45438,588.235294117647,4,2,0,60,1,0
45438,-80,4,2,0,60,0,0
46026,571.428571428571,4,2,0,60,1,0
46026,-80,4,2,0,60,0,0
46597,594.059405940594,4,2,0,60,1,0
46597,-72.7272727272727,4,2,0,60,0,0
47191,606.060606060606,4,2,0,60,1,0
47191,-66.6666666666667,4,2,0,60,0,0
47797,606.060606060606,4,2,0,60,1,0
47797,-61.5384615384615,4,2,0,60,0,0
48403,600,4,2,0,60,1,0
48403,-80,4,2,0,60,0,0
49003,604.534005037783,4,2,0,60,1,0
49003,-80,4,2,0,60,0,0
51421,598.503740648379,4,2,0,60,1,0
51421,-80,4,2,0,60,0,0
53815,576.923076923077,4,2,0,60,1,0
53815,-80,4,2,0,60,0,0
54391,588.235294117647,4,2,0,60,1,0
54391,-80,4,2,0,60,0,0
54979,618.556701030928,4,2,0,60,1,0
54979,-80,4,2,0,60,0,0
55597,612.244897959184,4,2,0,60,1,0
56821,600,4,2,0,60,1,0
58621,612.244897959184,4,2,0,60,1,0
58621,-80,4,2,0,60,0,0
59845,600,4,2,0,60,1,0
59845,-80,4,2,0,60,0,0
60445,597.014925373134,4,2,0,60,1,0
60445,-80,4,2,0,60,0,0
61042,603.015075376884,4,2,0,60,1,0
61645,576.923076923077,4,2,0,60,1,0
61645,-80,4,2,0,60,0,0
62221,588.235294117647,4,2,0,60,1,0
62809,609.137055837563,4,2,0,60,1,0
62809,-80,4,2,0,60,0,0
64027,631.578947368421,4,2,0,60,1,0
64027,-80,4,2,0,60,0,0
64658,588.235294117647,4,2,0,60,1,0
64658,-80,4,2,0,60,0,0
65246,566.037735849057,4,2,0,60,1,0
65246,-80,4,2,0,60,0,0
65812,600,4,2,0,60,1,0
65812,-80,4,2,0,60,0,0
66412,612.244897959184,4,2,0,60,1,0
67636,603.015075376884,4,2,0,60,1,0
68239,-80,4,2,0,70,0,1
68842,612.244897959184,4,2,0,70,1,1
68842,-80,4,2,0,70,0,1
70066,600,4,2,0,70,1,1
70066,-80,4,2,0,70,0,1
71266,588.235294117647,4,2,0,70,1,1
71266,-80,4,2,0,70,0,1
71854,582.52427184466,4,2,0,70,1,1
71854,-80,4,2,0,70,0,1
72436,594.059405940594,4,2,0,70,1,1
72436,-80,4,2,0,70,0,1
73624,594.059405940594,4,2,0,70,1,1
73624,-80,4,2,0,70,0,1
74812,606.060606060606,4,2,0,70,1,1
74812,-80,4,2,0,70,0,1
75418,600,4,2,0,70,1,1
75418,-72.7272727272727,4,2,0,70,0,1
76018,591.133004926108,4,2,0,70,1,1
76018,-66.6666666666667,4,2,0,70,0,1
76609,594.059405940594,4,2,0,70,1,1
77203,609.137055837563,4,2,0,70,1,1
77203,-80,4,2,0,70,0,1
79030,600,4,2,0,70,1,1
79030,-80,4,2,0,70,0,1
81430,609.137055837563,4,2,0,70,1,1
81430,-80,4,2,0,70,0,1
82648,582.52427184466,4,2,0,70,1,1
82648,-80,4,2,0,70,0,1
84395,612.244897959184,4,2,0,70,1,1
84395,-80,4,2,0,70,0,1
85007,600,4,2,0,70,1,1
85607,625,4,2,0,70,1,1
85607,-80,4,2,0,70,0,1
86232,606.060606060606,4,2,0,70,1,1
86232,-80,4,2,0,70,0,1
86838,600,4,2,0,70,1,0

[Colours]
Combo1 : 230,176,79
Combo2 : 204,130,132

[HitObjects]
96,286,8967,5,2,0:0:0:0:
96,286,9068,2,0,L|89:201,1,75.0000001490116,8|0,0:0|0:0,0:0:0:0:
176,85,9310,1,0,0:0:0:0:
176,85,9431,2,0,L|163:262,1,150.000000298023,12|0,0:0|0:0,0:0:0:0:
310,352,9793,1,2,0:0:0:0:
310,352,9911,1,0,0:0:0:0:
376,224,10030,6,0,L|382:299,2,75.0000001490116,6|0|0,0:0|0:0|0:0,0:0:0:0:
370,150,10390,1,0,0:0:0:0:
370,150,10510,1,0,0:0:0:0:
432,107,10630,5,8,0:0:0:0:
302,117,10750,2,0,L|308:42,2,75.0000001490116,0|0|0,0:0|0:0|0:0,0:0:0:0:
296,191,11110,1,0,0:0:0:0:
141,271,11230,5,2,0:0:0:0:
141,271,11350,2,0,L|147:346,1,75.0000001490116,2|0,0:0|0:0,0:0:0:0:
234,373,11590,2,0,L|228:298,1,75.0000001490116,2|0,0:0|0:0,0:0:0:0:
25,171,11830,5,8,0:0:0:0:
25,171,11948,1,0,0:0:0:0:
25,171,12066,1,0,0:0:0:0:
87,128,12184,2,0,L|93:53,1,75.0000001490116,0|0,0:0|0:0,0:0:0:0:
304,139,12421,6,0,L|379:133,2,75.0000001490116,6|0|0,0:0|0:0|0:0,0:0:0:0:
231,149,12777,1,0,0:0:0:0:
231,149,12896,1,0,0:0:0:0:
19,279,13015,5,8,0:0:0:0:
88,307,13137,1,0,0:0:0:0:
157,279,13259,1,0,0:0:0:0:
180,209,13382,1,0,0:0:0:0:
157,140,13504,1,0,0:0:0:0:
202,80,13627,5,2,0:0:0:0:
202,80,13747,2,0,L|205:5,1,75.0000001490116,2|0,0:0|0:0,0:0:0:0:
283,52,13987,2,0,L|280:127,1,75.0000001490116,2|0,0:0|0:0,0:0:0:0:
93,216,14227,5,8,0:0:0:0:
93,216,14343,1,0,0:0:0:0:
93,216,14460,1,0,0:0:0:0:
36,163,14576,2,0,L|40:84,1,75.0000001490116,0|0,0:0|0:0,0:0:0:0:
224,264,14809,6,0,L|149:268,2,75.0000001490116,6|0|0,0:0|0:0|0:0,0:0:0:0:
300,261,15169,1,0,0:0:0:0:
300,261,15289,1,0,0:0:0:0:
314,100,15409,5,8,0:0:0:0:
443,142,15529,2,0,L|369:150,2,75.0000001490116,0|0|0,0:0|0:0|0:0,0:0:0:0:
512,178,15889,1,0,0:0:0:0:
457,365,16009,5,2,0:0:0:0:
457,365,16131,1,2,0:0:0:0:
460,290,16253,1,0,0:0:0:0:
394,325,16376,2,0,L|319:321,1,75.0000001490116,2|0,0:0|0:0,0:0:0:0:
112,352,16621,5,8,0:0:0:0:
112,352,16738,1,0,0:0:0:0:
112,352,16856,1,0,0:0:0:0:
159,295,16973,2,0,L|151:194,1,75.0000001490116,0|0,0:0|0:0,0:0:0:0:
252,39,17209,6,0,L|246:113,2,75.0000001490116,6|0|0,0:0|0:0|0:0,0:0:0:0:
318,0,17569,1,0,0:0:0:0:
318,0,17689,1,0,0:0:0:0:
240,188,17809,5,8,0:0:0:0:
308,158,17929,1,0,0:0:0:0:
380,180,18050,1,0,0:0:0:0:
421,243,18170,1,0,0:0:0:0:
412,317,18291,1,0,0:0:0:0:
349,272,18412,5,2,0:0:0:0:
349,272,18532,2,0,L|355:194,1,75.0000001490116,2|0,0:0|0:0,0:0:0:0:
465,102,18779,1,2,0:0:0:0:
456,176,18903,1,0,0:0:0:0:
277,229,19026,5,8,0:0:0:0:
277,229,19145,1,0,0:0:0:0:
277,229,19264,1,0,0:0:0:0:
354,346,19384,2,0,L|348:265,1,75.0000001490116,0|0,0:0|0:0,0:0:0:0:
202,181,19623,6,0,L|207:106,2,75.0000001490116,6|0|0,0:0|0:0|0:0,0:0:0:0:
134,214,19981,1,0,0:0:0:0:
134,214,20100,1,0,0:0:0:0:
273,63,20220,5,8,0:0:0:0:
411,93,20340,2,0,L|505:85,2,75.0000001490116,0|0|0,0:0|0:0|0:0,0:0:0:0:
338,101,20700,1,0,0:0:0:0:
302,274,20820,5,2,0:0:0:0:
302,274,20940,2,0,L|208:266,1,75.0000001490116,2|0,0:0|0:0,0:0:0:0:
180,340,21180,2,0,L|254:346,1,75.0000001490116,2|0,0:0|0:0,0:0:0:0:
369,191,21420,5,8,0:0:0:0:
369,191,21540,1,0,0:0:0:0:
369,191,21660,1,0,0:0:0:0:
435,227,21780,2,0,L|509:221,1,75.0000001490116,0|0,0:0|0:0,0:0:0:0:
290,163,22020,6,0,L|298:243,2,75.0000001490116,6|0|0,0:0|0:0|0:0,0:0:0:0:
221,189,22380,1,0,0:0:0:0:
221,189,22500,1,0,0:0:0:0:
113,352,22620,5,8,0:0:0:0:
55,303,22741,1,0,0:0:0:0:
42,229,22862,1,0,0:0:0:0:
80,164,22983,1,0,0:0:0:0:
118,99,23104,1,0,0:0:0:0:
105,25,23226,5,2,0:0:0:0:
105,25,23344,2,0,L|30:20,1,75.0000001490116,2|0,0:0|0:0,0:0:0:0:
43,94,23582,2,0,L|118:99,1,75.0000001490116,2|0,0:0|0:0,0:0:0:0:
301,252,23820,5,8,0:0:0:0:
301,252,23941,1,0,0:0:0:0:
301,252,24062,1,0,0:0:0:0:
225,237,24183,2,0,L|232:325,1,75.0000001490116,0|0,0:0|0:0,0:0:0:0:
392,172,24426,6,0,L|403:77,2,75.0000001490116,6|0|0,0:0|0:0|0:0,0:0:0:0:
427,238,24778,1,0,0:0:0:0:
427,238,24896,1,0,0:0:0:0:
325,367,25014,5,8,0:0:0:0:
183,313,25134,2,0,L|101:317,2,75.0000001490116,0|0|0,0:0|0:0|0:0,0:0:0:0:
240,264,25494,1,0,0:0:0:0:
184,115,25614,5,2,0:0:0:0:
184,115,25734,1,2,0:0:0:0:
191,40,25854,1,0,0:0:0:0:
252,83,25974,2,0,L|326:90,1,75.0000001490116,2|0,0:0|0:0,0:0:0:0:
389,264,26214,5,8,0:0:0:0:
389,264,26334,1,0,0:0:0:0:
389,264,26454,1,0,0:0:0:0:
418,194,26574,1,0,0:0:0:0:
342,203,26694,1,0,0:0:0:0:
217,335,26814,6,0,L|138:328,2,75.0000001490116,6|0|0,0:0|0:0|0:0,0:0:0:0:
276,382,27174,1,0,0:0:0:0:
276,382,27294,1,0,0:0:0:0:
66,216,27414,5,8,0:0:0:0:
85,143,27534,1,0,0:0:0:0:
146,99,27654,1,0,0:0:0:0:
221,106,27774,1,0,0:0:0:0:
273,159,27894,1,0,0:0:0:0:
346,140,28014,6,0,L|429:138,1,75.0000001490116,2|2,0:0|0:0,0:0:0:0:
497,135,28254,1,8,0:0:0:0:
444,287,28374,1,10,0:0:0:0:
444,287,28494,1,0,0:0:0:0:
221,280,28614,6,0,L|216:201,1,75.0000001490116,8|0,0:0|0:0,0:0:0:0:
258,28,28854,1,8,0:0:0:0:
150,73,28974,1,8,0:0:0:0:
76,61,29094,1,2,0:0:0:0:
144,155,29214,6,0,L|139:229,1,75.0000001490116,6|0,0:0|0:0,0:0:0:0:
69,313,29454,1,0,0:0:0:0:
69,313,29574,2,0,L|64:238,1,75.0000001490116,2|0,0:0|0:0,0:0:0:0:
246,300,29814,6,0,L|241:374,1,75.0000001490116,8|0,0:0|0:0,0:0:0:0:
321,291,30054,1,0,0:0:0:0:
321,291,30174,1,0,0:0:0:0:
316,216,30294,1,0,0:0:0:0:
384,331,30414,6,0,L|465:341,1,75.0000001490116,2|0,0:0|0:0,0:0:0:0:
512,251,30658,1,0,0:0:0:0:
512,251,30781,2,0,L|431:261,1,75.0000001490116,2|0,0:0|0:0,0:0:0:0:
330,101,31026,6,0,L|249:91,1,75.0000001490116,8|0,0:0|0:0,0:0:0:0:
202,21,31273,1,0,0:0:0:0:
202,21,31397,1,2,0:0:0:0:
276,11,31520,1,0,0:0:0:0:
201,172,31644,6,0,L|35:187,1,150.000000298023,2|0,0:0|0:0,0:0:0:0:
16,265,32000,2,0,L|129:254,1,75.0000001490116,2|0,0:0|0:0,0:0:0:0:
199,376,32238,5,8,0:0:0:0:
254,305,32357,1,0,0:0:0:0:
342,286,32476,1,0,0:0:0:0:
421,327,32596,2,0,L|444:383,2,38
342,286,32835,5,2,0:0:0:0:
311,209,32954,1,0,0:0:0:0:
336,130,33073,1,0,0:0:0:0:
405,84,33193,2,0,L|460:91,2,38
336,130,33432,5,8,0:0:0:0:
261,119,33551,1,0,0:0:0:0:
210,62,33670,1,0,0:0:0:0:
135,51,33790,2,0,L|86:54,2,38,0|0|8,0:0|0:0|0:0,0:0:0:0:
210,62,34029,6,0,L|214:-17,1,75.0000001490116,6|0,0:0|0:0,0:0:0:0:
298,23,34273,1,0,0:0:0:0:
298,23,34396,2,0,L|294:97,1,75.0000001490116,2|0,0:0|0:0,0:0:0:0:
385,240,34641,6,0,L|464:236,1,75.0000001490116,8|0,0:0|0:0,0:0:0:0:
424,152,34881,1,0,0:0:0:0:
424,152,35001,1,0,0:0:0:0:
349,156,35121,1,0,0:0:0:0:
268,328,35241,6,0,L|185:320,1,75.0000001490116,2|0,0:0|0:0,0:0:0:0:
52,376,35481,1,0,0:0:0:0:
52,376,35601,2,0,L|126:368,1,75.0000001490116,2|0,0:0|0:0,0:0:0:0:
244,247,35841,6,0,L|252:164,1,75.0000001490116,8|0,0:0|0:0,0:0:0:0:
196,31,36081,1,0,0:0:0:0:
196,31,36201,1,2,0:0:0:0:
203,105,36321,1,0,0:0:0:0:
96,240,36441,6,0,L|8:228,1,75.0000001490116,2|0,0:0|0:0,0:0:0:0:
13,136,36678,1,0,0:0:0:0:
13,136,36797,2,0,L|87:146,1,75.0000001490116,2|0,0:0|0:0,0:0:0:0:
241,347,37035,5,8,0:0:0:0:
232,258,37153,1,0,0:0:0:0:
321,249,37272,1,0,0:0:0:0:
330,338,37391,2,0,L|337:418,2,38,0|0|8,0:0|0:0|0:0,0:0:0:0:
321,249,37629,5,2,0:0:0:0:
312,165,37746,1,0,0:0:0:0:
395,157,37864,1,0,0:0:0:0:
404,240,37981,2,0,L|411:320,2,38
395,157,38217,5,8,0:0:0:0:
386,82,38337,1,0,0:0:0:0:
461,73,38457,1,0,0:0:0:0:
469,147,38577,2,0,L|476:227,2,38,0|0|8,0:0|0:0|0:0,0:0:0:0:
302,16,38817,6,0,L|196:12,1,75.0000001490116,6|0,0:0|0:0,0:0:0:0:
149,85,39058,1,0,0:0:0:0:
149,85,39178,2,0,L|223:87,1,75.0000001490116,2|0,0:0|0:0,0:0:0:0:
305,207,39420,6,0,L|379:204,1,75.0000001490116,8|0,0:0|0:0,0:0:0:0:
464,277,39662,1,0,0:0:0:0:
464,277,39783,1,0,0:0:0:0:
389,279,39904,1,0,0:0:0:0:
339,335,40026,2,0,L|346:415,4,37.5
199,288,40393,2,0,L|207:197,1,75.0000001490116,2|0,0:0|0:0,0:0:0:0:
143,88,40638,6,0,L|149:162,1,75.0000001490116,8|0,0:0|0:0,0:0:0:0:
225,118,40878,1,0,0:0:0:0:
225,118,40998,1,2,0:0:0:0:
231,43,41118,1,0,0:0:0:0:
277,174,41238,6,0,L|351:180,1,75.0000001490116,2|0,0:0|0:0,0:0:0:0:
412,237,41473,1,0,0:0:0:0:
412,237,41590,2,0,L|486:230,1,75.0000001490116,2|0,0:0|0:0,0:0:0:0:
313,361,41826,5,8,0:0:0:0:
222,352,41947,1,0,0:0:0:0:
164,281,42068,1,0,0:0:0:0:
73,290,42189,2,0,L|-9:298,2,38
164,281,42432,5,2,0:0:0:0:
245,272,42553,1,0,0:0:0:0:
297,209,42674,1,0,0:0:0:0:
379,216,42795,2,0,L|461:224,2,38
297,209,43038,5,8,0:0:0:0:
221,200,43158,1,0,0:0:0:0:
173,142,43278,1,0,0:0:0:0:
98,149,43398,2,0,L|16:157,2,38,0|0|8,0:0|0:0|0:0,0:0:0:0:
128,79,43638,6,0,B|138:-15,1,75.0000001490116,6|0,0:0|0:0,0:0:0:0:
229,0,43878,1,0,0:0:0:0:
229,0,43998,2,0,B|221:74,1,75.0000001490116,2|0,0:0|0:0,0:0:0:0:
297,209,44238,6,0,B|307:303,1,75.0000001490116,8|0,0:0|0:0,0:0:0:0:
398,288,44478,1,0,0:0:0:0:
398,288,44598,1,0,0:0:0:0:
390,213,44718,1,0,0:0:0:0:
220,257,44838,6,0,L|135:252,1,75.0000001490116,2|0,0:0|0:0,0:0:0:0:
25,317,45078,1,0,0:0:0:0:
25,317,45198,2,0,L|100:313,1,75.0000001490116,2|0,0:0|0:0,0:0:0:0:
277,344,45438,6,0,L|362:349,1,75.0000001490116,8|0,0:0|0:0,0:0:0:0:
472,283,45673,1,0,0:0:0:0:
472,283,45790,1,2,0:0:0:0:
397,287,45908,1,0,0:0:0:0:
279,184,46026,6,0,L|273:98,1,75.0000001490116,6|0,0:0|0:0,0:0:0:0:
435,23,46254,1,0,0:0:0:0:
430,97,46368,2,0,L|435:23,1,75.0000001490116,2|0,0:0|0:0,0:0:0:0:
279,184,46597,6,0,L|272:96,1,82.5000009506941,6|0,0:0|0:0,0:0:0:0:
435,23,46834,1,0,0:0:0:0:
430,105,46953,2,0,L|435:18,1,82.5000009506941,2|0,0:0|0:0,0:0:0:0:
279,184,47191,6,0,L|270:68,1,90.0000036120416,6|0,0:0|0:0,0:0:0:0:
435,23,47433,1,0,0:0:0:0:
429,113,47554,2,0,L|435:23,1,90.0000036120416,2|0,0:0|0:0,0:0:0:0:
279,184,47797,6,0,L|269:62,1,97.5000029832126,6|0,0:0|0:0,0:0:0:0:
435,23,48039,1,0,0:0:0:0:
429,113,48160,1,2,0:0:0:0:
348,59,48281,1,8,0:0:0:0:
382,260,48403,6,0,L|390:340,2,75.0000001490116,6|0|0,0:0|0:0|0:0,0:0:0:0:
435,207,48763,1,0,0:0:0:0:
435,207,48883,1,0,0:0:0:0:
497,164,49003,5,8,0:0:0:0:
367,174,49123,2,0,L|373:99,2,75.0000001490116,0|0|0,0:0|0:0|0:0,0:0:0:0:
313,230,49486,1,0,0:0:0:0:
174,61,49607,5,2,0:0:0:0:
174,61,49728,2,0,L|248:56,1,75.0000001490116,2|0,0:0|0:0,0:0:0:0:
223,145,49970,2,0,L|148:149,1,75.0000001490116,2|0,0:0|0:0,0:0:0:0:
3,98,50212,5,8,0:0:0:0:
3,98,50332,1,0,0:0:0:0:
3,98,50453,1,0,0:0:0:0:
81,69,50574,2,0,L|69:167,1,75.0000001490116,0|0,0:0|0:0,0:0:0:0:
167,303,50816,6,0,L|157:228,2,75.0000001490116,6|0|0,0:0|0:0|0:0,0:0:0:0:
176,377,51179,1,0,0:0:0:0:
176,377,51300,1,0,0:0:0:0:
441,296,51421,5,8,0:0:0:0:
421,223,51540,1,0,0:0:0:0:
359,180,51660,1,0,0:0:0:0:
284,186,51780,1,0,0:0:0:0:
232,239,51899,1,0,0:0:0:0:
157,228,52019,5,2,0:0:0:0:
157,228,52139,2,0,L|168:146,1,75.0000001490116,2|0,0:0|0:0,0:0:0:0:
97,99,52378,2,0,L|87:173,1,75.0000001490116,2|0,0:0|0:0,0:0:0:0:
178,359,52618,5,8,0:0:0:0:
178,359,52737,1,0,0:0:0:0:
178,359,52857,1,0,0:0:0:0:
241,313,52977,2,0,L|230:231,1,75.0000001490116,0|0,0:0|0:0,0:0:0:0:
342,91,53216,6,0,L|420:103,2,75.0000001490116,6|0|0,0:0|0:0|0:0,0:0:0:0:
316,22,53575,1,0,0:0:0:0:
316,22,53695,1,0,0:0:0:0:
279,132,53815,5,8,0:0:0:0:
279,132,53930,1,0,0:0:0:0:
279,132,54045,1,0,0:0:0:0:
339,257,54161,2,0,L|335:183,1,75.0000001490116
217,11,54391,5,2,0:0:0:0:
217,11,54508,1,2,0:0:0:0:
210,86,54626,1,0,0:0:0:0:
142,117,54743,2,0,L|135:214,1,75.0000001490116,2|0,0:0|0:0,0:0:0:0:
311,292,54979,5,8,0:0:0:0:
311,292,55102,1,0,0:0:0:0:
311,292,55226,1,0,0:0:0:0:
258,235,55350,2,0,L|177:247,1,75.0000001490116
391,367,55597,5,6,0:0:0:0:
391,367,55719,1,0,0:0:0:0:
434,305,55841,1,0,0:0:0:0:
427,230,55964,1,0,0:0:0:0:
374,177,56086,1,0,0:0:0:0:
403,27,56209,5,12,0:0:0:0:
256,192,56331,12,0,58021,0:0:0:0:
459,52,58501,5,0,0:0:0:0:
299,77,58621,5,8,0:0:0:0:
347,202,58743,2,0,L|353:128,2,75.0000001490116
341,277,59110,1,0,0:0:0:0:
228,365,59233,5,2,0:0:0:0:
228,365,59355,2,0,L|153:362,1,75.0000001490116,2|0,0:0|0:0,0:0:0:0:
109,287,59600,2,0,L|183:289,1,75.0000001490116,2|0,0:0|0:0,0:0:0:0:
264,125,59845,5,8,0:0:0:0:
264,125,59965,1,0,0:0:0:0:
264,125,60085,1,0,0:0:0:0:
188,93,60205,2,0,L|193:180,1,75.0000001490116,0|0,0:0|0:0,0:0:0:0:
335,82,60445,6,0,L|339:7,2,75.0000001490116,6|0|0,0:0|0:0|0:0,0:0:0:0:
411,114,60803,1,0,0:0:0:0:
411,114,60922,1,0,0:0:0:0:
352,318,61042,5,8,0:0:0:0:
290,274,61162,1,0,0:0:0:0:
215,281,61283,1,0,0:0:0:0:
153,325,61403,1,0,0:0:0:0:
78,318,61524,1,0,0:0:0:0:
30,260,61645,5,2,0:0:0:0:
30,260,61760,2,0,L|38:170,1,75.0000001490116,2|0,0:0|0:0,0:0:0:0:
118,147,61991,2,0,L|111:221,1,75.0000001490116,2|0,0:0|0:0,0:0:0:0:
242,352,62221,5,8,0:0:0:0:
242,352,62338,1,0,0:0:0:0:
242,352,62456,1,0,0:0:0:0:
215,281,62573,1,0,0:0:0:0:
290,294,62691,1,0,0:0:0:0:
403,199,62809,6,0,L|395:104,2,75.0000001490116,6|0|0,0:0|0:0|0:0,0:0:0:0:
479,157,63174,1,0,0:0:0:0:
479,157,63296,1,0,0:0:0:0:
313,91,63418,5,8,0:0:0:0:
184,138,63539,2,0,L|259:145,2,75.0000001490116,0|0|0,0:0|0:0|0:0,0:0:0:0:
109,131,63905,1,0,0:0:0:0:
210,359,64027,5,2,0:0:0:0:
210,359,64153,1,0,0:0:0:0:
224,285,64279,1,0,0:0:0:0:
153,310,64405,2,0,L|70:316,1,75.0000001490116,2|0,0:0|0:0,0:0:0:0:
23,155,64658,5,8,0:0:0:0:
23,155,64775,1,0,0:0:0:0:
23,155,64893,1,0,0:0:0:0:
85,111,65010,2,0,L|92:-7,1,75.0000001490116,0|0,0:0|0:0,0:0:0:0:
215,135,65246,6,0,L|226:311,1,150.000000298023,6|0,0:0|0:0,0:0:0:0:
290,318,65585,1,0,0:0:0:0:
290,318,65698,1,0,0:0:0:0:
353,277,65812,5,8,0:0:0:0:
353,277,65932,2,0,L|346:170,2,75.0000001490116
360,351,66292,1,0,0:0:0:0:
409,146,66412,5,2,0:0:0:0:
349,191,66534,1,2,0:0:0:0:
275,187,66656,1,0,0:0:0:0:
221,137,66779,1,2,0:0:0:0:
262,193,66901,1,0,0:0:0:0:
214,250,67024,5,8,0:0:0:0:
140,246,67146,1,0,0:0:0:0:
80,291,67269,1,0,0:0:0:0:
64,365,67391,1,0,0:0:0:0:
45,225,67514,1,0,0:0:0:0:
45,225,67636,5,6,0:0:0:0:
473,118,68118,1,0,0:0:0:0:
473,118,68239,5,12,0:0:0:0:
338,74,68359,2,0,L|412:77,2,75.0000001490116,0|0|0,0:0|0:0|0:0,0:0:0:0:
357,1,68721,1,0,0:0:0:0:
318,148,68842,6,0,L|330:224,2,75.0000001490116,2|2|0,0:0|0:0|0:0,0:0:0:0:
264,96,69209,2,0,L|253:21,1,75.0000001490116,2|0,0:0|0:0,0:0:0:0:
105,176,69454,5,8,0:0:0:0:
105,176,69576,1,0,0:0:0:0:
105,176,69699,1,0,0:0:0:0:
85,98,69821,2,0,L|160:107,1,75.0000001490116,0|0,0:0|0:0,0:0:0:0:
257,299,70066,6,0,L|266:388,2,75.0000001490116,6|0|0,0:0|0:0|0:0,0:0:0:0:
250,224,70426,1,0,0:0:0:0:
250,224,70546,1,0,0:0:0:0:
431,53,70666,5,8,0:0:0:0:
464,121,70786,1,0,0:0:0:0:
444,193,70906,1,0,0:0:0:0:
382,235,71026,1,0,0:0:0:0:
362,307,71146,1,0,0:0:0:0:
395,377,71266,5,2,0:0:0:0:
395,377,71383,2,0,L|476:370,1,75.0000001490116,2|0,0:0|0:0,0:0:0:0:
511,294,71618,2,0,L|437:300,1,75.0000001490116,2|0,0:0|0:0,0:0:0:0:
192,351,71854,5,8,0:0:0:0:
192,351,71970,1,0,0:0:0:0:
192,351,72087,1,0,0:0:0:0:
265,310,72203,2,0,L|267:388,1,75.0000001490116,0|0,0:0|0:0,0:0:0:0:
84,235,72436,6,0,L|159:236,2,75.0000001490116,6|0|0,0:0|0:0|0:0,0:0:0:0:
10,233,72792,1,0,0:0:0:0:
10,233,72911,1,0,0:0:0:0:
55,88,73030,5,8,0:0:0:0:
194,139,73148,2,0,L|201:55,2,75.0000001490116,0|0|0,0:0|0:0|0:0,0:0:0:0:
268,123,73505,1,0,0:0:0:0:
321,334,73624,5,2,0:0:0:0:
301,262,73742,2,0,L|376:271,2,75.0000001490116,2|0|2,0:0|0:0|0:0,0:0:0:0:
167,248,74099,1,0,0:0:0:0:
42,365,74218,5,8,0:0:0:0:
42,365,74336,1,0,0:0:0:0:
42,365,74455,1,0,0:0:0:0:
117,356,74574,1,0,0:0:0:0:
72,296,74693,1,0,0:0:0:0:
155,98,74812,6,0,L|170:275,1,150.000000298023,6|0,0:0|0:0,0:0:0:0:
231,290,75175,1,8,0:0:0:0:
231,290,75296,1,8,0:0:0:0:
155,98,75418,6,0,L|64:92,2,82.5000009506941,6|0|0,0:0|0:0|0:0,0:0:0:0:
231,290,75778,1,8,0:0:0:0:
231,290,75898,1,8,0:0:0:0:
155,98,76018,6,0,L|147:0,2,90.0000036120416,6|2|0,0:0|0:0|0:0,0:0:0:0:
231,290,76372,1,8,0:0:0:0:
231,290,76490,1,8,0:0:0:0:
155,98,76609,5,14,0:0:0:0:
222,26,76727,1,0,0:0:0:0:
193,194,76846,1,0,0:0:0:0:
231,290,76965,1,2,0:0:0:0:
231,290,77084,1,2,0:0:0:0:
404,235,77203,6,0,L|482:244,2,75.0000001490116,6|0|0,0:0|0:0|0:0,0:0:0:0:
330,226,77568,1,0,0:0:0:0:
330,226,77690,1,0,0:0:0:0:
360,294,77812,5,8,0:0:0:0:
374,167,77933,2,0,L|384:88,2,75.0000001490116,0|0|0,0:0|0:0|0:0,0:0:0:0:
404,235,78299,1,0,0:0:0:0:
244,178,78421,5,2,0:0:0:0:
244,178,78543,2,0,L|156:187,1,75.0000001490116,2|0,0:0|0:0,0:0:0:0:
114,116,78786,2,0,L|189:108,1,75.0000001490116,2|0,0:0|0:0,0:0:0:0:
144,326,79030,5,8,0:0:0:0:
144,326,79150,1,0,0:0:0:0:
144,326,79270,1,0,0:0:0:0:
96,192,79390,2,0,L|92:266,1,75.0000001490116,0|0,0:0|0:0,0:0:0:0:
278,363,79630,6,0,L|353:356,2,75.0000001490116,6|0|0,0:0|0:0|0:0,0:0:0:0:
204,369,79990,1,0,0:0:0:0:
235,302,80110,1,0,0:0:0:0:
188,44,80230,5,8,0:0:0:0:
145,105,80350,1,0,0:0:0:0:
152,180,80470,1,0,0:0:0:0:
280,239,80590,1,0,0:0:0:0:
205,233,80710,1,0,0:0:0:0:
340,196,80830,5,2,0:0:0:0:
340,196,80950,1,2,0:0:0:0:
415,202,81070,1,0,0:0:0:0:
372,264,81190,1,2,0:0:0:0:
383,134,81310,1,0,0:0:0:0:
192,46,81430,5,8,0:0:0:0:
192,46,81551,1,0,0:0:0:0:
192,46,81673,1,0,0:0:0:0:
250,95,81795,2,0,L|324:88,1,75.0000001490116,0|0,0:0|0:0,0:0:0:0:
205,233,82039,6,0,L|198:323,2,75.0000001490116,6|0|0,0:0|0:0|0:0,0:0:0:0:
276,259,82404,1,0,0:0:0:0:
276,259,82526,1,0,0:0:0:0:
167,168,82648,5,8,0:0:0:0:
224,34,82764,2,0,L|215:109,2,75.0000001490116,0|0|0,0:0|0:0|0:0,0:0:0:0:
297,12,83114,1,0,0:0:0:0:
393,166,83230,5,2,0:0:0:0:
393,166,83347,2,0,L|473:160,1,75.0000001490116,2|0,0:0|0:0,0:0:0:0:
512,234,83580,2,0,L|438:239,1,75.0000001490116,2|0,0:0|0:0,0:0:0:0:
268,343,83813,5,8,0:0:0:0:
268,343,83929,1,0,0:0:0:0:
268,343,84046,1,0,0:0:0:0:
342,310,84162,2,0,L|351:392,1,75.0000001490116,0|0,0:0|0:0,0:0:0:0:
129,297,84395,6,0,L|212:307,2,75.0000001490116,6|0|0,0:0|0:0|0:0,0:0:0:0:
55,288,84762,1,0,0:0:0:0:
55,288,84884,1,0,0:0:0:0:
36,96,85007,5,8,0:0:0:0:
104,63,85127,1,0,0:0:0:0:
176,83,85247,1,0,0:0:0:0:
290,165,85367,1,0,0:0:0:0:
218,145,85487,1,0,0:0:0:0:
360,132,85607,6,0,L|462:125,1,75.0000001490116,2|2,0:0|0:0,0:0:0:0:
297,87,85857,1,8,0:0:0:0:
353,210,85982,1,10,0:0:0:0:
435,127,86107,1,2,0:0:0:0:
218,145,86232,6,0,L|123:157,1,75.0000001490116,8|0,0:0|0:0,0:0:0:0:
6,115,86474,1,2,0:0:0:0:
6,115,86595,1,2,0:0:0:0:
42,253,86716,1,0,0:0:0:0:
97,58,86838,5,6,0:0:0:0:
