osu file format v14

[General]
AudioFilename: audio.mp3
AudioLeadIn: 0
PreviewTime: 9560
Countdown: 0
SampleSet: Soft
StackLeniency: 0.3
Mode: 0
LetterboxInBreaks: 0
WidescreenStoryboard: 1

[Editor]
Bookmarks: 430,10040,29240,38830,48444,68244,86830
DistanceSpacing: 1
BeatDivisor: 5
GridSize: 8
TimelineZoom: 1.4

[Metadata]
Title:Sequence Start
TitleUnicode:Sequence Start
Artist:sungazer
ArtistUnicode:sungazer
Creator:dsco
Version:Dark Insane
Source:
Tags:experimental electronic dnb drum and bass groove time signature instrumental jazz fusion adam neely sun gazer gaze shawn crowder quintuplet
BeatmapID:1688393
BeatmapSetID:647360

[Difficulty]
HPDrainRate:4.5
CircleSize:5
OverallDifficulty:8
ApproachRate:8.8
SliderMultiplier:3.59999990463257
SliderTickRate:1

[Events]
//Background and Video events
0,0,"12.jpg",0,0
//Break Periods
2,56409,57872
//Storyboard Layer 0 (Background)
//Storyboard Layer 1 (Fail)
//Storyboard Layer 2 (Pass)
//Storyboard Layer 3 (Foreground)
//Storyboard Layer 4 (Overlay)
//Storyboard Sound Samples

[TimingPoints]
447,600,4,2,0,60,1,0
9068,606.060606060606,4,2,0,60,1,0
9675,591.133004926108,4,2,0,60,1,0
10030,600,4,2,0,60,1,0
11830,591.133004926108,4,2,0,60,1,0
12421,594.059405940594,4,2,0,60,1,0
13015,612.244897959184,4,2,0,60,1,0
13627,600,4,2,0,60,1,0
14227,582.52427184466,4,2,0,60,1,0
14809,600,4,2,0,60,1,0
16009,612.244897959184,4,2,0,60,1,0
16621,588.235294117647,4,2,0,60,1,0
17209,600,4,2,0,60,1,0
17809,603.015075376884,4,2,0,60,1,0
18532,618.556701030928,4,2,0,60,1,0
19026,597.014925373134,4,2,0,60,1,0
20220,600,4,2,0,60,1,0
22620,606.060606060606,4,2,0,60,1,0
23226,594.059405940594,4,2,0,60,1,0
23820,606.060606060606,4,2,0,60,1,0
24426,588.235294117647,4,2,0,60,1,0
25014,600,4,2,0,60,1,0
30414,612.244897959184,4,2,0,60,1,0
31026,618.556701030928,4,2,0,60,1,0
31644,594.059405940594,4,2,0,60,1,0
32238,597.014925373134,4,2,0,60,1,0
34029,612.244897959184,4,2,0,60,1,0
34641,600,4,2,0,60,1,0
36441,594.059405940594,4,2,0,60,1,0
37629,588.235294117647,4,2,0,60,1,0
38217,600,4,2,0,60,1,0
38817,603.015075376884,4,2,0,60,1,0
39420,606.060606060606,4,2,0,60,1,0
40026,612.244897959184,4,2,0,60,1,0
40638,600,4,2,0,60,1,0
41238,588.235294117647,4,2,0,60,1,0
41826,606.060606060606,4,2,0,60,1,0
43038,600,4,2,0,60,1,0
45438,588.235294117647,4,2,0,60,1,0
46026,571.428571428571,4,2,0,60,1,0
46597,594.059405940594,4,2,0,60,1,0
47191,606.060606060606,4,2,0,60,1,0
47797,606.060606060606,4,2,0,60,1,0
48403,600,4,2,0,60,1,0
49003,604.534005037783,4,2,0,60,1,0
51421,598.503740648379,4,2,0,60,1,0
53815,576.923076923077,4,2,0,60,1,0
54391,588.235294117647,4,2,0,60,1,0
54979,618.556701030928,4,2,0,60,1,0
55597,612.244897959184,4,2,0,60,1,0
56821,600,4,2,0,60,1,0
58621,612.244897959184,4,2,0,60,1,0
59845,600,4,2,0,60,1,0
60445,597.014925373134,4,2,0,60,1,0
61042,603.015075376884,4,2,0,60,1,0
61645,576.923076923077,4,2,0,60,1,0
62221,588.235294117647,4,2,0,60,1,0
62809,609.137055837563,4,2,0,60,1,0
64027,631.578947368421,4,2,0,60,1,0
64658,588.235294117647,4,2,0,60,1,0
65246,566.037735849057,4,2,0,60,1,0
65812,600,4,2,0,60,1,0
66412,612.244897959184,4,2,0,60,1,0
67636,603.015075376884,4,2,0,60,1,0
68239,-100,4,2,0,70,0,1
68842,612.244897959184,4,2,0,70,1,1
70066,600,4,2,0,70,1,1
71266,588.235294117647,4,2,0,70,1,1
71854,582.52427184466,4,2,0,70,1,1
72436,594.059405940594,4,2,0,70,1,1
73624,594.059405940594,4,2,0,70,1,1
74812,606.060606060606,4,2,0,70,1,1
75418,600,4,2,0,70,1,1
76018,591.133004926108,4,2,0,70,1,1
76609,594.059405940594,4,2,0,70,1,1
77203,609.137055837563,4,2,0,70,1,1
79030,600,4,2,0,70,1,1
81430,609.137055837563,4,2,0,70,1,1
82648,582.52427184466,4,2,0,70,1,1
84395,612.244897959184,4,2,0,70,1,1
85007,600,4,2,0,70,1,1
85607,625,4,2,0,70,1,1
86232,606.060606060606,4,2,0,70,1,1
86838,600,4,2,0,70,1,0

[Colours]
Combo1 : 230,176,79
Combo2 : 204,130,132

[HitObjects]
112,242,10030,6,0,P|87:186|113:103,1,143.999996185303,6|0,0:0|0:0,0:0:0:0:
166,66,10390,1,0,0:0:0:0:
189,71,10510,1,0,0:0:0:0:
212,76,10630,2,0,L|204:5,2,71.9999980926514,8|0|0,0:0|0:0|0:0,0:0:0:0:
222,147,10990,1,0,0:0:0:0:
429,84,11230,5,2,0:0:0:0:
382,28,11350,2,0,P|338:81|340:160,1,143.999996185303,2|2,0:0|0:0,0:0:0:0:
335,335,11830,2,0,P|335:264|291:210,1,143.999996185303,8|0,0:0|0:0,0:0:0:0:
222,189,12184,1,0,0:0:0:0:
199,194,12302,1,0,0:0:0:0:
176,199,12421,6,0,L|184:128,2,71.9999980926514,6|0|0,0:0|0:0|0:0,0:0:0:0:
112,233,12777,1,0,0:0:0:0:
89,228,12896,1,0,0:0:0:0:
66,223,13015,2,0,P|48:163|78:76,1,143.999996185303,8|0,0:0|0:0,0:0:0:0:
130,47,13382,2,0,L|210:54,1,71.9999980926514
269,28,13627,5,2,0:0:0:0:
314,83,13747,2,0,L|302:235,1,143.999996185303,2|2,0:0|0:0,0:0:0:0:
461,384,14227,2,0,L|449:240,1,143.999996185303,8|0,0:0|0:0,0:0:0:0:
505,194,14576,1,0,0:0:0:0:
323,312,14809,6,0,P|301:270|182:246,1,143.999996185303,6|0,0:0|0:0,0:0:0:0:
157,281,15169,1,0,0:0:0:0:
148,302,15289,1,0,0:0:0:0:
136,322,15409,2,0,L|-34:306,1,143.999996185303,8|0,0:0|0:0,0:0:0:0:
0,382,15769,1,0,0:0:0:0:
49,169,16009,5,2,0:0:0:0:
104,216,16131,2,0,L|274:200,1,143.999996185303,2|2,0:0|0:0,0:0:0:0:
389,40,16621,1,8,0:0:0:0:
450,76,16738,2,0,L|455:160,1,71.9999980926514
396,192,16973,1,0,0:0:0:0:
394,215,17091,1,0,0:0:0:0:
393,239,17209,6,0,L|388:323,2,71.9999980926514,6|0|0,0:0|0:0|0:0,0:0:0:0:
323,216,17569,1,0,0:0:0:0:
321,192,17689,1,0,0:0:0:0:
320,169,17809,2,0,L|315:85,2,71.9999980926514,8|0|0,0:0|0:0|0:0,0:0:0:0:
250,192,18170,2,0,P|216:207|166:195,1,71.9999980926514
122,163,18412,5,2,0:0:0:0:
53,184,18532,2,0,L|40:327,1,143.999996185303,2|2,0:0|0:0,0:0:0:0:
323,384,19026,2,0,L|310:240,1,143.999996185303,8|0,0:0|0:0,0:0:0:0:
368,196,19384,1,0,0:0:0:0:
230,346,19623,6,0,P|159:336|110:286,1,143.999996185303,6|0,0:0|0:0,0:0:0:0:
66,228,19981,1,0,0:0:0:0:
69,204,20100,1,0,0:0:0:0:
71,181,20220,2,0,L|-28:190,2,71.9999980926514,8|0|0,0:0|0:0|0:0,0:0:0:0:
143,174,20580,1,0,0:0:0:0:
349,254,20820,5,2,0:0:0:0:
399,203,20940,2,0,L|387:54,1,143.999996185303,2|2,0:0|0:0,0:0:0:0:
243,217,21420,2,0,L|231:360,1,143.999996185303,8|0,0:0|0:0,0:0:0:0:
163,384,21780,1,0,0:0:0:0:
139,381,21900,1,0,0:0:0:0:
115,379,22020,6,0,L|32:396,2,71.9999980926514,6|0|0,0:0|0:0|0:0,0:0:0:0:
137,310,22380,1,0,0:0:0:0:
150,290,22500,1,0,0:0:0:0:
156,267,22620,2,0,L|145:96,1,143.999996185303,8|0,0:0|0:0,0:0:0:0:
181,59,22983,2,0,P|213:76|261:75,1,71.9999980926514
312,44,23226,5,2,0:0:0:0:
378,70,23344,2,0,P|378:140|428:205,1,143.999996185303,2|2,0:0|0:0,0:0:0:0:
229,307,23820,2,0,P|229:237|179:172,1,143.999996185303,8|0,0:0|0:0,0:0:0:0:
117,160,24183,1,0,0:0:0:0:
274,12,24426,6,0,L|426:20,1,143.999996185303,6|0,0:0|0:0,0:0:0:0:
476,61,24778,1,0,0:0:0:0:
477,85,24896,1,0,0:0:0:0:
478,108,25014,6,0,P|431:163|448:244,1,143.999996185303,8|0,0:0|0:0,0:0:0:0:
381,273,25374,1,0,0:0:0:0:
166,244,25614,5,2,0:0:0:0:
214,190,25734,2,0,P|177:149|176:51,1,143.999996185303,2|2,0:0|0:0,0:0:0:0:
375,0,26214,2,0,P|375:70|331:126,1,143.999996185303,8|0,0:0|0:0,0:0:0:0:
297,190,26574,1,0,0:0:0:0:
340,247,26694,1,0,0:0:0:0:
301,307,26814,6,0,L|308:383,2,71.9999980926514,6|0|0,0:0|0:0|0:0,0:0:0:0:
231,289,27174,1,0,0:0:0:0:
207,292,27294,1,0,0:0:0:0:
184,295,27414,2,0,L|192:199,2,71.9999980926514,8|0|0,0:0|0:0|0:0,0:0:0:0:
115,318,27774,1,0,0:0:0:0:
91,315,27894,1,0,0:0:0:0:
68,312,28014,6,0,L|-28:320,1,71.9999980926514,2|2,0:0|0:0,0:0:0:0:
1,245,28254,1,8,0:0:0:0:
56,199,28374,2,0,L|64:106,1,71.9999980926514,10|0,0:0|0:0,0:0:0:0:
117,80,28614,6,0,P|154:111|206:108,1,71.9999980926514,8|0,0:0|0:0,0:0:0:0:
247,101,28854,1,8,0:0:0:0:
303,55,28974,2,0,P|340:24|392:27,1,71.9999980926514,8|2,0:0|0:0,0:0:0:0:
425,56,29214,6,0,L|411:209,1,143.999996185303,6|0,0:0|0:0,0:0:0:0:
470,241,29574,2,0,L|478:322,1,71.9999980926514,2|0,0:0|0:0,0:0:0:0:
414,348,29814,2,0,P|372:304|277:305,1,143.999996185303,8|0,0:0|0:0,0:0:0:0:
241,246,30174,1,0,0:0:0:0:
228,266,30294,1,0,0:0:0:0:
208,278,30414,6,0,L|35:268,1,143.999996185303,2|0,0:0|0:0,0:0:0:0:
13,218,30781,2,0,L|6:132,1,71.9999980926514,2|0,0:0|0:0,0:0:0:0:
47,85,31026,2,0,P|114:117|194:100,1,143.999996185303,8|0,0:0|0:0,0:0:0:0:
251,118,31397,1,2,0:0:0:0:
268,101,31520,1,0,0:0:0:0:
290,92,31644,6,0,L|448:97,1,143.999996185303,2|0,0:0|0:0,0:0:0:0:
491,141,32000,2,0,P|463:186|464:224,1,71.9999980926514,2|0,0:0|0:0,0:0:0:0:
427,267,32238,5,8,0:0:0:0:
403,268,32357,1,0,0:0:0:0:
379,269,32476,1,0,0:0:0:0:
355,270,32596,2,0,L|343:355,1,71.9999980926514,2|0,2:0|2:0,0:0:0:0:
277,368,32835,1,2,0:0:0:0:
254,366,32954,1,0,0:0:0:0:
230,365,33073,1,0,0:0:0:0:
205,365,33193,2,0,L|193:280,1,71.9999980926514,2|0,2:0|2:0,0:0:0:0:
134,253,33432,1,8,0:0:0:0:
111,255,33551,1,0,0:0:0:0:
87,256,33670,1,0,0:0:0:0:
62,256,33790,2,0,L|50:341,1,71.9999980926514,2|8,2:0|2:0,0:0:0:0:
4,207,34029,6,0,P|42:156|20:63,1,143.999996185303,6|0,0:0|0:0,0:0:0:0:
75,21,34396,2,0,L|157:29,1,71.9999980926514,2|0,0:0|0:0,0:0:0:0:
205,70,34641,2,0,L|390:59,1,143.999996185303,8|0,0:0|0:0,0:0:0:0:
408,102,35001,1,0,0:0:0:0:
404,125,35121,1,0,0:0:0:0:
401,149,35241,6,0,P|356:141|267:194,1,143.999996185303,2|0,0:0|0:0,0:0:0:0:
201,195,35601,2,0,P|167:224|119:226,1,71.9999980926514,2|0,0:0|0:0,0:0:0:0:
78,191,35841,2,0,L|66:32,1,143.999996185303,8|0,0:0|0:0,0:0:0:0:
128,8,36201,1,2,0:0:0:0:
151,7,36321,1,0,0:0:0:0:
175,5,36441,6,0,L|185:148,1,143.999996185303,2|0,0:0|0:0,0:0:0:0:
247,186,36797,1,2,0:0:0:0:
100,351,37035,5,8,0:0:0:0:
84,333,37153,1,0,0:0:0:0:
75,312,37272,1,0,0:0:0:0:
71,288,37391,2,0,P|81:246|104:216,1,71.9999980926514,2|8,2:0|2:0,0:0:0:0:
47,170,37629,1,2,0:0:0:0:
62,152,37746,1,0,0:0:0:0:
71,130,37864,1,0,0:0:0:0:
76,107,37981,2,0,P|66:65|43:35,1,71.9999980926514,2|0,2:0|2:0,0:0:0:0:
109,0,38217,1,8,0:0:0:0:
127,15,38337,1,0,0:0:0:0:
149,24,38457,1,0,0:0:0:0:
172,29,38577,2,0,P|214:19|244:-4,1,71.9999980926514,2|8,2:0|2:0,0:0:0:0:
307,18,38817,6,0,L|320:163,1,143.999996185303,6|0,0:0|0:0,0:0:0:0:
268,212,39178,2,0,P|261:244|231:274,1,71.9999980926514,2|0,0:0|0:0,0:0:0:0:
172,307,39420,2,0,P|132:249|49:236,1,143.999996185303,8|0,0:0|0:0,0:0:0:0:
15,178,39783,1,0,0:0:0:0:
17,154,39904,1,0,0:0:0:0:
20,130,40026,6,0,L|189:116,1,143.999996185303,2|0,2:0|2:0,0:0:0:0:
192,51,40393,2,0,L|272:57,1,71.9999980926514,2|0,0:0|0:0,0:0:0:0:
333,35,40638,2,0,P|358:113|431:152,1,143.999996185303,8|0,0:0|0:0,0:0:0:0:
446,207,40998,1,2,0:0:0:0:
469,211,41118,1,0,0:0:0:0:
492,204,41238,6,0,L|507:394,1,143.999996185303,2|0,0:0|0:0,0:0:0:0:
442,384,41590,1,2,0:0:0:0:
235,311,41826,5,8,0:0:0:0:
201,322,41947,1,0,0:0:0:0:
165,318,42068,1,0,0:0:0:0:
135,299,42189,2,0,L|128:221,1,71.9999980926514,2|0,2:0|2:0,0:0:0:0:
64,193,42432,1,2,0:0:0:0:
52,159,42553,1,0,0:0:0:0:
56,124,42674,1,0,0:0:0:0:
76,93,42795,2,0,L|154:86,1,71.9999980926514,2|0,2:0|2:0,0:0:0:0:
182,22,43038,1,8,0:0:0:0:
216,10,43158,1,0,0:0:0:0:
251,14,43278,1,0,0:0:0:0:
282,34,43398,2,0,L|289:112,1,71.9999980926514,2|8,2:0|2:0,0:0:0:0:
352,139,43638,6,0,L|342:290,1,143.999996185303,6|0,0:0|0:0,0:0:0:0:
288,330,43998,2,0,P|264:312|217:307,1,71.9999980926514,2|0,0:0|0:0,0:0:0:0:
156,279,44238,2,0,L|146:135,1,143.999996185303,8|0,0:0|0:0,0:0:0:0:
95,84,44598,1,0,0:0:0:0:
112,67,44718,1,0,0:0:0:0:
123,47,44838,6,0,P|175:15|283:46,1,143.999996185303,2|0,0:0|0:0,0:0:0:0:
327,23,45198,2,0,P|343:55|376:77,1,71.9999980926514,2|0,0:0|0:0,0:0:0:0:
444,71,45438,2,0,L|460:225,1,143.999996185303,8|0,0:0|0:0,0:0:0:0:
405,262,45790,1,2,0:0:0:0:
385,248,45908,1,0,0:0:0:0:
362,243,46026,6,0,L|249:254,1,71.9999980926514,6|0,0:0|0:0,0:0:0:0:
241,303,46254,1,0,0:0:0:0:
180,264,46368,2,0,L|67:253,1,71.9999980926514,2|0,0:0|0:0,0:0:0:0:
41,213,46597,6,0,P|73:185|86:138,1,71.9999980926514,6|0,0:0|0:0,0:0:0:0:
53,92,46834,1,0,0:0:0:0:
82,26,46953,2,0,P|114:54|127:101,1,71.9999980926514,2|0,2:0|2:0,0:0:0:0:
184,122,47191,6,0,L|193:223,1,71.9999980926514,6|0,0:0|0:0,0:0:0:0:
199,265,47433,1,0,0:0:0:0:
258,224,47554,2,0,L|345:231,1,71.9999980926514,2|0,2:0|2:0,0:0:0:0:
391,268,47797,6,0,P|433:236|443:185,1,71.9999980926514,6|0,0:0|0:0,0:0:0:0:
505,188,48039,1,0,0:0:0:0:
448,142,48160,1,2,0:0:0:0:
421,75,48281,1,8,0:0:0:0:
433,4,48403,6,0,P|378:43|284:28,1,143.999996185303,6|0,0:0|0:0,0:0:0:0:
240,72,48763,1,0,0:0:0:0:
216,69,48883,1,0,0:0:0:0:
192,66,49003,2,0,L|183:-25,2,71.9999980926514,8|0|0,0:0|0:0|0:0,0:0:0:0:
197,137,49365,1,0,0:0:0:0:
56,300,49607,5,2,0:0:0:0:
43,229,49728,2,0,L|200:245,1,143.999996185303,2|2,0:0|0:0,0:0:0:0:
297,336,50212,2,0,L|454:320,1,143.999996185303,8|0,0:0|0:0,0:0:0:0:
467,251,50574,1,0,0:0:0:0:
449,233,50695,1,0,0:0:0:0:
440,211,50816,6,0,L|529:203,2,71.9999980926514,6|0|0,0:0|0:0|0:0,0:0:0:0:
380,169,51179,1,0,0:0:0:0:
398,151,51300,1,0,0:0:0:0:
407,129,51421,2,0,L|256:116,1,143.999996185303,8|0,0:0|0:0,0:0:0:0:
205,73,51780,2,0,P|180:107|149:117,1,71.9999980926514
87,147,52019,5,2,0:0:0:0:
145,189,52139,2,0,L|158:338,1,143.999996185303,2|2,0:0|0:0,0:0:0:0:
335,382,52618,2,0,L|347:238,1,143.999996185303,8|0,0:0|0:0,0:0:0:0:
404,193,52977,1,0,0:0:0:0:
270,62,53216,6,0,P|217:104|140:104,1,143.999996185303,6|0,0:0|0:0,0:0:0:0:
81,142,53575,1,0,0:0:0:0:
97,159,53695,1,0,0:0:0:0:
102,182,53815,2,0,L|86:340,1,143.999996185303,8|0,0:0|0:0,0:0:0:0:
141,374,54161,1,0,0:0:0:0:
205,346,54276,1,0,0:0:0:0:
268,378,54391,5,0,0:0:0:0:
340,370,54508,2,0,L|412:363,1,71.9999980926514,2|0,0:0|0:0,0:0:0:0:
470,319,54743,2,0,P|435:276|433:227,1,71.9999980926514,2|0,0:0|0:0,0:0:0:0:
455,192,54979,1,8,0:0:0:0:
512,148,55102,2,0,L|505:54,1,71.9999980926514
446,35,55350,1,0,0:0:0:0:
422,34,55473,1,0,0:0:0:0:
399,32,55597,6,0,L|327:26,2,71.9999980926514,6|0|0,0:0|0:0|0:0,0:0:0:0:
421,100,55964,1,2,0:0:0:0:
366,146,56086,1,0,0:0:0:0:
394,208,56209,1,12,0:0:0:0:
100,83,58501,5,0,0:0:0:0:
163,120,58621,2,0,L|267:109,2,71.9999980926514,8|0|0,0:0|0:0|0:0,0:0:0:0:
139,188,58988,1,0,0:0:0:0:
337,278,59233,5,2,0:0:0:0:
398,239,59355,2,0,P|391:205|450:106,1,143.999996185303,2|2,0:0|0:0,0:0:0:0:
341,5,59845,2,0,P|348:39|289:138,1,143.999996185303,8|0,0:0|0:0,0:0:0:0:
235,165,60205,1,0,0:0:0:0:
212,168,60325,1,0,0:0:0:0:
188,171,60445,6,0,L|109:159,2,71.9999980926514,6|0|0,0:0|0:0|0:0,0:0:0:0:
215,238,60803,1,0,0:0:0:0:
218,261,60922,1,0,0:0:0:0:
221,285,61042,2,0,P|289:319|375:292,1,143.999996185303,8|0,0:0|0:0,0:0:0:0:
425,317,61403,2,0,L|434:231,1,71.9999980926514
499,218,61645,5,2,0:0:0:0:
444,170,61760,2,0,L|460:24,1,143.999996185303,2|2,0:0|0:0,0:0:0:0:
251,63,62221,2,0,L|266:206,1,143.999996185303,8|0,0:0|0:0,0:0:0:0:
329,242,62573,1,0,0:0:0:0:
276,291,62691,1,0,0:0:0:0:
213,255,62809,6,0,P|166:219|78:215,1,143.999996185303,6|0,0:0|0:0,0:0:0:0:
19,181,63174,1,0,0:0:0:0:
15,157,63296,1,0,0:0:0:0:
11,134,63418,2,0,P|81:132|140:92,1,143.999996185303,8|0,0:0|0:0,0:0:0:0:
180,31,63783,1,0,0:0:0:0:
238,73,63905,1,0,0:0:0:0:
296,114,64027,6,0,L|382:103,2,71.9999980926514,2|0|0,0:0|0:0|0:0,0:0:0:0:
248,169,64405,1,2,0:0:0:0:
245,192,64532,1,0,0:0:0:0:
242,216,64658,2,0,L|151:231,2,71.9999980926514,8|0|0,0:0|0:0|0:0,0:0:0:0:
296,263,65010,1,0,0:0:0:0:
361,234,65128,1,0,0:0:0:0:
426,263,65246,5,6,0:0:0:0:
256,192,65359,12,0,66172,0:0:0:0:
426,263,66412,5,2,0:0:0:0:
363,227,66534,1,2,0:0:0:0:
301,263,66656,2,0,L|217:268,1,71.9999980926514,0|2,0:0|0:0,0:0:0:0:
179,320,66901,1,0,0:0:0:0:
116,284,67024,1,8,0:0:0:0:
54,247,67146,2,0,L|62:165,1,71.9999980926514
0,134,67391,2,0,L|8:52,1,71.9999980926514
57,9,67636,1,0,0:0:0:0:
57,9,68239,6,0,L|-36:15,2,71.9999980926514,12|0|0,0:0|0:0|0:0,0:0:0:0:
120,42,68600,2,0,L|191:37,1,71.9999980926514,2|0,0:0|0:0,0:0:0:0:
321,11,68842,6,0,P|302:96|343:156,1,143.999996185303,2|0,0:0|0:0,0:0:0:0:
389,179,69209,1,2,0:0:0:0:
349,239,69331,1,0,0:0:0:0:
392,296,69454,2,0,P|321:280|259:323,1,143.999996185303,8|0,0:0|0:0,0:0:0:0:
194,294,69821,1,0,0:0:0:0:
173,305,69944,1,0,0:0:0:0:
150,310,70066,6,0,L|134:426,2,71.9999980926514,6|0|0,0:0|0:0|0:0,0:0:0:0:
88,270,70426,1,0,0:0:0:0:
84,246,70546,1,0,0:0:0:0:
81,222,70666,2,0,P|118:187|121:69,1,143.999996185303,8|0,0:0|0:0,0:0:0:0:
177,41,71026,2,0,L|268:27,1,71.9999980926514
318,48,71266,5,2,0:0:0:0:
269,101,71383,2,0,L|246:244,1,143.999996185303,2|2,0:0|0:0,0:0:0:0:
466,369,71854,2,0,L|444:226,1,143.999996185303,8|0,0:0|0:0,0:0:0:0:
489,169,72203,1,0,0:0:0:0:
304,307,72436,6,0,P|241:273|171:283,1,143.999996185303,6|0,0:0|0:0,0:0:0:0:
104,255,72792,1,0,0:0:0:0:
101,231,72911,1,0,0:0:0:0:
98,207,73030,2,0,L|112:42,1,143.999996185303,8|0,0:0|0:0,0:0:0:0:
50,22,73386,1,0,0:0:0:0:
265,64,73624,6,0,L|355:56,1,71.9999980926514,2|2,0:0|0:0,0:0:0:0:
397,95,73861,1,0,0:0:0:0:
469,88,73980,2,0,L|478:174,1,71.9999980926514,2|0,0:0|0:0,0:0:0:0:
427,275,74218,6,0,L|420:204,1,71.9999980926514,8|0,0:0|0:0,0:0:0:0:
348,212,74455,1,0,0:0:0:0:
327,280,74574,1,0,0:0:0:0:
267,321,74693,1,0,0:0:0:0:
196,333,74812,6,0,P|143:294|38:322,1,143.999996185303,6|0,0:0|0:0,0:0:0:0:
6,262,75175,1,8,0:0:0:0:
10,190,75296,1,8,0:0:0:0:
15,118,75418,2,0,P|85:125|142:84,1,143.999996185303,6|0,0:0|0:0,0:0:0:0:
160,16,75778,1,8,0:0:0:0:
214,63,75898,1,8,0:0:0:0:
285,77,76018,6,0,L|459:64,1,143.999996185303,6|0,0:0|0:0,0:0:0:0:
490,102,76372,1,8,0:0:0:0:
484,173,76490,1,8,0:0:0:0:
479,245,76609,2,0,L|491:338,2,71.9999980926514,14|0|0,0:0|0:0|0:0,0:0:0:0:
333,178,76965,1,2,0:0:0:0:
264,158,77084,1,2,0:0:0:0:
280,230,77203,6,0,P|207:263|132:251,1,143.999996185303,6|0,0:0|0:0,0:0:0:0:
74,270,77568,1,0,0:0:0:0:
69,246,77690,1,0,0:0:0:0:
65,223,77812,2,0,L|-12:208,2,71.9999980926514,8|0|0,0:0|0:0|0:0,0:0:0:0:
125,184,78177,1,0,0:0:0:0:
77,378,78421,5,2,0:0:0:0:
134,334,78543,2,0,L|278:320,1,143.999996185303,2|2,0:0|0:0,0:0:0:0:
462,204,79030,2,0,L|349:193,1,71.9999980926514,8|0,0:0|0:0,0:0:0:0:
319,190,79270,1,0,0:0:0:0:
259,229,79390,2,0,P|232:195|166:194,1,71.9999980926514
152,137,79630,6,0,L|80:141,2,71.9999980926514,6|0|0,0:0|0:0|0:0,0:0:0:0:
202,85,79990,1,0,0:0:0:0:
225,83,80110,1,0,0:0:0:0:
249,81,80230,2,0,L|253:9,2,71.9999980926514,8|0|0,0:0|0:0|0:0,0:0:0:0:
307,124,80590,1,0,0:0:0:0:
208,357,80830,5,2,0:0:0:0:
153,309,80950,2,0,L|144:224,1,71.9999980926514,2|0,0:0|0:0,0:0:0:0:
84,198,81190,1,2,0:0:0:0:
91,127,81310,1,0,0:0:0:0:
152,165,81430,2,0,P|225:174|285:129,1,143.999996185303,8|0,0:0|0:0,0:0:0:0:
350,118,81795,1,0,0:0:0:0:
476,304,82039,6,0,L|462:147,1,143.999996185303,6|0,0:0|0:0,0:0:0:0:
497,96,82404,1,0,0:0:0:0:
495,72,82526,1,0,0:0:0:0:
493,48,82648,2,0,L|349:35,1,143.999996185303,8|0,0:0|0:0,0:0:0:0:
294,82,82997,1,0,0:0:0:0:
340,288,83230,5,2,0:0:0:0:
315,220,83347,2,0,P|250:234|170:170,1,143.999996185303,2|2,0:0|0:0,0:0:0:0:
29,363,83813,1,8,0:0:0:0:
83,315,83929,2,0,L|161:324,1,71.9999980926514
213,364,84162,1,0,0:0:0:0:
236,361,84279,1,0,0:0:0:0:
260,358,84395,6,0,L|338:367,2,71.9999980926514,6|0|0,0:0|0:0|0:0,0:0:0:0:
240,288,84762,1,0,0:0:0:0:
237,264,84884,1,0,0:0:0:0:
234,240,85007,2,0,L|156:231,1,71.9999980926514,8|0,0:0|0:0,0:0:0:0:
98,199,85247,1,0,0:0:0:0:
160,162,85367,1,0,0:0:0:0:
100,122,85487,1,0,0:0:0:0:
164,90,85607,6,0,P|198:82|226:59,1,71.9999980926514,2|2,0:0|0:0,0:0:0:0:
403,71,85857,1,8,0:0:0:0:
297,64,85982,1,10,0:0:0:0:
352,16,86107,1,2,0:0:0:0:
345,118,86232,2,0,L|352:199,1,71.9999980926514,8|0,0:0|0:0,0:0:0:0:
308,248,86474,1,2,0:0:0:0:
247,208,86595,2,0,L|166:201,1,71.9999980926514,2|0,0:0|0:0,0:0:0:0:
407,241,86838,5,6,0:0:0:0:
