osu file format v14

[General]
AudioFilename: audio.mp3
AudioLeadIn: 0
PreviewTime: 9560
Countdown: 0
SampleSet: Soft
StackLeniency: 0.6
Mode: 0
LetterboxInBreaks: 0
WidescreenStoryboard: 1

[Editor]
Bookmarks: 430,10030,29240,38830,48444,58644,68230,86830
DistanceSpacing: 1.3
BeatDivisor: 5
GridSize: 4
TimelineZoom: 1.4

[Metadata]
Title:Sequence Start
TitleUnicode:Sequence Start
Artist:sungazer
ArtistUnicode:sungazer
Creator:dsco
Version:Advanced
Source:
Tags:experimental electronic dnb drum and bass groove time signature instrumental jazz fusion adam neely sun gazer gaze shawn crowder quintuplet
BeatmapID:1688394
BeatmapSetID:647360

[Difficulty]
HPDrainRate:3
CircleSize:3
OverallDifficulty:3.5
ApproachRate:6
SliderMultiplier:1.6
SliderTickRate:1

[Events]
//Background and Video events
0,0,"12.jpg",0,0
//Break Periods
2,66012,67189
//Storyboard Layer 0 (Background)
//Storyboard Layer 1 (Fail)
//Storyboard Layer 2 (Pass)
//Storyboard Layer 3 (Foreground)
//Storyboard Layer 4 (Overlay)
//Storyboard Sound Samples

[TimingPoints]
447,600,4,2,0,60,1,0
9068,606.060606060606,4,2,0,60,1,0
9675,591.133004926108,4,2,0,60,1,0
10030,600,4,2,0,60,1,0
11830,591.133004926108,4,2,0,60,1,0
12421,594.059405940594,4,2,0,60,1,0
13015,612.244897959184,4,2,0,60,1,0
13627,600,4,2,0,60,1,0
14227,582.52427184466,4,2,0,60,1,0
14809,600,4,2,0,60,1,0
16009,612.244897959184,4,2,0,60,1,0
16621,588.235294117647,4,2,0,60,1,0
17209,600,4,2,0,60,1,0
17809,603.015075376884,4,2,0,60,1,0
18532,618.556701030928,4,2,0,60,1,0
19026,597.014925373134,4,2,0,60,1,0
20220,600,4,2,0,60,1,0
22620,606.060606060606,4,2,0,60,1,0
23226,594.059405940594,4,2,0,60,1,0
23820,606.060606060606,4,2,0,60,1,0
24426,588.235294117647,4,2,0,60,1,0
25014,600,4,2,0,60,1,0
30414,612.244897959184,4,2,0,60,1,0
31026,618.556701030928,4,2,0,60,1,0
31644,594.059405940594,4,2,0,60,1,0
32238,597.014925373134,4,2,0,60,1,0
34029,612.244897959184,4,2,0,60,1,0
34641,600,4,2,0,60,1,0
36441,594.059405940594,4,2,0,60,1,0
37629,588.235294117647,4,2,0,60,1,0
38217,600,4,2,0,60,1,0
38817,603.015075376884,4,2,0,60,1,0
39420,606.060606060606,4,2,0,60,1,0
40026,612.244897959184,4,2,0,60,1,0
40638,600,4,2,0,60,1,0
41238,588.235294117647,4,2,0,60,1,0
41826,606.060606060606,4,2,0,60,1,0
43038,600,4,2,0,60,1,0
45438,588.235294117647,4,2,0,60,1,0
46026,571.428571428571,4,2,0,60,1,0
46597,594.059405940594,4,2,0,60,1,0
47191,606.060606060606,4,2,0,60,1,0
47797,606.060606060606,4,2,0,60,1,0
48403,600,4,2,0,60,1,0
49003,604.534005037783,4,2,0,60,1,0
51421,598.503740648379,4,2,0,60,1,0
53815,576.923076923077,4,2,0,60,1,0
54391,588.235294117647,4,2,0,60,1,0
54979,618.556701030928,4,2,0,60,1,0
55597,612.244897959184,4,2,0,60,1,0
56821,600,4,2,0,60,1,0
58621,612.244897959184,4,2,0,60,1,0
59845,600,4,2,0,60,1,0
60445,597.014925373134,4,2,0,60,1,0
61042,603.015075376884,4,2,0,60,1,0
61645,576.923076923077,4,2,0,60,1,0
62221,588.235294117647,4,2,0,60,1,0
62809,609.137055837563,4,2,0,60,1,0
64027,631.578947368421,4,2,0,60,1,0
64658,588.235294117647,4,2,0,60,1,0
65246,566.037735849057,4,2,0,60,1,0
65812,600,4,2,0,60,1,0
66412,612.244897959184,4,2,0,60,1,0
67636,603.015075376884,4,2,0,60,1,0
68239,-100,4,2,0,70,0,1
68842,612.244897959184,4,2,0,70,1,1
70066,600,4,2,0,70,1,1
71266,588.235294117647,4,2,0,70,1,1
71854,582.52427184466,4,2,0,70,1,1
72436,594.059405940594,4,2,0,70,1,1
73624,594.059405940594,4,2,0,70,1,1
74812,606.060606060606,4,2,0,70,1,1
75418,600,4,2,0,70,1,1
76018,591.133004926108,4,2,0,70,1,1
76609,594.059405940594,4,2,0,70,1,1
77203,609.137055837563,4,2,0,70,1,1
79030,600,4,2,0,70,1,1
81430,609.137055837563,4,2,0,70,1,1
82648,582.52427184466,4,2,0,70,1,1
84395,612.244897959184,4,2,0,70,1,1
85007,600,4,2,0,70,1,1
85607,625,4,2,0,70,1,1
86232,606.060606060606,4,2,0,70,1,1
86838,600,4,2,0,70,1,0

[Colours]
Combo1 : 230,176,79
Combo2 : 204,130,132

[HitObjects]
349,376,10030,6,0,P|335:323|350:262,1,96.0000014305113,6|0,0:0|0:0,0:0:0:0:
414,243,10630,2,0,P|419:195|405:149,1,96.0000014305113,8|0,0:0|0:0,0:0:0:0:
332,110,11230,5,2,0:0:0:0:
306,109,11350,2,0,L|242:104,1,64.0000009536742,2|2,0:0|0:0,0:0:0:0:
160,97,11830,2,0,B|141:124|141:124|149:198,1,96.0000014305113,8|0,0:0|0:0,0:0:0:0:
101,255,12421,6,0,L|88:364,1,96,6|0,0:0|0:0,0:0:0:0:
169,359,13015,2,0,L|180:263,1,96,8|0,0:0|0:0,0:0:0:0:
148,187,13627,1,2,0:0:0:0:
152,166,13747,1,2,0:0:0:0:
226,128,13987,1,2,0:0:0:0:
294,174,14227,2,0,P|350:183|410:165,1,96.0000014305113,8|0,0:0|0:0,0:0:0:0:
462,213,14809,6,0,L|457:308,1,96.0000014305113,6|0,0:0|0:0,0:0:0:0:
395,364,15409,2,0,B|370:379|370:379|295:372,1,96.0000014305113,8|0,0:0|0:0,0:0:0:0:
220,362,16009,5,2,0:0:0:0:
201,341,16131,2,0,L|125:347,2,64.0000009536742,2|2|8,0:0|0:0|0:0,0:0:0:0:
225,218,16973,1,0,0:0:0:0:
298,256,17209,6,0,P|362:266|418:246,1,96.0000014305113,6|0,0:0|0:0,0:0:0:0:
389,175,17809,2,0,P|325:165|269:185,1,96.0000014305113,8|0,0:0|0:0,0:0:0:0:
225,217,18412,5,2,0:0:0:0:
213,241,18532,2,0,L|121:235,2,64.0000009536742,2|2|8,0:0|0:0|0:0,0:0:0:0:
311,317,19384,1,0,0:0:0:0:
380,360,19623,6,0,P|392:314|371:261,1,96.0000014305113,6|0,0:0|0:0,0:0:0:0:
302,232,20220,2,0,P|287:187|299:141,1,96.0000014305113,8|0,0:0|0:0,0:0:0:0:
257,68,20820,5,2,0:0:0:0:
236,83,20940,2,0,L|148:77,1,64.0000009536742,2|2,0:0|0:0,0:0:0:0:
89,71,21420,2,0,B|72:117|72:117|84:172,1,96.0000014305113,8|0,0:0|0:0,0:0:0:0:
5,193,22020,6,0,P|63:243|101:244,1,96,6|0,0:0|0:0,0:0:0:0:
153,208,22620,2,0,P|211:157|248:157,1,96,8|0,0:0|0:0,0:0:0:0:
306,187,23226,1,2,0:0:0:0:
311,210,23344,1,2,0:0:0:0:
267,281,23582,1,2,0:0:0:0:
342,329,23820,2,0,P|383:306|406:264,1,96.0000014305113,8|0,0:0|0:0,0:0:0:0:
462,202,24426,6,0,L|469:78,1,96.0000014305113,6|0,0:0|0:0,0:0:0:0:
387,83,25014,2,0,L|381:178,1,96.0000014305113,8|0,0:0|0:0,0:0:0:0:
314,228,25614,5,2,0:0:0:0:
331,247,25734,2,0,L|340:322,2,64.0000009536742,2|2|8,0:0|0:0|0:0,0:0:0:0:
209,218,26574,1,0,0:0:0:0:
137,261,26814,6,0,B|89:269|89:269|23:252,1,96.0000014305113,6|0,0:0|0:0,0:0:0:0:
43,173,27414,2,0,B|91:165|91:165|157:182,1,96.0000014305113,8|0,0:0|0:0,0:0:0:0:
209,218,28014,5,2,0:0:0:0:
282,179,28254,2,0,L|283:134,1,32.0000004768371,8|10,0:0|0:0,0:0:0:0:
355,106,28614,1,8,0:0:0:0:
428,145,28854,2,0,L|429:190,1,32.0000004768371,8|8,0:0|0:0,0:0:0:0:
484,238,29214,6,0,P|498:294|478:343,1,96.0000014305113,6|2,0:0|0:0,0:0:0:0:
419,378,29814,2,0,P|405:322|425:273,1,96.0000014305113,8|0,0:0|0:0,0:0:0:0:
358,226,30414,6,0,L|241:215,1,96.0000014305113,2|2,0:0|0:0,0:0:0:0:
253,134,31026,2,0,L|348:142,1,96.0000014305113,8|2,0:0|0:0,0:0:0:0:
430,154,31644,2,0,P|445:121|442:74,1,64.0000009536742,2|0,0:0|0:0,0:0:0:0:
439,69,32000,1,2,0:0:0:0:
377,13,32238,5,8,0:0:0:0:
252,5,32596,1,2,2:0:0:0:
281,82,32835,1,2,0:0:0:0:
156,74,33193,1,2,2:0:0:0:
194,147,33432,1,8,0:0:0:0:
71,139,33790,1,2,2:0:0:0:
6,191,34029,6,0,P|-8:247|12:296,1,96.0000014305113,6|2,0:0|0:0,0:0:0:0:
71,331,34641,2,0,P|85:275|65:226,1,96.0000014305113,8|0,0:0|0:0,0:0:0:0:
128,175,35241,6,0,L|133:74,1,96.0000014305113,2|2,0:0|0:0,0:0:0:0:
214,63,35841,2,0,L|209:158,1,96.0000014305113,8|2,0:0|0:0,0:0:0:0:
254,228,36441,2,0,L|258:313,1,64.0000009536742,2|0,0:0|0:0,0:0:0:0:
259,317,36797,1,2,0:0:0:0:
329,361,37035,5,8,0:0:0:0:
453,368,37391,1,2,2:0:0:0:
435,286,37629,1,2,0:0:0:0:
311,279,37981,1,2,2:0:0:0:
351,206,38217,1,8,0:0:0:0:
475,213,38577,1,2,2:0:0:0:
493,132,38817,6,0,P|504:85|489:40,1,96.0000014305113,6|2,0:0|0:0,0:0:0:0:
418,0,39420,2,0,P|406:46|421:91,1,96.0000014305113,8|0,0:0|0:0,0:0:0:0:
340,112,40026,6,0,L|219:105,1,96.0000014305113,2|2,2:0|0:0,0:0:0:0:
214,184,40638,2,0,L|309:189,1,96.0000014305113,8|2,0:0|0:0,0:0:0:0:
393,193,41238,2,0,P|405:230|399:259,1,64.0000009536742,2|0,0:0|0:0,0:0:0:0:
391,278,41590,1,2,0:0:0:0:
342,345,41826,5,8,0:0:0:0:
218,362,42189,1,2,2:0:0:0:
202,280,42432,1,2,0:0:0:0:
78,297,42795,1,2,2:0:0:0:
8,251,43038,1,8,0:0:0:0:
25,127,43398,1,2,2:0:0:0:
93,79,43638,6,0,L|188:74,1,96.0000014305113,6|2,0:0|0:0,0:0:0:0:
208,156,44238,2,0,L|112:160,1,96.0000014305113,8|0,0:0|0:0,0:0:0:0:
109,243,44838,6,0,P|123:287|111:333,1,96.0000014305113,2|2,0:0|0:0,0:0:0:0:
41,293,45438,2,0,P|26:247|37:201,1,96,8|2,0:0|0:0,0:0:0:0:
112,160,46026,6,0,B|122:130|122:130|118:91,1,64.0000009536742,6|0,0:0|0:0,0:0:0:0:
116,72,46368,1,2,0:0:0:0:
170,8,46597,2,0,L|275:4,1,96,6|2,0:0|2:0,0:0:0:0:
333,52,47191,2,0,L|438:48,1,96,6|2,0:0|2:0,0:0:0:0:
499,92,47797,1,6,0:0:0:0:
501,216,48160,1,2,0:0:0:0:
422,247,48403,6,0,L|325:242,1,96.0000014305113,6|0,0:0|0:0,0:0:0:0:
272,306,49003,2,0,L|175:301,1,96.0000014305113,8|0,0:0|0:0,0:0:0:0:
92,294,49607,5,2,0:0:0:0:
66,292,49728,2,0,B|53:263|53:263|58:229,1,64.0000009536742,2|2,0:0|0:0,0:0:0:0:
130,190,50212,2,0,L|142:94,1,96.0000014305113,8|0,0:0|0:0,0:0:0:0:
216,55,50816,6,0,B|248:43|248:43|334:48,1,96,6|0,0:0|0:0,0:0:0:0:
351,119,51421,2,0,B|319:131|319:131|233:126,1,96,8|0,0:0|0:0,0:0:0:0:
216,55,52019,1,2,0:0:0:0:
191,59,52139,1,2,0:0:0:0:
147,129,52378,1,2,0:0:0:0:
191,203,52618,2,0,P|205:249|191:296,1,96.0000014305113,8|0,0:0|0:0,0:0:0:0:
264,336,53216,6,0,L|371:332,1,96.0000014305113,6|0,0:0|0:0,0:0:0:0:
436,368,53815,2,0,B|450:339|450:339|443:269,1,96.0000014305113,8|0,0:0|0:0,0:0:0:0:
373,230,54391,2,0,B|366:166|366:166|380:137,1,96.0000014305113,2|2,0:0|0:0,0:0:0:0:
333,68,54979,2,0,L|237:71,1,96.0000014305113,8|0,0:0|0:0,0:0:0:0:
185,137,55597,5,6,0:0:0:0:
159,137,55719,2,0,L|95:133,1,64.0000009536742,2|0,0:0|0:0,0:0:0:0:
48,202,56209,1,12,0:0:0:0:
256,192,56454,12,0,58381,0:0:0:0:
375,245,58621,6,0,P|390:210|375:130,1,96.0000014305113,8|0,0:0|0:0,0:0:0:0:
313,113,59233,1,2,0:0:0:0:
294,130,59355,2,0,L|209:125,1,64.0000009536742,2|2,0:0|0:0,0:0:0:0:
146,121,59845,2,0,B|129:147|129:147|137:235,1,96.0000014305113,8|0,0:0|0:0,0:0:0:0:
88,281,60445,6,0,P|133:296|197:269,1,96.0000014305113,6|0,0:0|0:0,0:0:0:0:
243,231,61042,2,0,P|288:219|333:234,1,96.0000014305113,8|0,0:0|0:0,0:0:0:0:
401,184,61645,5,2,0:0:0:0:
415,163,61760,2,0,L|491:168,2,64.0000009536742,2|2|8,0:0|0:0|0:0,0:0:0:0:
327,73,62573,1,0,0:0:0:0:
256,28,62809,6,0,L|135:20,1,96.0000014305113,6|0,0:0|0:0,0:0:0:0:
76,15,63418,2,0,P|63:63|73:120,1,96.0000014305113,8|0,0:0|0:0,0:0:0:0:
122,189,64027,5,2,0:0:0:0:
109,211,64153,2,0,L|192:207,1,64.0000009536742,2|0,0:0|0:0,0:0:0:0:
248,242,64658,2,0,L|343:235,1,96.0000014305113,8|0,0:0|0:0,0:0:0:0:
426,226,65246,6,0,P|448:182|422:89,1,128.000001907348,6|0,0:0|0:0,0:0:0:0:
418,89,65812,1,8,0:0:0:0:
299,244,68239,6,0,B|270:257|270:257|137:248,1,160.000002384186,12|2,0:0|0:0,0:0:0:0:
83,137,69209,1,2,0:0:0:0:
132,70,69454,2,0,L|234:77,1,96.0000014305113,8|0,0:0|0:0,0:0:0:0:
296,123,70066,6,0,L|471:118,2,160.000002384186,6|8|2,0:0|0:0|0:0,0:0:0:0:
282,145,71383,1,2,0:0:0:0:
247,221,71618,1,2,0:0:0:0:
203,291,71854,2,0,P|154:301|100:285,1,96.0000014305113,8|0,0:0|0:0,0:0:0:0:
29,314,72436,6,0,B|15:283|15:283|24:199,1,96.0000014305113,6|0,0:0|0:0,0:0:0:0:
92,178,73030,2,0,L|101:82,1,96.0000014305113,8|0,0:0|0:0,0:0:0:0:
167,31,73624,6,0,L|239:35,1,64.0000009536742,2|0,0:0|0:0,0:0:0:0:
256,36,73980,1,2,0:0:0:0:
297,108,74218,2,0,L|407:116,1,96.0000014305113,8|0,0:0|0:0,0:0:0:0:
438,184,74812,6,0,B|450:216|450:216|437:305,1,96.0000014305113,6|8,0:0|0:0,0:0:0:0:
358,286,75418,2,0,B|366:224|366:224|354:192,1,96.0000014305113,6|8,0:0|0:0,0:0:0:0:
270,200,76018,5,6,0:0:0:0:
270,324,76372,1,8,0:0:0:0:
187,332,76609,1,14,0:0:0:0:
187,208,76965,1,2,0:0:0:0:
125,152,77203,6,0,P|110:92|126:38,1,96.0000014305113,6|0,0:0|0:0,0:0:0:0:
194,31,77812,2,0,L|309:38,1,96.0000014305113,8|0,0:0|0:0,0:0:0:0:
339,104,78421,5,2,0:0:0:0:
321,132,78543,2,0,L|228:127,1,64.0000009536742,2|2,0:0|0:0,0:0:0:0:
203,192,79030,2,0,B|192:224|192:224|198:273,1,64,8|0,0:0|0:0,0:0:0:0:
201,279,79390,1,0,0:0:0:0:
252,344,79630,6,0,P|320:366|426:333,1,160,6|8,0:0|0:0,0:0:0:0:
444,237,80590,1,0,0:0:0:0:
387,175,80830,6,0,B|368:148|368:148|372:79,1,96.0000014305113,2|2,0:0|0:0,0:0:0:0:
323,17,81430,2,0,P|251:7|200:17,1,96.0000014305113,8|0,0:0|0:0,0:0:0:0:
178,76,82039,6,0,P|106:86|55:76,1,96.0000014305113,6|0,0:0|0:0,0:0:0:0:
9,121,82648,2,0,B|-2:153|-2:153|6:242,1,96.0000014305113,8|0,0:0|0:0,0:0:0:0:
67,268,83230,5,2,0:0:0:0:
70,293,83347,2,0,L|77:365,2,64.0000009536742,2|2|8,0:0|0:0|0:0,0:0:0:0:
188,252,84162,1,0,0:0:0:0:
247,312,84395,6,0,P|295:322|358:308,1,96.0000014305113,6|0,0:0|0:0,0:0:0:0:
344,231,85007,2,0,P|296:221|233:235,1,96.0000014305113,8|0,0:0|0:0,0:0:0:0:
177,268,85607,5,2,0:0:0:0:
117,209,85857,2,0,L|120:167,1,32.0000004768371,8|10,0:0|0:0,0:0:0:0:
196,145,86232,1,8,0:0:0:0:
272,111,86474,2,0,L|275:69,1,32.0000004768371,2|2,0:0|0:0,0:0:0:0:
208,28,86838,5,6,0:0:0:0:
