osu file format v14

[General]
AudioFilename: audio.mp3
AudioLeadIn: 0
PreviewTime: 21381
Countdown: 0
SampleSet: Soft
StackLeniency: 0.7
Mode: 3
LetterboxInBreaks: 0
SpecialStyle: 0
WidescreenStoryboard: 1

[Editor]
DistanceSpacing: 0.8
BeatDivisor: 8
GridSize: 8
TimelineZoom: 3.039999

[Metadata]
Title:I Walk Alone (feat. Justina Soto)
TitleUnicode:I Walk Alone (feat. Justina Soto)
Artist:sungazer
ArtistUnicode:sungazer
Creator:Nivrad00
Version:Extra
Source:
Tags:adam neely shawn crowder
BeatmapID:1932293
BeatmapSetID:925020

[Difficulty]
HPDrainRate:8
CircleSize:7
OverallDifficulty:8
ApproachRate:5
SliderMultiplier:1.4
SliderTickRate:1

[Events]
//Background and Video events
0,0,"sungazer.png",0,0
//Break Periods
//Storyboard Layer 0 (Background)
//Storyboard Layer 1 (Fail)
//Storyboard Layer 2 (Pass)
//Storyboard Layer 3 (Foreground)
//Storyboard Sound Samples

[TimingPoints]
48,333.333333333333,4,2,0,0,1,0
21381,-66.6666666666667,4,2,0,0,0,1
21464,-100,4,2,0,0,0,1
21547,-142.857142857143,4,2,0,0,0,1
21631,-100,4,2,0,0,0,1
21714,-83.3333333333333,4,2,0,0,0,1
21797,-111.111111111111,4,2,0,0,0,1
21881,-142.857142857143,4,2,0,0,0,1
21964,-166.666666666667,4,2,0,0,0,1
22422,-125,4,2,0,0,0,1
22547,-100,4,2,0,0,0,1
22714,-83.3333333333333,4,2,0,0,0,1
22797,-111.111111111111,4,2,0,0,0,1
22880,-142.857142857143,4,2,0,0,0,1
22964,-100,4,2,0,0,0,1
23047,-83.3333333333333,4,2,0,0,0,1
23130,-111.111111111111,4,2,0,0,0,1
23214,-142.857142857143,4,2,0,0,0,1
23297,-166.666666666667,4,2,0,0,0,1
23547,-66.6666666666667,4,2,0,0,0,1
23589,-333.333333333333,4,2,0,0,0,1
23714,-45.4545454545455,4,2,0,0,0,1
23756,-333.333333333333,4,2,0,0,0,1
23881,-33.3333333333333,4,2,0,0,0,1
23922,-333.333333333334,4,2,0,0,0,1
24047,-76.9230769230769,4,2,0,0,0,1
24131,-100,4,2,0,0,0,1
24214,-142.857142857143,4,2,0,0,0,1
24381,-100,4,2,0,0,0,1
24547,-76.9230769230769,4,2,0,0,0,1
24631,-100,4,2,0,0,0,1
24714,-142.857142857143,4,2,0,0,0,1
24881,-100,4,2,0,0,0,1
24964,-76.9230769230769,4,2,0,0,0,1
25131,-100,4,2,0,0,0,1
25214,-142.857142857143,4,2,0,0,0,1
25381,-40,4,2,0,0,0,1
25422,-200,4,2,0,0,0,1
25547,-40,4,2,0,0,0,1
25589,-200,4,2,0,0,0,1
25714,-100,4,2,0,0,0,1
25881,-33.3333333333333,4,2,0,0,0,1
25902,-200,4,2,0,0,0,1
26047,-20,4,2,0,0,0,1
26069,-200,4,2,0,0,0,1
26214,-20,4,2,0,0,0,1
26236,-200,4,2,0,0,0,1
26381,-25,4,2,0,0,0,1
26402,-100,4,2,0,0,0,1
26464,-200,4,2,0,0,0,1
26547,-125,4,2,0,0,0,1
26631,-83.3333333333333,4,2,0,0,0,1
26714,-83.3333333333333,4,2,0,0,0,1
26797,-100,4,2,0,0,0,1
26881,-125,4,2,0,0,0,1
26964,-200,4,2,0,0,0,1
27047,-125,4,2,0,0,0,1
27131,-100,4,2,0,0,0,1
27214,-83.3333333333333,4,2,0,0,0,1
27297,-100,4,2,0,0,0,1
27381,-125,4,2,0,0,0,1
27464,-200,4,2,0,0,0,1
27547,-125,4,2,0,0,0,1
27631,-100,4,2,0,0,0,1
27714,-66.6666666666667,4,2,0,0,0,1
27797,-200,4,2,0,0,0,1
27881,-66.6666666666667,4,2,0,0,0,1
27964,-200,4,2,0,0,0,1
28047,-66.6666666666667,4,2,0,0,0,1
28131,-200,4,2,0,0,0,1
28297,-66.6666666666667,4,2,0,0,0,1
28381,-100,4,2,0,0,0,1
28464,-200,4,2,0,0,0,1
28547,-100,4,2,0,0,0,1
28631,-71.4285714285714,4,2,0,0,0,1
28714,-99.9999999999999,4,2,0,0,0,1
28797,-142.857142857143,4,2,0,0,0,1
28881,-200,4,2,0,0,0,1
28964,-100,4,2,0,0,0,1
29047,-66.6666666666667,4,2,0,0,0,1
29131,-200,4,2,0,0,0,1
29214,-125,4,2,0,0,0,1
29297,-83.3333333333333,4,2,0,0,0,1
29381,-66.6666666666667,4,2,0,0,0,1
29464,-111.111111111111,4,2,0,0,0,1
29547,-200,4,2,0,0,0,1
29798,-66.6666666666667,4,2,0,0,0,1
29881,-111.111111111111,4,2,0,0,0,1
29964,-200,4,2,0,0,0,1
30214,-66.6666666666667,4,2,0,0,0,1
30297,-100,4,2,0,0,0,1
30381,-200,4,2,0,0,0,1
30547,-66.6666666666667,4,2,0,0,0,1
30631,-100,4,2,0,0,0,1
30714,-28.5714285714286,4,2,0,0,0,1
30756,-100,4,2,0,0,0,1
30797,-200,4,2,0,0,0,1
30964,-28.5714285714286,4,2,0,0,0,1
31006,-100,4,2,0,0,0,1
31047,-200,4,2,0,0,0,1
31214,-20,4,2,0,0,0,1
31234,-500,4,2,0,0,0,1
31339,-20,4,2,0,0,0,1
31359,-500,4,2,0,0,0,1
31464,-20,4,2,0,0,0,1
31484,-500,4,2,0,0,0,1
31589,-20,4,2,0,0,0,1
31609,-500,4,2,0,0,0,1
31714,-15.1515151515152,4,2,0,0,0,1
31734,-500,4,2,0,0,0,1
31881,-15.1515151515152,4,2,0,0,0,1
31900,-500,4,2,0,0,0,1
32047,-66.6666666666667,4,2,0,0,0,1
32131,-100,4,2,0,0,0,1
32214,-200,4,2,0,0,0,1
32381,-66.6666666666667,4,2,0,0,0,1
32464,-100,4,2,0,0,0,1
32547,-200,4,2,0,0,0,1
32714,-76.9230769230769,4,2,0,0,0,1
32797,-100,4,2,0,0,0,1
33047,-111.111111111111,4,2,0,0,0,1
33214,-133.333333333333,4,2,0,0,0,1
33381,-166.666666666667,4,2,0,0,0,1
33547,-222.222222222222,4,2,0,0,0,1
33631,-153.846153846154,4,2,0,0,0,1
33714,-142.857142857143,4,2,0,0,0,1
33881,-166.666666666667,4,2,0,0,0,1
34047,-200,4,2,0,0,0,1
34214,-250,4,2,0,0,0,1
34381,-333.333333333333,4,2,0,0,0,1
34464,-142.857142857143,4,2,0,0,0,1
34547,-100,4,2,0,0,0,1
34631,-76.9230769230769,4,2,0,0,0,1
34714,-40,4,2,0,0,0,1
34755,-200,4,2,0,0,0,1
34881,-40,4,2,0,0,0,1
34922,-200,4,2,0,0,0,1
35047,-142.857142857143,4,2,0,0,0,1
35131,-100,4,2,0,0,0,1
35214,-40,4,2,0,0,0,1
35255,-200,4,2,0,0,0,1
35381,-40,4,2,0,0,0,1
35422,-200,4,2,0,0,0,1
35547,-142.857142857143,4,2,0,0,0,1
35631,-100,4,2,0,0,0,1
35714,-40,4,2,0,0,0,1
35755,-200,4,2,0,0,0,1
35881,-40,4,2,0,0,0,1
35922,-200,4,2,0,0,0,1
36047,-142.857142857143,4,2,0,0,0,1
36131,-100,4,2,0,0,0,1
36214,-40,4,2,0,0,0,1
36255,-200,4,2,0,0,0,1
36381,-100,4,2,0,0,0,1
36714,-22.2222222222222,4,2,0,0,0,1
36735,-200,4,2,0,0,0,1
36881,-22.2222222222222,4,2,0,0,0,1
36902,-200,4,2,0,0,0,1
37047,-22.2222222222222,4,2,0,0,0,1
37068,-200,4,2,0,0,0,1
37214,-22.2222222222222,4,2,0,0,0,1
37235,-200,4,2,0,0,0,1
37381,-66.6666666666667,4,2,0,0,0,1
37464,-100,4,2,0,0,0,1
37547,-125,4,2,0,0,0,1
37714,-142.857142857143,4,2,0,0,0,1
37881,-125,4,2,0,0,0,1
38047,-100,4,2,0,0,0,1
38214,-100,4,2,0,0,0,1
38381,-125,4,2,0,0,0,1
38631,-66.6666666666667,4,2,0,0,0,1
38672,-33.3333333333333,4,2,0,0,0,1
38693,-1000,4,2,0,0,0,1
38714,-62.5,4,2,0,0,0,1
38735,-1000,4,2,0,0,0,1
38756,-62.5,4,2,0,0,0,1
38777,-1000,4,2,0,0,0,1
38797,-83.3333333333333,4,2,0,0,0,1
38818,-1000,4,2,0,0,0,1
38839,-83.3333333333333,4,2,0,0,0,1
38860,-1000,4,2,0,0,0,1
38881,-100,4,2,0,0,0,1
38902,-1000,4,2,0,0,0,1
38923,-100,4,2,0,0,0,1
38944,-1000,4,2,0,0,0,1
38964,-83.3333333333333,4,2,0,0,0,1
38985,-1000,4,2,0,0,0,1
39006,-83.3333333333333,4,2,0,0,0,1
39027,-1000,4,2,0,0,0,1
39047,-62.5,4,2,0,0,0,1
39068,-1000,4,2,0,0,0,1
39089,-62.5,4,2,0,0,0,1
39110,-1000,4,2,0,0,0,1
39131,-50,4,2,0,0,0,1
39152,-1000,4,2,0,0,0,1
39173,-50,4,2,0,0,0,1
39194,-1000,4,2,0,0,0,1
39214,-35.7142857142857,4,2,0,0,0,1
39235,-1000,4,2,0,0,0,1
39256,-35.7142857142857,4,2,0,0,0,1
39277,-1000,4,2,0,0,0,1
39297,-35.7142857142857,4,2,0,0,0,1
39318,-1000,4,2,0,0,0,1
39339,-35.7142857142857,4,2,0,0,0,1
39360,-1000,4,2,0,0,0,1
39381,-38.4615384615385,4,2,0,0,0,1
39402,-1000,4,2,0,0,0,1
39423,-38.4615384615385,4,2,0,0,0,1
39444,-1000,4,2,0,0,0,1
39464,-38.4615384615385,4,2,0,0,0,1
39485,-1000,4,2,0,0,0,1
39506,-38.4615384615385,4,2,0,0,0,1
39527,-1000,4,2,0,0,0,1
39547,-45.4545454545455,4,2,0,0,0,1
39568,-1000,4,2,0,0,0,1
39589,-45.4545454545455,4,2,0,0,0,1
39610,-1000,4,2,0,0,0,1
39631,-45.4545454545455,4,2,0,0,0,1
39652,-1000,4,2,0,0,0,1
39673,-45.4545454545455,4,2,0,0,0,1
39694,-1000,4,2,0,0,0,1
39714,-50,4,2,0,0,0,1
39735,-1000,4,2,0,0,0,1
39756,-50,4,2,0,0,0,1
39777,-1000,4,2,0,0,0,1
39797,-100,4,2,0,0,0,1
39881,-125,4,2,0,0,0,1
40047,-40,4,2,0,0,0,1
40089,-200,4,2,0,0,0,1
40214,-40,4,2,0,0,0,1
40256,-200,4,2,0,0,0,1
40381,-40,4,2,0,0,0,1
40423,-200,4,2,0,0,0,1
40547,-40,4,2,0,0,0,1
40589,-200,4,2,0,0,0,1
40714,-40,4,2,0,0,0,1
40756,-200,4,2,0,0,0,1
40797,-100,4,2,0,0,0,1
40881,-83.3333333333333,4,2,0,0,0,1
41381,-166.666666666667,4,2,0,0,0,1
41547,-83.3333333333333,4,2,0,0,0,1
41714,-166.666666666667,4,2,0,0,0,1
41881,-100,4,2,0,0,0,1
42047,-200,4,2,0,0,0,1
42214,-125,4,2,0,0,0,1
42381,-250,4,2,0,0,0,1
42547,-142.857142857143,4,2,0,0,0,1
42714,-100,4,2,0,0,0,0
63714,-40,4,2,0,0,0,0
63735,-200,4,2,0,0,0,0
63797,-22.2222222222222,4,2,0,0,0,0
63818,-200,4,2,0,0,0,0
63964,-40,4,2,0,0,0,0
63985,-200,4,2,0,0,0,0
64047,-22.2222222222222,4,2,0,0,0,1
64068,-200,4,2,0,0,0,1
64214,-142.857142857143,4,2,0,0,0,1
64297,-100,4,2,0,0,0,1
64381,-50,4,2,0,0,0,1
64464,-100,4,2,0,0,0,1
64631,-125,4,2,0,0,0,1
65047,-40,4,2,0,0,0,1
65090,-200,4,2,0,0,0,1
65214,-125,4,2,0,0,0,1
65297,-83.3333333333333,4,2,0,0,0,1
65381,-66.6666666666667,4,2,0,0,0,1
65464,-200,4,2,0,0,0,1
65547,-125,4,2,0,0,0,1
65631,-83.3333333333333,4,2,0,0,0,1
65714,-50,4,2,0,0,0,1
65797,-100,4,2,0,0,0,1
65964,-125,4,2,0,0,0,1
66381,-40,4,2,0,0,0,1
66423,-200,4,2,0,0,0,1
66547,-100,4,2,0,0,0,1
66631,-66.6666666666667,4,2,0,0,0,1
66714,-142.857142857143,4,2,0,0,0,1
66881,-125,4,2,0,0,0,1
67047,-111.111111111111,4,2,0,0,0,1
67214,-100,4,2,0,0,0,1
67381,-76.9230769230769,4,2,0,0,0,1
67464,-333.333333333333,4,2,0,0,0,1
67547,-76.9230769230769,4,2,0,0,0,1
67631,-333.333333333333,4,2,0,0,0,1
67714,-76.9230769230769,4,2,0,0,0,1
67797,-333.333333333333,4,2,0,0,0,1
67881,-166.666666666667,4,2,0,0,0,1
67964,-100,4,2,0,0,0,1
68047,-40,4,2,0,0,0,1
68089,-200,4,2,0,0,0,1
68214,-40,4,2,0,0,0,1
68256,-200,4,2,0,0,0,1
68297,-142.857142857143,4,2,0,0,0,1
68381,-111.111111111111,4,2,0,0,0,1
68464,-83.3333333333333,4,2,0,0,0,1
68547,-22.2222222222222,4,2,0,0,0,1
68568,-200,4,2,0,0,0,1
68714,-22.2222222222222,4,2,0,0,0,1
68735,-200,4,2,0,0,0,1
68881,-22.2222222222222,4,2,0,0,0,1
68902,-200,4,2,0,0,0,1
69047,-22.2222222222222,4,2,0,0,0,1
69068,-200,4,2,0,0,0,1
69214,-100,4,2,0,0,0,1
69297,-66.6666666666667,4,2,0,0,0,1
69381,-125,4,2,0,0,0,1
69464,-200,4,2,0,0,0,1
69881,-166.666666666667,4,2,0,0,0,1
69964,-142.857142857143,4,2,0,0,0,1
70047,-125,4,2,0,0,0,1
70131,-166.666666666667,4,2,0,0,0,1
70214,-200,4,2,0,0,0,1
70547,-66.6666666666667,4,2,0,0,0,1
70631,-200,4,2,0,0,0,1
70714,-100,4,2,0,0,0,1
70756,-1000,4,2,0,0,0,1
70797,-66.6666666666667,4,2,0,0,0,1
70839,-1000,4,2,0,0,0,1
70881,-50,4,2,0,0,0,1
70922,-1000,4,2,0,0,0,1
70964,-40,4,2,0,0,0,1
71006,-1000,4,2,0,0,0,1
71047,-33.3333333333333,4,2,0,0,0,1
71089,-1000,4,2,0,0,0,1
71130,-37.037037037037,4,2,0,0,0,1
71172,-1000,4,2,0,0,0,1
71214,-41.6666666666667,4,2,0,0,0,1
71255,-1000,4,2,0,0,0,1
71297,-47.6190476190476,4,2,0,0,0,1
71339,-1000,4,2,0,0,0,1
71380,-55.5555555555556,4,2,0,0,0,1
71422,-1000,4,2,0,0,0,1
71463,-66.6666666666667,4,2,0,0,0,1
71505,-1000,4,2,0,0,0,1
71547,-83.3333333333333,4,2,0,0,0,1
71588,-1000,4,2,0,0,0,1
71630,-100,4,2,0,0,0,1
71672,-1000,4,2,0,0,0,1
71714,-125,4,2,0,0,0,1
71797,-500,4,2,0,0,0,1
71881,-142.857142857143,4,2,0,0,0,1
71964,-500,4,2,0,0,0,1
72047,-166.666666666667,4,2,0,0,0,1
72131,-500,4,2,0,0,0,1
72214,-285.714285714286,4,2,0,0,0,1
72381,-200,4,2,0,0,0,1
72547,-151.515151515152,4,2,0,0,0,1
72714,-121.951219512195,4,2,0,0,0,1
72881,-102.040816326531,4,2,0,0,0,1
73047,-87.719298245614,4,2,0,0,0,1
73214,-76.9230769230769,4,2,0,0,0,1
73381,-28.5714285714286,4,2,0,0,0,1
73423,-100,4,2,0,0,0,1
73464,-200,4,2,0,0,0,1
73631,-28.5714285714286,4,2,0,0,0,1
73673,-100,4,2,0,0,0,1
73714,-200,4,2,0,0,0,1
73881,-20,4,2,0,0,0,1
73901,-500,4,2,0,0,0,1
74006,-20,4,2,0,0,0,1
74026,-500,4,2,0,0,0,1
74131,-20,4,2,0,0,0,1
74151,-500,4,2,0,0,0,1
74256,-20,4,2,0,0,0,1
74276,-500,4,2,0,0,0,1
74381,-15.1515151515152,4,2,0,0,0,1
74401,-500,4,2,0,0,0,1
74548,-15.1515151515152,4,2,0,0,0,1
74567,-500,4,2,0,0,0,1
74714,-40,4,2,0,0,0,1
74756,-200,4,2,0,0,0,1
75006,-28.5714285714286,4,2,0,0,0,1
75047,-200,4,2,0,0,0,1
75256,-28.5714285714286,4,2,0,0,0,1
75297,-100,4,2,0,0,0,1
75381,-28.5714285714286,4,2,0,0,0,1
75402,-200,4,2,0,0,0,1
75506,-66.6666666666667,4,2,0,0,0,1
75547,-200,4,2,0,0,0,1
75839,-28.5714285714286,4,2,0,0,0,1
75881,-28.5714285714286,4,2,0,0,0,1
75922,-200,4,2,0,0,0,1
76172,-66.6666666666667,4,2,0,0,0,1
76214,-200,4,2,0,0,0,1
76339,-28.5714285714286,4,2,0,0,0,1
76381,-200,4,2,0,0,0,1
76547,-125,4,2,0,0,0,1
76631,-83.3333333333333,4,2,0,0,0,1
76714,-166.666666666667,4,2,0,0,0,1
76797,-125,4,2,0,0,0,1
76881,-100,4,2,0,0,0,1
76964,-83.3333333333333,4,2,0,0,0,1
77047,-125,4,2,0,0,0,1
77131,-100,4,2,0,0,0,1
77214,-83.3333333333333,4,2,0,0,0,1
77297,-71.4285714285714,4,2,0,0,0,1
77381,-40,4,2,0,0,0,1
77422,-200,4,2,0,0,0,1
77672,-28.5714285714286,4,2,0,0,0,1
77714,-40,4,2,0,0,0,1
77756,-200,4,2,0,0,0,1
77881,-100,4,2,0,0,0,1
77964,-40,4,2,0,0,0,1
78006,-200,4,2,0,0,0,1
78131,-100,4,2,0,0,0,1
78214,-40,4,2,0,0,0,1
78256,-200,4,2,0,0,0,1
78506,-28.5714285714286,4,2,0,0,0,1
78547,-200,4,2,0,0,0,1
78839,-28.5714285714286,4,2,0,0,0,1
78881,-40,4,2,0,0,0,1
78922,-200,4,2,0,0,0,1
79047,-40,4,2,0,0,0,1
79088,-200,4,2,0,0,0,1
79214,-40,4,2,0,0,0,1
79255,-200,4,2,0,0,0,1
79381,-40,4,2,0,0,0,1
79422,-200,4,2,0,0,0,1
79547,-100,4,2,0,0,0,1
79714,-22.2222222222222,4,2,0,0,0,1
79735,-200,4,2,0,0,0,1
79881,-100,4,2,0,0,0,1
79964,-40,4,2,0,0,0,1
79985,-200,4,2,0,0,0,1
80047,-100,4,2,0,0,0,1
80131,-22.2222222222222,4,2,0,0,0,1
80152,-200,4,2,0,0,0,1
80214,-166.666666666667,4,2,0,0,0,1
80297,-125,4,2,0,0,0,1
80381,-100,4,2,0,0,0,1
80464,-100,4,2,0,0,0,1
80547,0.6,4,2,0,0,1,1
80548,333.333333333333,4,2,0,0,1,1
80715,0.6,4,2,0,0,1,1
80716,333.333333333333,4,2,0,0,1,1
80965,0.6,4,2,0,0,1,1
80966,333.333333333333,4,2,0,0,1,1
81215,0.6,4,2,0,0,1,1
81216,333.333333333333,4,2,0,0,1,1
81382,0.6,4,2,0,0,1,1
81383,333.333333333333,4,2,0,0,1,1
81632,0.6,4,2,0,0,1,1
81633,333.333333333333,4,2,0,0,1,1
81882,0.6,4,2,0,0,1,1
81883,333.333333333333,4,2,0,0,1,1
82048,0.6,4,2,0,0,1,1
82049,333.333333333333,4,2,0,0,1,1
82298,0.6,4,2,0,0,1,1
82299,333.333333333333,4,2,0,0,1,1
82548,0.6,4,2,0,0,1,1
82549,333.333333333333,4,2,0,0,1,1
82715,0.6,4,2,0,0,1,1
82716,333.333333333333,4,2,0,0,1,1
82716,-200,4,2,0,0,0,1
82882,-125,4,2,0,0,0,1
83048,333.333333333333,4,2,0,0,1,1
83048,-100,4,2,0,0,0,1
83131,-200,4,2,0,0,0,1
83214,-125,4,2,0,0,0,1
83298,-100,4,2,0,0,0,1
83381,-83.3333333333333,4,2,0,0,0,1
83464,-100,4,2,0,0,0,1
83548,-200,4,2,0,0,0,1
83631,-125,4,2,0,0,0,1
83714,-83.3333333333333,4,2,0,0,0,1
83798,-66.6666666666667,4,2,0,0,0,1
83881,-100,4,2,0,0,0,1
83964,-200,4,2,0,0,0,1
84048,-40,4,2,0,0,0,1
84075,-200,4,2,0,0,0,1
84159,-40,4,2,0,0,0,1
84187,-200,4,2,0,0,0,1
84270,-40,4,2,0,0,0,1
84298,-200,4,2,0,0,0,1
84381,-40,4,2,0,0,0,1
84409,-200,4,2,0,0,0,1
84492,-40,4,2,0,0,0,1
84520,-200,4,2,0,0,0,1
84603,-40,4,2,0,0,0,1
84631,-200,4,2,0,0,0,1
84714,-40,4,2,0,0,0,1
84742,-200,4,2,0,0,0,1
84825,-40,4,2,0,0,0,1
84853,-200,4,2,0,0,0,1
84936,-40,4,2,0,0,0,1
84964,-200,4,2,0,0,0,1
85048,-40,4,2,0,0,0,1
85089,-200,4,2,0,0,0,1
85214,-40,4,2,0,0,0,1
85256,-200,4,2,0,0,0,1
85381,-58.8235294117647,4,2,0,0,0,1
85464,-76.9230769230769,4,2,0,0,0,1
85548,-111.111111111111,4,2,0,0,0,1
85631,-200,4,2,0,0,0,1
85714,-40,4,2,0,0,0,1
85756,-166.666666666667,4,2,0,0,0,1
85776.8333333333,-1000,4,2,0,0,0,1
85797.6666666667,-158.047165908151,4,2,0,0,0,1
85818.5,-1000,4,2,0,0,0,1
85839.3333333333,-150.275373721479,4,2,0,0,0,1
85860.1666666667,-1000,4,2,0,0,0,1
85881,-143.232095988002,4,2,0,0,0,1
85901.8333333333,-1000,4,2,0,0,0,1
85922.6666666667,-136.819484240688,4,2,0,0,0,1
85943.5,-1000,4,2,0,0,0,1
85964.3333333333,-130.956462118615,4,2,0,0,0,1
85985.1666666667,-1000,4,2,0,0,0,1
86006,-125.575279421433,4,2,0,0,0,1
86026.8333333333,-1000,4,2,0,0,0,1
86047.6666666667,-120.618882222924,4,2,0,0,0,1
86068.5,-1000,4,2,0,0,0,1
86089.3333333333,-116.038882138518,4,2,0,0,0,1
86110.1666666667,-1000,4,2,0,0,0,1
86131,-111.793971319871,4,2,0,0,0,1
86151.8333333333,-1000,4,2,0,0,0,1
86172.6666666667,-107.848673066064,4,2,0,0,0,1
86193.5,-1000,4,2,0,0,0,1
86214.3333333333,-104.172347968367,4,2,0,0,0,1
86235.1666666667,-1000,4,2,0,0,0,1
86256,-100.738396624473,4,2,0,0,0,1
86276.8333333333,-1000,4,2,0,0,0,1
86297.6666666667,-97.5236150114884,4,2,0,0,0,1
86318.5,-1000,4,2,0,0,0,1
86339.3333333333,-94.5076694705591,4,2,0,0,0,1
86360.1666666667,-1000,4,2,0,0,0,1
86381,-91.6726661867051,4,2,0,0,0,1
86401.8333333333,-1000,4,2,0,0,0,1
86422.6666666667,-89.0027958993476,4,2,0,0,0,1
86443.5,-1000,4,2,0,0,0,1
86464.3333333333,-86.4840389404573,4,2,0,0,0,1
86485.1666666667,-1000,4,2,0,0,0,1
86506,-84.1039189784236,4,2,0,0,0,1
86526.8333333333,-1000,4,2,0,0,0,1
86547.6666666667,-81.851296335976,4,2,0,0,0,1
86568.5,-1000,4,2,0,0,0,1
86589.3333333333,-79.7161936560935,4,2,0,0,0,1
86610.1666666667,-1000,4,2,0,0,0,1
86631,-77.6896481594468,4,2,0,0,0,1
86651.8333333333,-1000,4,2,0,0,0,1
86672.6666666667,-75.7635858786196,4,2,0,0,0,1
86693.5,-1000,4,2,0,0,0,1
86714.3333333333,-73.9307141474744,4,2,0,0,0,1
86735.1666666667,-1000,4,2,0,0,0,1
86756,-72.1844293272865,4,2,0,0,0,1
86776.8333333333,-1000,4,2,0,0,0,1
86797.6666666667,-70.5187373084733,4,2,0,0,0,1
86818.5,-1000,4,2,0,0,0,1
86839.3333333333,-68.9281847708409,4,2,0,0,0,1
86860.1666666667,-1000,4,2,0,0,0,1
86881,-67.4077995412035,4,2,0,0,0,1
86901.8333333333,-1000,4,2,0,0,0,1
86922.6666666667,-65.9530386740332,4,2,0,0,0,1
86943.5,-1000,4,2,0,0,0,1
86964.3333333333,-64.5597431130641,4,2,0,0,0,1
86985.1666666667,-1000,4,2,0,0,0,1
87006,-63.2240979808011,4,2,0,0,0,1
87026.8333333333,-1000,4,2,0,0,0,1
87047.6666666667,-61.9425976974218,4,2,0,0,0,1
87068.5,-1000,4,2,0,0,0,1
87089.3333333333,-60.7120152574698,4,2,0,0,0,1
87110.1666666667,-1000,4,2,0,0,0,1
87131,-59.5293750973975,4,2,0,0,0,1
87151.8333333333,-1000,4,2,0,0,0,1
87172.6666666667,-58.3919290736778,4,2,0,0,0,1
87193.5,-1000,4,2,0,0,0,1
87214.3333333333,-57.2971351432428,4,2,0,0,0,1
87235.1666666667,-1000,4,2,0,0,0,1
87256,-56.2426383981154,4,2,0,0,0,1
87276.8333333333,-1000,4,2,0,0,0,1
87297.6666666667,-55.2262541564262,4,2,0,0,0,1
87318.5,-1000,4,2,0,0,0,1
87339.3333333333,-54.2459528543028,4,2,0,0,0,1
87360.1666666667,-1000,4,2,0,0,0,1
87381,-53.2998465187666,4,2,0,0,0,1
87401.8333333333,-1000,4,2,0,0,0,1
87422.6666666667,-52.3861766319254,4,2,0,0,0,1
87443.5,-1000,4,2,0,0,0,1
87464.3333333333,-51.5033032223271,4,2,0,0,0,1
87485.1666666667,-1000,4,2,0,0,0,1
87506,-50.6496950411032,4,2,0,0,0,1
87526.8333333333,-1000,4,2,0,0,0,1
87547.6666666667,-49.8239206991001,4,2,0,0,0,1
87568.5,-1000,4,2,0,0,0,1
87589.3333333333,-49.0246406570842,4,2,0,0,0,1
87610.1666666667,-1000,4,2,0,0,0,1
87631,-48.2505999747379,4,2,0,0,0,1
87651.8333333333,-1000,4,2,0,0,0,1
87672.6666666667,-47.5006217358866,4,2,0,0,0,1
87693.5,-1000,4,2,0,0,0,1
87714.3333333333,-46.773601077507,4,2,0,0,0,1
87735.1666666667,-1000,4,2,0,0,0,1
87756,-46.0684997588037,4,2,0,0,0,1
87776.8333333333,-1000,4,2,0,0,0,1
87797.6666666667,-45.3843412142093,4,2,0,0,0,1
87818.5,-1000,4,2,0,0,0,1
87839.3333333333,-44.7202060407399,4,2,0,0,0,1
87860.1666666667,-1000,4,2,0,0,0,1
87881,-44.0752278758509,4,2,0,0,0,1
87901.8333333333,-1000,4,2,0,0,0,1
87922.6666666667,-43.4485896269336,4,2,0,0,0,1
87943.5,-1000,4,2,0,0,0,1
87964.3333333333,-42.8395200179433,4,2,0,0,0,1
87985.1666666667,-1000,4,2,0,0,0,1
88006,-42.2472904224729,4,2,0,0,0,1
88026.8333333333,-1000,4,2,0,0,0,1
88047.6666666667,-100,4,2,0,0,0,1
88131,-200,4,2,0,0,0,1
88298,-100,4,2,0,0,0,1
88381,-50,4,2,0,0,0,1
88464,-200,4,2,0,0,0,1
88548.6666666667,-100,4,2,0,0,0,1
88632,-200,4,2,0,0,0,1
88799,-100,4,2,0,0,0,1
88882,-50,4,2,0,0,0,1
88965,-200,4,2,0,0,0,1
89049.6666666667,-100,4,2,0,0,0,1
89133,-200,4,2,0,0,0,1
89300,-100,4,2,0,0,0,1
89383,-50,4,2,0,0,0,1
89466,-200,4,2,0,0,0,1
89550.6666666667,-100,4,2,0,0,0,1
89634,-200,4,2,0,0,0,1
89801,-100,4,2,0,0,0,1
89884,-50,4,2,0,0,0,1
89967,-200,4,2,0,0,0,1
90048,-125,4,2,0,0,0,1
90381,-83.3333333333333,4,2,0,0,0,1
90714,-200,4,2,0,0,0,1
90797,-125,4,2,0,0,0,1
90881,-100,4,2,0,0,0,1
90964,-76.9230769230769,4,2,0,0,0,1
91047,-20,4,2,0,0,0,1
91068,-125,4,2,0,0,0,1
91547,-40,4,2,0,0,0,1
91568,-200,4,2,0,0,0,1
91631,-40,4,2,0,0,0,1
91652,-200,4,2,0,0,0,1
91714,-22.2222222222222,4,2,0,0,0,1
91735,-200,4,2,0,0,0,1
91881,-40,4,2,0,0,0,1
91902,-200,4,2,0,0,0,1
91964,-40,4,2,0,0,0,1
91985,-200,4,2,0,0,0,1
92047,-22.2222222222222,4,2,0,0,0,1
92068,-200,4,2,0,0,0,1
92214,-22.2222222222222,4,2,0,0,0,1
92235,-200,4,2,0,0,0,1
92381,-15.3846153846154,4,2,0,0,0,1
92402,-200,4,2,0,0,0,1
92693,-40,4,2,0,0,0,1
92714,-66.6666666666667,4,2,0,0,0,1
92797,-200,4,2,0,0,0,1
92881,-125,4,2,0,0,0,1
92964,-83.3333333333333,4,2,0,0,0,1
93047,-66.6666666666667,4,2,0,0,0,1
93130,-200,4,2,0,0,0,1
93214,-125,4,2,0,0,0,1
93297,-83.3333333333333,4,2,0,0,0,1
93381,-50,4,2,0,0,0,1
93424,-125,4,2,0,0,0,1
93631,-50,4,2,0,0,0,1
93674,-125,4,2,0,0,0,1
93881,-62.5,4,2,0,0,0,1
93924,-125,4,2,0,0,0,1
94047,-50,4,2,0,0,0,1
94090,-125,4,2,0,0,0,1
94297,-50,4,2,0,0,0,1
94340,-125,4,2,0,0,0,1
94547,-62.5,4,2,0,0,0,1
94590,-125,4,2,0,0,0,1
94714,-66.6666666666667,4,2,0,0,0,1
94756,-200,4,2,0,0,0,1
94881,-172.413793103448,4,2,0,0,0,1
94964,-151.515151515152,4,2,0,0,0,1
95047,-135.135135135135,4,2,0,0,0,1
95131,-121.951219512195,4,2,0,0,0,1
95214,-111.111111111111,4,2,0,0,0,1
95297,-102.040816326531,4,2,0,0,0,1
95381,-94.3396226415094,4,2,0,0,0,1
95464,-87.719298245614,4,2,0,0,0,1
95547,-81.9672131147541,4,2,0,0,0,1
95631,-76.9230769230769,4,2,0,0,0,1
95714,-25,4,2,0,0,0,1
95756,-500,4,2,0,0,0,1
95881,-125,4,2,0,0,0,1
95964,-50,4,2,0,0,0,1
96047,333.333333333333,4,2,0,0,1,0

[HitObjects]
36,192,48,5,0,0:0:0:0:
475,192,48,1,0,0:0:0:0:
109,192,48,1,0,0:0:0:0:
256,192,48,1,0,0:0:0:0:
402,192,214,1,0,0:0:0:0:
36,192,381,1,0,0:0:0:0:
475,192,381,1,0,0:0:0:0:
182,192,381,1,0,0:0:0:0:
329,192,547,1,0,0:0:0:0:
109,192,714,1,0,0:0:0:0:
256,192,714,1,0,0:0:0:0:
36,192,797,1,0,0:0:0:0:
402,192,881,1,0,0:0:0:0:
182,192,881,1,0,0:0:0:0:
109,192,964,1,0,0:0:0:0:
256,192,1047,1,0,0:0:0:0:
475,192,1047,1,0,0:0:0:0:
36,192,1214,1,0,0:0:0:0:
329,192,1214,1,0,0:0:0:0:
182,192,1214,1,0,0:0:0:0:
475,192,1381,1,0,0:0:0:0:
182,192,1381,1,0,0:0:0:0:
109,192,1464,1,0,0:0:0:0:
256,192,1547,1,0,0:0:0:0:
402,192,1547,1,0,0:0:0:0:
182,192,1714,1,0,0:0:0:0:
36,192,1714,1,0,0:0:0:0:
329,192,1714,1,0,0:0:0:0:
475,192,1881,1,0,0:0:0:0:
182,192,1881,1,0,0:0:0:0:
109,192,1964,1,0,0:0:0:0:
329,192,2047,1,0,0:0:0:0:
256,192,2047,1,0,0:0:0:0:
475,192,2214,1,0,0:0:0:0:
36,192,2214,1,0,0:0:0:0:
182,192,2214,1,0,0:0:0:0:
402,192,2381,1,0,0:0:0:0:
329,192,2381,1,0,0:0:0:0:
182,192,2381,1,0,0:0:0:0:
256,192,2547,1,0,0:0:0:0:
109,192,2547,1,0,0:0:0:0:
475,192,2714,1,0,0:0:0:0:
329,192,2714,1,0,0:0:0:0:
36,192,2714,1,0,0:0:0:0:
109,192,2714,1,0,0:0:0:0:
182,192,2881,1,0,0:0:0:0:
36,192,3047,1,0,0:0:0:0:
402,192,3047,1,0,0:0:0:0:
475,192,3047,1,0,0:0:0:0:
329,192,3214,1,0,0:0:0:0:
256,192,3214,1,0,0:0:0:0:
109,192,3297,1,0,0:0:0:0:
475,192,3381,1,0,0:0:0:0:
182,192,3381,1,0,0:0:0:0:
402,192,3547,1,0,0:0:0:0:
256,192,3547,1,0,0:0:0:0:
109,192,3631,1,0,0:0:0:0:
475,192,3714,1,0,0:0:0:0:
182,192,3714,1,0,0:0:0:0:
36,192,3881,1,0,0:0:0:0:
182,192,3881,1,0,0:0:0:0:
402,192,3881,1,0,0:0:0:0:
329,192,4047,1,0,0:0:0:0:
256,192,4047,1,0,0:0:0:0:
109,192,4131,1,0,0:0:0:0:
402,192,4214,1,0,0:0:0:0:
182,192,4214,1,0,0:0:0:0:
36,192,4381,1,0,0:0:0:0:
182,192,4381,1,0,0:0:0:0:
475,192,4381,1,0,0:0:0:0:
256,192,4547,1,0,0:0:0:0:
402,192,4547,1,0,0:0:0:0:
109,192,4631,1,0,0:0:0:0:
182,192,4714,1,0,0:0:0:0:
329,192,4714,1,0,0:0:0:0:
36,192,4881,1,0,0:0:0:0:
182,192,4881,1,0,0:0:0:0:
402,192,4881,1,0,0:0:0:0:
256,192,5047,1,0,0:0:0:0:
475,192,5047,1,0,0:0:0:0:
109,192,5131,1,0,0:0:0:0:
329,192,5214,1,0,0:0:0:0:
402,192,5214,1,0,0:0:0:0:
475,192,5381,1,0,0:0:0:0:
36,192,5381,1,0,0:0:0:0:
256,192,5381,1,0,0:0:0:0:
182,192,5381,1,0,0:0:0:0:
109,192,5547,1,0,0:0:0:0:
402,192,5547,1,0,0:0:0:0:
475,192,5714,1,0,0:0:0:0:
36,192,5714,1,0,0:0:0:0:
109,192,5714,1,0,0:0:0:0:
329,192,5881,1,0,0:0:0:0:
182,192,5881,1,0,0:0:0:0:
402,192,5964,1,0,0:0:0:0:
256,192,6047,1,0,0:0:0:0:
36,192,6047,1,0,0:0:0:0:
475,192,6131,1,0,0:0:0:0:
109,192,6214,1,0,0:0:0:0:
329,192,6214,1,0,0:0:0:0:
256,192,6297,1,0,0:0:0:0:
36,192,6381,1,0,0:0:0:0:
402,192,6381,1,0,0:0:0:0:
475,192,6547,1,0,0:0:0:0:
182,192,6547,1,0,0:0:0:0:
329,192,6547,1,0,0:0:0:0:
36,192,6714,1,0,0:0:0:0:
256,192,6714,1,0,0:0:0:0:
402,192,6797,1,0,0:0:0:0:
182,192,6881,1,0,0:0:0:0:
329,192,6881,1,0,0:0:0:0:
475,192,7047,1,0,0:0:0:0:
109,192,7047,1,0,0:0:0:0:
329,192,7047,1,0,0:0:0:0:
36,192,7214,1,0,0:0:0:0:
182,192,7214,1,0,0:0:0:0:
402,192,7297,1,0,0:0:0:0:
329,192,7381,1,0,0:0:0:0:
109,192,7381,1,0,0:0:0:0:
475,192,7547,1,0,0:0:0:0:
36,192,7547,1,0,0:0:0:0:
329,192,7547,1,0,0:0:0:0:
36,192,7714,1,0,0:0:0:0:
402,192,7714,1,0,0:0:0:0:
182,192,7714,1,0,0:0:0:0:
256,192,7881,1,0,0:0:0:0:
109,192,7881,1,0,0:0:0:0:
402,192,7964,1,0,0:0:0:0:
329,192,8047,1,0,0:0:0:0:
182,192,8047,1,0,0:0:0:0:
329,192,8214,1,0,0:0:0:0:
475,192,8214,1,0,0:0:0:0:
109,192,8214,1,0,0:0:0:0:
36,192,8381,1,0,0:0:0:0:
182,192,8381,1,0,0:0:0:0:
402,192,8464,1,0,0:0:0:0:
109,192,8547,1,0,0:0:0:0:
329,192,8547,1,0,0:0:0:0:
475,192,8714,1,0,0:0:0:0:
182,192,8714,1,0,0:0:0:0:
329,192,8714,1,0,0:0:0:0:
182,192,8881,1,0,0:0:0:0:
36,192,8881,1,0,0:0:0:0:
402,192,8964,1,0,0:0:0:0:
109,192,9047,1,0,0:0:0:0:
329,192,9047,1,0,0:0:0:0:
182,192,9214,1,0,0:0:0:0:
329,192,9214,1,0,0:0:0:0:
475,192,9214,1,0,0:0:0:0:
36,192,9381,1,0,0:0:0:0:
256,192,9381,1,0,0:0:0:0:
402,192,9464,1,0,0:0:0:0:
329,192,9547,1,0,0:0:0:0:
182,192,9547,1,0,0:0:0:0:
475,192,9631,1,0,0:0:0:0:
329,192,9714,1,0,0:0:0:0:
109,192,9714,1,0,0:0:0:0:
256,192,9714,1,0,0:0:0:0:
329,192,9881,1,0,0:0:0:0:
182,192,9881,1,0,0:0:0:0:
36,192,9964,1,0,0:0:0:0:
256,192,10047,1,0,0:0:0:0:
402,192,10047,1,0,0:0:0:0:
109,192,10047,1,0,0:0:0:0:
329,192,10214,1,0,0:0:0:0:
182,192,10214,1,0,0:0:0:0:
475,192,10297,1,0,0:0:0:0:
256,192,10297,1,0,0:0:0:0:
329,192,10381,1,0,0:0:0:0:
402,192,10381,1,0,0:0:0:0:
36,192,10381,1,0,0:0:0:0:
256,192,10547,1,0,0:0:0:0:
109,192,10547,1,0,0:0:0:0:
329,192,10631,1,0,0:0:0:0:
36,192,10714,5,0,0:0:0:0:
256,192,10714,1,0,0:0:0:0:
182,192,10714,1,0,0:0:0:0:
475,192,10714,1,0,0:0:0:0:
402,192,10881,1,0,0:0:0:0:
109,192,10881,1,0,0:0:0:0:
475,192,11047,1,0,0:0:0:0:
256,192,11047,1,0,0:0:0:0:
36,192,11047,1,0,0:0:0:0:
329,192,11214,1,0,0:0:0:0:
182,192,11214,1,0,0:0:0:0:
402,192,11297,1,0,0:0:0:0:
256,192,11381,1,0,0:0:0:0:
109,192,11381,1,0,0:0:0:0:
36,192,11464,1,0,0:0:0:0:
402,192,11547,1,0,0:0:0:0:
182,192,11547,1,0,0:0:0:0:
109,192,11631,1,0,0:0:0:0:
475,192,11714,1,0,0:0:0:0:
256,192,11714,1,0,0:0:0:0:
329,192,11881,1,0,0:0:0:0:
36,192,11881,1,0,0:0:0:0:
182,192,11881,1,0,0:0:0:0:
182,192,12047,1,0,0:0:0:0:
475,192,12047,1,0,0:0:0:0:
109,192,12131,1,0,0:0:0:0:
402,192,12214,1,0,0:0:0:0:
256,192,12214,1,0,0:0:0:0:
36,192,12381,1,0,0:0:0:0:
182,192,12381,1,0,0:0:0:0:
329,192,12381,1,0,0:0:0:0:
182,192,12547,1,0,0:0:0:0:
475,192,12547,1,0,0:0:0:0:
109,192,12631,1,0,0:0:0:0:
256,192,12714,1,0,0:0:0:0:
329,192,12714,1,0,0:0:0:0:
36,192,12797,1,0,0:0:0:0:
402,192,12881,1,0,0:0:0:0:
182,192,12881,1,0,0:0:0:0:
182,192,13047,1,0,0:0:0:0:
36,192,13047,1,0,0:0:0:0:
475,192,13047,1,0,0:0:0:0:
329,192,13214,1,0,0:0:0:0:
109,192,13214,1,0,0:0:0:0:
182,192,13297,1,0,0:0:0:0:
36,192,13381,1,0,0:0:0:0:
475,192,13381,1,0,0:0:0:0:
402,192,13381,1,0,0:0:0:0:
256,192,13381,1,0,0:0:0:0:
182,192,13547,1,0,0:0:0:0:
329,192,13547,1,0,0:0:0:0:
402,192,13714,1,0,0:0:0:0:
36,192,13714,1,0,0:0:0:0:
182,192,13714,1,0,0:0:0:0:
109,192,13881,1,0,0:0:0:0:
402,192,13881,1,0,0:0:0:0:
329,192,13881,1,0,0:0:0:0:
475,192,14047,1,0,0:0:0:0:
182,192,14047,1,0,0:0:0:0:
36,192,14131,1,0,0:0:0:0:
402,192,14214,1,0,0:0:0:0:
256,192,14214,1,0,0:0:0:0:
109,192,14297,1,0,0:0:0:0:
475,192,14381,1,0,0:0:0:0:
329,192,14381,1,0,0:0:0:0:
329,192,14547,1,0,0:0:0:0:
109,192,14547,1,0,0:0:0:0:
36,192,14547,1,0,0:0:0:0:
475,192,14714,1,0,0:0:0:0:
256,192,14714,1,0,0:0:0:0:
109,192,14797,1,0,0:0:0:0:
402,192,14881,1,0,0:0:0:0:
182,192,14881,1,0,0:0:0:0:
182,192,15047,1,0,0:0:0:0:
36,192,15047,1,0,0:0:0:0:
329,192,15047,1,0,0:0:0:0:
475,192,15214,1,0,0:0:0:0:
402,192,15214,1,0,0:0:0:0:
109,192,15297,1,0,0:0:0:0:
329,192,15381,1,0,0:0:0:0:
182,192,15381,1,0,0:0:0:0:
256,192,15381,1,0,0:0:0:0:
475,192,15547,1,0,0:0:0:0:
109,192,15547,1,0,0:0:0:0:
182,192,15714,1,0,0:0:0:0:
36,192,15714,1,0,0:0:0:0:
402,192,15714,1,0,0:0:0:0:
256,192,15881,1,0,0:0:0:0:
329,192,15881,1,0,0:0:0:0:
475,192,16047,1,0,0:0:0:0:
36,192,16047,1,0,0:0:0:0:
256,192,16047,1,0,0:0:0:0:
109,192,16047,1,0,0:0:0:0:
402,192,16214,1,0,0:0:0:0:
182,192,16214,1,0,0:0:0:0:
475,192,16381,1,0,0:0:0:0:
402,192,16381,1,0,0:0:0:0:
36,192,16381,1,0,0:0:0:0:
329,192,16547,1,0,0:0:0:0:
182,192,16547,1,0,0:0:0:0:
402,192,16631,1,0,0:0:0:0:
256,192,16714,1,0,0:0:0:0:
109,192,16714,1,0,0:0:0:0:
475,192,16797,1,0,0:0:0:0:
329,192,16881,1,0,0:0:0:0:
109,192,16881,1,0,0:0:0:0:
36,192,16881,1,0,0:0:0:0:
182,192,16881,1,0,0:0:0:0:
256,192,16964,1,0,0:0:0:0:
402,192,17047,1,0,0:0:0:0:
475,192,17047,1,0,0:0:0:0:
36,192,17047,1,0,0:0:0:0:
182,192,17214,1,0,0:0:0:0:
256,192,17214,1,0,0:0:0:0:
329,192,17297,1,0,0:0:0:0:
256,192,17381,1,0,0:0:0:0:
109,192,17381,1,0,0:0:0:0:
475,192,17381,1,0,0:0:0:0:
36,192,17381,1,0,0:0:0:0:
182,192,17547,1,0,0:0:0:0:
402,192,17547,1,0,0:0:0:0:
36,192,17714,1,0,0:0:0:0:
256,192,17714,1,0,0:0:0:0:
329,192,17714,1,0,0:0:0:0:
182,192,17881,1,0,0:0:0:0:
402,192,17881,1,0,0:0:0:0:
109,192,17964,1,0,0:0:0:0:
256,192,18047,1,0,0:0:0:0:
475,192,18047,1,0,0:0:0:0:
182,192,18131,1,0,0:0:0:0:
402,192,18214,1,0,0:0:0:0:
475,192,18214,1,0,0:0:0:0:
109,192,18214,1,0,0:0:0:0:
36,192,18214,1,0,0:0:0:0:
256,192,18297,1,0,0:0:0:0:
36,192,18381,1,0,0:0:0:0:
182,192,18381,1,0,0:0:0:0:
329,192,18381,1,0,0:0:0:0:
109,192,18547,1,0,0:0:0:0:
402,192,18547,1,0,0:0:0:0:
329,192,18631,1,0,0:0:0:0:
475,192,18714,1,0,0:0:0:0:
36,192,18714,1,0,0:0:0:0:
109,192,18714,1,0,0:0:0:0:
256,192,18714,1,0,0:0:0:0:
182,192,18881,1,0,0:0:0:0:
329,192,18881,1,0,0:0:0:0:
36,192,19047,1,0,0:0:0:0:
402,192,19047,1,0,0:0:0:0:
256,192,19047,1,0,0:0:0:0:
182,192,19047,1,0,0:0:0:0:
329,192,19214,1,0,0:0:0:0:
109,192,19214,1,0,0:0:0:0:
402,192,19297,1,0,0:0:0:0:
475,192,19381,1,0,0:0:0:0:
329,192,19381,1,0,0:0:0:0:
182,192,19381,1,0,0:0:0:0:
36,192,19381,1,0,0:0:0:0:
36,192,19547,1,0,0:0:0:0:
402,192,19547,1,0,0:0:0:0:
256,192,19547,1,0,0:0:0:0:
109,192,19547,1,0,0:0:0:0:
329,192,19714,1,0,0:0:0:0:
402,192,19714,1,0,0:0:0:0:
475,192,19714,1,0,0:0:0:0:
182,192,19714,1,0,0:0:0:0:
109,192,19881,1,0,0:0:0:0:
329,192,19881,1,0,0:0:0:0:
256,192,19964,1,0,0:0:0:0:
109,192,20047,1,0,0:0:0:0:
109,192,20214,1,0,0:0:0:0:
256,192,20297,1,0,0:0:0:0:
109,192,20381,1,0,0:0:0:0:
109,192,20547,1,0,0:0:0:0:
475,192,20631,1,0,0:0:0:0:
329,192,20714,1,0,0:0:0:0:
475,192,20881,1,0,0:0:0:0:
36,192,21047,1,0,0:0:0:0:
329,192,21381,1,0,0:0:0:0:
36,192,21381,128,0,23047:0:0:0:0:
109,192,21381,1,0,0:0:0:0:
475,192,21381,128,0,22381:0:0:0:0:
402,192,21381,128,0,21714:0:0:0:0:
182,192,21381,128,0,22047:0:0:0:0:
329,192,21714,128,0,23381:0:0:0:0:
256,192,21714,128,0,22214:0:0:0:0:
109,192,21714,1,0,0:0:0:0:
109,192,22047,1,0,0:0:0:0:
182,192,22214,1,0,0:0:0:0:
402,192,22214,1,0,0:0:0:0:
256,192,22381,1,0,0:0:0:0:
109,192,22381,128,0,22714:0:0:0:0:
182,192,22381,128,0,23714:0:0:0:0:
475,192,22714,1,0,0:0:0:0:
402,192,22714,128,0,23047:0:0:0:0:
109,192,23047,1,0,0:0:0:0:
475,192,23047,128,0,23381:0:0:0:0:
256,192,23047,128,0,23381:0:0:0:0:
402,192,23381,128,0,23714:0:0:0:0:
36,192,23381,1,0,0:0:0:0:
109,192,23381,128,0,23714:0:0:0:0:
329,192,23547,1,0,0:0:0:0:
256,192,23547,1,0,0:0:0:0:
256,192,23714,128,0,25381:0:0:0:0:
475,192,23714,1,0,0:0:0:0:
36,192,23714,1,0,0:0:0:0:
402,192,23881,128,0,24381:0:0:0:0:
109,192,23881,128,0,25047:0:0:0:0:
182,192,24047,1,0,0:0:0:0:
36,192,24047,1,0,0:0:0:0:
475,192,24214,1,0,0:0:0:0:
329,192,24381,1,0,0:0:0:0:
36,192,24381,128,0,25381:0:0:0:0:
182,192,24381,1,0,0:0:0:0:
475,192,24547,1,0,0:0:0:0:
329,192,24631,1,0,0:0:0:0:
402,192,24714,1,0,0:0:0:0:
329,192,24797,1,0,0:0:0:0:
475,192,24881,1,0,0:0:0:0:
475,192,25047,128,0,25381:0:0:0:0:
182,192,25047,1,0,0:0:0:0:
402,192,25047,1,0,0:0:0:0:
329,192,25214,1,0,0:0:0:0:
182,192,25381,1,0,0:0:0:0:
402,192,25381,1,0,0:0:0:0:
109,192,25381,1,0,0:0:0:0:
329,192,25547,1,0,0:0:0:0:
182,192,25547,1,0,0:0:0:0:
109,192,25547,1,0,0:0:0:0:
256,192,25714,1,0,0:0:0:0:
402,192,25714,1,0,0:0:0:0:
475,192,25714,1,0,0:0:0:0:
36,192,25714,1,0,0:0:0:0:
475,192,25881,128,0,26214:0:0:0:0:
109,192,25881,1,0,0:0:0:0:
329,192,25881,128,0,26214:0:0:0:0:
182,192,25964,1,0,0:0:0:0:
256,192,26047,128,0,26381:0:0:0:0:
109,192,26047,128,0,26381:0:0:0:0:
36,192,26047,1,0,0:0:0:0:
402,192,26214,128,0,26381:0:0:0:0:
182,192,26214,128,0,27047:0:0:0:0:
475,192,26381,1,0,0:0:0:0:
36,192,26381,1,0,0:0:0:0:
329,192,26381,128,0,26714:0:0:0:0:
402,192,26714,128,0,27881:0:0:0:0:
36,192,26714,128,0,27381:0:0:0:0:
475,192,26714,1,0,0:0:0:0:
109,192,26714,1,0,0:0:0:0:
256,192,26714,1,0,0:0:0:0:
256,192,27047,1,0,0:0:0:0:
475,192,27047,128,0,28714:0:0:0:0:
329,192,27047,1,0,0:0:0:0:
182,192,27214,1,0,0:0:0:0:
256,192,27297,1,0,0:0:0:0:
182,192,27381,128,0,27714:0:0:0:0:
329,192,27381,1,0,0:0:0:0:
109,192,27547,1,0,0:0:0:0:
36,192,27547,1,0,0:0:0:0:
109,192,27714,128,0,28714:0:0:0:0:
329,192,27714,1,0,0:0:0:0:
256,192,27714,1,0,0:0:0:0:
329,192,27881,128,0,28714:0:0:0:0:
36,192,28047,1,0,0:0:0:0:
182,192,28047,1,0,0:0:0:0:
256,192,28214,1,0,0:0:0:0:
36,192,28381,1,0,0:0:0:0:
182,192,28381,1,0,0:0:0:0:
402,192,28381,1,0,0:0:0:0:
256,192,28547,1,0,0:0:0:0:
182,192,28714,1,0,0:0:0:0:
256,192,28797,1,0,0:0:0:0:
36,192,28881,1,0,0:0:0:0:
329,192,28881,1,0,0:0:0:0:
109,192,28881,1,0,0:0:0:0:
475,192,29047,1,0,0:0:0:0:
36,192,29047,128,0,30047:0:0:0:0:
256,192,29047,1,0,0:0:0:0:
402,192,29047,1,0,0:0:0:0:
182,192,29047,1,0,0:0:0:0:
329,192,29214,1,0,0:0:0:0:
182,192,29381,128,0,30381:0:0:0:0:
402,192,29381,128,0,29714:0:0:0:0:
109,192,29381,1,0,0:0:0:0:
475,192,29381,1,0,0:0:0:0:
256,192,29547,1,0,0:0:0:0:
329,192,29714,1,0,0:0:0:0:
109,192,29714,1,0,0:0:0:0:
256,192,29714,128,0,31214:0:0:0:0:
402,192,29881,1,0,0:0:0:0:
475,192,29881,1,0,0:0:0:0:
329,192,30047,128,0,30714:0:0:0:0:
475,192,30047,128,0,30381:0:0:0:0:
109,192,30214,1,0,0:0:0:0:
36,192,30214,1,0,0:0:0:0:
109,192,30381,128,0,30714:0:0:0:0:
402,192,30381,1,0,0:0:0:0:
36,192,30381,1,0,0:0:0:0:
36,192,30714,128,0,31714:0:0:0:0:
475,192,30714,128,0,31214:0:0:0:0:
182,192,30714,1,0,0:0:0:0:
402,192,30714,1,0,0:0:0:0:
109,192,30881,1,0,0:0:0:0:
182,192,30881,1,0,0:0:0:0:
329,192,30881,1,0,0:0:0:0:
402,192,31214,1,0,0:0:0:0:
329,192,31214,128,0,31714:0:0:0:0:
109,192,31214,1,0,0:0:0:0:
182,192,31214,128,0,32047:0:0:0:0:
475,192,31381,1,0,0:0:0:0:
402,192,31381,1,0,0:0:0:0:
402,192,31547,1,0,0:0:0:0:
475,192,31547,1,0,0:0:0:0:
475,192,31714,128,0,32714:0:0:0:0:
109,192,31714,1,0,0:0:0:0:
256,192,31714,128,0,31881:0:0:0:0:
329,192,31881,128,0,32047:0:0:0:0:
256,192,32047,128,0,33047:0:0:0:0:
109,192,32047,1,0,0:0:0:0:
36,192,32047,1,0,0:0:0:0:
402,192,32047,1,0,0:0:0:0:
329,192,32381,1,0,0:0:0:0:
402,192,32381,128,0,32714:0:0:0:0:
36,192,32381,1,0,0:0:0:0:
182,192,32381,1,0,0:0:0:0:
182,192,32547,1,0,0:0:0:0:
109,192,32714,128,0,33881:0:0:0:0:
36,192,32714,128,0,33381:0:0:0:0:
329,192,32714,1,0,0:0:0:0:
402,192,32881,1,0,0:0:0:0:
475,192,32881,1,0,0:0:0:0:
329,192,33047,1,0,0:0:0:0:
182,192,33047,128,0,33381:0:0:0:0:
475,192,33047,1,0,0:0:0:0:
329,192,33214,1,0,0:0:0:0:
402,192,33381,128,0,34381:0:0:0:0:
256,192,33381,128,0,33881:0:0:0:0:
475,192,33381,1,0,0:0:0:0:
329,192,33547,1,0,0:0:0:0:
36,192,33714,1,0,0:0:0:0:
182,192,33714,1,0,0:0:0:0:
329,192,33881,128,0,34381:0:0:0:0:
475,192,33881,128,0,35381:0:0:0:0:
182,192,33881,1,0,0:0:0:0:
36,192,34047,1,0,0:0:0:0:
109,192,34214,1,0,0:0:0:0:
182,192,34214,1,0,0:0:0:0:
36,192,34381,128,0,36214:0:0:0:0:
182,192,34381,128,0,34881:0:0:0:0:
256,192,34381,128,0,34714:0:0:0:0:
402,192,34714,1,0,0:0:0:0:
329,192,34714,1,0,0:0:0:0:
109,192,34881,1,0,0:0:0:0:
402,192,34881,128,0,35714:0:0:0:0:
256,192,34881,1,0,0:0:0:0:
182,192,35047,1,0,0:0:0:0:
256,192,35131,1,0,0:0:0:0:
109,192,35214,1,0,0:0:0:0:
329,192,35214,1,0,0:0:0:0:
109,192,35381,128,0,36214:0:0:0:0:
182,192,35381,1,0,0:0:0:0:
256,192,35381,1,0,0:0:0:0:
256,192,35547,1,0,0:0:0:0:
329,192,35714,128,0,35881:0:0:0:0:
475,192,35714,1,0,0:0:0:0:
182,192,35714,1,0,0:0:0:0:
475,192,35881,1,0,0:0:0:0:
256,192,35881,128,0,36214:0:0:0:0:
402,192,35881,1,0,0:0:0:0:
182,192,36047,1,0,0:0:0:0:
329,192,36214,1,0,0:0:0:0:
475,192,36214,1,0,0:0:0:0:
402,192,36214,1,0,0:0:0:0:
36,192,36381,1,0,0:0:0:0:
109,192,36381,1,0,0:0:0:0:
182,192,36381,1,0,0:0:0:0:
329,192,36381,128,0,37047:0:0:0:0:
402,192,36547,1,0,0:0:0:0:
475,192,36547,128,0,36714:0:0:0:0:
36,192,36714,128,0,36881:0:0:0:0:
182,192,36714,128,0,37047:0:0:0:0:
256,192,36714,1,0,0:0:0:0:
109,192,36714,1,0,0:0:0:0:
402,192,36881,128,0,37214:0:0:0:0:
475,192,36881,1,0,0:0:0:0:
109,192,37047,128,0,37381:0:0:0:0:
256,192,37047,128,0,37381:0:0:0:0:
36,192,37047,1,0,0:0:0:0:
329,192,37214,1,0,0:0:0:0:
36,192,37381,128,0,38381:0:0:0:0:
475,192,37381,128,0,37714:0:0:0:0:
182,192,37381,128,0,38047:0:0:0:0:
402,192,37381,128,0,38047:0:0:0:0:
329,192,37714,128,0,38547:0:0:0:0:
256,192,37714,1,0,0:0:0:0:
109,192,37714,1,0,0:0:0:0:
256,192,38047,128,0,39547:0:0:0:0:
475,192,38047,1,0,0:0:0:0:
109,192,38214,1,0,0:0:0:0:
182,192,38214,1,0,0:0:0:0:
402,192,38381,1,0,0:0:0:0:
475,192,38381,1,0,0:0:0:0:
182,192,38381,128,0,38881:0:0:0:0:
475,192,38547,128,0,39547:0:0:0:0:
329,192,38714,1,0,0:0:0:0:
402,192,38714,1,0,0:0:0:0:
109,192,38714,1,0,0:0:0:0:
36,192,38881,128,0,39547:0:0:0:0:
109,192,39047,1,0,0:0:0:0:
182,192,39047,1,0,0:0:0:0:
182,192,39214,1,0,0:0:0:0:
402,192,39381,1,0,0:0:0:0:
329,192,39547,1,0,0:0:0:0:
182,192,39547,1,0,0:0:0:0:
109,192,39547,1,0,0:0:0:0:
36,192,39714,1,0,0:0:0:0:
475,192,39714,1,0,0:0:0:0:
329,192,39714,1,0,0:0:0:0:
109,192,39714,1,0,0:0:0:0:
402,192,39714,1,0,0:0:0:0:
256,192,39881,1,0,0:0:0:0:
329,192,40047,128,0,40381:0:0:0:0:
475,192,40047,1,0,0:0:0:0:
36,192,40047,1,0,0:0:0:0:
182,192,40047,128,0,41214:0:0:0:0:
36,192,40214,1,0,0:0:0:0:
109,192,40214,1,0,0:0:0:0:
402,192,40381,1,0,0:0:0:0:
256,192,40381,1,0,0:0:0:0:
402,192,40547,128,0,41714:0:0:0:0:
109,192,40547,128,0,41547:0:0:0:0:
36,192,40547,1,0,0:0:0:0:
475,192,40547,1,0,0:0:0:0:
256,192,40714,1,0,0:0:0:0:
329,192,40714,1,0,0:0:0:0:
36,192,41047,1,0,0:0:0:0:
256,192,41047,1,0,0:0:0:0:
475,192,41214,1,0,0:0:0:0:
329,192,41214,128,0,41881:0:0:0:0:
256,192,41214,1,0,0:0:0:0:
36,192,41547,1,0,0:0:0:0:
182,192,41547,128,0,42047:0:0:0:0:
256,192,41547,1,0,0:0:0:0:
109,192,41714,1,0,0:0:0:0:
36,192,41714,1,0,0:0:0:0:
475,192,41714,128,0,42381:0:0:0:0:
256,192,41881,128,0,42214:0:0:0:0:
109,192,42047,128,0,42547:0:0:0:0:
402,192,42047,1,0,0:0:0:0:
329,192,42047,1,0,0:0:0:0:
36,192,42214,128,0,42547:0:0:0:0:
402,192,42214,128,0,42547:0:0:0:0:
329,192,42214,1,0,0:0:0:0:
256,192,42381,1,0,0:0:0:0:
182,192,42381,128,0,42714:0:0:0:0:
475,192,42547,128,0,43381:0:0:0:0:
329,192,42547,128,0,43381:0:0:0:0:
109,192,42714,1,0,0:0:0:0:
256,192,42714,1,0,0:0:0:0:
36,192,42714,1,0,0:0:0:0:
36,192,42881,1,0,0:0:0:0:
182,192,42881,1,0,0:0:0:0:
109,192,43047,1,0,0:0:0:0:
36,192,43047,1,0,0:0:0:0:
256,192,43047,1,0,0:0:0:0:
402,192,43047,1,0,0:0:0:0:
182,192,43214,1,0,0:0:0:0:
256,192,43214,1,0,0:0:0:0:
109,192,43381,1,0,0:0:0:0:
256,192,43381,1,0,0:0:0:0:
36,192,43381,1,0,0:0:0:0:
475,192,43547,1,0,0:0:0:0:
182,192,43547,1,0,0:0:0:0:
402,192,43547,1,0,0:0:0:0:
475,192,43714,1,0,0:0:0:0:
109,192,43714,1,0,0:0:0:0:
329,192,43714,1,0,0:0:0:0:
182,192,43881,1,0,0:0:0:0:
36,192,43881,1,0,0:0:0:0:
256,192,43881,1,0,0:0:0:0:
402,192,43881,1,0,0:0:0:0:
475,192,44047,1,0,0:0:0:0:
329,192,44047,1,0,0:0:0:0:
182,192,44214,1,0,0:0:0:0:
402,192,44214,1,0,0:0:0:0:
329,192,44214,1,0,0:0:0:0:
109,192,44381,1,0,0:0:0:0:
329,192,44381,1,0,0:0:0:0:
36,192,44381,1,0,0:0:0:0:
256,192,44381,1,0,0:0:0:0:
109,192,44547,1,0,0:0:0:0:
402,192,44547,1,0,0:0:0:0:
36,192,44714,1,0,0:0:0:0:
329,192,44714,1,0,0:0:0:0:
182,192,44714,1,0,0:0:0:0:
36,192,44881,1,0,0:0:0:0:
256,192,44881,1,0,0:0:0:0:
109,192,44881,1,0,0:0:0:0:
475,192,45047,1,0,0:0:0:0:
36,192,45047,1,0,0:0:0:0:
329,192,45047,1,0,0:0:0:0:
182,192,45047,1,0,0:0:0:0:
402,192,45214,1,0,0:0:0:0:
475,192,45214,1,0,0:0:0:0:
182,192,45214,1,0,0:0:0:0:
36,192,45381,1,0,0:0:0:0:
109,192,45381,1,0,0:0:0:0:
256,192,45381,1,0,0:0:0:0:
36,192,45547,1,0,0:0:0:0:
182,192,45547,1,0,0:0:0:0:
475,192,45714,1,0,0:0:0:0:
256,192,45714,1,0,0:0:0:0:
329,192,45714,1,0,0:0:0:0:
109,192,45714,1,0,0:0:0:0:
402,192,45881,1,0,0:0:0:0:
256,192,45881,1,0,0:0:0:0:
182,192,45964,1,0,0:0:0:0:
475,192,46047,1,0,0:0:0:0:
402,192,46047,1,0,0:0:0:0:
329,192,46047,1,0,0:0:0:0:
182,192,46131,1,0,0:0:0:0:
36,192,46214,1,0,0:0:0:0:
109,192,46214,1,0,0:0:0:0:
256,192,46214,1,0,0:0:0:0:
402,192,46381,1,0,0:0:0:0:
182,192,46381,1,0,0:0:0:0:
36,192,46547,1,0,0:0:0:0:
182,192,46547,1,0,0:0:0:0:
475,192,46547,1,0,0:0:0:0:
256,192,46547,1,0,0:0:0:0:
329,192,46714,1,0,0:0:0:0:
109,192,46714,1,0,0:0:0:0:
402,192,46797,1,0,0:0:0:0:
475,192,46881,1,0,0:0:0:0:
329,192,46881,1,0,0:0:0:0:
182,192,46881,1,0,0:0:0:0:
36,192,47047,1,0,0:0:0:0:
109,192,47047,1,0,0:0:0:0:
256,192,47047,1,0,0:0:0:0:
475,192,47214,1,0,0:0:0:0:
256,192,47214,1,0,0:0:0:0:
402,192,47381,1,0,0:0:0:0:
475,192,47381,1,0,0:0:0:0:
109,192,47381,1,0,0:0:0:0:
36,192,47547,1,0,0:0:0:0:
182,192,47547,1,0,0:0:0:0:
256,192,47547,1,0,0:0:0:0:
475,192,47547,1,0,0:0:0:0:
109,192,47714,1,0,0:0:0:0:
329,192,47714,1,0,0:0:0:0:
256,192,47797,1,0,0:0:0:0:
109,192,47881,1,0,0:0:0:0:
182,192,47881,1,0,0:0:0:0:
36,192,47881,1,0,0:0:0:0:
329,192,47881,1,0,0:0:0:0:
182,192,48047,1,0,0:0:0:0:
256,192,48047,1,0,0:0:0:0:
475,192,48047,1,0,0:0:0:0:
402,192,48047,1,0,0:0:0:0:
329,192,48214,1,0,0:0:0:0:
475,192,48214,1,0,0:0:0:0:
109,192,48381,1,0,0:0:0:0:
36,192,48381,1,0,0:0:0:0:
256,192,48381,1,0,0:0:0:0:
402,192,48381,1,0,0:0:0:0:
182,192,48547,1,0,0:0:0:0:
256,192,48547,1,0,0:0:0:0:
475,192,48631,1,0,0:0:0:0:
36,192,48714,1,0,0:0:0:0:
329,192,48714,1,0,0:0:0:0:
182,192,48714,1,0,0:0:0:0:
475,192,48797,1,0,0:0:0:0:
402,192,48881,1,0,0:0:0:0:
256,192,48881,1,0,0:0:0:0:
182,192,48881,1,0,0:0:0:0:
109,192,49047,1,0,0:0:0:0:
329,192,49047,1,0,0:0:0:0:
36,192,49214,1,0,0:0:0:0:
329,192,49214,1,0,0:0:0:0:
402,192,49214,1,0,0:0:0:0:
182,192,49214,1,0,0:0:0:0:
475,192,49381,1,0,0:0:0:0:
329,192,49381,1,0,0:0:0:0:
182,192,49464,1,0,0:0:0:0:
109,192,49547,1,0,0:0:0:0:
256,192,49547,1,0,0:0:0:0:
402,192,49547,1,0,0:0:0:0:
475,192,49714,1,0,0:0:0:0:
182,192,49714,1,0,0:0:0:0:
36,192,49714,1,0,0:0:0:0:
256,192,49714,1,0,0:0:0:0:
109,192,49881,1,0,0:0:0:0:
402,192,49881,1,0,0:0:0:0:
256,192,49964,1,0,0:0:0:0:
36,192,50047,1,0,0:0:0:0:
329,192,50047,1,0,0:0:0:0:
182,192,50047,1,0,0:0:0:0:
36,192,50214,1,0,0:0:0:0:
256,192,50214,1,0,0:0:0:0:
109,192,50214,1,0,0:0:0:0:
182,192,50381,1,0,0:0:0:0:
475,192,50381,1,0,0:0:0:0:
329,192,50381,1,0,0:0:0:0:
109,192,50381,1,0,0:0:0:0:
402,192,50547,1,0,0:0:0:0:
182,192,50547,1,0,0:0:0:0:
256,192,50631,1,0,0:0:0:0:
329,192,50714,1,0,0:0:0:0:
36,192,50714,1,0,0:0:0:0:
109,192,50714,1,0,0:0:0:0:
475,192,50881,1,0,0:0:0:0:
182,192,50881,1,0,0:0:0:0:
182,192,51047,1,0,0:0:0:0:
109,192,51047,1,0,0:0:0:0:
329,192,51047,1,0,0:0:0:0:
402,192,51214,1,0,0:0:0:0:
256,192,51214,1,0,0:0:0:0:
182,192,51297,1,0,0:0:0:0:
475,192,51381,1,0,0:0:0:0:
36,192,51381,1,0,0:0:0:0:
329,192,51381,1,0,0:0:0:0:
402,192,51381,1,0,0:0:0:0:
36,192,51547,1,0,0:0:0:0:
109,192,51547,1,0,0:0:0:0:
256,192,51547,1,0,0:0:0:0:
402,192,51714,1,0,0:0:0:0:
182,192,51714,1,0,0:0:0:0:
36,192,51881,1,0,0:0:0:0:
182,192,51881,1,0,0:0:0:0:
475,192,51881,1,0,0:0:0:0:
256,192,51881,1,0,0:0:0:0:
329,192,52047,1,0,0:0:0:0:
109,192,52047,1,0,0:0:0:0:
475,192,52214,1,0,0:0:0:0:
329,192,52214,1,0,0:0:0:0:
182,192,52214,1,0,0:0:0:0:
256,192,52297,1,0,0:0:0:0:
329,192,52381,1,0,0:0:0:0:
109,192,52381,1,0,0:0:0:0:
36,192,52381,1,0,0:0:0:0:
402,192,52547,1,0,0:0:0:0:
256,192,52547,1,0,0:0:0:0:
36,192,52631,1,0,0:0:0:0:
475,192,52714,1,0,0:0:0:0:
256,192,52714,1,0,0:0:0:0:
109,192,52714,1,0,0:0:0:0:
329,192,52714,1,0,0:0:0:0:
182,192,52881,1,0,0:0:0:0:
36,192,52881,1,0,0:0:0:0:
329,192,52964,1,0,0:0:0:0:
402,192,52964,1,0,0:0:0:0:
475,192,53047,1,0,0:0:0:0:
182,192,53047,1,0,0:0:0:0:
109,192,53047,1,0,0:0:0:0:
256,192,53047,1,0,0:0:0:0:
329,192,53131,1,0,0:0:0:0:
182,192,53214,1,0,0:0:0:0:
36,192,53214,1,0,0:0:0:0:
329,192,53297,1,0,0:0:0:0:
109,192,53381,1,0,0:0:0:0:
36,192,53381,1,0,0:0:0:0:
475,192,53381,1,0,0:0:0:0:
256,192,53381,1,0,0:0:0:0:
329,192,53547,1,0,0:0:0:0:
475,192,53547,1,0,0:0:0:0:
402,192,53714,1,0,0:0:0:0:
475,192,53714,1,0,0:0:0:0:
182,192,53714,1,0,0:0:0:0:
36,192,53714,1,0,0:0:0:0:
256,192,53881,1,0,0:0:0:0:
329,192,53881,1,0,0:0:0:0:
109,192,53964,1,0,0:0:0:0:
475,192,54047,1,0,0:0:0:0:
256,192,54047,1,0,0:0:0:0:
402,192,54047,1,0,0:0:0:0:
182,192,54131,1,0,0:0:0:0:
109,192,54214,1,0,0:0:0:0:
329,192,54214,1,0,0:0:0:0:
36,192,54214,1,0,0:0:0:0:
182,192,54381,1,0,0:0:0:0:
402,192,54381,1,0,0:0:0:0:
256,192,54547,1,0,0:0:0:0:
109,192,54547,1,0,0:0:0:0:
475,192,54547,1,0,0:0:0:0:
402,192,54547,1,0,0:0:0:0:
182,192,54714,1,0,0:0:0:0:
36,192,54714,1,0,0:0:0:0:
182,192,54881,1,0,0:0:0:0:
109,192,54881,1,0,0:0:0:0:
329,192,54881,1,0,0:0:0:0:
475,192,55047,1,0,0:0:0:0:
256,192,55047,1,0,0:0:0:0:
402,192,55047,1,0,0:0:0:0:
182,192,55047,1,0,0:0:0:0:
109,192,55214,1,0,0:0:0:0:
402,192,55214,1,0,0:0:0:0:
36,192,55214,1,0,0:0:0:0:
329,192,55381,1,0,0:0:0:0:
182,192,55381,1,0,0:0:0:0:
475,192,55381,1,0,0:0:0:0:
402,192,55547,1,0,0:0:0:0:
256,192,55547,1,0,0:0:0:0:
475,192,55547,1,0,0:0:0:0:
182,192,55714,1,0,0:0:0:0:
329,192,55714,1,0,0:0:0:0:
36,192,55714,1,0,0:0:0:0:
475,192,55714,1,0,0:0:0:0:
329,192,55881,1,0,0:0:0:0:
36,192,55881,1,0,0:0:0:0:
109,192,55881,1,0,0:0:0:0:
256,192,56047,1,0,0:0:0:0:
402,192,56047,1,0,0:0:0:0:
475,192,56047,1,0,0:0:0:0:
329,192,56214,1,0,0:0:0:0:
475,192,56214,1,0,0:0:0:0:
182,192,56214,1,0,0:0:0:0:
182,192,56381,1,0,0:0:0:0:
402,192,56381,1,0,0:0:0:0:
36,192,56381,1,0,0:0:0:0:
256,192,56381,1,0,0:0:0:0:
256,192,56547,1,0,0:0:0:0:
109,192,56547,1,0,0:0:0:0:
329,192,56631,1,0,0:0:0:0:
182,192,56714,1,0,0:0:0:0:
109,192,56714,1,0,0:0:0:0:
36,192,56714,1,0,0:0:0:0:
329,192,56797,1,0,0:0:0:0:
256,192,56881,1,0,0:0:0:0:
402,192,56881,1,0,0:0:0:0:
475,192,56881,1,0,0:0:0:0:
329,192,57047,1,0,0:0:0:0:
109,192,57047,1,0,0:0:0:0:
36,192,57214,1,0,0:0:0:0:
256,192,57214,1,0,0:0:0:0:
475,192,57214,1,0,0:0:0:0:
329,192,57214,1,0,0:0:0:0:
402,192,57381,1,0,0:0:0:0:
182,192,57381,1,0,0:0:0:0:
109,192,57464,1,0,0:0:0:0:
329,192,57547,1,0,0:0:0:0:
182,192,57547,1,0,0:0:0:0:
36,192,57547,1,0,0:0:0:0:
256,192,57714,1,0,0:0:0:0:
402,192,57714,1,0,0:0:0:0:
475,192,57714,1,0,0:0:0:0:
256,192,57881,1,0,0:0:0:0:
36,192,57881,1,0,0:0:0:0:
402,192,58047,1,0,0:0:0:0:
36,192,58047,1,0,0:0:0:0:
109,192,58047,1,0,0:0:0:0:
256,192,58214,1,0,0:0:0:0:
402,192,58214,1,0,0:0:0:0:
109,192,58214,1,0,0:0:0:0:
182,192,58381,1,0,0:0:0:0:
36,192,58381,1,0,0:0:0:0:
402,192,58381,1,0,0:0:0:0:
475,192,58547,1,0,0:0:0:0:
182,192,58547,1,0,0:0:0:0:
402,192,58547,1,0,0:0:0:0:
36,192,58714,1,0,0:0:0:0:
109,192,58714,1,0,0:0:0:0:
329,192,58714,1,0,0:0:0:0:
256,192,58714,1,0,0:0:0:0:
36,192,58881,1,0,0:0:0:0:
182,192,58881,1,0,0:0:0:0:
256,192,59047,1,0,0:0:0:0:
109,192,59047,1,0,0:0:0:0:
402,192,59047,1,0,0:0:0:0:
475,192,59047,1,0,0:0:0:0:
256,192,59214,1,0,0:0:0:0:
329,192,59214,1,0,0:0:0:0:
36,192,59297,1,0,0:0:0:0:
329,192,59381,1,0,0:0:0:0:
182,192,59381,1,0,0:0:0:0:
475,192,59381,1,0,0:0:0:0:
36,192,59464,1,0,0:0:0:0:
329,192,59547,1,0,0:0:0:0:
256,192,59547,1,0,0:0:0:0:
109,192,59547,1,0,0:0:0:0:
182,192,59714,1,0,0:0:0:0:
402,192,59714,1,0,0:0:0:0:
109,192,59881,1,0,0:0:0:0:
329,192,59881,1,0,0:0:0:0:
475,192,59881,1,0,0:0:0:0:
182,192,59881,1,0,0:0:0:0:
182,192,60047,1,0,0:0:0:0:
36,192,60047,1,0,0:0:0:0:
329,192,60131,1,0,0:0:0:0:
109,192,60214,1,0,0:0:0:0:
256,192,60214,1,0,0:0:0:0:
402,192,60214,1,0,0:0:0:0:
475,192,60381,1,0,0:0:0:0:
256,192,60381,1,0,0:0:0:0:
36,192,60381,1,0,0:0:0:0:
329,192,60381,1,0,0:0:0:0:
402,192,60547,1,0,0:0:0:0:
182,192,60547,1,0,0:0:0:0:
329,192,60714,1,0,0:0:0:0:
475,192,60714,1,0,0:0:0:0:
109,192,60714,1,0,0:0:0:0:
256,192,60881,1,0,0:0:0:0:
109,192,60881,1,0,0:0:0:0:
329,192,60881,1,0,0:0:0:0:
36,192,61047,1,0,0:0:0:0:
109,192,61047,1,0,0:0:0:0:
402,192,61047,1,0,0:0:0:0:
109,192,61214,1,0,0:0:0:0:
402,192,61214,1,0,0:0:0:0:
256,192,61214,1,0,0:0:0:0:
475,192,61381,1,0,0:0:0:0:
36,192,61381,1,0,0:0:0:0:
329,192,61381,1,0,0:0:0:0:
109,192,61381,1,0,0:0:0:0:
36,192,61547,1,0,0:0:0:0:
182,192,61547,1,0,0:0:0:0:
109,192,61714,1,0,0:0:0:0:
256,192,61714,1,0,0:0:0:0:
256,192,61881,1,0,0:0:0:0:
402,192,61881,1,0,0:0:0:0:
329,192,62047,1,0,0:0:0:0:
475,192,62047,1,0,0:0:0:0:
36,192,62214,1,0,0:0:0:0:
256,192,62214,1,0,0:0:0:0:
182,192,62381,1,0,0:0:0:0:
329,192,62381,1,0,0:0:0:0:
475,192,62547,1,0,0:0:0:0:
329,192,62547,1,0,0:0:0:0:
182,192,62714,1,0,0:0:0:0:
402,192,62714,1,0,0:0:0:0:
109,192,62881,1,0,0:0:0:0:
256,192,62881,1,0,0:0:0:0:
36,192,63047,1,0,0:0:0:0:
182,192,63047,1,0,0:0:0:0:
475,192,63214,1,0,0:0:0:0:
329,192,63214,1,0,0:0:0:0:
182,192,63381,1,0,0:0:0:0:
329,192,63381,1,0,0:0:0:0:
256,192,63547,1,0,0:0:0:0:
109,192,63547,1,0,0:0:0:0:
475,192,63714,1,0,0:0:0:0:
109,192,63714,1,0,0:0:0:0:
329,192,63714,1,0,0:0:0:0:
182,192,63714,1,0,0:0:0:0:
475,192,63797,1,0,0:0:0:0:
36,192,63797,1,0,0:0:0:0:
182,192,63797,1,0,0:0:0:0:
402,192,63797,1,0,0:0:0:0:
36,192,63964,1,0,0:0:0:0:
475,192,63964,1,0,0:0:0:0:
182,192,63964,1,0,0:0:0:0:
402,192,63964,1,0,0:0:0:0:
256,192,64047,128,0,65714:0:0:0:0:
402,192,64047,128,0,64381:0:0:0:0:
329,192,64047,1,0,0:0:0:0:
36,192,64047,128,0,65047:0:0:0:0:
109,192,64047,128,0,64381:0:0:0:0:
475,192,64381,128,0,65714:0:0:0:0:
182,192,64381,128,0,65047:0:0:0:0:
329,192,64381,1,0,0:0:0:0:
402,192,64714,1,0,0:0:0:0:
329,192,64881,1,0,0:0:0:0:
109,192,64881,1,0,0:0:0:0:
329,192,65047,128,0,66047:0:0:0:0:
109,192,65047,128,0,66047:0:0:0:0:
402,192,65047,1,0,0:0:0:0:
36,192,65381,1,0,0:0:0:0:
402,192,65381,1,0,0:0:0:0:
36,192,65714,128,0,66381:0:0:0:0:
402,192,65714,128,0,66381:0:0:0:0:
182,192,65714,1,0,0:0:0:0:
256,192,66047,128,0,66381:0:0:0:0:
475,192,66047,128,0,66547:0:0:0:0:
182,192,66214,1,0,0:0:0:0:
109,192,66214,1,0,0:0:0:0:
329,192,66381,128,0,68714:0:0:0:0:
182,192,66381,128,0,66547:0:0:0:0:
109,192,66381,128,0,66714:0:0:0:0:
256,192,66547,128,0,67714:0:0:0:0:
36,192,66714,1,0,0:0:0:0:
182,192,66714,1,0,0:0:0:0:
402,192,67047,1,0,0:0:0:0:
109,192,67047,128,0,67381:0:0:0:0:
182,192,67047,1,0,0:0:0:0:
475,192,67047,128,0,70381:0:0:0:0:
36,192,67297,1,0,0:0:0:0:
182,192,67381,1,0,0:0:0:0:
109,192,67464,1,0,0:0:0:0:
36,192,67547,1,0,0:0:0:0:
182,192,67714,128,0,68381:0:0:0:0:
109,192,67714,128,0,68047:0:0:0:0:
402,192,67714,1,0,0:0:0:0:
36,192,68047,1,0,0:0:0:0:
256,192,68047,1,0,0:0:0:0:
36,192,68214,1,0,0:0:0:0:
109,192,68214,1,0,0:0:0:0:
402,192,68381,1,0,0:0:0:0:
256,192,68381,1,0,0:0:0:0:
182,192,68547,128,0,68881:0:0:0:0:
36,192,68547,128,0,68881:0:0:0:0:
109,192,68547,1,0,0:0:0:0:
256,192,68714,128,0,69047:0:0:0:0:
402,192,68714,128,0,68881:0:0:0:0:
109,192,68881,128,0,69047:0:0:0:0:
329,192,68881,128,0,70047:0:0:0:0:
182,192,69047,128,0,72381:0:0:0:0:
36,192,69047,1,0,0:0:0:0:
402,192,69047,1,0,0:0:0:0:
109,192,69297,1,0,0:0:0:0:
256,192,69297,1,0,0:0:0:0:
36,192,69381,128,0,71047:0:0:0:0:
402,192,69381,128,0,69714:0:0:0:0:
109,192,69714,128,0,70047:0:0:0:0:
256,192,69714,1,0,0:0:0:0:
256,192,70047,1,0,0:0:0:0:
109,192,70214,1,0,0:0:0:0:
402,192,70214,1,0,0:0:0:0:
402,192,70381,128,0,70714:0:0:0:0:
329,192,70381,1,0,0:0:0:0:
256,192,70381,1,0,0:0:0:0:
256,192,70714,1,0,0:0:0:0:
109,192,70714,1,0,0:0:0:0:
475,192,70714,1,0,0:0:0:0:
402,192,71047,128,0,71381:0:0:0:0:
109,192,71047,1,0,0:0:0:0:
329,192,71047,1,0,0:0:0:0:
475,192,71047,1,0,0:0:0:0:
256,192,71381,1,0,0:0:0:0:
36,192,71547,1,0,0:0:0:0:
329,192,71547,1,0,0:0:0:0:
475,192,71547,1,0,0:0:0:0:
402,192,71714,128,0,72047:0:0:0:0:
256,192,71714,1,0,0:0:0:0:
475,192,71714,1,0,0:0:0:0:
109,192,71714,1,0,0:0:0:0:
475,192,72047,1,0,0:0:0:0:
36,192,72047,1,0,0:0:0:0:
329,192,72047,128,0,72297:0:0:0:0:
109,192,72047,128,0,72881:0:0:0:0:
402,192,72381,128,0,73047:0:0:0:0:
475,192,72381,1,0,0:0:0:0:
329,192,72381,128,0,72631:0:0:0:0:
256,192,72381,1,0,0:0:0:0:
329,192,72714,128,0,73214:0:0:0:0:
36,192,72881,1,0,0:0:0:0:
182,192,72881,1,0,0:0:0:0:
182,192,73047,128,0,73381:0:0:0:0:
36,192,73047,1,0,0:0:0:0:
475,192,73047,128,0,73381:0:0:0:0:
109,192,73047,1,0,0:0:0:0:
402,192,73214,1,0,0:0:0:0:
256,192,73214,128,0,73881:0:0:0:0:
36,192,73381,128,0,74381:0:0:0:0:
109,192,73381,128,0,73881:0:0:0:0:
329,192,73381,1,0,0:0:0:0:
402,192,73547,1,0,0:0:0:0:
475,192,73547,1,0,0:0:0:0:
475,192,73714,1,0,0:0:0:0:
402,192,73714,1,0,0:0:0:0:
182,192,73881,128,0,74631:0:0:0:0:
475,192,74047,1,0,0:0:0:0:
256,192,74047,1,0,0:0:0:0:
329,192,74047,128,0,74297:0:0:0:0:
109,192,74214,1,0,0:0:0:0:
402,192,74214,128,0,74297:0:0:0:0:
402,192,74381,128,0,75047:0:0:0:0:
329,192,74381,128,0,74547:0:0:0:0:
109,192,74381,128,0,74631:0:0:0:0:
475,192,74547,128,0,75297:0:0:0:0:
256,192,74547,1,0,0:0:0:0:
36,192,74714,128,0,75464:0:0:0:0:
256,192,74714,128,0,75047:0:0:0:0:
329,192,74714,1,0,0:0:0:0:
182,192,74714,128,0,75047:0:0:0:0:
109,192,75047,128,0,75464:0:0:0:0:
329,192,75047,128,0,76714:0:0:0:0:
182,192,75297,1,0,0:0:0:0:
256,192,75297,1,0,0:0:0:0:
402,192,75381,128,0,75547:0:0:0:0:
475,192,75381,128,0,75547:0:0:0:0:
36,192,75547,128,0,76131:0:0:0:0:
182,192,75547,128,0,75881:0:0:0:0:
256,192,75547,1,0,0:0:0:0:
402,192,75714,1,0,0:0:0:0:
109,192,75881,128,0,76131:0:0:0:0:
256,192,75881,128,0,76381:0:0:0:0:
475,192,75881,1,0,0:0:0:0:
402,192,75881,128,0,76381:0:0:0:0:
36,192,76214,1,0,0:0:0:0:
109,192,76214,1,0,0:0:0:0:
475,192,76381,128,0,76714:0:0:0:0:
109,192,76381,128,0,76714:0:0:0:0:
182,192,76381,128,0,77131:0:0:0:0:
36,192,76381,1,0,0:0:0:0:
256,192,76714,128,0,77214:0:0:0:0:
36,192,76714,128,0,76964:0:0:0:0:
402,192,76714,1,0,0:0:0:0:
475,192,76797,1,0,0:0:0:0:
329,192,76881,1,0,0:0:0:0:
402,192,76964,1,0,0:0:0:0:
475,192,77047,128,0,77714:0:0:0:0:
36,192,77047,1,0,0:0:0:0:
329,192,77047,128,0,77297:0:0:0:0:
109,192,77131,1,0,0:0:0:0:
182,192,77214,1,0,0:0:0:0:
402,192,77214,128,0,78547:0:0:0:0:
256,192,77297,1,0,0:0:0:0:
109,192,77381,1,0,0:0:0:0:
329,192,77381,128,0,77714:0:0:0:0:
182,192,77381,128,0,77714:0:0:0:0:
36,192,77381,128,0,78547:0:0:0:0:
256,192,77714,128,0,78214:0:0:0:0:
109,192,77714,128,0,77881:0:0:0:0:
109,192,77964,128,0,78131:0:0:0:0:
329,192,78214,1,0,0:0:0:0:
475,192,78214,1,0,0:0:0:0:
109,192,78214,128,0,78881:0:0:0:0:
182,192,78214,128,0,79214:0:0:0:0:
329,192,78547,128,0,79381:0:0:0:0:
475,192,78547,128,0,79047:0:0:0:0:
256,192,78547,1,0,0:0:0:0:
36,192,78881,1,0,0:0:0:0:
256,192,78881,1,0,0:0:0:0:
36,192,79047,1,0,0:0:0:0:
402,192,79047,1,0,0:0:0:0:
402,192,79214,1,0,0:0:0:0:
109,192,79214,1,0,0:0:0:0:
475,192,79381,1,0,0:0:0:0:
256,192,79381,1,0,0:0:0:0:
36,192,79381,1,0,0:0:0:0:
182,192,79381,128,0,79547:0:0:0:0:
329,192,79547,128,0,79714:0:0:0:0:
256,192,79631,1,0,0:0:0:0:
402,192,79714,128,0,79881:0:0:0:0:
475,192,79714,128,0,79881:0:0:0:0:
109,192,79714,128,0,79881:0:0:0:0:
182,192,79714,1,0,0:0:0:0:
36,192,79881,1,0,0:0:0:0:
256,192,79881,1,0,0:0:0:0:
182,192,79964,128,0,80047:0:0:0:0:
475,192,79964,128,0,80047:0:0:0:0:
329,192,79964,128,0,80047:0:0:0:0:
402,192,79964,1,0,0:0:0:0:
109,192,79964,128,0,80047:0:0:0:0:
256,192,80047,1,0,0:0:0:0:
36,192,80131,128,0,80464:0:0:0:0:
402,192,80131,128,0,80464:0:0:0:0:
182,192,80131,128,0,80464:0:0:0:0:
475,192,80131,128,0,80464:0:0:0:0:
256,192,80297,1,0,0:0:0:0:
402,192,80547,128,0,80631:0:0:0:0:
475,192,80547,128,0,80631:0:0:0:0:
182,192,80547,128,0,80631:0:0:0:0:
36,192,80547,128,0,80631:0:0:0:0:
256,192,80547,1,0,0:0:0:0:
475,192,80714,128,0,80882:0:0:0:0:
36,192,80714,128,0,80882:0:0:0:0:
182,192,80714,128,0,80882:0:0:0:0:
402,192,80714,128,0,80882:0:0:0:0:
256,192,80714,1,0,0:0:0:0:
36,192,80964,128,0,81132:0:0:0:0:
475,192,80964,128,0,81132:0:0:0:0:
182,192,80964,128,0,81132:0:0:0:0:
402,192,80964,128,0,81132:0:0:0:0:
256,192,80964,1,0,0:0:0:0:
182,192,81214,128,0,81297:0:0:0:0:
402,192,81214,128,0,81297:0:0:0:0:
36,192,81214,128,0,81297:0:0:0:0:
475,192,81214,128,0,81297:0:0:0:0:
256,192,81214,1,0,0:0:0:0:
402,192,81382,128,0,81547:0:0:0:0:
182,192,81382,128,0,81547:0:0:0:0:
36,192,81382,128,0,81547:0:0:0:0:
475,192,81382,128,0,81547:0:0:0:0:
256,192,81382,1,0,0:0:0:0:
475,192,81631,128,0,81797:0:0:0:0:
36,192,81631,128,0,81797:0:0:0:0:
402,192,81631,128,0,81797:0:0:0:0:
182,192,81631,128,0,81797:0:0:0:0:
256,192,81631,1,0,0:0:0:0:
475,192,81881,128,0,81964:0:0:0:0:
36,192,81881,128,0,81964:0:0:0:0:
402,192,81881,128,0,81964:0:0:0:0:
182,192,81881,128,0,81964:0:0:0:0:
256,192,81881,1,0,0:0:0:0:
475,192,82047,128,0,82215:0:0:0:0:
36,192,82047,128,0,82215:0:0:0:0:
402,192,82047,128,0,82215:0:0:0:0:
182,192,82047,128,0,82215:0:0:0:0:
256,192,82047,1,0,0:0:0:0:
475,192,82297,128,0,82465:0:0:0:0:
36,192,82297,128,0,82465:0:0:0:0:
182,192,82297,128,0,82465:0:0:0:0:
402,192,82297,128,0,82465:0:0:0:0:
256,192,82297,1,0,0:0:0:0:
475,192,82547,128,0,82632:0:0:0:0:
36,192,82547,128,0,82632:0:0:0:0:
182,192,82547,128,0,82632:0:0:0:0:
402,192,82547,128,0,82632:0:0:0:0:
256,192,82547,1,0,0:0:0:0:
36,192,82715,128,0,82882:0:0:0:0:
182,192,82715,128,0,82882:0:0:0:0:
402,192,82715,128,0,82882:0:0:0:0:
475,192,82715,128,0,82882:0:0:0:0:
256,192,82715,1,0,0:0:0:0:
475,192,82966,128,0,83714:0:0:0:0:
182,192,82966,128,0,83798:0:0:0:0:
402,192,82966,128,0,83381:0:0:0:0:
256,192,82966,1,0,0:0:0:0:
36,192,82966,128,0,83381:0:0:0:0:
109,192,83047,1,0,0:0:0:0:
329,192,83047,1,0,0:0:0:0:
256,192,83214,1,0,0:0:0:0:
256,192,83381,1,0,0:0:0:0:
109,192,83381,1,0,0:0:0:0:
329,192,83381,128,0,83798:0:0:0:0:
36,192,83548,1,0,0:0:0:0:
109,192,83548,1,0,0:0:0:0:
402,192,83714,128,0,83798:0:0:0:0:
36,192,83798,1,0,0:0:0:0:
109,192,83798,1,0,0:0:0:0:
329,192,83881,1,0,0:0:0:0:
182,192,83881,1,0,0:0:0:0:
109,192,83964,128,0,84214:0:0:0:0:
256,192,83964,128,0,84214:0:0:0:0:
36,192,83964,1,0,0:0:0:0:
475,192,83964,1,0,0:0:0:0:
402,192,83964,1,0,0:0:0:0:
36,192,84214,1,0,0:0:0:0:
402,192,84214,1,0,0:0:0:0:
182,192,84214,1,0,0:0:0:0:
475,192,84214,1,0,0:0:0:0:
329,192,84214,1,0,0:0:0:0:
182,192,84381,128,0,84631:0:0:0:0:
475,192,84381,128,0,84631:0:0:0:0:
256,192,84381,1,0,0:0:0:0:
109,192,84381,1,0,0:0:0:0:
402,192,84381,1,0,0:0:0:0:
36,192,84631,1,0,0:0:0:0:
329,192,84631,1,0,0:0:0:0:
402,192,84631,1,0,0:0:0:0:
182,192,84714,1,0,0:0:0:0:
256,192,84714,1,0,0:0:0:0:
329,192,84798,128,0,85048:0:0:0:0:
109,192,84798,128,0,85048:0:0:0:0:
402,192,84798,1,0,0:0:0:0:
36,192,84798,1,0,0:0:0:0:
475,192,84798,1,0,0:0:0:0:
475,192,85048,1,0,0:0:0:0:
402,192,85048,1,0,0:0:0:0:
36,192,85048,1,0,0:0:0:0:
182,192,85048,1,0,0:0:0:0:
256,192,85048,1,0,0:0:0:0:
182,192,85214,1,0,0:0:0:0:
256,192,85214,1,0,0:0:0:0:
36,192,85214,1,0,0:0:0:0:
402,192,85214,1,0,0:0:0:0:
475,192,85214,1,0,0:0:0:0:
36,192,85381,128,0,87048:0:0:0:0:
256,192,85381,1,0,0:0:0:0:
475,192,85381,128,0,86381:0:0:0:0:
402,192,85381,128,0,85714:0:0:0:0:
109,192,85381,128,0,85714:0:0:0:0:
256,192,85714,128,0,87048:0:0:0:0:
329,192,85714,128,0,86381:0:0:0:0:
182,192,85714,1,0,0:0:0:0:
182,192,85964,1,0,0:0:0:0:
109,192,85964,1,0,0:0:0:0:
402,192,86048,1,0,0:0:0:0:
182,192,86214,1,0,0:0:0:0:
109,192,86214,1,0,0:0:0:0:
182,192,86381,128,0,87881:0:0:0:0:
402,192,86381,128,0,87381:0:0:0:0:
109,192,86381,1,0,0:0:0:0:
475,192,86548,1,0,0:0:0:0:
329,192,86548,1,0,0:0:0:0:
475,192,86714,1,0,0:0:0:0:
329,192,86714,1,0,0:0:0:0:
475,192,86964,1,0,0:0:0:0:
329,192,87048,128,0,87381:0:0:0:0:
109,192,87048,1,0,0:0:0:0:
109,192,87298,1,0,0:0:0:0:
36,192,87298,128,0,87714:0:0:0:0:
475,192,87381,128,0,89048:0:0:0:0:
256,192,87381,128,0,87714:0:0:0:0:
329,192,87548,1,0,0:0:0:0:
402,192,87548,1,0,0:0:0:0:
109,192,87714,128,0,88381:0:0:0:0:
329,192,87798,1,0,0:0:0:0:
402,192,87881,128,0,88381:0:0:0:0:
256,192,87881,128,0,88881:0:0:0:0:
36,192,88048,1,0,0:0:0:0:
329,192,88048,1,0,0:0:0:0:
182,192,88048,1,0,0:0:0:0:
36,192,88381,1,0,0:0:0:0:
329,192,88381,1,0,0:0:0:0:
182,192,88381,128,0,89381:0:0:0:0:
36,192,88548,128,0,88881:0:0:0:0:
402,192,88548,1,0,0:0:0:0:
329,192,88548,1,0,0:0:0:0:
329,192,88881,128,0,89381:0:0:0:0:
402,192,88881,1,0,0:0:0:0:
109,192,88881,1,0,0:0:0:0:
36,192,89048,1,0,0:0:0:0:
402,192,89048,128,0,89548:0:0:0:0:
109,192,89048,1,0,0:0:0:0:
36,192,89381,1,0,0:0:0:0:
256,192,89381,128,0,89881:0:0:0:0:
109,192,89381,1,0,0:0:0:0:
36,192,89548,1,0,0:0:0:0:
475,192,89548,1,0,0:0:0:0:
329,192,89548,1,0,0:0:0:0:
36,192,89881,1,0,0:0:0:0:
402,192,89881,1,0,0:0:0:0:
475,192,89881,1,0,0:0:0:0:
109,192,89881,128,0,90381:0:0:0:0:
329,192,90047,1,0,0:0:0:0:
475,192,90047,1,0,0:0:0:0:
36,192,90047,1,0,0:0:0:0:
402,192,90047,128,0,90214:0:0:0:0:
182,192,90047,1,0,0:0:0:0:
256,192,90214,128,0,90381:0:0:0:0:
329,192,90381,128,0,90464:0:0:0:0:
402,192,90381,1,0,0:0:0:0:
36,192,90381,128,0,90464:0:0:0:0:
182,192,90464,1,0,0:0:0:0:
475,192,90464,1,0,0:0:0:0:
256,192,90464,128,0,90547:0:0:0:0:
109,192,90547,128,0,90631:0:0:0:0:
329,192,90547,1,0,0:0:0:0:
402,192,90547,128,0,90631:0:0:0:0:
182,192,90631,128,0,90714:0:0:0:0:
36,192,90631,1,0,0:0:0:0:
256,192,90631,1,0,0:0:0:0:
329,192,90714,128,0,91547:0:0:0:0:
402,192,90714,1,0,0:0:0:0:
475,192,90714,128,0,90881:0:0:0:0:
182,192,90881,128,0,91547:0:0:0:0:
36,192,90881,128,0,91714:0:0:0:0:
109,192,91047,1,0,0:0:0:0:
475,192,91047,128,0,91881:0:0:0:0:
402,192,91047,1,0,0:0:0:0:
256,192,91047,1,0,0:0:0:0:
109,192,91381,1,0,0:0:0:0:
256,192,91547,128,0,91631:0:0:0:0:
402,192,91547,1,0,0:0:0:0:
329,192,91631,128,0,91881:0:0:0:0:
182,192,91714,128,0,91881:0:0:0:0:
402,192,91881,128,0,91964:0:0:0:0:
256,192,91881,128,0,93047:0:0:0:0:
109,192,91881,128,0,92381:0:0:0:0:
36,192,91881,1,0,0:0:0:0:
475,192,91964,128,0,92047:0:0:0:0:
329,192,92047,128,0,92214:0:0:0:0:
402,192,92214,1,0,0:0:0:0:
36,192,92214,128,0,92631:0:0:0:0:
475,192,92214,1,0,0:0:0:0:
402,192,92381,128,0,92714:0:0:0:0:
475,192,92381,1,0,0:0:0:0:
182,192,92381,128,0,92631:0:0:0:0:
329,192,92381,1,0,0:0:0:0:
182,192,92714,1,0,0:0:0:0:
329,192,92714,128,0,93047:0:0:0:0:
36,192,92714,1,0,0:0:0:0:
109,192,92714,128,0,93047:0:0:0:0:
475,192,92714,1,0,0:0:0:0:
475,192,92964,1,0,0:0:0:0:
182,192,93047,128,0,93186:0:0:0:0:
36,192,93047,128,0,93186:0:0:0:0:
402,192,93047,1,0,0:0:0:0:
256,192,93270,1,0,0:0:0:0:
329,192,93270,1,0,0:0:0:0:
475,192,93270,1,0,0:0:0:0:
36,192,93270,128,0,93381:0:0:0:0:
182,192,93270,128,0,93381:0:0:0:0:
402,192,93381,1,0,0:0:0:0:
109,192,93381,1,0,0:0:0:0:
329,192,93381,1,0,0:0:0:0:
109,192,93631,1,0,0:0:0:0:
402,192,93631,1,0,0:0:0:0:
329,192,93714,128,0,93881:0:0:0:0:
475,192,93714,128,0,93881:0:0:0:0:
182,192,93714,1,0,0:0:0:0:
36,192,93714,1,0,0:0:0:0:
256,192,93714,1,0,0:0:0:0:
109,192,93881,1,0,0:0:0:0:
182,192,93881,1,0,0:0:0:0:
256,192,94047,1,0,0:0:0:0:
475,192,94047,128,0,94131:0:0:0:0:
36,192,94047,1,0,0:0:0:0:
109,192,94047,1,0,0:0:0:0:
402,192,94131,128,0,94214:0:0:0:0:
329,192,94214,128,0,94381:0:0:0:0:
109,192,94297,1,0,0:0:0:0:
36,192,94297,1,0,0:0:0:0:
475,192,94381,1,0,0:0:0:0:
182,192,94381,128,0,94547:0:0:0:0:
256,192,94381,1,0,0:0:0:0:
402,192,94381,1,0,0:0:0:0:
402,192,94547,1,0,0:0:0:0:
109,192,94547,128,0,94714:0:0:0:0:
329,192,94547,1,0,0:0:0:0:
36,192,94714,1,0,0:0:0:0:
256,192,94714,1,0,0:0:0:0:
182,192,94714,1,0,0:0:0:0:
329,192,94714,128,0,94881:0:0:0:0:
475,192,94714,128,0,94881:0:0:0:0:
109,192,94881,1,0,0:0:0:0:
329,192,94964,128,0,95131:0:0:0:0:
475,192,94964,128,0,95131:0:0:0:0:
182,192,94964,1,0,0:0:0:0:
109,192,95047,1,0,0:0:0:0:
36,192,95047,128,0,95214:0:0:0:0:
256,192,95131,128,0,95297:0:0:0:0:
402,192,95131,1,0,0:0:0:0:
182,192,95214,1,0,0:0:0:0:
109,192,95214,128,0,95381:0:0:0:0:
402,192,95297,1,0,0:0:0:0:
329,192,95297,128,0,95464:0:0:0:0:
182,192,95381,128,0,95547:0:0:0:0:
36,192,95381,1,0,0:0:0:0:
475,192,95464,1,0,0:0:0:0:
402,192,95464,128,0,95631:0:0:0:0:
256,192,95547,128,0,95714:0:0:0:0:
109,192,95547,1,0,0:0:0:0:
475,192,95631,128,0,95714:0:0:0:0:
329,192,95631,1,0,0:0:0:0:
36,192,95714,1,0,0:0:0:0:
182,192,95714,1,0,0:0:0:0:
109,192,95714,1,0,0:0:0:0:
36,192,96047,1,0,0:0:0:0:
402,192,96047,1,0,0:0:0:0:
475,192,96047,1,0,0:0:0:0:
109,192,96047,1,0,0:0:0:0:
256,192,96047,1,0,0:0:0:0:
