osu file format v14

[General]
AudioFilename: audio.mp3
AudioLeadIn: 0
PreviewTime: -1
Countdown: 1
SampleSet: None
StackLeniency: 0.7
Mode: 0
LetterboxInBreaks: 0
WidescreenStoryboard: 0

[Editor]
DistanceSpacing: 1
BeatDivisor: 4
GridSize: 8
TimelineZoom: 3.199999

[Metadata]
Title:Higan Retour
TitleUnicode:Higan Retour
Artist:sun3
ArtistUnicode:sun3
Creator:JiruPiru
Version:TAG4
Source:
Tags:
BeatmapID:1785487
BeatmapSetID:854395

[Difficulty]
HPDrainRate:2
CircleSize:5
OverallDifficulty:8
ApproachRate:8
SliderMultiplier:1.4
SliderTickRate:1

[Events]
//Background and Video events
0,0,"bg.jpg",0,0
//Break Periods
//Storyboard Layer 0 (Background)
//Storyboard Layer 1 (Fail)
//Storyboard Layer 2 (Pass)
//Storyboard Layer 3 (Foreground)
//Storyboard Sound Samples

[TimingPoints]
0,300,4,2,0,70,1,0
20700,300,4,2,0,70,1,0
68700,-100,4,2,0,70,0,0

[HitObjects]
256,192,1200,6,0,L|64:56,2,210
256,192,2400,6,0,L|448:56,2,210
0,192,3600,5,0,0:0:0:0:
72,192,3750,1,0,0:0:0:0:
256,192,3900,5,0,0:0:0:0:
256,264,4050,1,0,0:0:0:0:
256,32,4200,6,0,P|216:72|152:32,1,140
512,0,4800,5,0,0:0:0:0:
0,384,5250,5,0,0:0:0:0:
256,192,5700,5,0,0:0:0:0:
0,96,6000,6,0,B|40:72|40:72|168:72|168:72|200:48,2,210
512,96,7200,6,0,B|472:72|472:72|344:72|344:72|312:48,2,210
256,0,8400,5,0,0:0:0:0:
256,72,8550,1,0,0:0:0:0:
256,144,8700,1,0,0:0:0:0:
0,192,9000,5,0,0:0:0:0:
256,192,9300,5,0,0:0:0:0:
512,192,9600,5,0,0:0:0:0:
256,192,9675,12,0,10500,0:0:0:0:
16,16,10800,5,0,0:0:0:0:
64,64,10950,1,0,0:0:0:0:
120,16,11100,1,0,0:0:0:0:
168,72,11250,1,0,0:0:0:0:
168,72,11325,1,0,0:0:0:0:
256,192,11400,5,0,0:0:0:0:
256,120,11550,1,0,0:0:0:0:
256,120,11625,1,0,0:0:0:0:
448,160,11700,6,0,P|464:120|464:112,1,35
64,160,11850,6,0,P|48:120|48:112,1,35
256,192,12000,5,0,0:0:0:0:
304,240,12150,1,0,0:0:0:0:
352,192,12300,1,0,0:0:0:0:
392,248,12450,1,0,0:0:0:0:
392,248,12525,1,0,0:0:0:0:
392,248,12600,1,0,0:0:0:0:
480,32,12750,5,0,0:0:0:0:
424,80,12900,2,0,L|376:96,1,35
328,40,13050,2,0,L|272:56,1,35
48,320,13200,5,0,0:0:0:0:
48,320,13350,1,0,0:0:0:0:
104,280,13500,1,0,0:0:0:0:
160,320,13650,1,0,0:0:0:0:
464,320,13800,5,0,0:0:0:0:
464,320,13950,1,0,0:0:0:0:
408,280,14100,1,0,0:0:0:0:
352,320,14250,1,0,0:0:0:0:
256,48,14400,6,0,L|192:96,1,70
200,160,14700,1,0,0:0:0:0:
380,264,14850,6,0,L|371:184,1,70
311,159,15150,1,0,0:0:0:0:
256,0,15300,5,0,0:0:0:0:
256,112,15375,5,0,0:0:0:0:
256,384,15450,5,0,0:0:0:0:
256,264,15525,5,0,0:0:0:0:
256,264,15600,1,0,0:0:0:0:
312,224,15750,1,0,0:0:0:0:
368,264,15900,1,0,0:0:0:0:
424,224,16050,2,0,L|464:272,2,35
368,176,16350,1,0,0:0:0:0:
368,176,16425,1,0,0:0:0:0:
32,32,16500,5,0,0:0:0:0:
40,64,16575,1,0,0:0:0:0:
72,56,16650,1,0,0:0:0:0:
64,24,16725,1,0,0:0:0:0:
368,24,16800,5,0,0:0:0:0:
408,80,16950,1,0,0:0:0:0:
368,136,17100,1,0,0:0:0:0:
320,80,17250,1,0,0:0:0:0:
320,80,17325,1,0,0:0:0:0:
368,304,17400,5,0,0:0:0:0:
312,264,17550,1,0,0:0:0:0:
376,232,17700,1,0,0:0:0:0:
376,232,17775,1,0,0:0:0:0:
160,120,17850,5,0,0:0:0:0:
160,120,17925,1,0,0:0:0:0:
472,64,18000,6,0,P|504:40|512:0,1,70
40,320,18300,6,0,P|8:344|0:384,1,70
472,64,18600,5,0,0:0:0:0:
40,320,18750,5,0,0:0:0:0:
472,320,18900,5,0,0:0:0:0:
40,64,19050,5,0,0:0:0:0:
256,192,19200,5,0,0:0:0:0:
256,192,19275,5,0,0:0:0:0:
256,192,19350,5,0,0:0:0:0:
256,192,19425,5,0,0:0:0:0:
256,192,19500,5,0,0:0:0:0:
256,192,19575,5,0,0:0:0:0:
256,192,19650,5,0,0:0:0:0:
256,192,19725,5,0,0:0:0:0:
256,192,19800,5,0,0:0:0:0:
256,192,19875,5,0,0:0:0:0:
256,192,19950,5,0,0:0:0:0:
256,192,20025,5,0,0:0:0:0:
256,0,20100,5,0,0:0:0:0:
0,0,20700,6,0,P|0:40|24:88,1,70
80,80,21000,1,0,0:0:0:0:
80,152,21150,2,0,P|152:184|216:144,1,140
208,88,21600,1,0,0:0:0:0:
480,296,21750,5,0,0:0:0:0:
480,296,21900,1,0,0:0:0:0:
424,256,22050,1,0,0:0:0:0:
368,296,22200,1,0,0:0:0:0:
320,248,22350,2,0,P|280:208|216:256,1,140
208,312,22800,1,0,0:0:0:0:
472,32,22950,5,0,0:0:0:0:
472,32,23025,1,0,0:0:0:0:
0,192,23100,6,0,L|80:192,1,70
512,192,23400,6,0,L|432:192,1,70
256,192,23700,5,0,0:0:0:0:
256,0,23850,5,0,0:0:0:0:
256,192,24000,5,0,0:0:0:0:
256,0,24150,5,0,0:0:0:0:
256,192,24300,6,0,L|256:344,1,140
256,192,24750,6,0,L|256:40,1,140
256,52,25200,5,0,0:0:0:0:
256,332,25350,5,0,0:0:0:0:
0,0,25500,6,0,P|0:40|24:88,1,70
80,80,25800,1,0,0:0:0:0:
80,152,25950,2,0,P|152:184|216:144,1,140
208,88,26400,1,0,0:0:0:0:
480,296,26550,5,0,0:0:0:0:
480,296,26700,1,0,0:0:0:0:
424,256,26850,1,0,0:0:0:0:
368,296,27000,1,0,0:0:0:0:
320,248,27150,2,0,P|280:208|216:256,1,140
208,312,27600,1,0,0:0:0:0:
472,32,27750,5,0,0:0:0:0:
472,32,27825,1,0,0:0:0:0:
0,192,27900,6,0,L|80:192,1,70
512,192,28200,6,0,L|432:192,1,70
256,192,28500,5,0,0:0:0:0:
256,0,28650,5,0,0:0:0:0:
256,192,28800,5,0,0:0:0:0:
256,0,28950,5,0,0:0:0:0:
256,192,29100,6,0,L|256:344,1,140
256,192,29550,6,0,L|256:40,1,140
256,52,30000,5,0,0:0:0:0:
256,192,30075,5,0,0:0:0:0:
256,332,30150,5,0,0:0:0:0:
256,192,30225,5,0,0:0:0:0:
0,0,30300,6,0,P|0:40|24:88,1,70
80,80,30600,1,0,0:0:0:0:
80,152,30750,2,0,P|152:184|216:144,1,140
208,88,31200,1,0,0:0:0:0:
480,296,31350,5,0,0:0:0:0:
480,296,31500,1,0,0:0:0:0:
424,256,31650,1,0,0:0:0:0:
368,296,31800,1,0,0:0:0:0:
320,248,31950,2,0,P|280:208|216:256,1,140
208,312,32400,1,0,0:0:0:0:
472,32,32550,5,0,0:0:0:0:
472,32,32625,1,0,0:0:0:0:
0,192,32700,6,0,L|80:192,1,70
512,192,33000,6,0,L|432:192,1,70
256,192,33300,5,0,0:0:0:0:
256,0,33450,5,0,0:0:0:0:
256,192,33600,5,0,0:0:0:0:
256,0,33750,5,0,0:0:0:0:
256,192,33900,6,0,L|256:344,1,140
256,192,34350,6,0,L|256:40,1,140
256,52,34800,5,0,0:0:0:0:
256,332,34950,5,0,0:0:0:0:
512,384,35100,6,0,P|512:344|488:296,1,70
432,304,35400,1,0,0:0:0:0:
432,232,35550,2,0,P|360:200|296:240,1,140
304,296,36000,1,0,0:0:0:0:
32,88,36150,5,0,0:0:0:0:
32,88,36300,1,0,0:0:0:0:
88,128,36450,1,0,0:0:0:0:
144,88,36600,1,0,0:0:0:0:
192,136,36750,2,0,P|232:176|296:128,1,140
304,72,37200,1,0,0:0:0:0:
40,352,37350,5,0,0:0:0:0:
40,352,37425,1,0,0:0:0:0:
512,192,37500,6,0,L|432:192,1,70
0,192,37800,6,0,L|80:192,1,70
256,192,38100,5,0,0:0:0:0:
256,384,38250,5,0,0:0:0:0:
256,192,38400,5,0,0:0:0:0:
256,384,38550,5,0,0:0:0:0:
256,192,38700,6,0,L|256:40,1,140
256,192,39150,6,0,L|256:344,1,140
256,332,39600,5,0,0:0:0:0:
256,192,39675,5,0,0:0:0:0:
256,52,39750,5,0,0:0:0:0:
512,192,39825,5,0,0:0:0:0:
0,192,39900,6,0,L|88:192,2,70
0,384,40350,6,0,L|88:384,2,70
0,0,40800,6,0,L|88:0,2,70
512,0,41250,5,0,0:0:0:0:
512,0,41400,1,0,0:0:0:0:
512,192,41550,5,0,0:0:0:0:
512,192,41700,1,0,0:0:0:0:
512,384,41850,5,0,0:0:0:0:
512,384,42000,1,0,0:0:0:0:
256,192,42150,5,0,0:0:0:0:
512,192,42300,6,0,L|424:192,2,70
512,384,42750,6,0,L|424:384,2,70
512,0,43200,6,0,L|424:0,2,70
0,0,43650,5,0,0:0:0:0:
0,0,43800,1,0,0:0:0:0:
0,192,43950,5,0,0:0:0:0:
0,192,44100,1,0,0:0:0:0:
0,384,44250,5,0,0:0:0:0:
0,384,44400,1,0,0:0:0:0:
256,192,44550,5,0,0:0:0:0:
0,192,44700,6,0,L|88:192,2,70
0,384,45150,6,0,L|88:384,2,70
0,0,45600,6,0,L|88:0,2,70
512,0,46050,5,0,0:0:0:0:
512,0,46200,1,0,0:0:0:0:
512,192,46350,5,0,0:0:0:0:
512,192,46500,1,0,0:0:0:0:
512,384,46650,5,0,0:0:0:0:
512,384,46800,1,0,0:0:0:0:
256,192,46950,5,0,0:0:0:0:
512,192,47100,6,0,L|424:192,2,70
512,384,47550,6,0,L|424:384,2,70
512,0,48000,6,0,L|424:0,2,70
0,0,48450,5,0,0:0:0:0:
0,0,48600,1,0,0:0:0:0:
0,192,48750,5,0,0:0:0:0:
0,192,48900,1,0,0:0:0:0:
0,384,49050,5,0,0:0:0:0:
0,384,49200,1,0,0:0:0:0:
256,192,49350,5,0,0:0:0:0:
0,192,49500,6,0,L|88:192,2,70
0,384,49950,6,0,L|88:384,2,70
0,0,50400,6,0,L|88:0,2,70
512,0,50850,5,0,0:0:0:0:
512,0,51000,1,0,0:0:0:0:
512,192,51150,5,0,0:0:0:0:
512,192,51300,1,0,0:0:0:0:
512,384,51450,5,0,0:0:0:0:
512,384,51600,1,0,0:0:0:0:
256,192,51750,5,0,0:0:0:0:
512,192,51900,6,0,L|424:192,2,70
512,384,52350,6,0,L|424:384,2,70
512,0,52800,6,0,L|424:0,2,70
0,0,53250,5,0,0:0:0:0:
0,0,53400,1,0,0:0:0:0:
0,192,53550,5,0,0:0:0:0:
0,192,53700,1,0,0:0:0:0:
0,384,53850,5,0,0:0:0:0:
0,384,54000,1,0,0:0:0:0:
256,192,54150,5,0,0:0:0:0:
0,192,54300,6,0,L|88:192,2,70
0,384,54750,6,0,L|88:384,2,70
0,0,55200,6,0,L|88:0,2,70
512,0,55650,5,0,0:0:0:0:
512,0,55800,1,0,0:0:0:0:
512,192,55950,5,0,0:0:0:0:
512,192,56100,1,0,0:0:0:0:
512,384,56250,5,0,0:0:0:0:
512,384,56400,1,0,0:0:0:0:
256,192,56550,5,0,0:0:0:0:
0,192,56700,6,0,L|88:192,2,70
0,384,57150,6,0,L|88:384,2,70
0,0,57600,6,0,L|88:0,2,70
256,192,57975,12,0,59100,0:0:0:0:
0,0,59100,5,0,0:0:0:0:
512,384,59250,5,0,0:0:0:0:
512,0,59400,5,0,0:0:0:0:
0,384,59550,5,0,0:0:0:0:
0,0,59700,5,0,0:0:0:0:
256,0,59850,5,0,0:0:0:0:
256,192,59925,5,0,0:0:0:0:
256,384,60000,5,0,0:0:0:0:
0,0,60300,5,0,0:0:0:0:
512,0,60450,5,0,0:0:0:0:
512,384,60600,5,0,0:0:0:0:
0,384,60750,5,0,0:0:0:0:
0,0,60900,5,0,0:0:0:0:
256,192,61050,5,0,0:0:0:0:
256,192,61125,5,0,0:0:0:0:
256,192,61200,5,0,0:0:0:0:
256,0,61500,5,0,0:0:0:0:
256,0,61650,1,0,0:0:0:0:
256,192,61800,5,0,0:0:0:0:
256,192,61950,1,0,0:0:0:0:
0,0,62100,5,0,0:0:0:0:
512,0,62250,5,0,0:0:0:0:
512,384,62325,5,0,0:0:0:0:
0,384,62400,5,0,0:0:0:0:
0,192,62700,6,0,L|0:120,1,70
512,192,63000,6,0,L|512:120,1,70
256,0,63300,5,0,0:0:0:0:
256,0,63375,5,0,0:0:0:0:
0,192,63450,5,0,0:0:0:0:
256,192,63525,5,0,0:0:0:0:
512,192,63600,5,0,0:0:0:0:
512,384,63900,1,0,0:0:0:0:
0,0,64050,5,0,0:0:0:0:
0,384,64200,5,0,0:0:0:0:
512,0,64350,5,0,0:0:0:0:
512,384,64500,5,0,0:0:0:0:
256,384,64650,5,0,0:0:0:0:
256,192,64725,5,0,0:0:0:0:
256,0,64800,5,0,0:0:0:0:
512,384,65100,5,0,0:0:0:0:
0,384,65250,5,0,0:0:0:0:
0,0,65400,5,0,0:0:0:0:
512,0,65550,5,0,0:0:0:0:
512,384,65700,5,0,0:0:0:0:
256,192,65850,5,0,0:0:0:0:
256,192,65925,5,0,0:0:0:0:
256,192,66000,5,0,0:0:0:0:
256,384,66300,5,0,0:0:0:0:
256,384,66450,1,0,0:0:0:0:
256,192,66600,5,0,0:0:0:0:
256,192,66750,1,0,0:0:0:0:
512,384,66900,5,0,0:0:0:0:
0,384,67050,5,0,0:0:0:0:
0,0,67125,5,0,0:0:0:0:
512,0,67200,5,0,0:0:0:0:
512,192,67500,6,0,L|512:264,1,70
0,192,67800,6,0,L|0:264,1,70
256,384,68100,5,0,0:0:0:0:
256,384,68175,5,0,0:0:0:0:
512,192,68250,5,0,0:0:0:0:
256,192,68325,5,0,0:0:0:0:
0,192,68400,5,0,0:0:0:0:
256,0,68700,5,0,0:0:0:0:
