osu file format v14

[General]
AudioFilename: Sun3 - Apollon.mp3
AudioLeadIn: 0
PreviewTime: -1
Countdown: 1
SampleSet: Normal
StackLeniency: 0.7
Mode: 2
LetterboxInBreaks: 1
WidescreenStoryboard: 0

[Editor]
Bookmarks: 144036,145348
DistanceSpacing: 0.8
BeatDivisor: 12
GridSize: 4
TimelineZoom: 2.8

[Metadata]
Title:ApolloN
TitleUnicode:ApolloN
Artist:sun3
ArtistUnicode:sun3
Creator:ralip
Version:ok
Source:
Tags:
BeatmapID:617451
BeatmapSetID:271557

[Difficulty]
HPDrainRate:6
CircleSize:4
OverallDifficulty:7
ApproachRate:9.6
SliderMultiplier:1.6
SliderTickRate:1

[Events]
//Background and Video events
0,0,"water_sunset_clouds_dress_stars_blue_eyes_long_hair_pink_hair_water_droplets_anime_girls_looking_bac_Wallpaper HD_10000x4092_www.paperhi.com.jpg",0,0
//Break Periods
//Storyboard Layer 0 (Background)
//Storyboard Layer 1 (Fail)
//Storyboard Layer 2 (Pass)
//Storyboard Layer 3 (Foreground)
//Storyboard Sound Samples

[TimingPoints]
2739.82326462842,324.324324324324,4,1,1,100,1,0
13118,-66.6666666666667,4,1,1,100,0,0
28685,-52.6315789473684,4,1,1,100,0,0
33869,-50,4,1,1,100,0,0
33874,162.162162162162,4,1,1,95,1,1
38576,-50,4,1,1,91,0,1
38738,-50,4,1,1,91,0,0
38901,-50,4,1,1,91,0,0
39063,-100,4,1,1,91,0,1
54630,324.324324324324,4,1,1,100,1,0
57170,-100,4,1,1,5,0,0
57224,-100,4,1,1,79,0,0
59765,-100,4,1,1,5,0,0
59819,-100,4,1,1,80,0,0
62359,-100,4,1,1,5,0,0
62413,-100,4,1,1,86,0,0
65008,-100,4,1,1,81,0,0
76684,-55.5555555555556,4,1,1,100,0,0
77981,162.162162162162,4,1,1,100,1,0
77981,-100,4,1,1,100,0,1
96143,324.324324324324,4,1,1,100,1,0
96143,-133.333333333333,4,1,1,100,0,0
98088,-50,4,1,1,100,0,0
159548,-50,4,1,1,100,0,0
161007,-100,4,1,1,100,0,0

[HitObjects]
252,12,2739,6,0,B|256:72|256:120|224:132|288:168|196:192|296:200|208:220|316:232|184:248|340:256|128:272|388:276|144:304|420:308|148:316|416:336|172:344|256:376|256:280|248:228|248:172|252:120|248:72|252:24|256:20,1,600
40,208,4037,6,0,L|96:288,1,80,0|0,0:0|0:0,0:0:0:0:
132,168,4361,2,0,L|196:252,1,80,0|0,0:0|0:0,0:0:0:0:
500,208,4685,6,0,L|444:288,1,80,0|0,0:0|0:0,0:0:0:0:
408,168,5009,2,0,L|344:252,1,80,0|0,0:0|0:0,0:0:0:0:
28,36,5334,6,0,B|80:44|40:88|132:56|56:140|164:116|92:216|220:132|156:256|264:172|240:276|320:192|288:288|360:200|328:296|264:352|252:264|248:200|256:148|252:100|244:56|240:24|248:20,1,600
40,208,6631,6,0,L|40:320,1,80
172,204,6956,2,0,L|176:296,1,80
492,192,7280,6,0,L|496:304,1,80
340,192,7604,2,0,L|344:280,1,80
500,52,7929,6,0,B|360:52|264:52|240:52|240:84|240:120|240:176|240:216|240:248|244:280|192:276|140:280|104:272|64:264|36:268|40:268,1,600
88,184,9226,6,0,L|160:244,1,80
456,172,9550,2,0,L|388:248,1,80
72,84,9874,6,0,L|180:84,1,80
468,88,10199,2,0,L|352:92,1,80
36,284,10523,6,0,B|88:284|160:288|160:216|152:128|252:128|248:280|252:144|248:92|240:40|240:4|240:112|244:172|236:232|240:288|240:328|240:360|336:352,1,600
8,92,11820,6,0,L|120:92,1,80
508,88,12145,2,0,L|392:88,1,80
248,236,12469,6,0,L|136:236,1,80
0,336,12793,2,0,L|100:336,1,80
96,192,13118,5,0,0:0:0:0:
264,192,13280,1,0,0:0:0:0:
504,196,13442,6,0,P|328:192|148:240,1,360.000013732911
464,320,14091,5,0,0:0:0:0:
348,320,14253,1,0,0:0:0:0:
404,320,14415,1,0,0:0:0:0:
296,320,14577,1,0,0:0:0:0:
0,152,14739,6,0,P|176:148|364:208,1,360.000013732911
188,72,15388,5,0,0:0:0:0:
72,72,15550,1,0,0:0:0:0:
128,72,15712,1,0,0:0:0:0:
20,72,15874,1,0,0:0:0:0:
399,183,16037,6,0,P|224:190|37:200,1,360.000013732911
152,280,16685,5,0,0:0:0:0:
328,284,16847,1,0,0:0:0:0:
152,280,17010,1,0,0:0:0:0:
328,288,17172,1,0,0:0:0:0:
145,148,17334,6,0,P|320:148|508:152,1,360.000013732911
8,184,17983,5,0,0:0:0:0:
124,184,18145,1,0,0:0:0:0:
68,184,18307,1,0,0:0:0:0:
176,184,18469,1,0,0:0:0:0:
168,312,18631,6,0,B|236:264|300:208|308:156|304:88|256:52|180:72,1,360.000013732911
492,328,19280,5,0,0:0:0:0:
376,328,19442,1,0,0:0:0:0:
432,328,19604,1,0,0:0:0:0:
324,328,19766,1,0,0:0:0:0:
176,296,19929,6,0,B|108:248|44:192|36:140|40:72|88:36|164:56,1,360.000013732911
496,192,20577,5,0,0:0:0:0:
120,196,20739,1,0,0:0:0:0:
264,196,20901,1,0,0:0:0:0:
436,192,21064,1,0,0:0:0:0:
206,314,21225,6,0,B|272:332|320:296|324:228|316:176|252:120|184:72,1,360.000013732911
508,280,21874,5,0,0:0:0:0:
256,280,22036,1,0,0:0:0:0:
480,280,22199,1,0,0:0:0:0:
216,280,22361,1,0,0:0:0:0:
176,88,22523,6,0,B|108:136|44:192|36:244|40:312|88:348|164:328,1,360.000013732911
496,192,23171,5,0,0:0:0:0:
120,196,23333,1,0,0:0:0:0:
264,196,23495,1,0,0:0:0:0:
436,192,23658,1,0,0:0:0:0:
168,312,23820,6,0,B|236:264|300:208|308:156|304:88|256:52|180:72,1,360.000013732911
508,280,24469,5,0,0:0:0:0:
256,280,24631,1,0,0:0:0:0:
480,280,24794,1,0,0:0:0:0:
216,280,24956,1,0,0:0:0:0:
176,296,25118,6,0,B|108:248|44:192|36:140|40:72|88:36|164:56,1,360.000013732911
496,192,25766,5,0,0:0:0:0:
120,196,25928,1,0,0:0:0:0:
264,196,26090,1,0,0:0:0:0:
432,196,26253,1,0,0:0:0:0:
60,92,26415,6,0,L|140:216,1,120.000004577637,0|0,0:0|0:0,0:0:0:0:
252,68,26739,1,0,0:0:0:0:
472,88,26901,2,0,L|404:196,1,120.000004577637,0|0,0:0|0:0,0:0:0:0:
408,192,27145,5,0,0:0:0:0:
264,196,27226,1,0,0:0:0:0:
12,96,27388,6,0,L|92:220,1,120.000004577637,0|0,0:0|0:0,0:0:0:0:
204,72,27712,1,0,0:0:0:0:
424,92,27874,2,0,L|356:200,1,120.000004577637
360,196,28118,5,0,0:0:0:0:
204,200,28199,1,0,0:0:0:0:
272,268,28361,5,0,0:0:0:0:
208,268,28442,1,0,0:0:0:0:
148,268,28523,1,0,0:0:0:0:
112,80,28685,6,0,L|112:128,1,25.3333326568604
320,80,28847,2,0,L|320:128,1,25.3333326568604
20,208,29010,6,0,L|20:256,1,25.3333326568604
224,204,29172,2,0,L|224:248,1,25.3333326568604
400,80,29334,6,0,L|400:128,1,25.3333326568604
240,80,29496,2,0,L|240:128,1,25.3333326568604
140,204,29659,6,0,L|140:240,1,25.3333326568604
336,200,29821,2,0,L|336:240,1,25.3333326568604
72,252,29983,6,0,L|72:216,1,25.3333326568604
264,256,30145,2,0,L|264:220,1,25.3333326568604
360,148,30308,6,0,L|360:112,1,25.3333326568604
164,144,30470,2,0,L|164:112,1,25.3333326568604
512,140,30631,6,0,L|512:104,1,25.3333326568604
0,136,30793,2,0,L|4:96,1,25.3333326568604
264,220,30956,6,0,L|172:128,1,101.333330627441
145,274,31280,6,0,L|152:280|88:224,1,75.9999979705811
128,176,31442,1,0,0:0:0:0:
366,274,31604,6,0,L|360:280|424:224,1,75.9999979705811
384,176,31766,1,0,0:0:0:0:
145,274,31929,6,0,L|152:280|88:224,1,75.9999979705811
128,176,32091,1,0,0:0:0:0:
160,80,32253,5,0,0:0:0:0:
320,80,32415,1,0,0:0:0:0:
164,80,32577,1,0,0:0:0:0:
320,84,32739,1,0,0:0:0:0:
360,264,32901,6,0,L|392:228,2,37.9999989852906,0|0|0,0:0|0:0|0:0,0:0:0:0:
208,252,33064,6,0,L|175:216,2,37.9999989852906,0|0|0,0:0|0:0|0:0,0:0:0:0:
112,160,33307,6,0,L|-4:52,1,151.999995941162,0|0,0:0|0:0,0:0:0:0:
416,164,33550,2,0,L|516:36,1,151.999995941162
0,88,33874,6,0,P|179:92|187:92,3,160
384,288,34522,6,0,L|224:288,3,160
0,94,35171,6,0,P|79:93|159:91,3,160
40,208,35819,6,0,L|36:296,1,80
328,212,35982,6,0,L|328:304,1,80
164,208,36144,6,0,L|160:304,1,80
484,216,36306,6,0,L|488:308,1,80
512,56,36468,6,0,L|372:148,3,160,0|0|0|0,0:0|0:0|0:0|0:0,0:0:0:0:
0,52,37117,6,0,L|140:144,3,160
512,204,37765,6,0,L|372:296,3,160,0|0|0|0,0:0|0:0|0:0|0:0,0:0:0:0:
324,264,38414,6,0,L|328:352,1,80
52,248,38577,6,0,L|52:336,1,80
364,260,38739,6,0,L|368:344,1,80
8,244,38901,6,0,L|12:328,1,80
4,72,39063,6,0,L|180:72,3,160,0|0|0|0,0:0|0:0|0:0|0:0,0:0:0:0:
424,324,39711,6,0,L|252:328,3,160
0,196,40360,6,0,L|160:196,3,160,0|0|0|0,0:0|0:0|0:0|0:0,0:0:0:0:
320,200,41009,6,0,L|376:136,1,74.6666643880209
160,204,41171,6,0,L|104:140,1,74.6666643880209
320,200,41333,6,0,L|376:136,1,74.6666643880209
160,204,41495,6,0,L|104:140,1,74.6666643880209
456,100,41656,6,0,L|456:272,1,160,0|0,0:0|0:0,0:0:0:0:
56,96,41981,6,0,L|52:268,1,160
392,108,42305,6,0,L|388:280,1,160
62,148,42629,6,0,L|111:313,1,160
385,55,42954,6,0,L|434:220,1,160
160,312,43278,2,0,L|-16:312,1,160,0|0,0:0|0:0,0:0:0:0:
464,248,43602,6,0,L|464:312,1,60
416,304,43765,5,0,0:0:0:0:
368,308,43846,6,0,L|276:308,2,80,0|0|0,0:0|0:0|0:0,0:0:0:0:
136,340,44090,6,0,L|-8:244,1,160
136,340,44414,6,0,L|-8:244,1,160
268,240,44738,6,0,L|124:144,1,160
376,340,45063,6,0,L|520:244,1,160
376,340,45387,6,0,L|520:244,1,160
244,240,45711,6,0,L|388:144,1,160
148,244,46036,2,0,L|20:128,1,160
384,184,46360,6,0,L|440:120,1,74.6666643880209
224,188,46522,6,0,L|168:124,1,74.6666643880209
384,184,46684,6,0,L|440:120,1,74.6666643880209
60,96,46846,5,0,0:0:0:0:
60,96,47009,1,0,0:0:0:0:
236,92,47171,1,0,0:0:0:0:
236,92,47333,1,0,0:0:0:0:
172,192,47495,5,0,0:0:0:0:
172,192,47657,1,0,0:0:0:0:
352,196,47819,1,0,0:0:0:0:
352,196,47982,1,0,0:0:0:0:
252,284,48144,5,0,0:0:0:0:
112,276,48306,1,0,0:0:0:0:
216,280,48468,1,0,0:0:0:0:
64,276,48630,1,0,0:0:0:0:
0,80,48792,5,0,0:0:0:0:
404,88,48955,1,0,0:0:0:0:
48,80,49117,5,0,0:0:0:0:
360,88,49280,1,0,0:0:0:0:
4,304,49441,5,0,0:0:0:0:
4,304,49603,1,0,0:0:0:0:
256,304,49765,5,0,0:0:0:0:
256,304,49928,1,0,0:0:0:0:
492,184,50090,5,0,0:0:0:0:
492,184,50252,1,0,0:0:0:0:
240,184,50414,5,0,0:0:0:0:
240,184,50577,1,0,0:0:0:0:
100,96,50738,5,0,0:0:0:0:
100,96,50900,1,0,0:0:0:0:
352,96,51062,5,0,0:0:0:0:
352,96,51225,1,0,0:0:0:0:
460,248,51387,6,0,L|460:336,1,80
56,264,51549,6,0,L|52:348,1,80
336,248,51711,6,0,L|332:332,1,80,0|0,0:0|0:0,0:0:0:0:
112,264,51873,6,0,L|108:348,1,80,0|0,0:0|0:0,0:0:0:0:
160,184,52036,6,0,L|320:184,2,160,0|0|0,0:0|0:0|0:0,0:0:0:0:
512,312,52522,6,0,L|352:312,2,160
0,312,53009,6,0,L|160:312,2,160,0|0|0,0:0|0:0|0:0,0:0:0:0:
240,316,53495,2,0,L|80:316,1,160
0,228,53819,6,0,L|4:148,2,80,0|0|0,0:0|0:0|0:0,0:0:0:0:
308,176,54062,2,0,L|308:240,1,60
260,232,54225,1,0,0:0:0:0:
212,236,54306,2,0,L|120:236,2,80,0|0|0,0:0|0:0|0:0,0:0:0:0:
472,56,54630,6,0,B|376:48|232:44|144:44|40:48|-12:52|-32:48|-36:136|-32:164|40:164|80:160|164:160|240:164|296:160|356:160|376:236|376:280|376:312|280:308|224:312|152:300|76:296|16:288|36:196|120:180|216:184|280:192|288:196,1,1253.33333333333,0|0,0:0|0:0,0:0:0:0:
32,56,57224,6,0,B|132:48|276:44|364:44|468:48|520:52|540:48|544:136|540:164|468:164|428:160|344:160|268:164|212:160|152:160|132:236|132:280|132:312|228:308|284:312|356:300|432:296|492:288|472:196|388:180|292:184|228:192|220:196,1,1253.33333333333,0|0,0:0|0:0,0:0:0:0:
488,340,59819,6,0,B|380:336|236:340|148:340|44:336|-8:332|-28:336|-32:248|-28:220|44:220|84:224|168:224|244:220|300:224|360:224|380:148|380:104|380:72|284:76|228:72|156:84|80:88|20:96|40:188|124:204|220:200|284:192|292:188,1,1253.33333333333,0|0,0:0|0:0,0:0:0:0:
12,336,62413,6,0,B|132:336|276:340|364:340|468:336|520:332|540:336|544:248|540:220|468:220|428:224|344:224|268:220|212:224|152:224|132:148|132:104|132:72|228:76|284:72|356:84|432:88|492:96|472:188|388:204|292:200|228:192|220:188,1,1260,0|0,0:0|0:0,0:0:0:0:
8,192,65008,5,0,0:0:0:0:
76,192,65332,5,0,0:0:0:0:
144,192,65657,5,0,0:0:0:0:
204,192,65981,6,0,L|224:192,6,13.3333333333333
432,292,66305,1,0,0:0:0:0:
380,292,66629,5,0,0:0:0:0:
384,128,66954,1,0,0:0:0:0:
260,128,67116,1,0,0:0:0:0:
140,128,67278,1,0,0:0:0:0:
76,196,67602,5,0,0:0:0:0:
136,196,67765,1,0,0:0:0:0:
504,192,67927,5,0,0:0:0:0:
460,192,68090,1,0,0:0:0:0:
72,112,68251,1,0,0:0:0:0:
116,112,68413,5,0,0:0:0:0:
376,292,68575,2,0,L|376:272,3,13.3333333333333
324,292,68738,1,0,0:0:0:0:
156,112,68899,1,0,0:0:0:0:
208,112,69061,5,0,0:0:0:0:
508,292,69224,1,0,0:0:0:0:
212,276,69386,1,0,0:0:0:0:
260,112,69547,1,0,0:0:0:0:
0,108,69709,5,0,0:0:0:0:
300,112,69873,1,0,0:0:0:0:
12,200,70035,5,0,0:0:0:0:
12,248,70116,1,0,0:0:0:0:
12,152,70197,2,0,L|12:96,1,40
244,240,70359,5,0,0:0:0:0:
244,196,70440,1,0,0:0:0:0:
248,156,70521,2,0,L|248:100,1,40
72,328,70684,5,0,0:0:0:0:
72,280,70765,1,0,0:0:0:0:
72,240,70846,2,0,L|72:184,1,40
284,200,71008,5,0,0:0:0:0:
284,244,71089,1,0,0:0:0:0:
288,280,71170,2,0,L|288:336,1,40
140,212,71332,5,0,0:0:0:0:
140,168,71413,1,0,0:0:0:0:
140,124,71494,2,0,L|140:68,1,40
336,324,71657,5,0,0:0:0:0:
336,284,71738,1,0,0:0:0:0:
340,248,71819,2,0,L|340:192,1,40
404,212,71981,5,0,0:0:0:0:
404,256,72062,1,0,0:0:0:0:
404,300,72143,2,0,L|404:356,1,40
196,248,72305,5,0,0:0:0:0:
196,212,72386,1,0,0:0:0:0:
196,164,72467,2,0,L|196:112,1,40
200,288,72629,2,0,L|200:340,1,40
56,160,72792,6,0,L|80:208,1,40,0|0,0:0|0:0,0:0:0:0:
280,168,72954,6,0,L|256:216,1,40,0|0,0:0|0:0,0:0:0:0:
92,156,73116,6,0,L|112:204,1,40
324,172,73278,6,0,L|300:220,1,40,0|0,0:0|0:0,0:0:0:0:
144,156,73440,6,0,L|160:200,1,40
384,180,73602,6,0,L|360:228,1,40,0|0,0:0|0:0,0:0:0:0:
212,152,73765,6,0,L|232:200,1,40
444,168,73927,6,0,L|420:216,1,40,0|0,0:0|0:0,0:0:0:0:
264,152,74089,6,0,L|280:196,1,40
504,176,74251,6,0,L|480:224,1,40,0|0,0:0|0:0,0:0:0:0:
0,152,74413,6,0,L|20:200,1,40
232,168,74575,6,0,L|208:216,1,40
52,152,74737,6,0,L|68:196,1,40
264,244,74899,1,0,0:0:0:0:
508,252,74941,2,0,L|448:252,1,60
216,244,75143,2,0,L|164:244,2,40,0|0|0,0:0|0:0|0:0,0:0:0:0:
256,192,75386,12,0,76643,0:0:0:0:
80,264,76684,6,0,P|0:192|40:144,1,191.999994140625
460,112,77008,6,0,P|495:191|418:231,1,191.999994140625
284,152,77332,6,0,L|287:383,1,215.999993408203
256,192,77657,12,0,77927,0:0:0:0:
512,52,77981,6,0,P|348:126|341:129,3,160,0|0|0|0,0:0|0:0|0:0|0:0,0:0:0:0:
0,304,78629,6,0,L|160:304,3,160
509,201,79278,6,0,P|436:169|364:136,3,160
472,208,79926,6,0,L|476:296,1,80
184,212,80089,6,0,L|184:304,1,80
348,208,80251,6,0,L|352:304,1,80
28,216,80413,6,0,L|24:308,1,80
0,56,80575,6,0,L|140:148,3,160,0|0|0|0,0:0|0:0|0:0|0:0,0:0:0:0:
512,56,81224,6,0,L|372:148,3,160,0|0|0|0,0:0|0:0|0:0|0:0,0:0:0:0:
0,204,81872,6,0,L|140:296,3,160,0|0|0|0,0:0|0:0|0:0|0:0,0:0:0:0:
52,120,82521,5,0,0:0:0:0:
456,128,82684,1,0,0:0:0:0:
100,120,82846,5,0,0:0:0:0:
412,128,83009,1,0,0:0:0:0:
132,188,83170,6,0,L|296:188,3,160,0|0|0|0,0:0|0:0|0:0|0:0,0:0:0:0:
352,316,83818,6,0,L|512:316,3,160
0,300,84467,6,0,L|164:300,3,160,0|0|0|0,0:0|0:0|0:0|0:0,0:0:0:0:
324,264,85116,6,0,L|328:352,1,80
52,248,85279,6,0,L|52:336,1,80
456,264,85441,6,0,L|460:348,1,80
8,244,85603,6,0,L|12:328,1,80
456,100,85764,6,0,L|456:272,1,160,0|0,0:0|0:0,0:0:0:0:
56,96,86089,6,0,L|52:268,1,160
392,108,86413,6,0,L|388:280,1,160
62,148,86737,6,0,L|111:313,1,160
440,144,87062,6,0,L|391:309,1,160
160,312,87386,2,0,L|-16:312,1,160,0|0,0:0|0:0,0:0:0:0:
464,248,87710,6,0,L|464:312,1,60
416,304,87873,5,0,0:0:0:0:
368,308,87954,6,0,L|276:308,2,80,0|0|0,0:0|0:0|0:0,0:0:0:0:
472,80,88197,6,0,L|476:252,1,160
252,88,88521,2,0,L|252:256,1,160
400,84,88845,6,0,L|404:256,1,160
180,92,89169,2,0,L|180:260,1,160
236,88,89494,6,0,L|240:260,1,160
16,96,89818,2,0,L|16:264,1,160
460,120,90143,5,0,0:0:0:0:
56,128,90306,1,0,0:0:0:0:
412,120,90468,5,0,0:0:0:0:
100,128,90631,1,0,0:0:0:0:
252,120,90791,1,0,0:0:0:0:
424,164,90953,6,0,L|305:272,1,160
509,251,91278,6,0,L|376:340,1,160
509,251,91602,6,0,L|376:340,1,160
134,151,91927,6,0,L|268:240,1,160
2,251,92251,6,0,L|136:340,1,160
2,251,92575,2,0,L|136:340,1,160
320,200,92899,6,0,L|376:136,1,74.6666643880209
160,204,93061,6,0,L|104:140,1,74.6666643880209
320,200,93223,6,0,L|376:136,1,74.6666643880209
160,204,93385,6,0,L|104:140,1,74.6666643880209
124,64,93548,6,0,L|284:64,1,160
248,156,93872,2,0,L|80:156,1,160
124,248,94197,6,0,L|284:248,1,160
264,340,94521,2,0,L|96:340,1,160
0,192,94845,6,0,L|-4:356,1,160
512,192,95170,6,0,L|508:356,1,160
52,192,95494,5,0,0:0:0:0:
464,196,95656,1,0,0:0:0:0:
112,192,95818,5,0,0:0:0:0:
404,196,95980,1,0,0:0:0:0:
256,252,96143,5,0,0:0:0:0:
256,208,96224,1,0,0:0:0:0:
260,172,96305,2,0,L|280:120,1,30.0000011444092
216,344,96468,5,0,0:0:0:0:
160,328,96549,1,0,0:0:0:0:
160,288,96630,2,0,L|136:236,1,30.0000011444092
460,256,96792,5,0,0:0:0:0:
460,300,96873,1,0,0:0:0:0:
468,336,96954,2,0,L|472:392,1,30.0000011444092
160,208,97116,5,0,0:0:0:0:
160,164,97197,1,0,0:0:0:0:
160,120,97278,2,0,L|140:68,1,30.0000011444092
400,204,97441,5,0,0:0:0:0:
400,164,97522,1,0,0:0:0:0:
404,128,97603,2,0,L|412:72,1,30.0000011444092
104,200,97765,5,0,0:0:0:0:
104,244,97846,1,0,0:0:0:0:
104,288,97927,2,0,L|92:344,1,30.0000011444092
316,240,98088,6,0,L|252:240,1,60
260,192,98251,5,0,0:0:0:0:
256,144,98332,6,0,L|212:52,4,80,0|0|0|0|0,0:0|0:0|0:0|0:0|0:0,0:0:0:0:
280,80,98737,5,0,0:0:0:0:
328,76,98818,1,0,0:0:0:0:
360,116,98899,1,0,0:0:0:0:
344,168,98980,1,0,0:0:0:0:
184,168,99061,1,0,0:0:0:0:
188,208,99143,1,0,0:0:0:0:
216,240,99224,1,0,0:0:0:0:
248,264,99305,1,0,0:0:0:0:
464,308,99386,5,0,0:0:0:0:
416,308,99467,1,0,0:0:0:0:
368,280,99548,1,0,0:0:0:0:
336,240,99629,1,0,0:0:0:0:
228,240,99710,1,0,0:0:0:0:
196,280,99791,1,0,0:0:0:0:
148,308,99872,1,0,0:0:0:0:
100,308,99953,1,0,0:0:0:0:
204,88,100034,5,0,0:0:0:0:
184,136,100115,1,0,0:0:0:0:
204,192,100197,1,0,0:0:0:0:
232,220,100278,1,0,0:0:0:0:
316,84,100359,5,0,0:0:0:0:
352,120,100440,1,0,0:0:0:0:
336,164,100521,1,0,0:0:0:0:
308,216,100602,1,0,0:0:0:0:
76,212,100683,6,0,L|72:300,1,80
328,212,100846,6,0,L|328:304,1,80
164,208,101008,6,0,L|160:304,1,80
484,216,101170,6,0,L|488:308,1,80
224,96,101332,5,0,0:0:0:0:
172,96,101413,1,0,0:0:0:0:
128,104,101494,1,0,0:0:0:0:
96,136,101575,1,0,0:0:0:0:
296,176,101656,1,0,0:0:0:0:
264,208,101738,1,0,0:0:0:0:
224,224,101819,1,0,0:0:0:0:
180,236,101900,1,0,0:0:0:0:
56,324,101980,5,0,0:0:0:0:
104,324,102061,1,0,0:0:0:0:
144,324,102142,1,0,0:0:0:0:
180,324,102223,1,0,0:0:0:0:
360,284,102305,1,0,0:0:0:0:
312,272,102386,1,0,0:0:0:0:
272,260,102467,1,0,0:0:0:0:
240,240,102548,1,0,0:0:0:0:
84,232,102629,5,0,0:0:0:0:
56,184,102710,1,0,0:0:0:0:
60,132,102792,1,0,0:0:0:0:
88,100,102873,1,0,0:0:0:0:
220,156,102954,5,0,0:0:0:0:
248,108,103035,1,0,0:0:0:0:
276,76,103116,1,0,0:0:0:0:
312,48,103197,1,0,0:0:0:0:
464,224,103278,6,0,L|468:312,1,80
176,228,103441,6,0,L|176:320,1,80
340,224,103603,6,0,L|344:320,1,80
20,232,103765,6,0,L|16:324,1,80
336,336,103926,5,0,0:0:0:0:
272,336,104007,1,0,0:0:0:0:
216,328,104088,1,0,0:0:0:0:
176,300,104170,1,0,0:0:0:0:
296,224,104251,1,0,0:0:0:0:
352,224,104332,1,0,0:0:0:0:
400,232,104413,1,0,0:0:0:0:
432,268,104494,1,0,0:0:0:0:
128,144,104575,5,0,0:0:0:0:
132,196,104656,1,0,0:0:0:0:
176,228,104737,1,0,0:0:0:0:
236,228,104818,1,0,0:0:0:0:
392,108,104899,1,0,0:0:0:0:
388,156,104980,1,0,0:0:0:0:
344,176,105061,1,0,0:0:0:0:
296,180,105142,1,0,0:0:0:0:
108,92,105224,5,0,0:0:0:0:
160,96,105305,1,0,0:0:0:0:
220,96,105386,1,0,0:0:0:0:
260,124,105467,1,0,0:0:0:0:
60,124,105548,1,0,0:0:0:0:
92,164,105629,1,0,0:0:0:0:
120,208,105710,1,0,0:0:0:0:
168,220,105791,1,0,0:0:0:0:
320,200,105872,6,0,L|376:136,1,74.6666643880209
160,204,106034,6,0,L|104:140,1,74.6666643880209
320,200,106196,6,0,L|376:136,1,74.6666643880209
160,204,106358,6,0,L|104:140,1,74.6666643880209
444,144,106521,5,0,0:0:0:0:
392,144,106602,1,0,0:0:0:0:
336,144,106683,1,0,0:0:0:0:
296,168,106764,1,0,0:0:0:0:
460,176,106845,1,0,0:0:0:0:
456,216,106926,1,0,0:0:0:0:
428,260,107007,1,0,0:0:0:0:
376,260,107088,1,0,0:0:0:0:
160,160,107170,5,0,0:0:0:0:
208,188,107251,1,0,0:0:0:0:
252,212,107332,1,0,0:0:0:0:
304,196,107413,1,0,0:0:0:0:
112,44,107494,1,0,0:0:0:0:
64,72,107575,1,0,0:0:0:0:
64,124,107656,1,0,0:0:0:0:
112,144,107737,1,0,0:0:0:0:
328,80,107818,5,0,0:0:0:0:
280,80,107899,1,0,0:0:0:0:
232,88,107980,1,0,0:0:0:0:
196,116,108061,1,0,0:0:0:0:
324,120,108142,1,0,0:0:0:0:
308,180,108224,1,0,0:0:0:0:
280,216,108305,1,0,0:0:0:0:
244,232,108386,1,0,0:0:0:0:
68,280,108467,6,0,L|72:200,2,80,0|0|0,0:0|0:0|0:0,0:0:0:0:
376,228,108710,2,0,L|376:292,1,60
328,292,108873,1,0,0:0:0:0:
268,268,108954,2,0,L|216:330,2,80
140,112,109197,6,0,L|436:112,1,240
148,132,110088,6,0,L|336:132,2,160,0|0|0,0:0|0:0|0:0,0:0:0:0:
96,132,110494,1,0,0:0:0:0:
36,132,110575,1,0,0:0:0:0:
136,272,111061,6,0,L|136:216,1,40
348,208,111224,2,0,L|352:276,1,40
68,260,111386,6,0,L|68:204,1,40
176,208,111549,2,0,L|180:276,2,40,0|0|0,0:0|0:0|0:0,0:0:0:0:
80,108,111710,6,0,L|404:112,1,320
364,132,112683,6,0,L|176:132,2,160,0|0|0,0:0|0:0|0:0,0:0:0:0:
412,132,113088,1,0,0:0:0:0:
464,132,113170,1,0,0:0:0:0:
376,272,113656,6,0,L|376:216,1,40
164,208,113819,2,0,L|160:276,1,40
444,260,113981,6,0,L|444:204,1,40
232,196,114144,2,0,L|228:264,3,40,0|0|0|0,0:0|0:0|0:0|0:0,0:0:0:0:
164,96,114305,5,0,0:0:0:0:
108,100,114467,1,0,0:0:0:0:
352,100,114629,5,0,0:0:0:0:
408,104,114791,1,0,0:0:0:0:
164,284,114953,5,0,0:0:0:0:
300,288,115115,1,0,0:0:0:0:
360,292,115278,5,0,0:0:0:0:
212,288,115440,1,0,0:0:0:0:
292,200,115602,5,0,0:0:0:0:
340,200,115764,1,0,0:0:0:0:
104,200,115926,5,0,0:0:0:0:
56,200,116088,1,0,0:0:0:0:
264,200,116251,5,0,0:0:0:0:
312,200,116413,1,0,0:0:0:0:
208,204,116575,5,0,0:0:0:0:
160,204,116737,1,0,0:0:0:0:
88,96,116899,6,0,L|132:200,1,80
176,156,117061,2,0,L|216:64,1,80
144,80,117224,6,0,L|188:184,1,80
240,156,117386,2,0,L|280:64,1,80
104,92,117548,6,0,L|148:196,1,80
280,168,117710,2,0,L|320:76,1,80
168,252,117872,6,0,L|212:356,1,80
280,320,118034,2,0,L|320:228,1,80
244,228,118197,6,0,L|244:264,11,26.6666666666667,0|0|0|0|0|0|0|0|0|0|0|0,0:0|0:0|0:0|0:0|0:0|0:0|0:0|0:0|0:0|0:0|0:0|0:0,0:0:0:0:
244,152,118521,6,0,L|244:188,10,26.6666666666667,0|0|0|0|0|0|0|0|0|0|0,0:0|0:0|0:0|0:0|0:0|0:0|0:0|0:0|0:0|0:0|0:0,0:0:0:0:
124,176,118845,6,0,P|80:104|108:96,1,106.666666666667
388,176,119088,6,0,P|432:104|404:96,1,106.666666666667
240,152,119332,1,0,0:0:0:0:
120,288,119656,5,0,0:0:0:0:
120,232,119737,1,0,0:0:0:0:
200,232,119899,5,0,0:0:0:0:
200,288,119980,1,0,0:0:0:0:
292,288,120142,5,0,0:0:0:0:
292,236,120223,1,0,0:0:0:0:
384,232,120386,5,0,0:0:0:0:
384,284,120467,1,0,0:0:0:0:
188,192,120629,6,0,L|152:120,1,80
264,292,120953,5,0,0:0:0:0:
264,236,121034,1,0,0:0:0:0:
184,236,121196,5,0,0:0:0:0:
184,292,121277,1,0,0:0:0:0:
92,292,121439,5,0,0:0:0:0:
92,240,121520,1,0,0:0:0:0:
0,236,121683,5,0,0:0:0:0:
0,288,121764,1,0,0:0:0:0:
196,196,121926,6,0,L|232:124,1,80
120,288,122251,5,0,0:0:0:0:
88,236,122332,1,0,0:0:0:0:
392,288,122494,5,0,0:0:0:0:
424,236,122575,1,0,0:0:0:0:
136,216,122737,5,0,0:0:0:0:
104,164,122818,1,0,0:0:0:0:
376,216,122981,5,0,0:0:0:0:
408,164,123062,1,0,0:0:0:0:
188,192,123224,6,0,L|152:120,1,80
392,288,123548,5,0,0:0:0:0:
424,236,123629,1,0,0:0:0:0:
120,288,123792,5,0,0:0:0:0:
88,236,123873,1,0,0:0:0:0:
412,200,124035,5,0,0:0:0:0:
444,148,124116,1,0,0:0:0:0:
140,200,124279,5,0,0:0:0:0:
108,148,124360,1,0,0:0:0:0:
360,180,124521,6,0,L|396:108,1,80
292,192,124845,5,0,0:0:0:0:
292,244,124926,1,0,0:0:0:0:
196,132,125088,5,0,0:0:0:0:
196,184,125169,1,0,0:0:0:0:
128,208,125332,5,0,0:0:0:0:
128,260,125413,1,0,0:0:0:0:
32,148,125575,5,0,0:0:0:0:
32,200,125656,1,0,0:0:0:0:
424,236,125818,6,0,L|420:136,1,80
220,192,126142,5,0,0:0:0:0:
220,244,126223,1,0,0:0:0:0:
316,132,126385,5,0,0:0:0:0:
316,184,126466,1,0,0:0:0:0:
384,208,126629,5,0,0:0:0:0:
384,260,126710,1,0,0:0:0:0:
480,148,126872,5,0,0:0:0:0:
480,200,126953,1,0,0:0:0:0:
88,236,127115,6,0,L|92:136,1,80
392,288,127440,5,0,0:0:0:0:
424,236,127521,1,0,0:0:0:0:
184,304,127683,1,0,0:0:0:0:
160,260,127764,1,0,0:0:0:0:
444,200,127926,5,0,0:0:0:0:
468,168,128008,1,0,0:0:0:0:
112,168,128170,1,0,0:0:0:0:
136,212,128251,1,0,0:0:0:0:
348,216,128413,6,0,L|384:144,1,80
160,276,128737,5,0,0:0:0:0:
128,224,128818,1,0,0:0:0:0:
368,292,128980,1,0,0:0:0:0:
392,248,129061,1,0,0:0:0:0:
152,128,129223,5,0,0:0:0:0:
136,84,129305,1,0,0:0:0:0:
456,164,129467,1,0,0:0:0:0:
476,112,129548,1,0,0:0:0:0:
164,216,129710,6,0,L|128:144,1,80
356,320,130035,5,0,0:0:0:0:
360,268,130116,1,0,0:0:0:0:
148,336,130278,1,0,0:0:0:0:
148,288,130359,1,0,0:0:0:0:
268,320,130521,5,0,0:0:0:0:
268,272,130603,1,0,0:0:0:0:
96,240,130765,1,0,0:0:0:0:
96,192,130846,1,0,0:0:0:0:
312,248,131008,6,0,L|348:176,1,80
192,304,131332,5,0,0:0:0:0:
192,256,131413,1,0,0:0:0:0:
400,320,131575,1,0,0:0:0:0:
396,268,131656,1,0,0:0:0:0:
116,132,131818,5,0,0:0:0:0:
116,184,131900,1,0,0:0:0:0:
488,196,132062,1,0,0:0:0:0:
488,248,132143,1,0,0:0:0:0:
236,232,132305,6,0,L|200:160,1,80
280,104,132629,5,0,0:0:0:0:
340,104,132710,1,0,0:0:0:0:
108,100,132872,5,0,0:0:0:0:
160,100,132953,1,0,0:0:0:0:
348,192,133116,5,0,0:0:0:0:
408,192,133197,1,0,0:0:0:0:
192,188,133359,5,0,0:0:0:0:
240,188,133440,1,0,0:0:0:0:
256,336,133602,6,0,L|256:256,1,80
400,296,133926,5,0,0:0:0:0:
400,240,134008,1,0,0:0:0:0:
156,300,134170,5,0,0:0:0:0:
156,240,134251,1,0,0:0:0:0:
224,296,134412,5,0,0:0:0:0:
224,240,134494,1,0,0:0:0:0:
468,300,134656,5,0,0:0:0:0:
468,240,134737,1,0,0:0:0:0:
24,304,134899,6,0,L|24:224,1,80
152,200,135224,6,0,L|120:116,1,80
416,204,135467,6,0,L|460:132,1,80
88,200,135710,6,0,L|64:112,1,80
352,204,135953,6,0,L|392:128,1,80
216,200,136197,6,0,L|216:120,1,80
480,204,136521,6,0,L|480:124,1,80
32,200,136764,6,0,L|32:120,1,80
296,204,137007,6,0,L|296:124,1,80
32,200,137251,6,0,L|32:120,1,80
296,204,137494,6,0,L|296:124,1,80
96,292,137656,5,0,0:0:0:0:
80,236,137737,1,0,0:0:0:0:
120,188,137818,1,0,0:0:0:0:
172,168,137899,1,0,0:0:0:0:
224,156,137980,1,0,0:0:0:0:
272,164,138061,1,0,0:0:0:0:
324,164,138142,1,0,0:0:0:0:
364,180,138224,1,0,0:0:0:0:
380,248,138305,5,0,0:0:0:0:
340,280,138386,1,0,0:0:0:0:
296,292,138467,1,0,0:0:0:0:
248,292,138548,1,0,0:0:0:0:
200,288,138629,1,0,0:0:0:0:
148,288,138710,1,0,0:0:0:0:
184,228,138791,1,0,0:0:0:0:
248,232,138872,1,0,0:0:0:0:
304,236,138953,5,0,0:0:0:0:
364,236,139034,1,0,0:0:0:0:
296,180,139115,1,0,0:0:0:0:
240,176,139197,1,0,0:0:0:0:
228,116,139278,1,0,0:0:0:0:
176,112,139359,1,0,0:0:0:0:
128,116,139440,1,0,0:0:0:0:
176,172,139521,1,0,0:0:0:0:
224,60,139602,1,0,0:0:0:0:
164,60,139683,1,0,0:0:0:0:
112,176,139764,6,0,L|168:252,1,80
356,164,139926,2,0,L|304:264,1,80
112,176,140088,6,0,L|168:252,1,80
356,164,140250,2,0,L|304:264,1,80
24,344,140413,5,0,0:0:0:0:
80,348,140494,1,0,0:0:0:0:
140,344,140575,1,0,0:0:0:0:
200,344,140656,1,0,0:0:0:0:
256,340,140737,1,0,0:0:0:0:
308,344,140818,1,0,0:0:0:0:
260,272,140899,5,0,0:0:0:0:
200,272,140980,1,0,0:0:0:0:
140,272,141061,1,0,0:0:0:0:
80,272,141142,1,0,0:0:0:0:
136,208,141224,1,0,0:0:0:0:
196,208,141305,1,0,0:0:0:0:
252,204,141386,1,0,0:0:0:0:
300,208,141467,1,0,0:0:0:0:
356,208,141548,1,0,0:0:0:0:
424,160,141629,5,0,0:0:0:0:
360,152,141710,1,0,0:0:0:0:
304,152,141791,1,0,0:0:0:0:
356,96,141872,1,0,0:0:0:0:
300,92,141953,1,0,0:0:0:0:
244,92,142034,1,0,0:0:0:0:
208,144,142115,1,0,0:0:0:0:
144,148,142197,5,0,0:0:0:0:
88,148,142278,1,0,0:0:0:0:
32,148,142359,1,0,0:0:0:0:
92,200,142440,1,0,0:0:0:0:
432,316,142521,5,0,0:0:0:0:
376,312,142602,1,0,0:0:0:0:
324,312,142683,1,0,0:0:0:0:
272,312,142764,1,0,0:0:0:0:
224,256,142845,5,0,0:0:0:0:
164,256,142926,1,0,0:0:0:0:
104,260,143007,1,0,0:0:0:0:
44,260,143088,1,0,0:0:0:0:
152,192,143170,5,0,0:0:0:0:
212,192,143251,1,0,0:0:0:0:
268,196,143332,1,0,0:0:0:0:
320,196,143413,1,0,0:0:0:0:
367,66,143494,6,0,L|304:116,1,80
240,92,143656,6,0,L|176:141,1,80
192,204,143818,6,0,L|128:253,1,80
188,320,143980,6,0,L|252:271,1,80
208,216,144142,6,0,L|145:266,1,80
176,176,144304,6,0,L|240:127,1,80
311,230,144466,6,0,L|248:280,1,80
204,304,144628,6,0,L|140:353,1,80
104,92,144791,5,0,0:0:0:0:
144,92,144872,1,0,0:0:0:0:
196,92,144953,1,0,0:0:0:0:
240,92,145034,1,0,0:0:0:0:
420,332,145115,6,0,L|356:282,1,80
360,236,145277,6,0,L|296:187,1,80
336,132,145439,6,0,L|399:181,1,80
440,140,145601,6,0,L|504:189,1,80
468,316,145764,5,0,0:0:0:0:
508,264,145845,1,0,0:0:0:0:
444,256,145926,1,0,0:0:0:0:
384,256,146007,1,0,0:0:0:0:
332,252,146088,1,0,0:0:0:0:
272,252,146170,1,0,0:0:0:0:
220,252,146251,1,0,0:0:0:0:
168,256,146332,1,0,0:0:0:0:
160,192,146413,5,0,0:0:0:0:
212,192,146494,1,0,0:0:0:0:
276,188,146575,1,0,0:0:0:0:
336,192,146656,1,0,0:0:0:0:
328,132,146737,1,0,0:0:0:0:
264,132,146818,1,0,0:0:0:0:
200,132,146899,1,0,0:0:0:0:
144,132,146980,1,0,0:0:0:0:
16,336,147061,5,0,0:0:0:0:
64,312,147142,1,0,0:0:0:0:
112,284,147224,1,0,0:0:0:0:
68,240,147305,1,0,0:0:0:0:
28,204,147386,1,0,0:0:0:0:
0,152,147467,1,0,0:0:0:0:
56,148,147548,1,0,0:0:0:0:
104,148,147629,1,0,0:0:0:0:
476,236,147710,5,0,0:0:0:0:
416,237,147791,1,0,0:0:0:0:
359,234,147872,1,0,0:0:0:0:
301,230,147953,1,0,0:0:0:0:
296,296,148034,1,0,0:0:0:0:
348,296,148115,1,0,0:0:0:0:
400,296,148197,1,0,0:0:0:0:
448,252,148278,1,0,0:0:0:0:
488,192,148359,5,0,0:0:0:0:
432,188,148440,1,0,0:0:0:0:
376,184,148521,1,0,0:0:0:0:
320,184,148602,1,0,0:0:0:0:
264,184,148683,1,0,0:0:0:0:
208,184,148764,1,0,0:0:0:0:
160,184,148845,1,0,0:0:0:0:
100,184,148926,1,0,0:0:0:0:
392,76,149007,6,0,L|344:148,1,80
120,76,149170,6,0,L|168:148,1,80
392,76,149332,6,0,L|344:148,1,80
120,76,149495,6,0,L|168:148,1,80
344,80,149656,6,0,L|296:152,1,80
72,80,149819,6,0,L|120:152,1,80
344,80,149981,6,0,L|296:152,1,80
72,80,150144,6,0,L|120:152,1,80
308,260,150305,5,0,0:0:0:0:
260,228,150386,1,0,0:0:0:0:
120,188,150467,1,0,0:0:0:0:
172,168,150548,1,0,0:0:0:0:
224,156,150629,1,0,0:0:0:0:
272,164,150710,1,0,0:0:0:0:
324,164,150791,1,0,0:0:0:0:
364,180,150873,1,0,0:0:0:0:
380,248,150954,5,0,0:0:0:0:
340,280,151035,1,0,0:0:0:0:
296,292,151116,1,0,0:0:0:0:
248,292,151197,1,0,0:0:0:0:
200,288,151278,1,0,0:0:0:0:
148,288,151359,1,0,0:0:0:0:
184,228,151440,1,0,0:0:0:0:
248,232,151521,1,0,0:0:0:0:
304,236,151602,5,0,0:0:0:0:
364,236,151683,1,0,0:0:0:0:
296,180,151764,1,0,0:0:0:0:
240,176,151846,1,0,0:0:0:0:
228,116,151927,1,0,0:0:0:0:
176,112,152008,1,0,0:0:0:0:
128,116,152089,1,0,0:0:0:0:
176,172,152170,1,0,0:0:0:0:
224,60,152251,1,0,0:0:0:0:
164,60,152332,1,0,0:0:0:0:
112,176,152413,6,0,L|168:252,1,80
356,164,152575,2,0,L|304:264,1,80
112,176,152737,6,0,L|168:252,1,80
356,164,152899,2,0,L|304:264,1,80
24,344,153062,5,0,0:0:0:0:
80,348,153143,1,0,0:0:0:0:
140,344,153224,1,0,0:0:0:0:
200,344,153305,1,0,0:0:0:0:
256,340,153386,1,0,0:0:0:0:
308,344,153467,1,0,0:0:0:0:
260,272,153548,5,0,0:0:0:0:
200,272,153629,1,0,0:0:0:0:
140,272,153710,1,0,0:0:0:0:
80,272,153791,1,0,0:0:0:0:
136,208,153873,1,0,0:0:0:0:
196,208,153954,1,0,0:0:0:0:
252,204,154035,1,0,0:0:0:0:
300,208,154116,1,0,0:0:0:0:
356,208,154197,1,0,0:0:0:0:
424,160,154278,5,0,0:0:0:0:
360,152,154359,1,0,0:0:0:0:
304,152,154440,1,0,0:0:0:0:
356,96,154521,1,0,0:0:0:0:
300,92,154602,1,0,0:0:0:0:
244,92,154683,1,0,0:0:0:0:
208,144,154764,1,0,0:0:0:0:
144,148,154846,5,0,0:0:0:0:
88,148,154927,1,0,0:0:0:0:
32,148,155008,1,0,0:0:0:0:
92,200,155089,1,0,0:0:0:0:
432,316,155170,5,0,0:0:0:0:
376,312,155251,1,0,0:0:0:0:
324,312,155332,1,0,0:0:0:0:
272,312,155413,1,0,0:0:0:0:
44,260,155494,5,0,0:0:0:0:
104,260,155575,1,0,0:0:0:0:
164,256,155656,1,0,0:0:0:0:
224,256,155737,1,0,0:0:0:0:
152,192,155819,5,0,0:0:0:0:
212,192,155900,1,0,0:0:0:0:
268,196,155981,1,0,0:0:0:0:
320,196,156062,1,0,0:0:0:0:
380,196,156142,5,0,0:0:0:0:
436,196,156224,1,0,0:0:0:0:
496,192,156305,1,0,0:0:0:0:
432,132,156386,1,0,0:0:0:0:
380,136,156467,1,0,0:0:0:0:
328,136,156548,1,0,0:0:0:0:
276,136,156629,1,0,0:0:0:0:
212,136,156710,1,0,0:0:0:0:
112,176,156791,6,0,L|168:252,1,80
356,164,156953,2,0,L|304:264,1,80
112,176,157115,6,0,L|168:252,1,80
356,164,157277,2,0,L|304:264,1,80
116,180,157440,6,0,L|172:256,1,80
360,168,157602,2,0,L|308:268,1,80
116,180,157764,6,0,L|172:256,1,80
360,168,157926,2,0,L|308:268,1,80
376,156,158088,5,0,0:0:0:0:
328,156,158170,1,0,0:0:0:0:
276,152,158251,1,0,0:0:0:0:
216,152,158332,1,0,0:0:0:0:
88,96,158413,6,0,L|132:200,1,80
176,156,158575,2,0,L|207:82,1,80
144,76,158738,6,0,L|188:180,1,80
241,154,158900,2,0,L|272:80,1,80
104,92,159062,6,0,L|148:196,1,80
280,168,159224,2,0,L|320:76,1,80
168,252,159386,6,0,L|212:356,1,80
292,320,159548,2,0,L|332:228,1,80
244,228,159711,6,0,L|244:264,11,26.6666666666667,0|0|0|0|0|0|0|0|0|0|0|0,0:0|0:0|0:0|0:0|0:0|0:0|0:0|0:0|0:0|0:0|0:0|0:0,0:0:0:0:
244,152,160035,6,0,L|244:188,10,26.6666666666667,0|0|0|0|0|0|0|0|0|0|0,0:0|0:0|0:0|0:0|0:0|0:0|0:0|0:0|0:0|0:0|0:0,0:0:0:0:
124,176,160359,6,0,P|80:104|108:96,1,106.666666666667
387,177,160602,6,0,P|436:169|444:120,1,106.666666666667
240,152,160846,1,0,0:0:0:0:
