osu file format v14

[General]
AudioFilename: audio.mp3
AudioLeadIn: 0
PreviewTime: 79561
Countdown: 0
SampleSet: Soft
StackLeniency: 0.7
Mode: 0
LetterboxInBreaks: 0
WidescreenStoryboard: 1

[Editor]
DistanceSpacing: 1.3
BeatDivisor: 4
GridSize: 32
TimelineZoom: 5.499997

[Metadata]
Title:Shunkashuutou
TitleUnicode:春夏秋冬
Artist:sumika
ArtistUnicode:sumika
Creator:rosario wknd
Version:Waiting for Spring to Come Again
Source:君の膵臓をたべたい
Tags:kimi no suizou wo tabetai kimisui i want to eat your pancreas haru natsu aki fuyu anime movie japanese jpop j-pop full ending ed
BeatmapID:2661710
BeatmapSetID:1281437

[Difficulty]
HPDrainRate:6.5
CircleSize:4.2
OverallDifficulty:7
ApproachRate:9
SliderMultiplier:1.5
SliderTickRate:1

[Events]
//Background and Video events
0,0,"pancreas.jpg",0,0
//Break Periods
2,173404,174693
//Storyboard Layer 0 (Background)
//Storyboard Layer 1 (Fail)
//Storyboard Layer 2 (Pass)
//Storyboard Layer 3 (Foreground)
//Storyboard Layer 4 (Overlay)
//Storyboard Sound Samples

[TimingPoints]
1534,384.615384615385,4,2,1,30,1,0
1534,-142.857142857143,4,2,1,30,0,0
1918,-142.857142857143,4,2,1,30,0,0
2293,413.793103448276,4,2,1,30,1,0
2293,-142.857142857143,4,2,1,30,0,0
2705,379.746835443038,4,2,1,30,1,0
3084,379.746835443038,4,2,1,30,1,0
3084,-142.857142857143,4,2,1,30,0,0
4622,375,4,2,1,30,1,0
4622,-142.857142857143,4,2,1,30,0,0
7069,352.941176470588,4,2,1,30,1,0
7069,-142.857142857143,4,2,1,30,0,0
7421,413.793103448276,4,2,1,30,1,0
7421,-142.857142857143,4,2,1,30,0,0
7834,379.746835443038,4,2,1,30,1,0
7834,-142.857142857143,4,2,1,30,0,0
9190,379.746835443038,4,2,1,30,1,0
9190,-142.857142857143,4,2,1,30,0,0
9545,368.098159509202,4,2,1,30,1,0
9729,-142.857142857143,4,2,1,30,0,0
10699,379.746835443038,4,2,1,30,1,0
10699,-142.857142857143,4,2,1,30,0,0
12977,387.096774193548,4,2,1,30,1,0
12977,-142.857142857143,4,2,1,30,0,0
14116,368.098159509202,4,2,1,30,1,0
14116,-142.857142857143,4,2,1,30,0,0
14852,379.746835443038,4,2,1,30,1,0
14852,-142.857142857143,4,2,1,30,0,0
15231,379.746835443038,4,2,1,30,1,0
16749,408.163265306122,4,2,1,30,1,0
16749,-142.857142857143,4,2,1,30,0,0
17361,352.941176470588,4,2,1,30,1,0
17361,-142.857142857143,4,2,1,30,0,0
17923,370.37037037037,4,2,1,30,1,0
17923,-142.857142857143,4,2,1,30,0,0
19034,348.837209302326,4,2,1,30,1,0
19034,-142.857142857143,4,2,1,30,0,0
19382,416.666666666667,4,2,1,30,1,0
19382,-142.857142857143,4,2,1,30,0,0
19798,376.175548589342,4,2,1,30,1,0
19798,-142.857142857143,4,2,1,30,0,0
21304,375,4,2,1,30,1,0
21679,-142.857142857143,4,2,1,30,0,0
23179,405.405405405405,4,2,1,30,1,0
23179,-142.857142857143,4,2,1,30,0,0
24364,382.165605095541,4,2,1,30,1,0
25883,379.746835443038,4,2,1,30,1,0
25883,-142.857142857143,4,2,1,30,0,0
26263,-142.857142857143,4,2,1,30,0,0
26833,-142.857142857143,4,2,1,30,0,0
28920,375,4,2,1,30,1,0
28920,-142.857142857143,4,2,1,30,0,0
30232,370.37037037037,4,2,1,30,1,0
30232,-142.857142857143,4,2,1,30,0,0
30417,370.37037037037,4,2,1,30,1,0
31343,428.571428571429,4,2,1,30,1,0
31959,379.746835443038,4,2,1,30,1,0
31959,-142.857142857143,4,2,1,30,0,0
37863,394.736842105263,4,2,1,30,1,0
37863,-142.857142857143,4,2,1,30,0,0
38060,394.736842105263,4,2,1,30,1,0
38060,-142.857142857143,4,2,1,30,0,0
39187,379.746835443038,4,2,1,30,1,0
39187,-142.857142857143,4,2,1,30,0,0
39566,379.746835443038,4,2,1,30,1,0
39566,-142.857142857143,4,2,1,30,0,0
41080,392.156862745098,4,2,1,30,1,0
41080,-142.857142857143,4,2,1,30,0,0
41668,372.670807453416,4,2,1,30,1,0
41668,-142.857142857143,4,2,1,30,0,0
42599,375,4,2,1,30,1,0
42599,-142.857142857143,4,2,1,30,0,0
44117,370.37037037037,4,2,1,30,1,0
44117,-142.857142857143,4,2,1,30,0,0
45238,384.615384615385,4,2,1,30,1,0
45622,346.820809248555,4,2,1,30,1,0
45622,-142.857142857143,4,2,1,30,0,0
46361,379.746835443038,4,2,1,30,1,0
46361,-142.857142857143,4,2,1,30,0,0
47128,379.746835443038,4,2,1,30,1,0
47128,-142.857142857143,4,2,1,30,0,0
49026,-125,4,2,4,30,0,0
49311,-125,4,2,4,5,0,0
49424,379.746835443038,4,2,3,35,1,0
50179,379.746835443038,4,2,1,40,1,0
50179,-111.111111111111,4,2,1,40,0,0
50463,-111.111111111111,4,2,1,5,0,0
50558,-111.111111111111,4,2,1,40,0,0
50843,-111.111111111111,4,2,1,5,0,0
50938,-111.111111111111,4,2,1,40,0,0
51982,-111.111111111111,4,2,1,5,0,0
52077,-111.111111111111,4,2,1,40,0,0
53501,-111.111111111111,4,2,1,5,0,0
53596,-111.111111111111,4,2,1,40,0,0
53881,-111.111111111111,4,2,1,5,0,0
53976,-111.111111111111,4,2,1,40,0,0
55020,-111.111111111111,4,2,1,5,0,0
55115,-111.111111111111,4,2,1,40,0,0
56160,-111.111111111111,4,2,1,5,0,0
56254,-111.111111111111,4,2,1,40,0,0
56539,-111.111111111111,4,2,1,5,0,0
56634,-111.111111111111,4,2,1,40,0,0
58058,-111.111111111111,4,2,1,5,0,0
58153,-111.111111111111,4,2,1,40,0,0
58391,-111.111111111111,4,2,1,40,0,0
58675,-111.111111111111,4,2,1,5,0,0
58770,-111.111111111111,4,2,1,40,0,0
59292,-111.111111111111,4,2,1,40,0,0
61095,-111.111111111111,4,2,1,5,0,0
61190,-111.111111111111,4,2,1,40,0,0
62614,-111.111111111111,4,2,1,5,0,0
62709,-111.111111111111,4,2,1,40,0,0
62994,-111.111111111111,4,2,1,5,0,0
63089,-111.111111111111,4,2,1,40,0,0
64133,-111.111111111111,4,2,1,5,0,0
64228,-111.111111111111,4,2,1,40,0,0
64323,-111.111111111111,4,2,1,5,0,0
64418,-111.111111111111,4,2,1,40,0,0
65652,-111.111111111111,4,2,1,5,0,0
65747,-111.111111111111,4,2,1,40,0,0
66032,-111.111111111111,4,2,1,5,0,0
66127,-111.111111111111,4,2,1,40,0,0
66222,-111.111111111111,4,2,1,5,0,0
66317,-111.111111111111,4,2,1,40,0,0
66792,-111.111111111111,4,2,1,5,0,0
66886,-111.111111111111,4,2,1,40,0,0
67171,-111.111111111111,4,2,1,5,0,0
67266,-111.111111111111,4,2,1,40,0,0
67551,-111.111111111111,4,2,1,5,0,0
67646,-111.111111111111,4,2,1,40,0,0
68406,-111.111111111111,4,2,1,40,0,0
68690,-111.111111111111,4,2,1,5,0,0
68785,-111.111111111111,4,2,1,40,0,0
69450,-111.111111111111,4,2,1,5,0,0
69545,-111.111111111111,4,2,1,40,0,0
69829,-111.111111111111,4,2,1,5,0,0
69924,-111.111111111111,4,2,1,40,0,0
70209,-111.111111111111,4,2,1,5,0,0
70304,-111.111111111111,4,2,1,40,0,0
76665,-111.111111111111,4,2,1,5,0,0
76760,-111.111111111111,4,2,1,40,0,0
77899,-125,4,2,2,20,0,0
78184,-111.111111111111,4,2,2,5,0,0
78279,-111.111111111111,4,2,2,30,0,0
78564,-111.111111111111,4,2,2,5,0,0
78659,-100,4,2,2,40,0,0
78943,-111.111111111111,4,2,2,5,0,0
79038,-83.3333333333333,4,2,2,50,0,0
79323,-111.111111111111,4,2,2,5,0,0
79418,-83.3333333333333,4,2,2,55,0,0
79622,392.156862745098,4,2,1,40,1,0
79622,-125,4,2,1,40,0,0
80546,379.746835443038,4,2,2,60,1,0
80546,-66.6666666666667,4,2,2,60,0,1
80830,-66.6666666666667,4,2,2,5,0,1
80925,-66.6666666666667,4,2,2,60,0,1
81020,-66.6666666666667,4,2,2,5,0,1
81115,-66.6666666666667,4,2,2,60,0,1
81495,-66.6666666666667,4,2,2,5,0,1
81589,-66.6666666666667,4,2,2,60,0,1
81780,-66.6666666666667,4,2,2,5,0,1
81874,-66.6666666666667,4,2,2,60,0,1
81970,-66.6666666666667,4,2,2,5,0,1
82064,-66.6666666666667,4,2,2,60,0,1
82349,-66.6666666666667,4,2,2,5,0,1
82444,-66.6666666666667,4,2,2,60,0,1
82729,-66.6666666666667,4,2,2,5,0,1
82824,-66.6666666666667,4,2,2,60,0,1
83014,-66.6666666666667,4,2,2,5,0,1
83109,-66.6666666666667,4,2,2,60,0,1
83299,-66.6666666666667,4,2,2,5,0,1
83394,-66.6666666666667,4,2,2,60,0,1
83489,-66.6666666666667,4,2,2,5,0,1
83583,-66.6666666666667,4,2,2,60,0,1
83868,-66.6666666666667,4,2,2,5,0,1
83963,-66.6666666666667,4,2,2,60,0,1
84628,-66.6666666666667,4,2,2,5,0,1
84723,-66.6666666666667,4,2,2,60,0,1
85387,-66.6666666666667,4,2,2,5,0,1
85482,-66.6666666666667,4,2,2,60,0,1
85577,-66.6666666666667,4,2,2,5,0,1
85672,-66.6666666666667,4,2,2,60,0,1
85861,-62.5,4,2,2,60,0,1
86052,-62.5,4,2,2,5,0,1
86147,-62.5,4,2,2,60,0,1
86337,-62.5,4,2,2,5,0,1
86432,-62.5,4,2,2,60,0,1
86527,-62.5,4,2,2,5,0,1
86621,-62.5,4,2,2,60,0,1
86906,-62.5,4,2,2,5,0,1
87001,-62.5,4,2,2,60,0,1
87571,-62.5,4,2,2,5,0,1
87666,-62.5,4,2,2,60,0,1
87856,-62.5,4,2,2,5,0,1
87951,-62.5,4,2,2,60,0,1
88046,-62.5,4,2,2,5,0,1
88140,-62.5,4,2,2,60,0,1
88425,-66.6666666666667,4,2,2,5,0,1
88520,-62.5,4,2,2,60,0,1
89090,-62.5,4,2,2,5,0,1
89185,-62.5,4,2,2,60,0,1
89375,-62.5,4,2,2,5,0,1
89470,-62.5,4,2,2,60,0,1
89564,-62.5,4,2,2,5,0,1
89659,-62.5,4,2,2,60,0,1
89944,-62.5,4,2,2,5,0,1
90039,-62.5,4,2,2,60,0,1
90324,-62.5,4,2,2,5,0,1
90419,-62.5,4,2,2,60,0,1
90514,-62.5,4,2,2,5,0,1
90609,-62.5,4,2,2,60,0,1
91083,-62.5,4,2,2,60,0,1
91463,-62.5,4,2,2,5,0,1
91558,-62.5,4,2,2,60,0,1
91843,-66.6666666666667,4,2,2,60,0,1
92128,-66.6666666666667,4,2,2,5,0,1
92223,-66.6666666666667,4,2,2,60,0,1
92413,-66.6666666666667,4,2,2,5,0,1
92508,-66.6666666666667,4,2,2,60,0,1
92602,-66.6666666666667,4,2,2,5,0,1
92697,-66.6666666666667,4,2,2,60,0,1
92982,-66.6666666666667,4,2,2,5,0,1
93077,-66.6666666666667,4,2,2,60,0,1
93172,-66.6666666666667,4,2,2,5,0,1
93267,-66.6666666666667,4,2,2,60,0,1
93647,-66.6666666666667,4,2,2,5,0,1
93742,-66.6666666666667,4,2,2,60,0,1
93932,-66.6666666666667,4,2,2,5,0,1
94027,-66.6666666666667,4,2,2,60,0,1
94121,-66.6666666666667,4,2,2,5,0,1
94216,-66.6666666666667,4,2,2,60,0,1
94501,-66.6666666666667,4,2,2,5,0,1
94596,-66.6666666666667,4,2,2,60,0,1
94881,-66.6666666666667,4,2,2,5,0,1
94976,-66.6666666666667,4,2,2,60,0,1
95166,-66.6666666666667,4,2,2,5,0,1
95261,-66.6666666666667,4,2,2,60,0,1
95451,-66.6666666666667,4,2,2,5,0,1
95546,-66.6666666666667,4,2,2,60,0,1
95640,-66.6666666666667,4,2,2,5,0,1
95735,-66.6666666666667,4,2,2,60,0,1
96020,-66.6666666666667,4,2,2,5,0,1
96115,-66.6666666666667,4,2,2,60,0,1
96780,-66.6666666666667,4,2,2,5,0,1
96875,-66.6666666666667,4,2,2,60,0,1
97539,-66.6666666666667,4,2,2,5,0,1
97634,-66.6666666666667,4,2,2,60,0,1
97729,-66.6666666666667,4,2,2,5,0,1
97824,-66.6666666666667,4,2,2,60,0,1
98013,-62.5,4,2,2,60,0,1
98204,-66.6666666666667,4,2,2,5,0,1
98299,-62.5,4,2,2,60,0,1
98489,-66.6666666666667,4,2,2,5,0,1
98583,-62.5,4,2,2,60,0,1
98678,-66.6666666666667,4,2,2,5,0,1
98773,-62.5,4,2,2,60,0,1
99058,-66.6666666666667,4,2,2,5,0,1
99153,-62.5,4,2,2,60,0,1
99723,-66.6666666666667,4,2,2,5,0,1
99818,-62.5,4,2,2,60,0,1
100008,-66.6666666666667,4,2,2,5,0,1
100102,-62.5,4,2,2,60,0,1
100197,-66.6666666666667,4,2,2,5,0,1
100292,-62.5,4,2,2,60,0,1
100577,-66.6666666666667,4,2,2,5,0,1
100672,-62.5,4,2,2,60,0,1
101242,-66.6666666666667,4,2,2,5,0,1
101337,-62.5,4,2,2,60,0,1
101527,-66.6666666666667,4,2,2,5,0,1
101621,-62.5,4,2,2,60,0,1
101716,-66.6666666666667,4,2,2,5,0,1
101811,-62.5,4,2,2,60,0,1
102096,-66.6666666666667,4,2,2,5,0,1
102191,-62.5,4,2,2,60,0,1
102476,-66.6666666666667,4,2,2,5,0,1
102571,-62.5,4,2,2,60,0,1
102666,-66.6666666666667,4,2,2,5,0,1
102761,-62.5,4,2,2,60,0,1
103615,-66.6666666666667,4,2,2,5,0,1
103710,-62.5,4,2,2,60,0,1
103995,-66.6666666666667,4,2,2,5,0,1
104090,-62.5,4,2,2,60,0,1
105134,-66.6666666666667,4,2,2,5,0,1
105229,-62.5,4,2,2,60,0,1
105514,-66.6666666666667,4,2,2,5,0,1
105609,-62.5,4,2,2,60,0,1
105894,-66.6666666666667,4,2,2,5,0,1
105989,-62.5,4,2,2,60,0,1
106273,-66.6666666666667,4,2,2,5,0,1
106368,-62.5,4,2,2,60,0,1
106463,-66.6666666666667,4,2,2,5,0,1
106558,-62.5,4,2,2,60,0,1
107033,-66.6666666666667,4,2,2,5,0,1
107128,-62.5,4,2,2,60,0,1
107413,-66.6666666666667,4,2,2,5,0,1
107508,-62.5,4,2,2,60,0,1
107602,-66.6666666666667,4,2,2,5,0,1
107697,-62.5,4,2,2,60,0,1
107792,-66.6666666666667,4,2,2,5,0,1
107887,-62.5,4,2,2,60,0,1
108172,-66.6666666666667,4,2,2,5,0,1
108267,-62.5,4,2,2,60,0,1
108552,-66.6666666666667,4,2,2,5,0,1
108647,-62.5,4,2,2,60,0,1
108932,-66.6666666666667,4,2,2,5,0,1
109027,-62.5,4,2,2,60,0,1
110071,-66.6666666666667,4,2,2,5,0,1
110166,-62.5,4,2,2,60,0,1
110451,-66.6666666666667,4,2,2,5,0,1
110546,-62.5,4,2,2,60,0,1
110640,-66.6666666666667,4,2,2,5,0,1
110735,-62.5,4,2,2,60,0,1
111210,-66.6666666666667,4,2,2,5,0,1
111305,-62.5,4,2,2,60,0,1
111590,-66.6666666666667,4,2,2,5,0,1
111685,-62.5,4,2,2,60,0,1
111780,-66.6666666666667,4,2,2,5,0,1
111875,-62.5,4,2,2,60,0,1
113678,-66.6666666666667,4,2,2,5,0,1
113773,-62.5,4,2,2,60,0,1
113868,-66.6666666666667,4,2,2,5,0,1
113963,-62.5,4,2,2,60,0,1
114248,-66.6666666666667,4,2,2,5,0,1
114343,-62.5,4,2,2,60,0,1
114628,-66.6666666666667,4,2,2,5,0,1
114723,-62.5,4,2,2,60,0,1
114818,-66.6666666666667,4,2,2,5,0,1
114913,-62.5,4,2,2,60,0,1
117001,-71.4285714285714,4,2,2,55,0,0
117666,-71.4285714285714,4,2,2,5,0,0
117761,-71.4285714285714,4,2,2,55,0,0
118805,-71.4285714285714,4,2,2,5,0,0
118900,-71.4285714285714,4,2,2,55,0,0
119564,-71.4285714285714,4,2,2,5,0,0
119659,-71.4285714285714,4,2,2,55,0,0
119754,-71.4285714285714,4,2,2,5,0,0
119849,-71.4285714285714,4,2,2,55,0,0
122033,-71.4285714285714,4,2,2,5,0,0
122128,-71.4285714285714,4,2,2,55,0,0
122602,-71.4285714285714,4,2,2,5,0,0
122697,-71.4285714285714,4,2,2,55,0,0
123362,-71.4285714285714,4,2,2,5,0,0
123457,-71.4285714285714,4,2,2,55,0,0
123742,-71.4285714285714,4,2,2,5,0,0
123837,-71.4285714285714,4,2,2,55,0,0
123932,-71.4285714285714,4,2,2,5,0,0
124027,-71.4285714285714,4,2,2,55,0,0
125261,-71.4285714285714,4,2,2,5,0,0
125356,-71.4285714285714,4,2,2,55,0,0
125640,-71.4285714285714,4,2,2,5,0,0
125735,-71.4285714285714,4,2,2,55,0,0
126020,-71.4285714285714,4,2,2,5,0,0
126115,-71.4285714285714,4,2,2,55,0,0
129058,-71.4285714285714,4,2,2,5,0,0
129153,-71.4285714285714,4,2,2,55,0,0
131527,-71.4285714285714,4,2,2,5,0,0
131621,-71.4285714285714,4,2,2,55,0,0
131716,-71.4285714285714,4,2,2,5,0,0
131811,-71.4285714285714,4,2,2,55,0,0
132096,-71.4285714285714,4,2,2,5,0,0
132191,-71.4285714285714,4,2,2,55,0,0
134375,-71.4285714285714,4,2,2,5,0,0
134470,-71.4285714285714,4,2,2,55,0,0
134564,-71.4285714285714,4,2,2,5,0,0
134659,-71.4285714285714,4,2,2,55,0,0
134944,-71.4285714285714,4,2,2,5,0,0
135039,-71.4285714285714,4,2,2,55,0,0
135134,-71.4285714285714,4,2,2,5,0,0
135229,-71.4285714285714,4,2,2,55,0,0
136083,-71.4285714285714,4,2,2,5,0,0
136178,-71.4285714285714,4,2,2,55,0,0
136273,-71.4285714285714,4,2,2,5,0,0
136368,-71.4285714285714,4,2,2,55,0,0
136843,-71.4285714285714,4,2,2,5,0,0
136938,-71.4285714285714,4,2,2,55,0,0
137413,-71.4285714285714,4,2,2,5,0,0
137508,-71.4285714285714,4,2,2,55,0,0
137602,-71.4285714285714,4,2,2,5,0,0
137697,-71.4285714285714,4,2,2,55,0,0
137792,-71.4285714285714,4,2,2,5,0,0
137887,-71.4285714285714,4,2,2,55,0,0
138267,-66.6666666666667,4,2,2,55,0,0
138932,-66.6666666666667,4,2,2,5,0,0
139027,-66.6666666666667,4,2,2,55,0,0
140261,-66.6666666666667,4,2,2,5,0,0
140356,-66.6666666666667,4,2,2,55,0,0
140546,-71.4285714285714,4,2,2,55,0,0
140735,-66.6666666666667,4,2,2,5,0,0
140830,-71.4285714285714,4,2,2,55,0,0
141020,-66.6666666666667,4,2,2,5,0,0
141115,-71.4285714285714,4,2,2,55,0,0
141305,-76.9230769230769,4,2,2,50,0,0
141590,-76.9230769230769,4,2,2,5,0,0
141685,-76.9230769230769,4,2,2,50,0,0
141780,-76.9230769230769,4,2,2,5,0,0
141875,-76.9230769230769,4,2,2,50,0,0
142254,-76.9230769230769,4,2,2,5,0,0
142349,-76.9230769230769,4,2,2,50,0,0
142539,-76.9230769230769,4,2,2,5,0,0
142634,-76.9230769230769,4,2,2,50,0,0
143109,-76.9230769230769,4,2,2,5,0,0
143204,-76.9230769230769,4,2,2,50,0,0
143773,-76.9230769230769,4,2,2,5,0,0
143868,-76.9230769230769,4,2,2,50,0,0
144058,-76.9230769230769,4,2,2,5,0,0
144153,-76.9230769230769,4,2,2,50,0,0
145957,-76.9230769230769,4,2,2,5,0,0
146052,-76.9230769230769,4,2,2,50,0,0
146337,-76.9230769230769,4,2,2,5,0,0
146432,-76.9230769230769,4,2,2,50,0,0
146527,-76.9230769230769,4,2,2,5,0,0
146621,-76.9230769230769,4,2,2,50,0,0
146811,-76.9230769230769,4,2,2,5,0,0
146906,-76.9230769230769,4,2,2,50,0,0
147096,-76.9230769230769,4,2,2,5,0,0
147191,-76.9230769230769,4,2,2,50,0,0
147286,-76.9230769230769,4,2,2,5,0,0
147381,-76.9230769230769,4,2,2,50,0,0
147666,-76.9230769230769,4,2,2,5,0,0
147761,-76.9230769230769,4,2,2,50,0,0
148046,-76.9230769230769,4,2,2,5,0,0
148140,-76.9230769230769,4,2,2,50,0,0
149185,-76.9230769230769,4,2,2,5,0,0
149280,-76.9230769230769,4,2,2,50,0,0
149564,-76.9230769230769,4,2,2,5,0,0
149659,-76.9230769230769,4,2,2,50,0,0
149754,-76.9230769230769,4,2,2,5,0,0
149849,-76.9230769230769,4,2,2,50,0,0
151463,-76.9230769230769,4,2,2,5,0,0
151558,-76.9230769230769,4,2,2,50,0,0
153457,-71.4285714285714,4,2,2,50,0,0
153742,-71.4285714285714,4,2,2,5,0,0
153837,-71.4285714285714,4,2,2,50,0,0
153932,-71.4285714285714,4,2,2,5,0,0
154027,-71.4285714285714,4,2,2,50,0,0
154216,-83.3333333333333,4,2,2,50,0,0
154501,-71.4285714285714,4,2,2,5,0,0
154596,-71.4285714285714,4,2,2,50,0,0
155925,-71.4285714285714,4,2,2,5,0,0
156020,-71.4285714285714,4,2,2,50,0,0
156210,-71.4285714285714,4,2,2,5,0,0
156305,-71.4285714285714,4,2,2,50,0,0
156400,-71.4285714285714,4,2,2,5,0,0
156495,-71.4285714285714,4,2,2,50,0,0
156780,-71.4285714285714,4,2,2,5,0,0
156875,-71.4285714285714,4,2,2,50,0,0
156970,-71.4285714285714,4,2,2,5,0,0
157064,-71.4285714285714,4,2,2,50,0,0
157254,-76.9230769230769,4,2,2,50,0,0
157539,-71.4285714285714,4,2,2,5,0,0
157634,-71.4285714285714,4,2,2,50,0,0
158963,-71.4285714285714,4,2,2,5,0,0
159058,-71.4285714285714,4,2,2,50,0,0
159248,-71.4285714285714,4,2,2,5,0,0
159343,-71.4285714285714,4,2,2,50,0,0
159818,-71.4285714285714,4,2,2,5,0,0
159913,-71.4285714285714,4,2,2,50,0,0
160008,-71.4285714285714,4,2,2,5,0,0
160102,-71.4285714285714,4,2,2,50,0,0
160197,-71.4285714285714,4,2,2,5,0,0
160292,-71.4285714285714,4,2,2,50,0,0
161337,-71.4285714285714,4,2,2,5,0,0
161432,-71.4285714285714,4,2,2,50,0,0
161716,-71.4285714285714,4,2,2,5,0,0
161811,-71.4285714285714,4,2,2,50,0,0
162096,-71.4285714285714,4,2,2,5,0,0
162191,-71.4285714285714,4,2,2,50,0,0
163615,-71.4285714285714,4,2,2,5,0,0
163710,-71.4285714285714,4,2,2,50,0,0
163805,-71.4285714285714,4,2,2,5,0,0
163900,-71.4285714285714,4,2,2,50,0,0
165704,-71.4285714285714,4,2,2,5,0,0
165799,-71.4285714285714,4,2,2,50,0,0
165894,-71.4285714285714,4,2,2,5,0,0
165989,-71.4285714285714,4,2,2,50,0,0
166273,-71.4285714285714,4,2,2,5,0,0
166368,-71.4285714285714,4,2,2,50,0,0
167033,-71.4285714285714,4,2,2,5,0,0
167128,-66.6666666666667,4,2,2,50,0,0
168552,-66.6666666666667,4,2,2,5,0,0
168647,-66.6666666666667,4,2,2,50,0,0
170071,-66.6666666666667,4,2,2,5,0,0
170166,-66.6666666666667,4,2,2,50,0,0
170546,-100,4,2,2,30,0,0
170830,-66.6666666666667,4,2,2,5,0,0
170925,-90.9090909090909,4,2,2,40,0,0
171210,-66.6666666666667,4,2,2,5,0,0
171305,-83.3333333333333,4,2,2,50,0,0
171590,-66.6666666666667,4,2,2,5,0,0
171685,-76.9230769230769,4,2,2,60,0,0
171970,-66.6666666666667,4,2,2,5,0,0
172064,-71.4285714285714,4,2,2,65,0,0
172349,-66.6666666666667,4,2,2,5,0,0
172444,-125,4,2,2,40,0,0
172634,-125,4,2,2,5,0,0
172729,-125,4,2,2,40,0,0
172919,-125,4,2,2,5,0,0
173014,-125,4,2,2,40,0,0
173204,-125,4,2,2,20,0,0
175292,-125,4,2,2,40,0,0
175482,-71.4285714285714,4,2,2,55,0,0
175672,-71.4285714285714,4,2,2,5,0,0
175767,-71.4285714285714,4,2,2,55,0,0
175957,-71.4285714285714,4,2,2,5,0,0
176052,-71.4285714285714,4,2,2,55,0,0
176147,-71.4285714285714,4,2,2,5,0,0
176242,-62.5,4,2,2,65,0,1
176527,-62.5,4,2,2,5,0,1
176621,-62.5,4,2,2,65,0,1
176716,-62.5,4,2,2,5,0,1
176811,-62.5,4,2,2,65,0,1
177191,-62.5,4,2,2,5,0,1
177286,-62.5,4,2,2,65,0,1
177476,-62.5,4,2,2,5,0,1
177571,-62.5,4,2,2,65,0,1
177666,-62.5,4,2,2,5,0,1
177761,-62.5,4,2,2,65,0,1
178046,-62.5,4,2,2,5,0,1
178140,-62.5,4,2,2,65,0,1
178425,-62.5,4,2,2,5,0,1
178520,-62.5,4,2,2,65,0,1
178710,-62.5,4,2,2,5,0,1
178805,-62.5,4,2,2,65,0,1
178995,-62.5,4,2,2,5,0,1
179090,-62.5,4,2,2,65,0,1
179185,-62.5,4,2,2,5,0,1
179280,-62.5,4,2,2,65,0,1
179564,-62.5,4,2,2,5,0,1
179659,-62.5,4,2,2,65,0,1
180324,-62.5,4,2,2,5,0,1
180419,-62.5,4,2,2,65,0,1
181083,-62.5,4,2,2,5,0,1
181178,-62.5,4,2,2,65,0,1
181273,-62.5,4,2,2,5,0,1
181368,-62.5,4,2,2,65,0,1
181558,-58.8235294117647,4,2,2,65,0,1
181748,-58.8235294117647,4,2,2,5,0,1
181843,-58.8235294117647,4,2,2,65,0,1
182033,-58.8235294117647,4,2,2,5,0,1
182128,-58.8235294117647,4,2,2,65,0,1
182223,-58.8235294117647,4,2,2,5,0,1
182318,-58.8235294117647,4,2,2,65,0,1
182602,-58.8235294117647,4,2,2,5,0,1
182697,-58.8235294117647,4,2,2,65,0,1
183267,-58.8235294117647,4,2,2,5,0,1
183362,-58.8235294117647,4,2,2,65,0,1
183552,-58.8235294117647,4,2,2,5,0,1
183647,-58.8235294117647,4,2,2,65,0,1
183742,-58.8235294117647,4,2,2,5,0,1
183837,-58.8235294117647,4,2,2,65,0,1
184121,-58.8235294117647,4,2,2,5,0,1
184216,-58.8235294117647,4,2,2,65,0,1
184501,-58.8235294117647,4,2,2,5,0,1
184596,-58.8235294117647,4,2,2,65,0,1
184786,-58.8235294117647,4,2,2,5,0,1
184881,-58.8235294117647,4,2,2,65,0,1
185071,-58.8235294117647,4,2,2,5,0,1
185166,-58.8235294117647,4,2,2,65,0,1
185261,-58.8235294117647,4,2,2,5,0,1
185356,-58.8235294117647,4,2,2,65,0,1
185640,-58.8235294117647,4,2,2,5,0,1
185735,-58.8235294117647,4,2,2,65,0,1
186020,-58.8235294117647,4,2,2,5,0,1
186115,-58.8235294117647,4,2,2,65,0,1
186210,-58.8235294117647,4,2,2,5,0,1
186305,-58.8235294117647,4,2,2,65,0,1
187159,-58.8235294117647,4,2,2,5,0,1
187254,-58.8235294117647,4,2,2,65,0,1
187824,-58.8235294117647,4,2,2,5,0,1
187919,-58.8235294117647,4,2,2,65,0,1
188109,-58.8235294117647,4,2,2,5,0,1
188204,-58.8235294117647,4,2,2,65,0,1
188299,-58.8235294117647,4,2,2,5,0,1
188394,-62.5,4,2,2,65,0,1
188678,-62.5,4,2,2,5,0,1
188773,-62.5,4,2,2,65,0,1
188868,-62.5,4,2,2,5,0,1
188963,-62.5,4,2,2,65,0,1
189343,-62.5,4,2,2,5,0,1
189438,-62.5,4,2,2,65,0,1
189628,-62.5,4,2,2,5,0,1
189723,-62.5,4,2,2,65,0,1
189818,-62.5,4,2,2,5,0,1
189913,-62.5,4,2,2,65,0,1
190197,-62.5,4,2,2,5,0,1
190292,-62.5,4,2,2,65,0,1
190862,-62.5,4,2,2,5,0,1
190957,-62.5,4,2,2,65,0,1
191147,-62.5,4,2,2,5,0,1
191242,-62.5,4,2,2,65,0,1
191716,-62.5,4,2,2,5,0,1
191811,-62.5,4,2,2,65,0,1
192476,-62.5,4,2,2,5,0,1
192571,-62.5,4,2,2,65,0,1
193235,-62.5,4,2,2,5,0,1
193330,-62.5,4,2,2,65,0,1
193425,-62.5,4,2,2,5,0,1
193520,-62.5,4,2,2,65,0,1
193900,-62.5,4,2,2,5,0,1
193995,-62.5,4,2,2,65,0,1
194185,-62.5,4,2,2,5,0,1
194280,-62.5,4,2,2,65,0,1
194375,-62.5,4,2,2,5,0,1
194470,-58.8235294117647,4,2,2,65,0,1
194754,-58.8235294117647,4,2,2,5,0,1
194849,-58.8235294117647,4,2,2,65,0,1
195419,-58.8235294117647,4,2,2,5,0,1
195514,-58.8235294117647,4,2,2,65,0,1
195704,-58.8235294117647,4,2,2,5,0,1
195799,-58.8235294117647,4,2,2,65,0,1
195894,-58.8235294117647,4,2,2,5,0,1
195989,-58.8235294117647,4,2,2,65,0,1
196273,-58.8235294117647,4,2,2,5,0,1
196368,-58.8235294117647,4,2,2,65,0,1
196938,-58.8235294117647,4,2,2,5,0,1
197033,-58.8235294117647,4,2,2,65,0,1
197223,-58.8235294117647,4,2,2,5,0,1
197318,-58.8235294117647,4,2,2,65,0,1
197413,-58.8235294117647,4,2,2,5,0,1
197508,-58.8235294117647,4,2,2,65,0,1
197602,-58.8235294117647,4,2,2,5,0,1
197697,-58.8235294117647,4,2,2,65,0,1
197887,-58.8235294117647,4,2,2,65,0,1
198172,-58.8235294117647,4,2,2,5,0,1
198267,-58.8235294117647,4,2,2,65,0,1
198362,-58.8235294117647,4,2,2,5,0,1
198457,-58.8235294117647,4,2,2,65,0,1
199881,-58.8235294117647,4,2,2,5,0,1
199976,-58.8235294117647,4,2,2,65,0,1
200071,-58.8235294117647,4,2,2,5,0,1
200166,-58.8235294117647,4,2,2,65,0,1
200830,-58.8235294117647,4,2,2,5,0,1
200925,-58.8235294117647,4,2,2,65,0,1
201210,-58.8235294117647,4,2,2,5,0,1
201305,-58.8235294117647,4,2,2,65,0,1
201590,-58.8235294117647,4,2,2,5,0,1
201685,-58.8235294117647,4,2,2,65,0,1
201970,-58.8235294117647,4,2,2,5,0,1
202064,-58.8235294117647,4,2,2,65,0,1
202159,-58.8235294117647,4,2,2,5,0,1
202254,-58.8235294117647,4,2,2,65,0,1
202729,-58.8235294117647,4,2,2,5,0,1
202824,-58.8235294117647,4,2,2,65,0,1
203109,-58.8235294117647,4,2,2,5,0,1
203204,-58.8235294117647,4,2,2,65,0,1
203299,-58.8235294117647,4,2,2,5,0,1
203394,-58.8235294117647,4,2,2,65,0,1
203489,-58.8235294117647,4,2,2,5,0,1
203583,-58.8235294117647,4,2,2,65,0,1
203868,-58.8235294117647,4,2,2,5,0,1
203963,-58.8235294117647,4,2,2,65,0,1
204248,-58.8235294117647,4,2,2,5,0,1
204343,-58.8235294117647,4,2,2,65,0,1
204628,-58.8235294117647,4,2,2,5,0,1
204723,-58.8235294117647,4,2,2,65,0,1
205767,-58.8235294117647,4,2,2,5,0,1
205862,-58.8235294117647,4,2,2,65,0,1
206147,-58.8235294117647,4,2,2,5,0,1
206242,-58.8235294117647,4,2,2,65,0,1
206337,-58.8235294117647,4,2,2,5,0,1
206432,-58.8235294117647,4,2,2,65,0,1
206906,-58.8235294117647,4,2,2,5,0,1
207001,-58.8235294117647,4,2,2,65,0,1
207286,-58.8235294117647,4,2,2,5,0,1
207381,-58.8235294117647,4,2,2,65,0,1
207476,-58.8235294117647,4,2,2,5,0,1
207571,-58.8235294117647,4,2,2,65,0,1
208805,-58.8235294117647,4,2,2,5,0,1
208900,-58.8235294117647,4,2,2,65,0,1
209185,-58.8235294117647,4,2,2,5,0,1
209280,-58.8235294117647,4,2,2,65,0,1
209375,-58.8235294117647,4,2,2,5,0,1
209470,-58.8235294117647,4,2,2,65,0,1
209564,-58.8235294117647,4,2,2,5,0,1
209659,-58.8235294117647,4,2,2,65,0,1
209944,-58.8235294117647,4,2,2,5,0,1
210039,-58.8235294117647,4,2,2,65,0,1
210324,-58.8235294117647,4,2,2,5,0,1
210419,-58.8235294117647,4,2,2,65,0,1
210514,-58.8235294117647,4,2,2,5,0,1
210609,-58.8235294117647,4,2,2,65,0,1
211083,-58.8235294117647,4,2,2,5,0,1
211178,-58.8235294117647,4,2,2,65,0,1
211463,-58.8235294117647,4,2,2,5,0,1
211558,-58.8235294117647,4,2,2,65,0,1
212697,-66.6666666666667,4,2,2,55,0,0
212982,-66.6666666666667,4,2,2,5,0,0
213077,-66.6666666666667,4,2,2,55,0,0
213362,-66.6666666666667,4,2,2,5,0,0
213457,-66.6666666666667,4,2,2,55,0,0
213552,-66.6666666666667,4,2,2,5,0,0
213647,-66.6666666666667,4,2,2,55,0,0
213742,-66.6666666666667,4,2,2,5,0,0
213837,-66.6666666666667,4,2,2,55,0,0
214311,-66.6666666666667,4,2,2,5,0,0
214406,-66.6666666666667,4,2,2,55,0,0
215261,-66.6666666666667,4,2,2,5,0,0
215356,-66.6666666666667,4,2,2,55,0,0
215830,-66.6666666666667,4,2,2,5,0,0
215925,-66.6666666666667,4,2,2,55,0,0
216400,-66.6666666666667,4,2,2,5,0,0
216495,-66.6666666666667,4,2,2,55,0,0
216780,-66.6666666666667,4,2,2,5,0,0
216875,-66.6666666666667,4,2,2,55,0,0
217349,-66.6666666666667,4,2,2,5,0,0
217444,-66.6666666666667,4,2,2,55,0,0
217539,-66.6666666666667,4,2,2,5,0,0
217634,-66.6666666666667,4,2,2,55,0,0
218773,-71.4285714285714,4,2,2,65,0,0
219628,-71.4285714285714,4,2,2,5,0,0
219723,-71.4285714285714,4,2,2,65,0,0
220577,-71.4285714285714,4,2,2,5,0,0
220672,-71.4285714285714,4,2,2,65,0,0
221147,-71.4285714285714,4,2,2,5,0,0
221242,-71.4285714285714,4,2,2,65,0,0
221337,-71.4285714285714,4,2,2,5,0,0
221432,-71.4285714285714,4,2,2,65,0,0
222096,-71.4285714285714,4,2,2,5,0,0
222191,-71.4285714285714,4,2,2,65,0,0
222286,-71.4285714285714,4,2,2,5,0,0
222381,-71.4285714285714,4,2,2,65,0,0
223425,-71.4285714285714,4,2,2,5,0,0
223520,-71.4285714285714,4,2,2,65,0,0
223805,-71.4285714285714,4,2,2,5,0,0
223900,-71.4285714285714,4,2,2,65,0,0
223995,-71.4285714285714,4,2,2,5,0,0
224090,-71.4285714285714,4,2,2,65,0,0
225704,-71.4285714285714,4,2,2,5,0,0
225799,-71.4285714285714,4,2,2,65,0,0
227792,-71.4285714285714,4,2,2,5,0,0
227887,-62.5,4,2,2,70,0,0
228172,-62.5,4,2,2,5,0,0
228267,-62.5,4,2,2,70,0,0
228742,-62.5,4,2,2,5,0,0
228837,-62.5,4,2,2,70,0,0
229121,-62.5,4,2,2,5,0,0
229216,-62.5,4,2,2,70,0,0
229786,-71.4285714285714,4,2,2,70,0,0
230166,-66.6666666666667,4,2,2,70,0,0
230356,-66.6666666666667,4,2,2,5,0,0
230451,-66.6666666666667,4,2,2,70,0,0
230640,-66.6666666666667,4,2,2,5,0,0
230735,-66.6666666666667,4,2,2,70,0,0
230830,-66.6666666666667,4,2,2,5,0,0
230925,-62.5,4,2,2,65,0,1
231210,-62.5,4,2,2,5,0,1
231305,-62.5,4,2,2,65,0,1
231875,-62.5,4,2,2,5,0,1
231970,-62.5,4,2,2,65,0,1
232159,-62.5,4,2,2,5,0,1
232254,-62.5,4,2,2,65,0,1
232349,-62.5,4,2,2,5,0,0
232444,-62.5,4,2,2,65,0,1
232729,-62.5,4,2,2,5,0,1
232824,-62.5,4,2,2,65,0,1
233394,-62.5,4,2,2,5,0,1
233489,-62.5,4,2,2,65,0,1
233678,-62.5,4,2,2,5,0,1
233773,-62.5,4,2,2,65,0,1
233868,-62.5,4,2,2,5,0,0
233963,-62.5,4,2,2,65,0,1
234248,-62.5,4,2,2,5,0,1
234343,-62.5,4,2,2,65,0,1
234818,-62.5,4,2,2,5,0,1
234913,-62.5,4,2,2,65,0,1
235008,-62.5,4,2,2,5,0,1
235102,-62.5,4,2,2,65,0,1
235197,-62.5,4,2,2,5,0,0
235292,-62.5,4,2,2,65,0,1
236147,-62.5,4,2,2,5,0,1
236242,-66.6666666666667,4,2,2,65,0,1
237001,-66.6666666666667,4,2,2,65,0,0
237096,-66.6666666666667,4,2,2,5,0,0
237191,-66.6666666666667,4,2,2,65,0,0
237666,-66.6666666666667,4,2,2,5,0,0
237761,-66.6666666666667,4,2,2,65,0,0
238046,-66.6666666666667,4,2,2,5,0,0
238140,-66.6666666666667,4,2,2,65,0,0
239375,-66.6666666666667,4,2,2,5,0,0
239470,-66.6666666666667,4,2,2,65,0,0
239564,-66.6666666666667,4,2,2,5,0,0
239659,-66.6666666666667,4,2,2,65,0,0
240324,-66.6666666666667,4,2,2,5,0,0
240419,-66.6666666666667,4,2,2,65,0,0
240704,-66.6666666666667,4,2,2,5,0,0
240799,-66.6666666666667,4,2,2,65,0,0
241083,-66.6666666666667,4,2,2,5,0,0
241178,-66.6666666666667,4,2,2,65,0,0
241843,-66.6666666666667,4,2,2,5,0,0
241938,-66.6666666666667,4,2,2,65,0,0
242413,-66.6666666666667,4,2,2,5,0,0
242508,-66.6666666666667,4,2,2,65,0,0
243742,-66.6666666666667,4,2,2,5,0,0
243837,-66.6666666666667,4,2,2,65,0,0
244596,-100,4,2,2,50,0,0
245356,-142.857142857143,4,2,2,40,0,0
246115,-200,4,2,2,20,0,0
274027,-200,4,2,2,20,0,0

[Colours]
Combo1 : 245,16,10
Combo2 : 172,11,128
Combo3 : 180,180,180
Combo4 : 88,0,176

[HitObjects]
108,39,1534,5,0,0:0:0:0:
108,39,1918,6,0,P|148:51|171:58,1,52.4999983978272,2|0,0:0|0:0,0:0:0:0:
229,88,2293,2,0,P|271:79|293:75,1,52.4999983978272,2|0,0:0|0:0,0:0:0:0:
342,30,2705,1,2,0:0:0:0:
409,70,2894,1,0,0:0:0:0:
478,32,3084,2,0,B|493:81|493:81|491:86|491:86|512:151,2,104.999996795654,2|0|0,0:0|0:0|0:0,0:0:0:0:
403,180,4223,1,0,0:0:0:0:
403,180,4622,6,0,P|309:152|348:122,1,209.999993591309,2|2,0:0|0:0,0:0:0:0:
463,320,5747,1,2,0:0:0:0:
463,320,5934,2,0,B|431:297|388:286|343:326|343:326|306:398|225:370,1,262.499991989136,2|0,0:0|0:0,0:0:0:0:
135,353,7069,2,0,P|126:329|107:289,1,52.4999983978272,2|0,0:0|0:0,0:0:0:0:
127,231,7421,6,0,P|162:198|221:215,1,104.999996795654,2|0,0:0|0:0,0:0:0:0:
274,246,8023,2,0,P|323:256|361:223,1,104.999996795654,2|0,0:0|0:0,0:0:0:0:
248,38,8783,2,0,P|233:82|228:97,1,52.4999983978272,2|0,0:0|0:0,0:0:0:0:
171,148,9190,6,0,B|132:174|132:174|83:151,1,98.437496995926,2|0,0:0|0:0,0:0:0:0:
79,82,9729,2,0,B|123:50|123:50|171:75,1,104.999996795654,2|0,0:0|0:0,0:0:0:0:
17,145,10281,1,2,0:0:0:0:
17,145,10699,6,0,B|19:170|37:214|37:214|20:262|20:262|41:306|47:354,1,209.999993591309
206,198,11838,5,2,0:0:0:0:
206,198,12028,6,0,B|144:183|104:120|104:120|132:188|117:261,1,262.499991989136,2|0,0:0|0:0,0:0:0:0:
323,371,13363,1,2,0:0:0:0:
323,371,13557,6,0,P|341:310|293:277,1,104.999996795654,2|0,0:0|0:0,0:0:0:0:
273,226,14116,2,0,L|312:120,1,104.999996795654,2|0,0:0|0:0,0:0:0:0:
389,18,14852,2,0,B|510:61|516:105|523:218|395:187|388:145|393:97,1,314.999990386963
292,135,16560,1,0,0:0:0:0:
292,135,16749,6,0,P|235:122|183:109,1,104.999996795654,2|0,0:0|0:0,0:0:0:0:
142,51,17361,2,0,P|92:66|34:82,1,104.999996795654,2|0,0:0|0:0,0:0:0:0:
19,171,17923,2,0,P|61:155|119:273,1,209.999993591309,2|0,0:0|0:0,0:0:0:0:
268,368,19034,2,0,P|252:319|244:298,1,52.4999983978272,2|0,0:0|0:0,0:0:0:0:
297,257,19382,2,0,P|313:208|321:187,1,52.4999983978272,2|0,0:0|0:0,0:0:0:0:
286,132,19798,5,2,0:0:0:0:
286,132,20174,2,0,B|367:116|379:165|393:215|489:183,1,209.999993591309,2|0,0:0|0:0,0:0:0:0:
428,291,21679,2,0,P|386:273|369:266,1,52.4999983978272,2|0,0:0|0:0,0:0:0:0:
310,237,22054,2,0,P|269:248|244:254,1,52.4999983978272,2|0,0:0|0:0,0:0:0:0:
203,305,22429,1,2,0:0:0:0:
133,267,22615,1,0,0:0:0:0:
61,298,22804,5,2,0:0:0:0:
61,298,23179,2,0,B|27:319|4:343|4:343|50:203,1,209.999993591309,2|0,0:0|0:0,0:0:0:0:
50,198,25128,5,0,0:0:0:0:
119,152,25319,1,0,0:0:0:0:
196,180,25510,1,0,0:0:0:0:
361,141,25883,1,0,0:0:0:0:
361,141,26262,5,2,0:0:0:0:
361,141,26452,2,0,L|292:161,1,52.4999983978272,2|0,0:0|0:0,0:0:0:0:
246,193,26832,2,0,L|188:177,1,52.4999983978272,2|0,0:0|0:0,0:0:0:0:
139,236,27212,1,0,0:0:0:0:
139,236,27401,2,0,P|106:226|56:275,2,104.999996795654,2|0|0,0:0|0:0|0:0,0:0:0:0:
104,126,28541,1,0,0:0:0:0:
104,126,28921,6,0,B|167:135|198:166|198:166|172:115|197:40,1,209.999993591309,2|0,0:0|0:0,0:0:0:0:
304,32,30045,1,2,0:0:0:0:
304,32,30232,2,0,B|326:92|351:130|351:130|273:183|273:183|291:147|297:103,1,262.499991989136,2|0,0:0|0:0,0:0:0:0:
216,50,31343,1,2,0:0:0:0:
145,85,31557,1,2,0:0:0:0:
145,85,31959,5,2,0:0:0:0:
73,118,32148,1,0,0:0:0:0:
113,190,32338,2,0,L|86:316,1,104.999996795654,2|0,0:0|0:0,0:0:0:0:
266,343,33288,1,0,0:0:0:0:
266,343,33478,2,0,P|316:357|354:313,1,104.999996795654,2|0,0:0|0:0,0:0:0:0:
332,251,34048,2,0,P|282:237|244:281,1,104.999996795654,2|2,0:0|0:0,0:0:0:0:
485,294,34807,6,0,B|458:124|458:124|462:179|412:223,1,262.499991989136,2|0,0:0|0:0,0:0:0:0:
336,71,36136,1,2,0:0:0:0:
336,71,36326,2,0,P|386:139|280:106,1,262.499991989136,2|0,0:0|0:0,0:0:0:0:
204,377,37655,1,2,0:0:0:0:
204,377,37863,6,0,B|173:334|173:334|194:267,1,104.999996795654,2|0,0:0|0:0,0:0:0:0:
248,238,38454,2,0,L|221:130,1,104.999996795654,2|0,0:0|0:0,0:0:0:0:
122,48,39187,2,0,B|96:69|43:77|43:77|119:83|150:54|176:10|264:34,1,314.999990386963
374,53,40705,1,2,0:0:0:0:
439,11,40895,1,0,0:0:0:0:
493,69,41080,6,0,L|466:181,1,104.999996795654,2|0,0:0|0:0,0:0:0:0:
408,222,41668,2,0,L|442:325,1,104.999996795654,2|0,0:0|0:0,0:0:0:0:
377,368,42227,2,0,P|336:378|299:326,1,104.999996795654,2|0,0:0|0:0,0:0:0:0:
297,63,43162,1,2,0:0:0:0:
297,63,43349,2,0,L|277:132,1,52.4999983978272,2|0,0:0|0:0,0:0:0:0:
217,163,43724,1,2,0:0:0:0:
217,163,44117,6,0,L|144:184,1,52.4999983978272,2|0,0:0|0:0,0:0:0:0:
90,216,44487,2,0,B|69:269|69:269|106:316,1,104.999996795654,2|0,0:0|0:0,0:0:0:0:
211,367,45238,1,2,0:0:0:0:
275,320,45430,1,2,0:0:0:0:
351,338,45622,6,0,P|393:313|399:250,1,104.999996795654,2|2,0:0|0:0,0:0:0:0:
499,228,46361,2,0,P|447:188|459:138,1,104.999996795654,2|2,0:0|0:0,0:0:0:0:
301,97,46930,1,0,0:0:0:0:
301,97,47128,6,0,B|173:58|132:190|262:258|365:209|264:115|361:34|419:53,1,419.999987182618,2|2,0:0|0:0,0:0:0:0:
410,51,48836,1,2,0:0:0:0:
511,174,49026,2,0,P|462:157|420:141,1,90,6|0,0:0|0:0,0:0:0:0:
426,143,49424,5,2,3:2:0:0:
353,200,49613,1,2,3:2:0:0:
247,88,49803,1,2,3:2:0:0:
182,132,49993,1,2,3:0:0:0:
32,40,50179,6,0,L|72:153,1,101.249996910095,6|0,3:2|0:0,0:0:0:0:
112,195,50558,2,0,P|117:245|60:279,1,101.249996910095,2|0,0:0|0:0,0:0:0:0:
8,359,50938,2,0,B|67:349|67:349|73:354|73:354|157:340,1,134.999995880127,8|0,0:2|0:0,0:0:0:0:
206,306,51508,1,0,0:0:0:0:
327,369,51697,6,0,P|377:364|400:299,1,101.249996910095,0|0,3:2|0:0,0:0:0:0:
446,267,52077,2,0,L|415:185,2,67.4999979400635,2|2|10,3:2|0:0|3:2,0:0:0:0:
508,311,52647,1,2,0:0:0:0:
349,197,52837,1,2,0:0:0:0:
416,130,53027,1,2,0:0:0:0:
298,10,53216,6,0,L|329:130,1,101.249996910095,2|0,3:2|0:0,0:0:0:0:
277,169,53596,2,0,B|249:168|229:180|229:180|218:153|192:133,1,101.249996910095,2|0,0:0|0:0,0:0:0:0:
412,23,53976,2,0,B|452:53|452:53|426:98|409:148,1,134.999995880127,8|0,0:2|0:0,0:0:0:0:
346,312,54546,1,0,0:0:0:0:
346,312,54641,1,0,0:0:0:0:
346,312,54735,6,0,P|383:274|445:301,1,101.249996910095,0|0,3:2|0:0,0:0:0:0:
426,280,55115,1,2,3:2:0:0:
298,377,55305,1,2,0:0:0:0:
222,324,55495,1,12,3:2:0:0:
131,371,55685,1,2,0:0:0:0:
0,298,55875,1,2,0:0:0:0:
0,298,56065,1,0,0:0:0:0:
132,209,56254,6,0,P|119:247|95:320,1,101.249996910095,2|0,3:2|0:0,0:0:0:0:
131,371,56634,2,0,P|180:378|214:308,1,134.999995880127,2|8,0:0|0:2,0:0:0:0:
132,209,57204,1,0,0:0:0:0:
276,111,57394,1,2,0:0:0:0:
276,111,57584,6,0,B|351:124|351:124|363:120|363:120|449:133,1,168.749994850159,2|0,0:0|0:0,0:0:0:0:
489,62,58153,1,2,3:2:0:0:
322,306,58391,2,0,P|256:295|241:267,1,101.249996910095,2|0,0:0|0:0,0:0:0:0:
261,197,58770,2,0,P|320:187|358:252,1,134.999995880127,2|0,0:0|0:0,0:0:0:0:
194,348,59292,6,0,B|129:362|129:362|54:311,1,134.999995880127,2|2,3:2|0:0,0:0:0:0:
90,220,59862,2,0,B|155:206|155:206|211:244,1,134.999995880127,2|2,0:0|0:0,0:0:0:0:
194,348,60432,1,2,0:0:0:0:
10,236,60622,1,0,0:0:0:0:
10,236,60716,1,0,0:0:0:0:
10,236,60811,6,0,L|39:125,1,101.249996910095,0|0,3:2|0:0,0:0:0:0:
35,138,61191,1,2,3:2:0:0:
125,178,61381,1,2,0:0:0:0:
181,63,61571,1,10,3:2:0:0:
92,19,61761,1,2,0:0:0:0:
208,213,61951,1,2,0:0:0:0:
294,172,62141,1,0,0:0:0:0:
428,276,62330,6,0,B|308:243,1,101.249996910095,2|0,3:2|0:0,0:0:0:0:
270,288,62710,2,0,P|250:336|302:372,1,101.249996910095,2|0,0:0|0:0,0:0:0:0:
492,325,63090,2,0,P|511:268|450:203,1,134.999995880127,8|0,0:2|0:0,0:0:0:0:
250,155,63660,1,0,0:0:0:0:
250,155,63754,1,0,0:0:0:0:
250,155,63849,6,0,B|302:146|302:146|309:149|309:149|376:135,1,101.249996910095,0|0,3:2|0:0,0:0:0:0:
405,91,64228,1,0,0:0:0:0:
483,139,64419,1,2,0:0:0:0:
309,34,64609,1,10,3:2:0:0:
240,77,64799,1,2,0:0:0:0:
163,28,64988,1,0,0:0:0:0:
163,28,65178,1,0,0:0:0:0:
100,178,65368,6,0,P|156:176|188:224,1,101.249996910095,2|0,3:2|0:0,0:0:0:0:
241,253,65748,2,0,L|199:363,1,101.249996910095,2|0,0:0|0:0,0:0:0:0:
136,377,66127,1,0,0:0:0:0:
62,342,66317,1,0,0:0:0:0:
241,253,66508,2,0,L|371:229,1,101.249996910095,2|0,0:0|0:0,0:0:0:0:
440,132,66887,6,0,P|450:76|416:45,1,101.249996910095,2|0,3:2|0:0,0:0:0:0:
344,61,67267,2,0,P|334:117|368:148,1,101.249996910095,0|0,3:2|0:0,0:0:0:0:
500,256,67647,2,0,B|449:215|405:246|405:246|361:296|309:264,1,202.499993820191,10|0,3:2|0:0,0:0:0:0:
143,369,68406,6,0,L|178:258,1,101.249996910095,2|0,3:2|0:0,0:0:0:0:
174,272,68786,1,2,0:0:0:0:
104,205,68976,2,0,B|84:231|88:283|88:283|71:236|23:220,1,168.749994850159,2|0,0:0|0:0,0:0:0:0:
97,128,69546,2,0,P|160:145|177:176,1,101.249996910095,2|0,0:0|0:0,0:0:0:0:
254,287,69925,6,0,L|372:265,1,101.249996910095,2|0,3:2|0:0,0:0:0:0:
353,268,70305,1,2,3:2:0:0:
485,206,70495,2,0,B|422:194|422:194|414:198|414:198|344:184,1,134.999995880127,2|0,0:0|0:0,0:0:0:0:
218,89,71065,1,2,0:0:0:0:
292,48,71254,1,2,0:0:0:0:
242,163,71444,1,2,3:2:0:0:
128,76,71634,6,0,P|59:42|95:116,1,202.499993820191,2|8,0:0|0:2,0:0:0:0:
200,227,72584,1,2,0:0:0:0:
200,227,72773,1,2,0:0:0:0:
86,357,72963,2,0,L|126:221,1,134.999995880127,2|0,3:2|3:2,0:0:0:0:
83,161,73533,1,0,0:0:0:0:
186,316,73723,2,0,P|242:322|285:271,2,101.249996910095,10|2|2,3:2|0:0|0:0,0:0:0:0:
351,187,74482,6,0,B|349:165|331:131|331:131|383:178|433:193|433:193|381:231|369:290,1,269.999991760254,2|8,3:2|0:2,0:0:0:0:
416,332,75432,2,0,P|465:316|500:308,1,67.4999979400635,2|2,0:0|0:0,0:0:0:0:
264,282,75811,1,2,0:0:0:0:
264,282,76001,2,0,P|234:248|238:212,1,67.4999979400635,0|0,3:2|0:0,0:0:0:0:
333,44,76381,2,0,B|367:66|367:66|338:133,1,101.249996910095,0|0,3:2|0:0,0:0:0:0:
272,149,76761,2,0,P|220:132|118:112,1,134.999995880127,8|8,3:2|0:2,0:0:0:0:
141,115,77330,1,0,0:0:0:0:
179,234,77520,5,0,0:0:0:0:
179,234,77900,6,0,B|176:207|186:188|186:188|213:201|228:227,1,90,8|0,3:2|0:0,0:0:0:0:
209,336,78280,6,0,B|183:353|161:357|161:357|158:324|181:290,1,101.249996910095,8|0,3:2|0:0,0:0:0:0:
289,243,78659,6,0,B|318:265|327:282|327:282|306:301|263:292,1,112.5,8|0,3:2|0:0,0:0:0:0:
159,224,79039,6,0,B|155:182|167:156|167:156|201:168|227:239,1,134.999995880127,8|0,3:2|0:0,0:0:0:0:
209,336,79419,1,8,3:2:0:0:
28,194,79622,5,2,0:0:0:0:
28,194,79818,6,0,L|53:110,2,80,2|2|2,0:0|0:0|0:0,0:0:0:0:
0,66,80546,6,0,P|85:52|126:125,1,168.750006437302,6|0,3:2|0:0,0:0:0:0:
169,179,80925,2,0,P|196:166|253:150,1,56.2500021457673
271,99,81115,1,2,0:0:0:0:
106,226,81305,6,0,P|46:213|31:156,1,112.500004291535,8|0,0:2|0:0,0:0:0:0:
181,256,81590,2,0,P|201:306|170:350,1,112.500004291535,2|0,0:0|0:0,0:0:0:0:
169,179,81875,2,0,P|197:149|249:144,1,56.2500021457673,2|0,0:0|0:0,0:0:0:0:
452,298,82064,6,0,B|374:281|374:281|366:285|366:285|261:263,1,168.750006437302,2|0,3:2|0:0,0:0:0:0:
238,210,82444,1,0,3:2:0:0:
362,378,82634,2,0,L|443:351,1,56.2500021457673,2|0,0:0|0:0,0:0:0:0:
470,118,82824,6,0,B|438:120|418:95|418:95|429:129|402:166,1,112.500004291535,10|0,0:2|0:0,0:0:0:0:
457,223,83109,2,0,B|487:221|507:246|507:246|496:212|512:194,1,112.500004291535,2|0,0:0|0:0,0:0:0:0:
347,113,83394,2,0,L|285:130,1,56.2500021457673,2|0,0:0|0:0,0:0:0:0:
178,227,83583,6,0,B|153:198|128:177|128:177|158:143|183:85,1,168.750006437302,2|0,3:2|0:0,0:0:0:0:
121,39,83963,1,0,0:0:0:0:
285,182,84153,1,0,0:0:0:0:
75,311,84343,2,0,B|123:282|154:307|154:307|185:350|243:324,1,168.750006437302,8|0,0:2|0:0,0:0:0:0:
293,364,84723,2,0,P|368:354|380:299,1,112.500004291535,2|0,0:0|0:0,0:0:0:0:
399,141,85102,6,0,B|356:100|356:100|413:225,1,168.750006437302,2|0,3:2|0:0,0:0:0:0:
350,255,85482,2,0,B|322:260|322:260|297:230,1,56.2500021457673,2|0,3:2|0:0,0:0:0:0:
255,174,85671,1,0,0:0:0:0:
67,253,85862,6,0,P|22:305|46:362,1,120,10|0,0:2|0:0,0:0:0:0:
149,196,86147,2,0,P|125:131|64:123,1,120,2|0,0:0|0:0,0:0:0:0:
152,297,86432,2,0,P|201:313|241:288,1,60,2|0,0:0|0:0,0:0:0:0:
364,266,86621,6,0,B|430:304|404:368|404:368|377:348|325:348,1,180,6|0,3:2|0:0,0:0:0:0:
285,384,87001,1,0,0:0:0:0:
469,265,87191,1,2,0:0:0:0:
295,204,87381,6,0,P|286:128|347:103,1,120,10|0,0:2|0:0,0:0:0:0:
481,125,87666,2,0,P|419:170|367:130,1,120,2|0,0:0|0:0,0:0:0:0:
353,13,87951,2,0,P|386:41|370:93,1,60,2|0,0:0|0:0,0:0:0:0:
60,125,88140,6,0,B|105:154|105:154|142:138|182:130|182:130|194:86,1,180,2|0,3:2|0:0,0:0:0:0:
146,27,88520,1,0,3:2:0:0:
277,210,88710,1,2,0:0:0:0:
76,372,88900,6,0,B|31:329|31:329|55:262,1,120,10|0,0:2|0:0,0:0:0:0:
143,250,89185,2,0,B|187:292|187:292|168:347,1,120,2|0,0:0|0:0,0:0:0:0:
79,203,89470,2,0,L|55:123,1,60,2|0,0:0|0:0,0:0:0:0:
150,8,89659,6,0,B|178:-24|253:-11|242:72|221:81|149:124,1,180,2|0,3:2|0:0,0:0:0:0:
231,159,90039,2,0,B|279:155|307:139|307:139|334:153|334:153|369:137|409:136,1,180
452,84,90419,2,0,P|436:44|409:32,1,60,8|0,0:2|0:0,0:0:0:0:
356,0,90609,1,0,0:0:0:0:
150,178,90799,2,0,L|21:145,1,120,2|0,0:0|0:0,0:0:0:0:
189,334,91083,1,0,0:0:0:0:
189,334,91178,2,0,B|241:367|241:367|192:220,1,180,2|0,3:2|0:0,0:0:0:0:
250,195,91558,2,0,P|321:196|342:274,1,120,0|0,3:2|0:0,0:0:0:0:
405,280,91843,1,0,0:0:0:0:
405,280,91938,6,0,B|424:257|452:246|452:246|481:251|512:273,1,112.500004291535,10|0,0:2|0:0,0:0:0:0:
512,344,92223,2,0,B|493:367|465:378|465:378|436:373|415:357,1,112.500004291535,2|0,0:0|0:0,0:0:0:0:
419,186,92508,2,0,B|446:174|446:174|507:191,1,56.2500021457673,2|0,0:0|0:0,0:0:0:0:
326,277,92697,6,0,B|249:265|249:265|239:270|239:270|155:257,1,168.750006437302,6|0,3:2|0:0,0:0:0:0:
112,200,93077,2,0,P|87:206|33:222,1,56.2500021457673
14,278,93267,1,2,0:0:0:0:
199,188,93457,6,0,P|213:136|181:93,1,112.500004291535,10|0,0:2|0:0,0:0:0:0:
175,4,93742,2,0,P|123:19|104:70,1,112.500004291535,2|0,0:0|0:0,0:0:0:0:
64,135,94027,2,0,P|88:149|116:148,1,56.2500021457673,2|0,0:0|0:0,0:0:0:0:
259,62,94216,6,0,B|331:43|341:78|350:123|463:75,1,168.750006437302,2|0,3:2|0:0,0:0:0:0:
470,37,94596,1,0,3:2:0:0:
328,169,94786,2,0,P|258:146|246:143,1,56.2500021457673,2|0,0:0|0:0,0:0:0:0:
331,353,94976,6,0,P|401:348|427:303,1,112.500004291535,10|0,0:2|0:0,0:0:0:0:
394,245,95261,2,0,P|324:250|298:295,1,112.500004291535,2|0,0:0|0:0,0:0:0:0:
488,355,95545,2,0,P|486:290|473:278,1,56.2500021457673,2|0,0:0|0:0,0:0:0:0:
435,36,95735,6,0,B|383:81|383:81|428:175,1,168.750006437302,2|0,3:2|0:0,0:0:0:0:
496,216,96114,1,0,0:0:0:0:
297,87,96304,1,0,0:0:0:0:
124,197,96495,2,0,B|206:181|206:181|220:187|220:187|305:171,1,168.750006437302,8|0,0:2|0:0,0:0:0:0:
350,223,96874,2,0,P|339:291|299:298,1,112.500004291535,2|0,0:0|0:0,0:0:0:0:
165,115,97254,6,0,B|144:73|146:32|146:32|129:67|71:104,1,168.750006437302,2|0,3:2|0:0,0:0:0:0:
44,151,97634,2,0,P|70:212|72:234,1,56.2500021457673,2|0,3:2|0:0,0:0:0:0:
27,270,97823,1,0,0:0:0:0:
184,381,98014,6,0,P|237:348|213:269,1,120,10|0,0:2|0:0,0:0:0:0:
343,212,98299,2,0,P|287:182|231:242,1,120,2|0,0:0|0:0,0:0:0:0:
124,197,98583,2,0,P|135:227|202:238,1,60,2|0,0:0|0:0,0:0:0:0:
411,355,98773,2,0,B|413:305|461:272|461:272|454:207|385:206,1,180,6|0,3:2|0:0,0:0:0:0:
363,144,99152,1,0,0:0:0:0:
512,322,99342,1,2,0:0:0:0:
249,346,99533,6,0,B|237:319|205:307|205:307|232:279|230:238,1,120,10|0,0:2|0:0,0:0:0:0:
331,229,99818,2,0,B|343:256|375:268|375:268|348:296|350:337,1,120,2|0,0:0|0:0,0:0:0:0:
150,249,100102,2,0,P|141:220|106:152,1,60,2|0,0:0|0:0,0:0:0:0:
362,104,100292,6,0,B|324:65|274:88|274:88|242:132|183:99,1,180,2|0,3:2|0:0,0:0:0:0:
137,48,100671,1,0,3:2:0:0:
6,148,100861,1,2,0:0:0:0:
208,316,101052,6,0,P|171:252|154:205,1,120,10|0,0:2|0:0,0:0:0:0:
71,192,101337,2,0,P|34:256|1:294,1,120,2|0,0:0|0:0,0:0:0:0:
65,365,101621,2,0,P|114:372|141:382,1,60,2|0,0:0|0:0,0:0:0:0:
287,302,101811,6,0,B|367:287|367:287|383:294|383:294|497:273,1,180,2|0,3:2|0:0,0:0:0:0:
480,204,102191,2,0,P|465:121|382:117,1,180
318,159,102571,2,0,P|244:147|215:147,1,60,8|0,0:2|0:0,0:0:0:0:
204,91,102760,1,0,0:0:0:0:
394,302,102950,2,0,L|533:277,1,120,2|0,0:0|0:0,0:0:0:0:
242,384,103235,1,0,0:0:0:0:
242,384,103330,6,0,B|190:304|190:304|201:243|248:241,1,180,2|0,3:2|0:0,0:0:0:0:
301,193,103710,2,0,P|380:212|401:130,1,180,4|0,3:2|0:0,0:0:0:0:
323,57,104089,1,10,0:2:0:0:
496,218,104279,1,0,0:0:0:0:
285,356,104469,2,0,B|266:333|237:320|237:320|236:280|272:247,1,120,2|0,3:2|0:0,0:0:0:0:
301,193,104754,1,0,0:0:0:0:
301,193,104849,6,0,P|259:256|138:212,1,180,6|0,3:2|0:0,0:0:0:0:
271,109,105229,2,0,P|346:113|368:240,1,180,2|0,0:0|0:0,0:0:0:0:
210,177,105609,2,0,P|176:109|275:26,1,180,10|0,0:2|0:0,0:0:0:0:
340,347,105989,2,0,B|267:331|267:331|234:350|234:350|127:328,1,180,2|0,0:0|0:0,0:0:0:0:
118,278,106368,6,0,P|95:286|22:306,1,60,2|0,3:2|0:0,0:0:0:0:
7,346,106558,1,0,0:0:0:0:
191,233,106748,2,0,P|208:169|106:124,1,180,2|0,3:2|0:0,0:0:0:0:
51,135,107128,2,0,B|22:148|2:173|2:173|64:10,1,180,8|0,0:2|0:0,0:0:0:0:
332,87,107508,2,0,L|252:62,1,60,2|0,0:0|0:0,0:0:0:0:
229,13,107697,2,0,L|149:38,1,60,2|0,0:0|0:0,0:0:0:0:
280,148,107887,6,0,P|352:164|407:75,1,180,2|0,3:2|0:0,0:0:0:0:
512,148,108267,2,0,P|460:215|501:289,1,180,2|0,0:0|0:0,0:0:0:0:
401,336,108647,2,0,P|368:257|283:255,1,180,10|0,0:2|0:0,0:0:0:0:
46,346,109027,6,0,B|-34:366|-79:252|40:235|50:233|105:267|97:355|166:334|248:288,1,360,2|0,0:0|0:0,0:0:0:0:
351,287,109786,2,0,B|314:299|284:344|284:344|299:292|274:230,1,180,2|0,3:2|0:0,0:0:0:0:
492,202,110166,2,0,B|452:240|405:217|405:217|373:178|318:195,1,180,8|0,0:2|0:0,0:0:0:0:
258,151,110546,2,0,P|291:86|295:75,1,60,2|0,0:0|0:0,0:0:0:0:
351,63,110735,1,2,0:0:0:0:
107,6,110925,6,0,B|90:27|57:54|57:54|95:107|126:173,1,180,6|0,3:2|0:0,0:0:0:0:
108,220,111305,2,0,P|37:234|5:137,1,180,2|0,0:0|0:0,0:0:0:0:
243,259,111685,2,0,P|228:287|214:324,1,60,8|0,0:2|0:0,0:0:0:0:
255,378,111874,1,0,0:0:0:0:
463,267,112064,2,0,B|443:233|443:233|360:268,1,120,2|2,0:0|0:0,0:0:0:0:
295,200,112444,5,2,3:2:0:0:
473,349,112633,1,2,0:0:0:0:
394,111,112823,1,2,3:2:0:0:
224,257,113013,1,2,0:0:0:0:
380,338,113203,1,10,0:2:0:0:
248,117,113393,1,2,0:0:0:0:
476,3,113583,2,0,P|460:35|447:80,1,60,2|0,0:0|0:0,0:0:0:0:
394,111,113773,2,0,P|416:161|424:185,1,60,2|0,0:0|0:0,0:0:0:0:
509,250,113963,6,0,P|441:250|510:287,1,180,6|0,3:2|0:0,0:0:0:0:
358,268,114343,2,0,B|295:280|295:280|262:324|262:324|173:344,1,180,2|0,0:0|0:0,0:0:0:0:
146,291,114723,2,0,P|176:223|181:202,1,60,8|0,0:2|0:0,0:0:0:0:
122,170,114912,1,0,0:0:0:0:
240,27,115102,1,8,0:2:0:0:
69,79,115292,1,0,0:0:0:0:
69,79,115387,1,0,0:0:0:0:
69,79,115482,5,0,3:2:0:0:
171,236,115671,1,8,0:2:0:0:
0,373,115862,2,0,L|44:228,1,120,0|10,3:2|0:2,0:0:0:0:
34,258,116146,1,8,0:3:0:0:
34,258,116241,1,10,0:3:0:0:
210,367,116431,1,2,3:2:0:0:
352,170,116621,1,2,3:2:0:0:
171,236,116811,1,0,0:0:0:0:
395,370,117001,6,0,P|436:329|414:253,1,104.999996795654,6|2,3:2|0:0,0:0:0:0:
247,178,117381,2,0,B|318:169|318:169|330:175|330:175|442:158,1,157.499995193482,2|0,0:0|0:0,0:0:0:0:
455,96,117761,1,10,0:2:0:0:
327,260,117951,1,2,0:0:0:0:
193,113,118140,2,0,P|139:114|108:186,1,104.999996795654,2|2,0:0|0:0,0:0:0:0:
159,380,118520,6,0,B|207:340|207:340|161:236,1,157.499995193482,2|0,0:0|0:0,0:0:0:0:
93,261,118900,2,0,L|-37:227,1,104.999996795654,0|0,3:2|0:0,0:0:0:0:
203,19,119280,2,0,P|262:26|250:134,1,157.499995193482,10|0,0:2|0:0,0:0:0:0:
235,183,119659,2,0,P|262:236|268:254,1,52.4999983978272,2|0,0:0|0:0,0:0:0:0:
203,281,119849,1,2,0:0:0:0:
364,120,120039,5,2,3:2:0:0:
203,19,120229,1,2,0:0:0:0:
347,228,120419,2,0,L|464:209,1,104.999996795654,2|0,3:2|0:0,0:0:0:0:
416,363,120799,2,0,P|347:365|332:309,1,104.999996795654,10|2,0:2|0:0,0:0:0:0:
218,188,121178,1,2,0:0:0:0:
55,320,121368,6,0,B|118:284|157:319|157:319|197:375|277:334,1,209.999993591309,0|10,3:2|0:2,0:0:0:0:
371,227,121938,2,0,P|356:197|334:139,1,52.4999983978272,2|0,3:2|0:0,0:0:0:0:
378,112,122128,1,2,0:0:0:0:
190,13,122318,2,0,B|166:43|138:58|138:58|174:108|205:176,1,157.499995193482,10|0,0:2|0:0,0:0:0:0:
160,206,122697,2,0,P|109:189|25:172,1,104.999996795654
122,354,122982,1,0,0:0:0:0:
122,354,123077,6,0,P|186:346|206:243,1,157.499995193482,6|0,3:2|0:0,0:0:0:0:
131,80,123457,2,0,P|105:139|185:208,1,157.499995193482,2|0,0:0|0:0,0:0:0:0:
349,133,123837,2,0,P|316:139|280:162,1,52.4999983978272,10|0,0:2|0:0,0:0:0:0:
241,193,124027,1,0,0:0:0:0:
370,57,124216,1,2,0:0:0:0:
508,234,124406,6,0,B|401:191|401:191|360:232|392:277,1,209.999993591309,2|0,3:2|0:0,0:0:0:0:
290,348,124976,2,0,B|252:352|220:381|220:381|233:332|211:288,1,157.499995193482,2|0,3:2|0:0,0:0:0:0:
178,238,125356,2,0,P|92:244|95:341,1,157.499995193482,10|0,0:2|0:0,0:0:0:0:
15,347,125735,2,0,P|72:319|57:381,1,157.499995193482,2|0,0:0|0:0,0:0:0:0:
26,211,126115,6,0,P|55:180|106:154,1,69.9999978637696,2|2,3:2|0:0,0:0:0:0:
88,94,126368,1,2,0:0:0:0:
88,94,126495,6,0,P|130:96|183:118,1,69.9999978637696,2|2,0:0|0:0,0:0:0:0:
213,55,126748,1,2,0:0:0:0:
213,55,126875,6,0,P|238:88|255:143,1,69.9999978637696,10|2,0:2|0:0,0:0:0:0:
323,126,127128,1,2,0:0:0:0:
323,126,127254,6,0,P|313:167|282:215,2,69.9999978637696,10|2|2,0:2|0:0|0:0,0:0:0:0:
140,231,127634,2,0,B|220:203|247:246|259:286|345:252,1,209.999993591309,2|2,0:0|3:2,0:0:0:0:
404,193,128204,1,0,0:0:0:0:
230,357,128394,2,0,P|162:332|169:280,1,104.999996795654,10|0,0:2|0:0,0:0:0:0:
333,325,128773,2,0,L|494:294,1,157.499995193482,2|0,0:0|0:0,0:0:0:0:
450,203,129153,6,0,P|441:184|422:121,3,52.4999983978272,6|2|2|2,3:2|0:0|0:0|0:0,0:0:0:0:
374,226,129533,2,0,P|365:207|346:144,3,52.4999983978272,2|2|2|2,0:0|0:0|0:0|0:0,0:0:0:0:
293,243,129913,5,10,0:2:0:0:
261,238,130008,1,2,0:0:0:0:
229,235,130102,1,2,0:0:0:0:
197,231,130197,1,2,0:0:0:0:
165,227,130292,2,0,P|144:285|141:293,3,52.4999983978272,2|2|2|2,0:0|0:0|3:2|0:0,0:0:0:0:
96,181,130672,6,0,P|67:189|34:202,3,52.4999983978272,2|2|2|2,0:0|0:0|0:0|0:0,0:0:0:0:
69,105,131052,2,0,P|40:113|7:126,3,52.4999983978272,2|2|2|2,3:2|0:0|0:0|0:0,0:0:0:0:
174,24,131432,6,0,B|206:20|206:20|230:54,1,52.4999983978272,10|2,0:2|0:0,0:0:0:0:
198,111,131621,2,0,B|166:115|166:115|154:98,1,52.4999983978272,2|2,0:0|0:0,0:0:0:0:
275,128,131811,2,0,P|311:167|243:152,1,157.499995193482,2|2,0:0|0:0,0:0:0:0:
211,284,132191,5,2,3:2:0:0:
247,279,132286,1,2,0:0:0:0:
283,274,132381,1,2,0:0:0:0:
319,270,132476,1,2,0:0:0:0:
347,292,132571,1,2,3:2:0:0:
382,301,132666,1,2,0:0:0:0:
417,312,132761,1,2,0:0:0:0:
452,323,132856,1,2,0:0:0:0:
492,312,132951,5,10,0:2:0:0:
512,275,133046,1,2,0:0:0:0:
508,233,133140,1,2,0:0:0:0:
479,202,133235,1,2,0:0:0:0:
437,192,133330,2,0,P|413:200|382:209,3,52.4999983978272,2|2|2|2,0:0|0:0|0:0|0:0,0:0:0:0:
359,100,133710,6,0,P|383:91|409:84,1,52.4999983978272,2|2,0:0|0:0,0:0:0:0:
482,120,133900,1,8,0:2:0:0:
313,37,134090,2,0,P|263:12|188:101,1,157.499995193482,0|2,3:2|0:0,0:0:0:0:
125,124,134470,2,0,B|99:129|99:129|59:88,1,52.4999983978272,8|2,0:2|0:0,0:0:0:0:
37,51,134659,1,2,0:0:0:0:
0,253,134849,6,0,P|23:259|50:267,1,52.4999983978272,2|0,0:0|0:0,0:0:0:0:
117,302,135039,2,0,P|145:294|204:281,1,52.4999983978272,2|0,0:0|0:0,0:0:0:0:
215,226,135229,5,6,3:2:0:0:
62,162,135419,1,2,0:0:0:0:
206,375,135609,1,2,0:0:0:0:
366,160,135799,2,0,B|296:147|296:147|286:152|286:152|173:130,1,157.499995193482,2|0,0:0|0:0,0:0:0:0:
156,85,136178,2,0,P|166:48|195:37,1,52.4999983978272,2|0,0:0|0:0,0:0:0:0:
250,13,136368,1,2,0:0:0:0:
469,190,136558,6,0,B|502:136|502:136|474:98|450:30,1,157.499995193482,2|0,0:0|0:0,0:0:0:0:
403,1,136938,1,2,0:0:0:0:
292,137,137128,2,0,P|193:113|185:38,1,157.499995193482,2|0,3:2|0:0,0:0:0:0:
103,11,137508,2,0,P|95:42|82:80,1,52.4999983978272,10|0,0:2|0:0,0:0:0:0:
47,120,137697,2,0,P|60:147|68:182,1,52.4999983978272,2|0,0:0|0:0,0:0:0:0:
52,282,137887,2,0,B|68:268|84:239|84:239|113:254|159:257,1,104.999996795654,2|0,0:0|0:0,0:0:0:0:
287,268,138172,1,0,0:0:0:0:
287,268,138267,6,0,B|270:281|254:310|254:310|226:296|177:289,1,112.500004291535,6|0,3:2|0:0,0:0:0:0:
303,64,138647,2,0,B|255:72|252:120|252:120|287:148|310:231,1,168.750006437302,2|0,0:0|0:0,0:0:0:0:
359,231,139027,2,0,B|505:195|505:195|469:218|435:262,1,225.000008583069,14|0,0:2|0:0,0:0:0:0:
290,329,139501,1,0,0:0:0:0:
290,329,139596,6,0,B|246:288|189:320|189:320|153:387|80:351,1,225.000008583069,6|0,3:2|0:0,0:0:0:0:
73,155,140071,1,0,0:0:0:0:
73,155,140166,2,0,P|84:188|96:213,1,56.2500021457673
48,280,140356,1,2,0:0:0:0:
164,58,140546,6,0,B|216:68|216:68|222:74|222:74|307:91,1,104.999996795654,2|0,0:0|0:0,0:0:0:0:
323,122,140830,2,0,B|370:113|370:113|375:106|375:106|423:97,1,104.999996795654,2|0,0:0|0:0,0:0:0:0:
473,39,141115,1,2,0:0:0:0:
314,244,141305,6,0,P|301:205|190:224,1,146.249993305207,6|0,3:2|0:0,0:0:0:0:
148,235,141685,2,0,P|126:226|68:211,1,48.7499977684022
49,167,141875,1,2,0:0:0:0:
250,344,142064,6,0,P|305:349|342:296,1,97.4999955368044,10|0,0:2|0:0,0:0:0:0:
314,243,142349,2,0,P|267:235|229:264,1,97.4999955368044,2|0,0:0|0:0,0:0:0:0:
176,315,142634,1,2,0:0:0:0:
408,264,142824,6,0,L|452:86,1,146.249993305207,2|0,0:0|0:0,0:0:0:0:
413,49,143204,2,0,P|354:48|338:105,1,97.4999955368044,0|0,3:2|0:0,0:0:0:0:
273,109,143489,1,0,0:0:0:0:
273,109,143583,6,0,B|249:108|222:115|222:115|203:90|163:65,1,97.4999955368044,10|0,0:2|0:0,0:0:0:0:
83,140,143868,2,0,B|107:141|134:134|134:134|153:159|166:165,1,97.4999955368044,2|0,0:0|0:0,0:0:0:0:
214,220,144153,1,2,0:0:0:0:
88,340,144343,6,0,B|61:354|35:386|35:386|88:257,1,194.999991073609,2|2,3:2|3:2,0:0:0:0:
16,194,144913,1,2,0:0:0:0:
174,381,145102,2,0,P|234:362|246:281,2,146.249993305207,8|2|2,0:2|0:0|0:0,0:0:0:0:
220,192,145767,1,0,0:0:0:0:
220,192,145862,6,0,P|253:206|300:215,1,48.7499977684022,2|0,3:2|0:0,0:0:0:0:
430,181,146052,2,0,B|341:200|341:200|347:231|324:263,1,146.249993305207,10|0,0:2|0:0,0:0:0:0:
379,305,146432,2,0,B|408:314|408:314|450:267,1,48.7499977684022,2|0,0:0|0:0,0:0:0:0:
307,31,146621,6,0,P|272:57|283:125,1,97.4999955368044,10|0,0:2|0:0,0:0:0:0:
338,144,146906,2,0,P|373:118|362:50,1,97.4999955368044,2|0,0:0|0:0,0:0:0:0:
217,10,147191,2,0,P|204:32|195:75,1,48.7499977684022,2|0,0:0|0:0,0:0:0:0:
37,130,147381,6,0,B|92:133|132:110|132:110|110:138|105:182,1,146.249993305207,6|0,3:2|0:0,0:0:0:0:
93,226,147761,2,0,P|149:248|147:348,1,146.249993305207,2|0,0:0|0:0,0:0:0:0:
95,376,148140,1,10,0:2:0:0:
249,264,148330,1,0,0:0:0:0:
319,314,148520,1,2,0:0:0:0:
449,206,148710,6,0,B|515:199|544:278|460:349|370:241,1,243.749988842011,2|0,3:2|0:0,0:0:0:0:
321,199,149280,6,0,B|251:210|251:210|246:216|246:216|153:230,1,146.249993305207,2|0,3:2|0:0,0:0:0:0:
121,180,149659,2,0,P|124:139|153:123,1,48.7499977684022,10|0,0:2|0:0,0:0:0:0:
350,38,149849,2,0,B|376:29|402:4|402:4|350:128,1,194.999991073609,2|2,0:0|0:0,0:0:0:0:
441,208,150419,1,2,3:2:0:0:
265,45,150609,2,0,P|220:21|151:131,1,194.999991073609,2|0,0:0|0:0,0:0:0:0:
217,338,151178,2,0,B|261:304|261:304|199:206,1,146.249993305207,10|0,0:2|0:0,0:0:0:0:
268,175,151558,1,10,0:2:0:0:
97,327,151748,6,0,B|64:308|17:310|17:310|50:302|99:298|123:332|144:370|228:333,1,292.499986610413,2|0,3:2|3:2,0:0:0:0:
392,231,152508,1,2,0:0:0:0:
392,231,152602,1,0,0:0:0:0:
392,231,152697,2,0,P|399:290|349:315,1,97.4999955368044,10|8,0:2|0:2,0:0:0:0:
316,266,152982,1,10,0:3:0:0:
316,266,153077,1,0,0:0:0:0:
434,380,153267,1,2,0:0:0:0:
268,204,153457,6,0,B|200:197|200:197|190:205|190:205|114:196,1,157.499995193482,6|0,3:2|0:0,0:0:0:0:
48,229,153837,2,0,P|65:269|68:293,1,52.4999983978272
34,345,154027,1,0,0:0:0:0:
243,64,154216,2,0,P|296:55|309:147,1,134.999995880127,10|0,0:2|0:0,0:0:0:0:
373,185,154596,2,0,P|439:165|479:156,1,104.999996795654,2|0,0:0|3:2,0:0:0:0:
474,156,154881,1,0,0:0:0:0:
474,156,154976,5,0,0:0:0:0:
328,119,155166,1,0,0:0:0:0:
454,278,155356,1,0,3:2:0:0:
494,63,155546,1,2,0:0:0:0:
296,196,155735,6,0,P|239:179|161:165,1,104.999996795654,10|0,0:2|0:0,0:0:0:0:
153,108,156020,2,0,P|110:121|32:140,1,104.999996795654,2|0,0:0|0:0,0:0:0:0:
13,198,156305,2,0,B|2:228|2:228|30:260,1,52.4999983978272,2|0,0:0|0:0,0:0:0:0:
190,373,156495,6,0,B|208:340|233:326|233:326|201:285|175:221,1,157.499995193482,6|0,3:2|0:0,0:0:0:0:
194,169,156875,2,0,P|217:151|267:154,1,52.4999983978272,0|0,3:2|0:0,0:0:0:0:
305,184,157064,1,0,0:0:0:0:
500,84,157254,2,0,B|468:77|452:31|452:31|458:76|431:100,1,146.249993305207,10|0,0:2|0:0,0:0:0:0:
409,166,157634,2,0,P|423:213|445:300,1,104.999996795654,2|0,0:0|3:2,0:0:0:0:
437,267,157919,1,0,0:0:0:0:
437,267,158014,5,0,0:0:0:0:
369,379,158204,1,0,0:0:0:0:
242,301,158394,1,0,3:2:0:0:
174,365,158583,1,0,0:0:0:0:
337,216,158773,6,0,P|353:169|311:118,1,104.999996795654,10|0,0:2|0:0,0:0:0:0:
250,136,159058,2,0,P|234:183|276:234,1,104.999996795654,2|0,0:0|0:0,0:0:0:0:
392,77,159343,1,2,0:0:0:0:
213,0,159533,6,0,B|150:17|150:17|129:47|129:47|40:69,1,157.499995193482,6|0,3:2|0:0,0:0:0:0:
34,120,159913,2,0,P|72:174|81:193,1,52.4999983978272,2|0,0:0|0:0,0:0:0:0:
105,222,160102,2,0,P|77:286|75:301,1,52.4999983978272,2|0,0:0|0:0,0:0:0:0:
18,316,160292,1,10,0:2:0:0:
197,196,160482,1,2,0:0:0:0:
309,253,160672,2,0,P|365:261|400:203,1,104.999996795654,2|2,0:0|3:2,0:0:0:0:
433,55,160957,1,2,0:0:0:0:
433,55,161052,6,0,B|402:59|393:102|393:102|437:145|471:218,1,157.499995193482,2|0,0:0|0:0,0:0:0:0:
509,212,161432,1,2,3:2:0:0:
313,113,161621,2,0,L|225:94,1,52.4999983978272,2|0,0:0|0:0,0:0:0:0:
223,39,161811,2,0,B|176:21|141:53|141:53|126:92|75:89,1,157.499995193482,8|0,0:2|0:0,0:0:0:0:
31,48,162191,1,0,0:0:0:0:
173,154,162381,1,2,3:2:0:0:
123,233,162571,1,6,3:2:0:0:
209,331,162761,6,0,B|254:391|254:391|209:235,1,209.999993591309,2|0,0:0|0:0,0:0:0:0:
257,197,163235,1,0,0:0:0:0:
257,197,163330,2,0,P|318:178|359:279,1,157.499995193482,10|0,0:2|0:0,0:0:0:0:
418,302,163710,2,0,B|452:289|499:285|505:283,1,52.4999983978272,2|0,0:0|0:0,0:0:0:0:
278,92,163900,1,2,0:0:0:0:
278,92,163995,1,0,0:0:0:0:
278,92,164090,6,0,B|366:153|350:230|280:245|242:205|250:163,1,209.999993591309,4|0,3:2|0:0,0:0:0:0:
171,111,164659,1,0,3:2:0:0:
171,111,164754,1,8,0:2:0:0:
171,111,164849,1,8,0:2:0:0:
92,288,165039,1,0,0:0:0:0:
256,196,165229,1,8,0:2:0:0:
105,45,165419,6,0,P|71:29|3:117,1,157.499995193482,0|0,3:2|0:0,0:0:0:0:
45,166,165799,2,0,P|113:144|123:142,1,52.4999983978272,8|0,0:2|0:0,0:0:0:0:
300,73,165989,2,0,B|366:87|366:87|384:104|384:104|469:122,1,157.499995193482,0|0,3:2|0:0,0:0:0:0:
500,166,166368,2,0,B|516:201|516:201|470:267,1,104.999996795654,8|0,0:2|0:0,0:0:0:0:
281,352,166748,2,0,B|245:345|240:305|240:305|327:196,1,157.499995193482,2|0,0:0|0:0,0:0:0:0:
295,161,167128,6,0,P|262:105|181:124,1,112.500004291535,6|0,3:2|0:0,0:0:0:0:
85,205,167508,2,0,P|139:209|176:170,1,112.500004291535,2|0,0:0|3:2,0:0:0:0:
153,4,167887,2,0,P|121:48|137:100,1,112.500004291535,2|0,3:2|0:0,0:0:0:0:
264,295,168267,2,0,B|233:262|232:217|232:217|213:261|158:281,1,168.750006437302,2|0,3:2|0:0,0:0:0:0:
15,191,168647,6,0,P|94:215|163:234,1,112.500004291535,2|0,0:0|3:2,0:0:0:0:
202,384,169027,2,0,P|183:303|165:234,1,112.500004291535,2|0,3:2|0:0,0:0:0:0:
276,123,169406,2,0,P|215:179|164:229,1,112.500004291535,2|0,3:2|3:2,0:0:0:0:
257,249,169786,2,0,B|298:248|327:230|327:230|371:252|371:252|410:222|473:224,1,225.000008583069,2|0,0:0|0:0,0:0:0:0:
467,223,170546,6,0,B|487:219|519:201|519:201|498:228|491:258,1,112.5,12|0,3:2|0:0,0:0:0:0:
467,319,170925,6,0,B|455:348|452:377|452:377|442:348|416:318,1,123.75000377655,8|0,3:2|0:0,0:0:0:0:
369,268,171305,6,0,B|348:247|318:224|318:224|350:230|394:224,1,134.999995880127,8|0,3:2|0:0,0:0:0:0:
465,205,171685,6,0,B|503:200|535:180|535:180|514:208|498:266,1,146.249993305207,8|0,3:2|0:0,0:0:0:0:
419,322,172064,5,8,3:2:0:0:
300,244,172254,1,2,0:0:0:0:
300,244,172444,6,0,L|320:163,1,60,10|0,3:2|0:0,0:0:0:0:
372,134,172729,2,0,L|356:54,1,60,2|0,0:0|0:0,0:0:0:0:
304,29,173014,1,2,0:0:0:0:
304,29,173204,1,2,0:0:0:0:
304,29,175293,5,2,3:2:0:0:
240,75,175483,6,0,P|224:117|280:160,1,104.999996795654,10|0,0:2|3:2,0:0:0:0:
245,279,175768,2,0,P|289:271|298:201,1,104.999996795654,2|0,0:0|0:0,0:0:0:0:
388,163,176053,2,0,P|356:150|324:157,1,52.4999983978272,2|0,0:0|0:0,0:0:0:0:
274,360,176243,6,0,B|234:390|193:366|193:366|149:323|91:364,1,180,6|0,3:2|0:0,0:0:0:0:
39,317,176622,2,0,B|31:285|31:285|67:263,1,60
124,237,176812,1,2,0:0:0:0:
99,77,177002,6,0,P|163:86|182:153,1,120,8|0,0:2|0:0,0:0:0:0:
23,101,177287,2,0,P|-1:40|48:-9,1,120,2|0,0:0|0:0,0:0:0:0:
83,153,177572,2,0,P|42:207|34:229,1,60,2|0,0:0|0:0,0:0:0:0:
211,264,177762,6,0,B|250:263|284:247|284:247|316:263|316:263|355:246|405:242,1,180,2|0,3:2|0:0,0:0:0:0:
417,173,178141,1,0,3:2:0:0:
306,377,178331,2,0,P|282:351|284:318,1,60,2|0,0:0|0:0,0:0:0:0:
351,129,178521,6,0,B|394:90|394:90|454:100,1,120,10|0,0:2|0:0,0:0:0:0:
486,216,178806,2,0,B|443:255|443:255|381:244,1,120,2|0,0:0|0:0,0:0:0:0:
417,18,179091,2,0,L|483:30,1,60,2|0,0:0|0:0,0:0:0:0:
307,206,179281,6,0,P|229:207|202:114,1,180,2|0,3:2|0:0,0:0:0:0:
259,65,179660,1,0,0:0:0:0:
118,203,179850,1,0,0:0:0:0:
309,354,180040,2,0,B|274:340|261:307|261:307|156:353,1,180,8|0,0:2|0:0,0:0:0:0:
87,339,180420,2,0,P|42:258|57:243,1,120,2|0,0:0|0:0,0:0:0:0:
194,157,180704,1,0,0:0:0:0:
194,157,180800,6,0,B|238:175|251:226|251:226|246:172|280:122,1,180,2|0,3:2|0:0,0:0:0:0:
250,66,181179,2,0,P|219:53|184:34,1,60,2|0,3:2|0:0,0:0:0:0:
123,67,181368,1,0,0:0:0:0:
326,257,181559,6,0,P|296:328|223:332,1,127.50000243187,10|0,0:2|0:0,0:0:0:0:
194,157,181844,2,0,P|270:146|309:207,1,127.50000243187,2|0,0:0|0:0,0:0:0:0:
163,293,182129,2,0,P|145:255|155:215,1,63.7500012159348,2|0,0:0|0:0,0:0:0:0:
347,23,182319,6,0,B|361:103|361:103|372:112|372:112|389:211,1,191.250003647804,6|0,3:2|0:0,0:0:0:0:
325,257,182698,1,0,0:0:0:0:
464,124,182888,1,2,0:0:0:0:
251,28,183078,6,0,P|176:25|145:82,1,127.50000243187,10|0,0:2|0:0,0:0:0:0:
180,158,183363,2,0,P|255:161|286:104,1,127.50000243187,2|0,0:0|0:0,0:0:0:0:
107,126,183648,2,0,L|46:141,1,63.7500012159348,2|0,0:0|0:0,0:0:0:0:
106,323,183838,6,0,B|121:345|118:380|118:380|160:248,1,191.250003647804,2|0,3:2|0:0,0:0:0:0:
106,197,184217,1,0,3:2:0:0:
250,358,184407,2,0,L|324:341,1,63.7500012159348,2|0,0:0|0:0,0:0:0:0:
400,70,184597,6,0,B|429:87|459:94|459:94|431:109|412:137,1,127.50000243187,10|0,0:2|0:0,0:0:0:0:
269,87,184881,2,0,B|270:58|260:23|260:23|294:41|321:43,1,127.50000243187,2|0,0:0|0:0,0:0:0:0:
330,190,185166,2,0,B|315:194|301:204|301:204|302:187|296:171,1,63.7500012159348,2|0,0:0|0:0,0:0:0:0:
438,248,185356,6,0,B|479:288|495:304|473:385|398:368|385:327,1,191.250003647804,6|0,3:2|0:0,0:0:0:0:
107,327,185735,2,0,B|144:326|181:310|181:310|214:324|214:324|250:307|323:295,1,191.250003647804,10|0,0:2|0:0,0:0:0:0:
345,245,186115,2,0,P|347:209|300:185,1,63.7500012159348,8|0,0:2|0:0,0:0:0:0:
265,154,186305,1,0,0:0:0:0:
410,0,186495,2,0,L|363:168,1,127.50000243187,2|0,0:0|0:0,0:0:0:0:
226,246,186780,1,0,0:0:0:0:
226,246,186875,6,0,B|109:209|109:209|139:234|142:286,1,191.250003647804,2|0,3:2|0:0,0:0:0:0:
158,340,187254,2,0,P|104:385|49:361,1,127.50000243187,0|2,3:2|0:0,0:0:0:0:
150,97,187539,1,0,0:0:0:0:
150,97,187634,6,0,P|211:88|252:154,1,127.50000243187,10|0,0:2|0:0,0:0:0:0:
81,144,187919,2,0,P|42:95|79:27,1,127.50000243187,2|0,0:0|0:0,0:0:0:0:
151,182,188204,2,0,P|159:214|135:247,1,63.7500012159348,2|0,0:0|0:0,0:0:0:0:
0,363,188394,6,0,B|70:350|70:350|105:375|105:375|221:358,1,180,6|0,3:2|0:0,0:0:0:0:
230,317,188773,2,0,P|265:326|328:341,1,60
344,384,188963,1,2,0:0:0:0:
473,220,189153,6,0,P|464:162|413:135,1,120,10|0,0:2|0:0,0:0:0:0:
381,9,189438,2,0,P|335:45|337:102,1,120,2|0,0:0|0:0,0:0:0:0:
286,198,189723,2,0,P|329:191|363:153,1,60,2|0,0:0|0:0,0:0:0:0:
126,24,189913,6,0,B|184:63|184:63|152:112|110:201,1,180,2|0,3:2|0:0,0:0:0:0:
56,197,190292,1,0,3:2:0:0:
258,97,190482,1,2,0:0:0:0:
385,244,190672,2,0,B|418:247|439:270|439:270|449:237|475:225,1,120,10|0,0:2|0:0,0:0:0:0:
461,143,190957,2,0,B|428:140|407:117|407:117|397:150|346:177,1,120,2|0,0:0|0:0,0:0:0:0:
512,301,191242,1,2,0:0:0:0:
335,364,191432,6,0,P|318:308|192:332,1,180,2|0,3:2|0:0,0:0:0:0:
164,357,191811,1,0,0:0:0:0:
303,198,192001,1,0,0:0:0:0:
209,38,192191,2,0,B|108:5|108:5|106:50|59:81,1,180,8|0,0:2|0:0,0:0:0:0:
32,143,192571,2,0,P|83:166|83:222,1,120,2|0,0:0|0:0,0:0:0:0:
0,362,192856,1,0,0:0:0:0:
0,362,192951,6,0,B|44:326|86:356|86:356|122:406|189:361,1,180,2|0,3:2|0:0,0:0:0:0:
222,314,193330,2,0,P|257:323|327:337,1,60,2|0,3:2|0:0,0:0:0:0:
344,384,193520,1,0,0:0:0:0:
142,209,193710,6,0,P|133:146|195:109,1,120,10|0,0:2|0:0,0:0:0:0:
257,140,193995,2,0,P|266:203|204:240,1,120,2|0,0:0|0:0,0:0:0:0:
234,67,194280,2,0,L|263:2,1,60,2|0,0:0|0:0,0:0:0:0:
435,141,194470,6,0,B|483:207|431:259|431:259|420:230|362:215,1,191.250003647804,6|0,3:2|0:0,0:0:0:0:
343,160,194849,1,0,0:0:0:0:
502,298,195039,1,2,0:0:0:0:
244,76,195230,6,0,B|232:103|200:115|200:115|228:143|225:188,1,127.50000243187,10|0,0:2|0:0,0:0:0:0:
362,289,195514,2,0,B|348:262|358:230|358:230|319:234|286:204,1,127.50000243187,2|0,0:0|0:0,0:0:0:0:
170,276,195799,2,0,B|187:271|204:285|204:285|208:262|258:221,1,63.7500012159348,2|0,0:0|0:0,0:0:0:0:
307,24,195989,6,0,B|262:-5|262:-5|177:20|177:20|157:73,1,191.250003647804,2|0,3:2|0:0,0:0:0:0:
106,115,196368,1,0,3:2:0:0:
232,239,196558,1,2,0:0:0:0:
39,351,196748,6,0,P|-2:302|30:232,1,127.50000243187,10|0,0:2|0:0,0:0:0:0:
172,187,197033,2,0,P|150:246|74:253,1,127.50000243187,2|0,0:0|0:0,0:0:0:0:
6,147,197318,2,0,P|45:161|72:212,1,63.7500012159348,2|0,0:0|0:0,0:0:0:0:
300,384,197508,2,0,P|309:346|319:313,1,63.7500012159348,2|0,3:2|0:0,3:2:0:0:
269,265,197697,1,8,0:2:0:0:
375,211,197888,2,0,P|298:175|325:87,1,191.250003647804,2|0,3:2|0:0,0:0:0:0:
389,48,198267,2,0,P|462:75|478:76,1,63.7500012159348,12|0,0:2|0:0,0:0:0:0:
509,121,198457,1,0,0:0:0:0:
302,6,198647,2,0,L|167:29,1,127.50000243187,2|2,0:0|3:2,0:0:0:0:
123,80,198932,1,0,0:0:0:0:
123,80,199027,5,2,3:2:0:0:
230,194,199216,1,0,0:0:0:0:
135,339,199406,2,0,P|87:275|121:227,1,127.50000243187,0|8,3:2|0:2,0:0:0:0:
169,175,199691,1,0,0:0:0:0:
169,175,199786,2,0,P|210:189|254:198,1,63.7500012159348,10|0,0:2|0:0,0:0:0:0:
295,240,199976,2,0,P|321:230|371:219,1,63.7500012159348
415,41,200166,2,0,B|373:77|373:77|430:190,1,127.50000243187,2|0,3:2|0:0,0:0:0:0:
304,330,200451,1,0,0:0:0:0:
304,330,200546,6,0,B|263:334|221:373|221:373|251:318|236:233,1,191.250003647804,6|0,3:2|0:0,0:0:0:0:
386,209,200925,2,0,B|410:241|465:258|465:258|402:260|336:315,1,191.250003647804,2|0,0:0|0:0,0:0:0:0:
233,195,201305,2,0,B|248:157|236:102|236:102|269:155|350:184,1,191.250003647804,10|0,0:2|0:0,0:0:0:0:
56,342,201685,2,0,B|36:331|-9:333|-9:333|153:294,1,191.250003647804,2|0,0:0|0:0,0:0:0:0:
171,268,202064,6,0,B|174:230|174:230|125:190,1,63.7500012159348,2|0,3:2|0:0,0:0:0:0:
103,155,202255,1,0,0:0:0:0:
270,358,202444,2,0,P|304:293|410:320,1,191.250003647804,2|0,3:2|0:0,0:0:0:0:
467,384,202824,2,0,B|481:299|481:299|472:283|472:283|489:176,1,191.250003647804,8|0,0:2|0:0,0:0:0:0:
462,128,203204,2,0,P|426:115|382:103,1,63.7500012159348,2|0,0:0|0:0,0:0:0:0:
340,155,203394,2,0,P|309:167|260:180,1,63.7500012159348,2|0,0:0|0:0,0:0:0:0:
103,153,203583,6,0,B|64:200|61:274|140:288|164:250,1,191.250003647804,2|0,3:2|0:0,0:0:0:0:
116,70,203963,2,0,B|92:12|28:-25|-20:34|0:73,1,191.250003647804,2|0,0:0|0:0,0:0:0:0:
184,119,204343,2,0,B|244:127|310:91|282:17|237:16,1,191.250003647804,10|0,0:2|0:0,0:0:0:0:
250,189,204723,6,0,B|306:178|332:133|332:133|310:188|339:242|383:286|460:257|469:182|394:161,1,382.500007295609,2|0,0:0|0:0,0:0:0:0:
189,262,205482,2,0,B|87:232|87:232|44:264|70:310,1,191.250003647804,2|0,3:2|0:0,0:0:0:0:
292,366,205862,2,0,B|284:331|269:299|269:299|280:254|280:254|246:222|247:159,1,191.250003647804,8|0,0:2|0:0,0:0:0:0:
200,131,206242,6,0,P|233:66|239:52,1,63.7500012159348,2|0,0:0|0:0,0:0:0:0:
177,21,206432,1,2,0:0:0:0:
328,183,206621,6,0,P|404:205|458:124,1,191.250003647804,6|0,3:2|0:0,0:0:0:0:
387,59,207001,2,0,B|337:13|337:13|388:148,1,191.250003647804,2|0,0:0|0:0,0:0:0:0:
457,261,207382,2,0,P|440:293|426:330,1,63.7500012159348,8|0,0:2|0:0,0:0:0:0:
491,372,207571,1,0,0:0:0:0:
368,254,207761,5,2,0:0:0:0:
482,142,207951,1,2,0:0:0:0:
344,6,208140,2,0,P|291:38|285:100,1,127.50000243187,2|0,3:2|0:0,0:0:0:0:
368,254,208520,2,0,B|320:220|277:251|277:251|241:297|174:261,1,191.250003647804,2|0,3:2|0:0,0:0:0:0:
129,210,208900,2,0,P|103:280|-5:276,1,191.250003647804,10|0,0:2|0:0,0:0:0:0:
13,211,209280,2,0,P|29:179|42:131,1,63.7500012159348,2|0,0:0|0:0,0:0:0:0:
56,84,209470,2,0,P|34:34|24:7,1,63.7500012159348,2|0,0:0|0:0,0:0:0:0:
298,184,209659,6,0,B|234:197|206:237|206:237|214:179|177:148,1,191.250003647804,2|0,3:2|0:0,0:0:0:0:
273,101,210039,2,0,B|357:117|357:117|366:129|366:129|459:148,1,191.250003647804,2|0,0:0|0:0,0:0:0:0:
505,97,210419,2,0,B|513:64|513:64|480:33,1,63.7500012159348,8|0,0:2|0:0,0:0:0:0:
430,0,210609,1,0,0:0:0:0:
298,184,210799,1,8,0:2:0:0:
158,111,210989,2,0,P|130:119|69:135,1,63.7500012159348,2|0,3:2|0:0,0:0:0:0:
33,327,211178,6,0,P|103:364|72:285,1,191.250003647804,2|0,3:2|0:0,0:0:0:0:
41,215,211558,2,0,B|82:213|106:201|106:201|123:223|180:257,1,127.50000243187,2|2,3:2|0:0,0:0:0:0:
152,239,211843,1,0,0:0:0:0:
152,239,211938,1,8,0:2:0:0:
351,95,212128,1,2,3:2:0:0:
186,31,212318,1,2,3:2:0:0:
312,234,212508,1,2,3:2:0:0:
140,380,212697,6,0,P|73:359|74:273,1,168.750006437302,6|0,3:2|0:0,0:0:0:0:
209,151,213077,6,0,P|224:219|149:261,1,168.750006437302,2|0,3:2|0:0,0:0:0:0:
146,57,213457,2,0,P|213:32|235:31,1,56.2500021457673,8|0,0:2|0:0,0:0:0:0:
269,52,213647,2,0,P|330:80|353:88,1,56.2500021457673
388,42,213837,1,2,3:2:0:0:
212,120,214027,1,0,0:0:0:0:
386,308,214216,6,0,P|406:237|416:219,1,56.2500021457673,2|0,3:2|0:0,0:0:0:0:
350,190,214406,1,14,0:2:0:0:
462,328,214596,1,2,0:0:0:0:
265,242,214786,1,2,3:2:0:0:
495,108,214976,2,0,B|419:97|419:97|395:110|395:110|302:99,1,168.750006437302,2|0,3:2|0:0,0:0:0:0:
288,41,215356,2,0,P|220:35|189:93,1,112.500004291535,0|12,3:2|0:2,0:0:0:0:
146,126,215640,1,2,0:0:0:0:
146,126,215735,6,0,P|115:113|70:104,1,56.2500021457673,2|0,3:2|0:0,0:0:0:0:
42,48,215925,1,2,3:2:0:0:
213,176,216115,2,0,B|235:209|265:224|265:224|234:254|205:314,1,168.750006437302,10|0,0:2|0:0,0:0:0:0:
143,270,216495,2,0,P|77:240|36:317,1,168.750006437302,10|0,0:2|0:0,0:0:0:0:
86,370,216875,1,0,3:2:0:0:
213,176,217064,1,0,3:2:0:0:
346,287,217254,6,0,P|375:278|408:271,1,56.2500021457673,14|0,0:2|0:0,0:0:0:0:
439,208,217444,2,0,P|414:153|412:147,1,56.2500021457673
363,102,217634,2,0,P|385:43|387:33,3,56.2500021457673,8|0|2|0,0:2|0:0|0:0|0:0,0:0:0:0:
273,166,218014,1,2,3:2:0:0:
240,156,218109,1,0,0:0:0:0:
207,148,218204,1,0,3:2:0:0:
174,139,218299,1,2,0:0:0:0:
129,130,218394,5,0,3:2:0:0:
87,147,218489,1,0,0:0:0:0:
71,188,218583,1,2,3:2:0:0:
91,228,218678,1,0,0:0:0:0:
135,233,218773,6,0,B|171:252|218:240|218:240|134:285|97:243|72:198|-4:235,1,314.999990386963,6|2,3:2|0:0,0:0:0:0:
298,373,219533,2,0,P|310:333|323:295,1,52.4999983978272,10|0,0:2|0:0,0:0:0:0:
404,263,219723,2,0,P|335:248|363:132,1,209.999993591309,2|2,0:0|3:2,0:0:0:0:
149,30,220292,6,0,B|197:73|197:73|138:183,1,157.499995193482,2|0,0:0|0:0,0:0:0:0:
85,198,220672,1,2,3:2:0:0:
270,76,220862,2,0,B|336:64|336:64|347:69|347:69|433:53,1,157.499995193482,2|0,0:0|0:0,0:0:0:0:
485,101,221242,2,0,P|472:161|463:162,1,52.4999983978272,2|0,0:0|0:0,0:0:0:0:
431,200,221432,1,2,0:0:0:0:
512,317,221621,1,2,0:0:0:0:
366,384,221811,6,0,P|348:327|256:322,1,157.499995193482,2|0,3:2|0:0,0:0:0:0:
196,353,222191,2,0,P|130:330|111:326,1,52.4999983978272,2|0,3:2|0:0,0:0:0:0:
13,177,222381,2,0,B|43:217|33:279|33:279|55:219|117:185,1,209.999993591309,2|2,0:0|0:0,0:0:0:0:
261,68,222951,1,2,0:0:0:0:
126,0,223140,6,0,L|166:160,1,157.499995193482,2|0,3:2|0:0,0:0:0:0:
217,220,223520,2,0,P|164:326|198:348,1,157.499995193482,8|0,0:2|0:0,0:0:0:0:
104,376,223900,2,0,B|76:382|76:382|24:352,1,52.4999983978272,2|0,0:0|0:0,0:0:0:0:
4,319,224090,1,8,0:2:0:0:
164,153,224280,2,0,B|209:114|264:145|264:145|302:206|376:163,1,209.999993591309,0|2,3:2|0:0,0:0:0:0:
494,120,224849,6,0,B|482:97|486:47|486:47|428:205|428:205|470:274,1,314.999990386963,6|2,3:2|0:0,0:0:0:0:
232,347,225609,2,0,P|193:333|158:326,1,52.4999983978272,10|0,0:2|0:0,0:0:0:0:
133,275,225799,2,0,P|65:245|1:346,1,209.999993591309,2|2,0:0|3:2,0:0:0:0:
296,298,226368,2,0,B|336:284|375:295|375:295|416:262|416:262|464:277|501:255,1,209.999993591309,2|0,0:0|3:2,0:0:0:0:
321,89,226938,1,2,0:0:0:0:
321,89,227128,2,0,P|334:136|357:206,1,104.999996795654,10|2,0:2|0:0,0:0:0:0:
244,279,227508,2,0,P|166:274|154:208,1,157.499995193482,2|0,3:2|0:0,0:0:0:0:
467,154,227887,6,0,B|507:186|513:228|513:228|474:253|424:229,1,180,6|0,3:2|0:0,0:0:0:0:
351,189,228267,1,10,0:2:0:0:
256,354,228457,6,0,B|207:373|168:356|168:356|166:310|212:279,1,180,6|0,0:0|0:0,0:0:0:0:
275,228,228837,1,2,0:0:0:0:
166,140,229027,2,0,P|195:80|204:70,1,60,2|0,3:2|0:0,0:0:0:0:
312,0,229216,6,0,P|342:88|259:44,1,240,14|0,0:2|3:2,0:0:0:0:
69,158,229786,2,0,B|98:146|117:131|117:131|149:139|197:143,1,104.999996795654,8|0,0:2|0:0,0:0:0:0:
280,217,230071,1,0,0:0:0:0:
280,217,230166,6,0,P|203:212|191:280,1,112.500004291535,2|0,3:2|3:2,0:0:0:0:
310,365,230451,2,0,P|352:302|300:257,1,112.500004291535,2|0,0:0|0:0,0:0:0:0:
174,328,230735,2,0,P|190:359|248:362,1,56.2500021457673,2|0,3:2|0:0,0:0:0:0:
476,250,230925,6,0,B|460:158|460:158|464:149|464:149|441:26,1,180,6|0,3:2|0:0,0:0:0:0:
512,11,231305,1,0,0:0:0:0:
338,197,231495,1,2,0:0:0:0:
142,84,231685,6,0,P|156:21|231:5,1,120,10|0,0:2|0:0,0:0:0:0:
118,165,231970,2,0,P|56:184|5:127,1,120,2|0,0:0|0:0,0:0:0:0:
198,144,232254,2,0,P|232:174|221:232,1,60,2|0,3:2|0:0,0:0:0:0:
162,361,232444,6,0,B|135:327|109:313|109:313|148:262|183:204,1,180,6|0,0:0|0:0,0:0:0:0:
118,165,232824,1,0,3:2:0:0:
271,326,233014,1,2,0:0:0:0:
451,205,233204,6,0,B|417:194|402:169|402:169|400:203|357:259,1,120,10|0,0:2|0:0,0:0:0:0:
373,304,233489,2,0,B|380:338|368:363|368:363|396:349|466:358,1,120,2|0,0:0|0:0,0:0:0:0:
500,311,233773,2,0,B|511:308|530:310|530:310|520:296|511:280,1,60,2|0,0:0|0:0,0:0:0:0:
293,172,233963,6,0,B|190:144|190:144|190:195|153:214,1,180,6|0,3:2|0:0,0:0:0:0:
97,258,234343,2,0,P|56:264|9:173,1,120,2|2,0:0|3:2,0:0:0:0:
231,33,234628,1,2,0:0:0:0:
231,33,234723,2,0,P|252:54|271:77,1,60,10|0,0:2|0:0,0:0:0:0:
275,229,234913,2,0,P|282:200|293:171,1,60,2|0,0:0|0:0,0:0:0:0:
428,99,235102,2,0,P|398:106|369:111,1,60,10|0,0:2|0:0,0:0:0:0:
115,324,235292,6,0,B|82:402|-1:356|-13:316|-3:229|98:194|165:231|197:259|214:297,1,360,6|0,3:2|3:2,0:0:0:0:
301,365,236052,2,0,P|333:299|341:288,1,60,2|0,0:0|0:0,0:0:0:0:
383,248,236242,2,0,P|334:204|366:142,2,112.500004291535,10|2|10,0:2|3:2|0:2,0:0:0:0:
481,287,236811,1,2,0:0:0:0:
230,186,237001,6,0,L|149:204,1,56.2500021457673,6|0,3:2|0:0,0:0:0:0:
128,265,237191,1,2,0:0:0:0:
264,63,237381,2,0,P|347:77|337:149,1,168.750006437302,2|0,0:0|0:0,0:0:0:0:
298,242,237761,2,0,B|377:229|377:229|392:234|392:234|485:217,1,168.750006437302,8|0,0:2|0:0,0:0:0:0:
512,154,238140,1,2,0:0:0:0:
174,18,238330,6,0,B|142:75|142:75|167:114|193:178|193:178|206:128,1,225.000008583069,2|0,3:2|3:2,0:0:0:0:
45,371,238900,2,0,P|-7:318|22:268,1,112.500004291535,0|2,3:2|0:0,0:0:0:0:
51,235,239185,1,0,0:0:0:0:
51,235,239280,2,0,P|32:166|31:141,1,56.2500021457673,10|0,0:2|0:0,0:0:0:0:
0,114,239470,2,0,P|22:46|28:26,1,56.2500021457673,2|0,0:0|0:0,0:0:0:0:
88,14,239659,1,2,0:0:0:0:
223,133,239849,1,2,0:0:0:0:
438,34,240039,6,0,P|312:94|323:135,1,168.750006437302,6|0,3:2|0:0,0:0:0:0:
359,293,240419,2,0,P|407:228|373:155,1,168.750006437302,2|0,0:0|0:0,0:0:0:0:
175,89,240799,2,0,P|206:162|286:169,1,168.750006437302,10|0,0:2|0:0,0:0:0:0:
468,267,241178,6,0,L|332:299,1,112.500004291535,2|8,0:0|0:2,0:0:0:0:
302,342,241463,1,2,0:0:0:0:
302,342,241558,2,0,B|187:316|187:316|218:304|235:269,1,168.750006437302,2|0,0:0|0:0,0:0:0:0:
137,168,241938,2,0,P|90:156|59:226,1,112.500004291535,0|0,3:2|0:0,0:0:0:0:
83,268,242223,1,0,0:0:0:0:
83,268,242318,6,0,B|94:291|94:291|60:332,1,56.2500021457673,10|0,0:2|0:0,0:0:0:0:
15,358,242508,1,2,3:2:0:0:
233,211,242697,2,0,L|368:194,1,112.500004291535,2|0,3:2|0:0,0:0:0:0:
397,144,242982,1,0,0:0:0:0:
397,144,243077,6,0,P|410:116|327:59,1,112.500004291535,6|2,3:2|0:0,0:0:0:0:
163,153,243457,2,0,B|137:178|111:197|111:197|166:303,1,168.750006437302,2|0,0:0|0:0,0:0:0:0:
99,343,243837,1,10,0:2:0:0:
255,201,244027,1,8,0:2:0:0:
35,158,244216,1,8,0:2:0:0:
249,351,244406,1,8,0:3:0:0:
249,351,244501,1,8,0:3:0:0:
249,351,244596,6,0,B|289:355|333:331|333:331|379:355|379:355|430:326|484:330,1,225,6|2,3:2|0:0,0:0:0:0:
368,218,245356,6,0,L|382:293,1,52.4999983978272,2|2,0:0|0:0,0:0:0:0:
447,125,245735,2,0,L|432:180,1,52.4999983978272,2|2,0:0|0:0,0:0:0:0:
331,15,246115,6,0,P|340:52|351:88,1,75,6|2,0:0|0:0,0:0:0:0:
169,53,246875,6,0,P|196:26|222:-1,1,75,2|2,0:0|0:0,0:0:0:0:
279,168,247634,6,0,P|242:157|205:148,2,75,2|2|2,0:0|0:0|0:0,0:0:0:0:
279,168,248583,1,2,0:0:0:0:
183,225,248773,1,2,0:0:0:0:
183,225,249153,6,0,P|146:233|111:247,1,75,2|2,0:0|0:0,0:0:0:0:
90,327,249913,2,0,P|115:356|144:379,1,75,2|2,0:0|0:0,0:0:0:0:
234,359,250672,2,0,P|246:324|252:287,2,75,2|2|2,0:0|0:0|0:0,0:0:0:0:
234,359,251621,1,2,0:0:0:0:
345,318,251811,1,2,0:0:0:0:
345,318,252191,6,0,L|427:338,1,75,2|2,0:0|0:0,0:0:0:0:
282,258,252951,2,0,L|209:275,1,75,2|2,0:0|0:0,0:0:0:0:
353,208,253710,2,0,L|425:225,2,75,2|2|2,0:0|0:0|0:0,0:0:0:0:
353,208,254659,1,2,0:0:0:0:
286,131,254849,1,2,0:0:0:0:
286,131,255229,6,0,L|265:48,1,75,2|2,0:0|0:0,0:0:0:0:
173,39,255989,2,0,L|192:112,1,75,2|2,0:0|0:0,0:0:0:0:
119,164,256748,1,2,0:0:0:0:
49,135,257128,1,2,0:0:0:0:
58,288,257508,1,2,0:0:0:0:
120,245,257888,1,2,0:0:0:0:
6,310,258267,6,0,B|87:280|110:327|135:382|226:338,1,225,2|0,0:0|0:0,0:0:0:0:
267,172,259786,2,0,B|232:164|208:121|208:121|252:268,1,225,2|0,0:0|0:0,0:0:0:0:
497,119,261305,2,0,B|451:119|416:99|416:99|375:117|375:117|330:85|268:96,1,225,2|0,0:0|0:0,0:0:0:0:
103,155,262824,2,0,P|94:57|150:114,1,225,2|0,0:0|0:0,0:0:0:0:
171,280,264343,2,0,B|118:288|82:339|82:339|81:273|42:226,1,225,2|0,0:0|0:0,0:0:0:0:
236,339,265862,2,0,B|284:381|339:354|339:354|377:303|439:331,1,225,2|0,0:0|0:0,0:0:0:0:
497,283,267286,1,2,0:0:0:0:
497,283,267381,1,2,0:0:0:0:
256,192,267476,12,0,274027,0:0:0:0:
