osu file format v14

[General]
AudioFilename: audio.mp3
AudioLeadIn: 0
PreviewTime:44465
Countdown: 0
SampleSet: Soft
StackLeniency: 0.4
Mode: 0
LetterboxInBreaks: 0
WidescreenStoryboard: 1

[Editor]
Bookmarks: 5726,14375,23023,31672,40321,44555,53294,61942,70591,79239,86807
DistanceSpacing: 0.7
BeatDivisor: 3
GridSize: 32
TimelineZoom: 1.2

[Metadata]
Title:Shake & Shake (TV Size)
TitleUnicode:Shake & Shake (TV Size)
Artist:sumika
ArtistUnicode:sumika
Creator:Chompy
Version:Wanpachi's Hard
Source:美少年探偵団
Tags:Pretty Boy Detective Club Bishounen Tanteidan op opening anime japanese pop jpop j-pop jazz Some Hero Wanpachi Cycopton opp 0pp oppinosu 0ppinosu 0 pp and
BeatmapID:3044252
BeatmapSetID:1482018

[Difficulty]
HPDrainRate:5
CircleSize:4
OverallDifficulty:6
ApproachRate:7.6
SliderMultiplier:1
SliderTickRate:1

[Events]
//Background and Video events
0,0,"dudes in suits.jpg",0,0
Video,-430,"pretty-boys.mp4"
//Break Periods
//Storyboard Layer 0 (Background)
//Storyboard Layer 1 (Fail)
//Storyboard Layer 2 (Pass)
//Storyboard Layer 3 (Foreground)
//Storyboard Layer 4 (Overlay)
//Storyboard Sound Samples

[TimingPoints]
-760,270.27027027027,4,2,1,60,1,0
1402,-100,4,2,1,70,0,0
5726,-111.111111111111,4,2,1,50,0,0
23023,-117.647058823529,4,2,1,70,0,0
31672,-117.647058823529,4,2,1,60,0,0
35906,-111.111111111111,4,2,1,60,0,0
35997,-111.111111111111,4,2,1,70,0,0
40321,-95.2380952380952,4,2,1,70,0,0
44555,-90.9090909090909,4,2,1,80,0,1
59915,-90.9090909090909,4,2,1,80,0,1
59960,-90.9090909090909,4,2,1,80,0,1
79149,-100,4,2,1,80,0,0
85456,-90.9090909090909,4,2,1,80,0,0
85726,-90.9090909090909,4,2,1,80,0,1
85906,-90.9090909090909,4,2,1,80,0,0
85996,-90.9090909090909,4,2,1,80,0,1
86176,-90.9090909090909,4,2,1,80,0,0
86267,-90.9090909090909,4,2,1,80,0,1
86447,-90.9090909090909,4,2,1,80,0,0
86537,-90.9090909090909,4,2,1,80,0,1
86717,-90.9090909090909,4,2,1,80,0,0
86807,-90.9090909090909,4,2,1,80,0,1
86987,-90.9090909090909,4,2,1,80,0,0
87077,-90.9090909090909,4,2,1,80,0,1
87348,-90.9090909090909,4,2,1,80,0,0
87483,-90.9090909090909,4,2,1,80,0,1
87753,-90.9090909090909,4,2,1,80,0,0
87888,-90.9090909090909,4,2,1,80,0,1
88158,-90.9090909090909,4,2,1,80,0,0

[Colours]
Combo1 : 251,253,162
Combo2 : 254,171,171
Combo3 : 171,248,254

[HitObjects]
91,89,230,5,0,1:2:0:0:
91,89,321,2,0,P|59:97|33:118,2,66.6666666666667,0|4|0,1:2|3:1|0:0,0:0:0:0:
119,12,861,2,0,P|183:31|200:47,1,66.6666666666667,8|4,0:3|1:3,0:0:0:0:
208,54,1131,1,0,0:0:0:0:
294,153,1402,6,0,P|262:164|235:183,1,66.6666666666667,2|2,3:3|0:2,0:0:0:0:
223,204,1672,1,2,1:2:0:0:
311,246,1852,2,0,P|360:261|417:309,1,100,2|2,0:2|0:2,0:0:0:0:
416,310,2212,1,0,1:2:0:0:
322,335,2393,6,0,P|270:345|215:372,1,100,2|0,0:2|0:2,0:0:0:0:
204,379,2753,2,0,P|172:357|132:348,1,66.6666666666667,2|2,1:2|0:2,0:0:0:0:
126,328,3023,2,0,P|152:308|184:298,1,66.6666666666667,2|0,3:2|0:2,0:0:0:0:
209,293,3294,1,2,1:2:0:0:
135,181,3564,6,0,P|106:163|74:154,1,66.6666666666667,2|0,3:3|1:2,0:0:0:0:
45,163,3834,1,8,0:3:0:0:
0,90,4014,2,0,P|27:83|56:82,1,33.3333333333333,6|0,3:3|0:0,0:0:0:0:
8,73,4285,2,0,P|35:66|64:65,1,33.3333333333333,2|0,3:3|0:0,0:0:0:0:
117,8,4555,6,0,P|166:12|213:30,1,100,2|0,1:2|1:2,0:0:0:0:
223,44,4915,1,8,0:3:0:0:
353,0,5185,1,0,1:2:0:0:
424,46,5366,1,0,1:2:0:0:
424,46,5456,1,8,0:3:0:0:
361,148,5726,6,0,P|326:157|262:201,1,89.9999972534181,6|0,3:2|1:2,0:0:0:0:
193,252,6267,2,0,P|234:265|285:296,1,89.9999972534181,2|0,0:2|1:2,0:0:0:0:
344,381,6807,6,0,P|386:355|445:344,1,89.9999972534181,2|2,3:2|1:2,0:0:0:0:
496,257,7348,1,2,0:2:0:0:
449,197,7528,1,8,0:2:0:0:
449,197,7618,1,0,1:2:0:0:
504,91,7888,6,0,P|472:62|413:49,1,89.9999972534181,2|0,3:2|1:2,0:0:0:0:
355,144,8429,2,0,P|314:162|272:206,1,89.9999972534181,2|0,0:2|1:2,0:0:0:0:
220,102,8969,6,0,P|173:76|110:73,1,89.9999972534181,2|0,3:2|1:2,0:0:0:0:
68,170,9510,2,0,P|96:159|125:156,1,59.9999981689454,2|8,0:2|0:2,0:0:0:0:
151,164,9780,1,0,1:2:0:0:
211,266,10050,6,0,P|249:242|291:229,1,89.9999972534181,0|2,3:2|1:2,0:0:0:0:
372,129,10591,2,0,P|340:109|306:97,1,59.9999981689454,2|8,0:2|0:2,0:0:0:0:
290,104,10861,1,0,1:2:0:0:
199,40,11131,6,0,P|245:11|295:1,1,89.9999972534181,0|0,3:2|1:2,0:0:0:0:
382,37,11672,2,0,P|422:51|444:66,1,59.9999981689454,2|8,3:2|0:2,0:0:0:0:
450,81,11942,1,2,1:2:0:0:
408,197,12212,6,0,P|361:202|305:240,1,89.9999972534181,2|2,3:2|1:2,0:0:0:0:
416,302,12753,2,0,P|452:321|478:343,1,59.9999981689454,2|8,3:2|0:2,0:0:0:0:
453,359,13023,2,0,P|410:376|384:392,1,59.9999981689454,0|0,1:2|3:2,0:0:0:0:
369,381,13294,5,0,1:2:0:0:
257,323,13564,5,4,0:3:0:0:
158,352,13834,5,4,1:2:0:0:
80,313,14104,5,0,1:2:0:0:
63,242,14285,1,0,1:2:0:0:
63,242,14375,6,0,P|96:223|149:211,1,89.9999972534181,6|0,3:2|1:2,0:0:0:0:
246,270,14915,2,0,P|286:279|331:310,1,89.9999972534181,2|0,0:2|1:2,0:0:0:0:
376,193,15456,6,0,P|422:169|469:156,1,89.9999972534181,2|0,3:2|1:2,0:0:0:0:
512,64,15996,1,2,0:2:0:0:
458,11,16176,1,0,3:2:0:0:
458,11,16267,1,0,1:2:0:0:
348,70,16537,6,0,P|307:51|245:44,1,89.9999972534181,2|0,3:2|1:2,0:0:0:0:
167,0,17077,2,0,P|131:14|76:54,1,89.9999972534181,2|0,0:2|1:2,0:0:0:0:
87,149,17618,6,0,P|48:121|-4:111,1,89.9999972534181,2|0,3:2|1:2,0:0:0:0:
0,253,18158,2,0,P|25:237|54:228,1,59.9999981689454,2|0,0:2|3:2,0:0:0:0:
78,231,18429,1,0,1:2:0:0:
165,143,18699,6,0,P|208:151|245:176,1,89.9999972534181,2|2,3:2|1:2,0:0:0:0:
238,294,19239,2,0,P|266:279|308:272,1,59.9999981689454,2|0,0:2|3:2,0:0:0:0:
315,278,19510,1,2,1:2:0:0:
414,233,19780,6,0,P|452:238|500:273,1,89.9999972534181,2|2,3:2|1:2,0:0:0:0:
408,336,20321,2,0,P|378:346|343:370,1,59.9999981689454,2|0,0:2|3:2,0:0:0:0:
342,379,20592,1,0,1:2:0:0:
309,267,20861,6,0,P|275:247|216:243,1,89.9999972534181,4|2,3:3|1:2,0:0:0:0:
160,329,21402,2,0,P|127:345|93:370,1,59.9999981689454,4|8,3:3|0:3,0:0:0:0:
94,382,21672,1,4,0:3:0:0:
32,322,21852,5,2,1:3:0:0:
71,213,22122,5,2,1:3:0:0:
102,125,22393,6,0,P|143:100|194:93,1,89.9999972534181,4|8,1:2|0:3,0:0:0:0:
210,100,22753,1,4,0:3:0:0:
300,187,23023,6,0,P|349:200|398:230,1,85.0000016212464,6|4,3:2|0:3,0:0:0:0:
450,308,23564,1,4,0:3:0:0:
441,327,23834,1,8,0:3:0:0:
327,317,24104,6,0,P|282:331|239:368,1,85.0000016212464,0|4,3:2|0:3,0:0:0:0:
178,278,24645,1,4,0:3:0:0:
187,248,24915,1,8,0:3:0:0:
258,157,25185,6,0,P|306:163|350:192,1,85.0000016212464,4|4,0:3|0:3,0:0:0:0:
319,70,25726,1,0,3:2:0:0:
296,58,25996,1,4,0:3:0:0:
192,24,26267,6,0,P|150:33|113:53,2,85.0000016212464,4|8|0,3:3|0:3|3:2,0:0:0:0:
389,110,27348,5,0,3:2:0:0:
402,78,27618,1,4,0:3:0:0:
462,177,27888,2,0,P|413:182|364:214,1,85.0000016212464,0|4,3:2|0:3,0:0:0:0:
284,253,28429,5,4,0:3:0:0:
270,225,28699,1,4,0:3:0:0:
343,307,28969,2,0,P|395:315|447:343,1,85.0000016212464,0|4,3:2|0:3,0:0:0:0:
333,384,29510,5,4,3:3:0:0:
299,371,29780,1,4,0:3:0:0:
217,316,30050,2,0,P|169:327|123:356,1,85.0000016212464,0|4,3:2|0:3,0:0:0:0:
28,268,30591,5,6,3:2:0:0:
143,180,30861,1,4,0:3:0:0:
52,57,31131,1,4,1:3:0:0:
259,122,31672,6,0,P|212:137|167:175,1,85.0000016212464,6|2,3:2|0:3,0:0:0:0:
111,242,32212,1,2,3:2:0:0:
74,237,32483,1,2,0:3:0:0:
148,326,32753,6,0,P|198:335|250:380,1,85.0000016212464,2|2,3:2|0:3,0:0:0:0:
310,285,33294,1,2,3:2:0:0:
320,321,33564,1,2,0:3:0:0:
382,226,33834,6,0,P|334:201|268:202,1,85.0000016212464,2|2,3:2|0:3,0:0:0:0:
276,97,34375,1,2,3:2:0:0:
281,66,34645,1,2,0:3:0:0:
174,136,34915,6,0,P|134:150|100:175,2,85.0000016212464,2|2|8,3:2|0:3|0:3,0:0:0:0:
255,205,35726,1,4,1:2:0:0:
167,312,35996,6,0,P|122:319|83:341,1,89.9999972534181,6|0,3:2|0:2,0:0:0:0:
0,256,36537,2,0,P|31:234|67:224,1,59.9999981689454,2|0,3:2|0:0,0:0:0:0:
84,224,36807,1,2,1:2:0:0:
180,161,37077,6,0,P|142:137|99:126,1,89.9999972534181,6|2,3:2|1:2,0:0:0:0:
19,40,37618,1,2,3:2:0:0:
140,1,37888,1,2,1:2:0:0:
234,70,38158,6,0,P|280:41|340:37,1,89.9999972534181,6|0,3:2|1:2,0:0:0:0:
339,52,38519,2,0,P|360:61|378:73,1,29.9999990844727,0|0,1:2|1:2,0:0:0:0:
382,86,38699,1,6,1:2:0:0:
485,155,38969,2,0,P|499:147|513:142,2,29.9999990844727,8|4|8,0:3|0:3|0:3,0:0:0:0:
471,165,39239,5,6,0:3:0:0:
381,223,39510,1,4,0:3:0:0:
382,321,39780,1,2,3:3:0:0:
442,382,40050,2,0,P|469:369|509:362,1,59.9999981689454,0|10,1:2|0:2,0:0:0:0:
512,330,40321,6,0,P|482:311|448:302,1,69.9999978637696,6|0,3:2|0:2,0:0:0:0:
415,308,40591,1,0,1:2:0:0:
381,223,40771,2,0,P|323:196|267:197,1,104.999996795654,8|0,0:2|3:2,0:0:0:0:
260,204,41131,1,0,1:2:0:0:
278,283,41312,6,0,P|222:298|172:329,1,104.999996795654,8|0,0:2|0:2,0:0:0:0:
158,344,41672,1,0,1:2:0:0:
115,264,41852,2,0,P|78:234|19:217,1,104.999996795654,8|0,0:2|3:2,0:0:0:0:
0,227,42212,1,2,1:3:0:0:
50,105,42483,6,0,P|71:90|119:73,1,69.9999978637696,2|2,1:1|1:1,0:0:0:0:
51,73,42933,2,0,P|66:63|83:57,1,34.9999989318848,2|2,1:1|1:1,0:0:0:0:
24,61,43294,2,0,P|45:46|93:29,1,69.9999978637696,2|2,1:1|1:1,0:0:0:0:
256,96,44104,5,2,0:2:0:0:
443,168,44555,6,0,P|387:183|326:215,1,110.000003356934,6|2,3:1|0:2,0:0:0:0:
316,226,44915,1,2,1:2:0:0:
255,97,45185,2,0,P|203:77|134:72,1,110.000003356934,2|2,3:2|1:2,0:0:0:0:
84,195,45726,6,0,P|43:202|0:229,1,73.3333355712891,2|2,3:2|0:2,0:0:0:0:
0,241,45996,2,0,P|51:249|115:295,1,110.000003356934,2|0,1:2|3:2,0:0:0:0:
140,342,46402,1,2,0:2:0:0:
256,254,46717,6,0,P|307:263|366:301,1,110.000003356934,10|0,0:2|0:0,0:0:0:0:
377,312,47077,1,2,1:2:0:0:
473,219,47348,2,0,P|438:198|385:192,1,73.3333355712891,2|0,3:2|0:0,0:0:0:0:
381,197,47618,1,2,1:2:0:0:
373,64,47888,6,0,P|332:74|274:120,1,110.000003356934,2|2,3:2|1:2,0:0:0:0:
234,177,48294,1,2,0:2:0:0:
130,79,48564,1,2,0:2:0:0:
44,215,48879,6,0,P|88:224|160:262,1,110.000003356934,6|2,3:1|0:2,0:0:0:0:
173,281,49239,1,2,1:2:0:0:
246,157,49510,2,0,P|293:129|346:118,1,110.000003356934,2|2,3:2|1:2,0:0:0:0:
430,250,50050,6,0,P|375:222|348:222,1,73.3333355712891,2|0,3:2|0:2,0:0:0:0:
343,249,50321,2,0,P|285:270|234:313,1,110.000003356934,2|0,1:2|3:2,0:0:0:0:
212,363,50726,1,2,0:2:0:0:
144,246,50996,6,0,P|103:207|35:185,1,128.333337249756,2|0,0:2|0:0,0:0:0:0:
15,206,51402,1,2,1:2:0:0:
79,85,51672,2,0,P|112:67|162:59,1,73.3333355712891,2|0,3:2|0:0,0:0:0:0:
169,75,51942,1,2,1:2:0:0:
279,0,52212,6,0,P|332:11|378:42,1,110.000003356934,2|0,3:2|1:2,0:0:0:0:
435,88,52618,1,2,0:2:0:0:
432,162,52753,1,2,3:3:0:0:
284,181,53023,2,0,P|266:187|252:198,2,36.6666677856446,4|0|0,1:3|1:2|1:2,0:0:0:0:
320,207,53294,6,0,P|360:215|391:244,1,73.3333355712891,6|2,3:2|0:2,0:0:0:0:
406,264,53564,1,2,1:2:0:0:
258,288,53834,2,0,P|200:305|152:355,1,110.000003356934,2|2,3:2|1:2,0:0:0:0:
342,331,54375,6,0,P|376:341|405:364,1,73.3333355712891,2|2,3:2|0:2,0:0:0:0:
417,384,54645,2,0,P|459:350|512:333,1,110.000003356934,2|0,1:2|3:2,0:0:0:0:
422,219,55185,1,0,1:2:0:0:
512,81,55456,6,0,P|479:57|431:46,1,73.3333355712891,2|2,3:2|0:2,0:0:0:0:
415,66,55726,1,2,1:2:0:0:
286,0,55996,2,0,P|251:11|191:61,1,110.000003356934,2|2,3:2|1:2,0:0:0:0:
106,160,56537,6,0,P|148:141|197:137,1,73.3333355712891,2|2,3:2|0:2,0:0:0:0:
199,155,56807,2,0,P|251:169|295:202,1,110.000003356934,2|0,1:2|3:2,0:0:0:0:
332,265,57212,1,2,0:2:0:0:
198,306,57483,6,0,P|140:318|81:361,1,128.333337249756,2|0,0:2|0:0,0:0:0:0:
72,378,57888,1,2,1:2:0:0:
102,248,58158,2,0,P|71:228|35:219,1,73.3333355712891,2|0,3:2|0:0,0:0:0:0:
5,231,58429,1,2,1:2:0:0:
97,122,58699,6,0,P|144:94|197:80,1,110.000003356934,6|8,3:2|0:3,0:0:0:0:
267,113,59104,1,2,0:2:0:0:
381,20,59375,1,2,0:2:0:0:
508,105,59645,6,0,P|457:125|400:176,1,128.333337249756,2|0,0:2|0:0,0:0:0:0:
389,202,60050,1,2,1:2:0:0:
467,315,60321,2,0,P|426:292|384:286,1,73.3333355712891,2|0,3:2|0:0,0:0:0:0:
376,298,60591,1,0,1:2:0:0:
262,221,60861,6,0,P|226:230|155:281,1,110.000003356934,4|8,3:2|0:3,0:0:0:0:
133,337,61267,1,2,0:2:0:0:
13,261,61537,1,2,0:2:0:0:
74,103,61852,6,0,P|130:118|191:150,1,110.000003356934,6|2,3:1|0:2,0:0:0:0:
201,168,62213,1,2,1:2:0:0:
256,296,62483,2,0,P|313:265|375:261,1,110.000003356934,0|2,3:2|1:2,0:0:0:0:
445,132,63023,2,0,P|408:137|375:152,1,73.3333355712891,2|2,3:2|0:2,0:0:0:0:
356,175,63294,2,0,P|312:142|259:127,1,110.000003356934,0|2,1:2|3:2,0:0:0:0:
199,169,63699,1,2,0:2:0:0:
202,35,63969,6,0,P|148:45|85:88,1,128.333337249756,2|0,0:2|0:0,0:0:0:0:
74,106,64375,1,2,1:2:0:0:
0,218,64645,2,0,P|39:227|81:261,1,73.3333355712891,2|0,3:2|0:0,0:0:0:0:
80,267,64915,1,2,1:2:0:0:
166,377,65186,6,0,P|208:342|260:326,1,110.000003356934,2|2,3:2|1:2,0:0:0:0:
331,355,65591,1,2,0:2:0:0:
454,284,65861,1,2,0:2:0:0:
405,130,66176,6,0,P|374:111|298:94,1,110.000003356934,6|2,3:1|0:2,0:0:0:0:
284,112,66537,1,2,1:2:0:0:
199,1,66807,2,0,P|145:12|98:40,1,110.000003356934,2|2,3:2|1:2,0:0:0:0:
8,152,67348,6,0,P|63:124|90:124,1,73.3333355712891,2|2,3:2|0:2,0:0:0:0:
95,151,67618,2,0,P|153:172|204:215,1,110.000003356934,2|2,1:2|3:2,0:0:0:0:
223,270,68023,1,2,0:2:0:0:
339,377,68294,6,0,P|384:337|451:316,1,128.333337249756,2|0,0:2|0:0,0:0:0:0:
474,326,68699,1,2,1:2:0:0:
454,197,68969,2,0,P|421:179|371:171,1,73.3333355712891,2|0,3:2|0:0,0:0:0:0:
364,187,69240,1,2,1:2:0:0:
330,55,69510,6,0,P|277:66|231:97,1,110.000003356934,6|2,3:2|1:2,0:0:0:0:
184,178,69960,1,0,1:2:0:0:
184,178,70050,1,2,3:2:0:0:
94,65,70321,2,0,P|79:53|62:48,2,36.6666677856446,4|0|0,0:3|1:2|1:2,0:0:0:0:
110,89,70591,6,0,P|70:97|39:126,1,73.3333355712891,6|2,1:2|0:2,0:0:0:0:
35,146,70861,1,2,1:2:0:0:
184,178,71131,2,0,P|242:195|290:245,1,110.000003356934,2|2,3:2|1:2,0:0:0:0:
382,319,71672,6,0,P|346:329|318:352,1,73.3333355712891,2|2,3:2|0:2,0:0:0:0:
301,374,71942,2,0,P|257:340|205:324,1,110.000003356934,2|2,1:2|3:3,0:0:0:0:
101,383,72482,1,2,3:3:0:0:
125,244,72753,6,0,P|158:220|206:209,1,73.3333355712891,6|2,3:2|0:2,0:0:0:0:
222,218,73023,1,2,1:2:0:0:
97,136,73293,2,0,P|53:103|0:90,1,110.000003356934,2|2,3:2|1:2,0:0:0:0:
112,5,73834,6,0,P|147:12|180:28,1,73.3333355712891,2|2,3:2|0:2,0:0:0:0:
198,57,74104,2,0,P|241:23|294:9,1,110.000003356934,2|0,1:2|3:2,0:0:0:0:
365,39,74510,1,2,0:2:0:0:
469,150,74780,6,0,P|411:162|348:208,1,128.333337249756,2|0,0:2|0:0,0:0:0:0:
339,221,75186,1,2,1:2:0:0:
246,323,75456,2,0,P|282:330|313:349,1,73.3333355712891,2|0,3:2|0:0,0:0:0:0:
326,379,75726,1,2,1:2:0:0:
430,287,75996,6,0,P|383:259|330:245,1,110.000003356934,2|2,3:2|1:2,0:0:0:0:
252,249,76402,1,2,0:2:0:0:
350,151,76672,1,2,0:2:0:0:
247,41,76942,6,0,P|187:18|118:14,1,128.333337249756,2|2,0:2|0:2,0:0:0:0:
103,28,77348,1,2,1:2:0:0:
43,150,77618,2,0,P|84:127|126:121,1,73.3333355712891,2|0,3:2|0:0,0:0:0:0:
134,133,77888,1,2,1:2:0:0:
252,191,78159,6,0,P|216:200|145:251,1,110.000003356934,2|2,3:2|1:2,0:0:0:0:
111,298,78564,1,2,0:2:0:0:
219,384,78834,1,2,0:2:0:0:
321,311,79104,1,2,0:2:0:0:
384,281,79239,6,0,P|432:295|473:330,1,100,6|0,3:2|1:2,0:0:0:0:
456,214,79780,2,0,P|420:191|385:180,1,66.6666666666667,2|0,3:2|0:0,0:0:0:0:
367,189,80050,1,2,1:2:0:0:
314,70,80321,6,0,P|266:83|228:115,1,100,2|2,3:2|1:2,0:0:0:0:
257,236,80861,2,0,P|226:219|203:214,1,50,2|2,3:2|0:2,0:0:0:0:
149,252,81131,1,2,1:2:0:0:
47,155,81402,6,0,P|88:127|137:117,1,100,2|2,3:2|1:2,0:0:0:0:
243,42,81942,2,0,P|276:53|306:70,1,66.6666666666667,2|0,3:2|0:0,0:0:0:0:
324,92,82212,1,2,1:2:0:0:
437,194,82483,6,0,P|388:206|334:239,1,100,2|0,3:2|1:2,0:0:0:0:
275,348,83023,1,2,3:1:0:0:
186,243,83294,2,0,P|170:245|154:251,2,33.3333333333333,8|0|0,0:3|0:0|1:2,0:0:0:0:
216,249,83564,5,6,3:2:0:0:
293,140,83834,2,0,P|309:142|325:148,2,33.3333333333333,0|0|0,1:2|1:2|1:2,0:0:0:0:
270,145,84104,1,2,3:3:0:0:
217,32,84375,1,2,0:2:0:0:
145,73,84555,1,8,0:2:0:0:
145,73,84645,6,0,P|103:82|33:129,1,100,6|2,3:2|1:2,0:0:0:0:
21,237,85185,1,2,1:2:0:0:
124,333,85456,2,0,P|167:337|201:352,1,73.3333355712891,6|0,1:2|0:0,0:0:0:0:
218,363,85726,5,2,3:1:0:0:
362,327,85996,5,2,3:1:0:0:
410,167,86267,5,2,3:1:0:0:
282,30,86537,5,2,3:1:0:0:
137,65,86807,5,2,1:1:0:0:
89,226,87077,2,0,P|136:204|197:199,1,110.000003356934,6|0,3:2|0:2,0:0:0:0:
237,135,87483,2,0,P|290:146|338:173,1,110.000003356934,6|0,3:2|0:2,0:0:0:0:
351,245,87888,5,6,3:1:0:0:
