osu file format v14

[General]
AudioFilename: audio.mp3
AudioLeadIn: 0
PreviewTime: 44465
Countdown: 0
SampleSet: Soft
StackLeniency: 0.4
Mode: 0
LetterboxInBreaks: 0
WidescreenStoryboard: 1

[Editor]
Bookmarks: 5726,23023,35996,44555,61852
DistanceSpacing: 1.2
BeatDivisor: 6
GridSize: 4
TimelineZoom: 1.6

[Metadata]
Title:Shake & Shake (TV Size)
TitleUnicode:Shake & Shake (TV Size)
Artist:sumika
ArtistUnicode:sumika
Creator:Chompy
Version:Searching for a Star
Source:美少年探偵団
Tags:Pretty Boy Detective Club Bishounen Tanteidan op opening anime japanese pop jpop j-pop jazz Some Hero Wanpachi Cycopton opp 0pp oppinosu 0ppinosu 0 pp and
BeatmapID:3039951
BeatmapSetID:1482018

[Difficulty]
HPDrainRate:5
CircleSize:4.2
OverallDifficulty:8
ApproachRate:9
SliderMultiplier:1.3
SliderTickRate:1

[Events]
//Background and Video events
0,0,"dudes in suits.jpg",0,0
Video,-430,"pretty-boys.mp4"
//Break Periods
//Storyboard Layer 0 (Background)
//Storyboard Layer 1 (Fail)
//Storyboard Layer 2 (Pass)
//Storyboard Layer 3 (Foreground)
//Storyboard Layer 4 (Overlay)
//Storyboard Sound Samples

[TimingPoints]
-760,270.27027027027,4,2,1,60,1,0
1402,-71.4285714285714,4,2,1,70,0,0
5726,-90.9090909090909,4,2,1,50,0,0
23024,-111.111111111111,4,2,1,70,0,0
31672,-111.111111111111,4,2,1,60,0,0
35997,-76.9230769230769,4,2,1,70,0,0
40321,-66.6666666666667,4,2,1,70,0,0
44555,-58.8235294117647,4,2,1,80,0,1
79239,-66.6666666666667,4,2,1,80,0,0
85726,-58.8235294117647,4,2,1,80,0,1
85906,-58.8235294117647,4,2,1,80,0,0
85996,-58.8235294117647,4,2,1,80,0,1
86176,-58.8235294117647,4,2,1,80,0,0
86267,-58.8235294117647,4,2,1,80,0,1
86447,-58.8235294117647,4,2,1,80,0,0
86537,-58.8235294117647,4,2,1,80,0,1
86717,-58.8235294117647,4,2,1,80,0,0
86807,-58.8235294117647,4,2,1,80,0,1
86987,-58.8235294117647,4,2,1,80,0,0
87077,-58.8235294117647,4,2,1,80,0,1
87348,-58.8235294117647,4,2,1,80,0,0
87483,-58.8235294117647,4,2,1,80,0,1
87753,-58.8235294117647,4,2,1,80,0,0
87888,-58.8235294117647,4,2,1,80,0,1
88158,-58.8235294117647,4,2,1,80,0,0

[Colours]
Combo1 : 251,253,162
Combo2 : 254,171,171
Combo3 : 171,248,254

[HitObjects]
28,274,230,5,0,1:2:0:0:
24,283,320,1,0,1:2:0:0:
84,358,501,2,0,L|225:369,1,130,4|2,3:1|0:3,0:0:0:0:
268,318,861,1,8,0:3:0:0:
334,196,1041,2,0,P|315:205|295:198,1,43.3333333333333,4|4,1:3|0:3,0:0:0:0:
112,140,1403,6,0,P|170:132|217:168,1,121.333329630534,2|2,3:3|0:2,0:0:0:0:
232,248,1672,1,2,1:2:0:0:
38,147,1852,1,2,0:2:0:0:
38,147,1942,2,0,P|89:118|104:61,1,121.333329630534,0|2,3:2|0:2,0:0:0:0:
45,15,2212,1,0,1:2:0:0:
208,96,2393,6,0,B|255:118|301:87|281:72|323:36|374:55,1,181.999994445801,2|0,0:2|0:2,0:0:0:0:
428,108,2753,1,2,1:2:0:0:
460,264,2934,1,2,0:2:0:0:
460,264,3024,2,0,P|396:212|336:224,1,121.333329630534,2|0,3:2|0:2,0:0:0:0:
304,264,3294,1,2,1:2:0:0:
62,356,3564,6,0,B|36:359|21:344|14:326|14:326|28:309|48:303|70:318,1,121.333329630534,2|0,3:3|1:2,0:0:0:0:
139,346,3834,1,8,0:3:0:0:
201,173,4015,5,6,3:3:0:0:
2,216,4285,1,2,3:3:0:0:
256,239,4555,2,0,B|215:184|245:105|245:105|242:128|250:147,1,181.999994445801,2|0,1:2|1:2,0:0:0:0:
378,142,4916,5,8,0:3:0:0:
355,119,5006,1,4,0:3:0:0:
334,115,5096,1,4,0:3:0:0:
322,117,5186,1,0,1:2:0:0:
152,194,5366,1,0,1:2:0:0:
158,176,5456,1,8,0:3:0:0:
294,307,5726,6,0,B|330:289|366:313|350:325|383:353|422:338,1,143.000004364014,6|0,3:2|1:2,0:0:0:0:
423,338,6267,2,0,P|400:297|410:252,1,95.3333362426759,2|8,0:2|0:2,0:0:0:0:
478,215,6537,1,0,1:2:0:0:
457,90,6807,6,0,P|387:83|337:34,1,143.000004364014,2|2,3:2|1:2,0:0:0:0:
337,34,7348,2,0,P|330:80|293:109,1,95.3333362426759,2|8,0:2|0:2,0:0:0:0:
217,97,7618,1,0,1:2:0:0:
150,224,7888,6,0,P|215:246|242:310,1,143.000004364014,2|0,3:2|1:2,0:0:0:0:
242,310,8429,2,0,L|123:320,1,95.3333362426759,2|8,0:2|0:2,0:0:0:0:
87,365,8699,1,0,1:2:0:0:
32,182,8970,6,0,B|68:200|101:177|88:164|121:136|161:154,1,143.000004364014,2|0,3:2|1:2,0:0:0:0:
161,154,9510,1,2,0:2:0:0:
91,68,9690,1,8,0:2:0:0:
91,68,9780,2,0,P|45:67|12:99,1,95.3333362426759,0|10,1:2|0:2,0:0:0:0:
32,182,10051,6,0,L|45:333,1,143.000004364014,0|2,3:2|1:2,0:0:0:0:
44,324,10591,1,2,0:2:0:0:
158,309,10771,1,8,0:2:0:0:
158,309,10861,2,0,P|192:278|239:280,1,95.3333362426759,0|10,1:2|0:2,0:0:0:0:
278,351,11132,6,0,L|429:338,1,143.000004364014,0|0,3:2|1:2,0:0:0:0:
489,267,11582,1,2,0:2:0:0:
489,267,11672,1,2,3:2:0:0:
426,160,11852,1,8,0:2:0:0:
426,160,11942,2,0,P|465:135|478:90,1,95.3333362426759,2|10,1:2|0:2,0:0:0:0:
417,37,12213,6,0,B|381:19|345:43|361:55|328:83|289:68,1,143.000004364014,2|2,3:2|1:2,0:0:0:0:
287,67,12753,2,0,P|310:108|300:153,1,95.3333362426759,2|8,3:2|0:2,0:0:0:0:
232,190,13023,1,0,1:2:0:0:
98,153,13204,5,0,3:2:0:0:
102,144,13294,1,0,1:2:0:0:
51,230,13474,5,0,3:2:0:0:
55,239,13564,1,4,0:3:0:0:
102,144,13744,5,8,3:3:0:0:
106,135,13834,1,4,1:2:0:0:
55,239,14015,5,0,1:2:0:0:
59,248,14105,1,0,1:2:0:0:
0,336,14285,5,0,1:2:0:0:
0,336,14375,2,0,P|57:296|126:304,1,143.000004364014,6|0,3:2|1:2,0:0:0:0:
323,357,14916,2,0,P|281:332|268:286,1,95.3333362426759,2|0,0:2|3:2,0:0:0:0:
308,224,15186,1,0,1:2:0:0:
475,102,15456,6,0,P|418:142|349:134,1,143.000004364014,2|0,3:2|1:2,0:0:0:0:
149,155,15997,2,0,P|191:130|204:84,1,95.3333362426759,2|0,0:2|3:2,0:0:0:0:
164,22,16267,1,0,1:2:0:0:
31,208,16537,6,0,B|67:190|103:214|87:226|120:254|159:239,1,143.000004364014,2|0,3:2|1:2,0:0:0:0:
375,183,17078,2,0,L|385:302,1,95.3333362426759,2|0,0:2|3:2,0:0:0:0:
446,320,17348,1,0,1:2:0:0:
219,350,17618,2,0,P|157:315|89:330,1,143.000004364014,2|0,3:2|1:2,0:0:0:0:
11,138,18159,6,0,P|59:135|92:101,1,95.3333362426759,2|0,0:2|3:2,0:0:0:0:
123,35,18429,1,0,1:2:0:0:
246,103,18609,1,8,0:2:0:0:
246,103,18699,6,0,L|397:90,1,143.000004364014,2|2,3:2|1:2,0:0:0:0:
481,300,19240,2,0,P|466:253|424:230,1,95.3333362426759,2|0,0:2|3:2,0:0:0:0:
362,270,19510,1,2,1:2:0:0:
255,348,19690,1,8,0:2:0:0:
255,348,19780,6,0,L|104:335,1,143.000004364014,2|2,3:2|1:2,0:0:0:0:
11,138,20321,2,0,P|25:182|66:205,1,95.3333362426759,2|0,0:2|3:2,0:0:0:0:
133,170,20591,1,0,1:2:0:0:
236,85,20771,1,8,0:3:0:0:
236,85,20861,6,0,B|272:67|308:91|292:103|325:131|364:116,1,143.000004364014,4|2,3:3|1:2,0:0:0:0:
486,293,21402,2,0,L|367:303,1,95.3333362426759,4|8,3:3|0:3,0:0:0:0:
330,254,21672,1,4,0:3:0:0:
238,331,21852,5,2,1:3:0:0:
167,138,22123,1,2,1:3:0:0:
158,359,22393,2,0,B|201:316|189:258|189:258|187:276|178:289,1,143.000004364014,4|8,1:2|0:3,0:0:0:0:
115,247,22753,1,4,0:3:0:0:
23,97,23024,6,0,P|49:69|87:64,1,77.999997619629,6|0,3:2|0:2,0:0:0:0:
152,97,23294,1,4,0:3:0:0:
253,163,23474,1,4,0:3:0:0:
253,163,23564,2,0,L|369:152,1,116.999996429443,4|8,0:3|0:3,0:0:0:0:
494,292,24105,6,0,P|440:312|385:294,1,116.999996429443,0|4,3:2|0:3,0:0:0:0:
276,328,24555,1,4,0:3:0:0:
276,328,24645,2,0,B|246:313|216:332|230:342|203:365|171:353,1,116.999996429443,4|8,0:3|0:3,0:0:0:0:
29,256,25186,6,0,L|40:125,1,116.999996429443,4|4,0:3|0:3,0:0:0:0:
176,29,25726,2,0,P|202:56|240:61,1,77.999997619629,0|4,3:2|0:3,0:0:0:0:
305,29,25996,1,4,0:3:0:0:
486,77,26267,5,4,3:3:0:0:
475,252,26537,1,8,0:3:0:0:
300,241,26807,1,0,3:2:0:0:
243,310,26988,5,4,0:3:0:0:
247,319,27078,1,8,0:3:0:0:
149,220,27258,1,4,0:3:0:0:
149,220,27348,6,0,P|112:208|77:223,1,77.999997619629,0|0,3:2|0:2,0:0:0:0:
37,284,27618,1,4,0:3:0:0:
0,95,27888,2,0,L|116:106,1,116.999996429443,0|4,3:2|0:3,0:0:0:0:
217,55,28339,1,4,0:3:0:0:
217,55,28429,6,0,P|254:43|289:58,1,77.999997619629,4|0,0:3|0:2,0:0:0:0:
335,114,28699,1,4,0:3:0:0:
448,263,28970,2,0,P|392:253|352:293,1,116.999996429443,0|4,3:2|0:3,0:0:0:0:
249,346,29420,1,4,0:3:0:0:
249,346,29510,6,0,B|219:361|189:342|203:332|176:309|144:321,1,116.999996429443,4|4,3:3|0:3,0:0:0:0:
24,192,30051,2,0,L|32:100,1,77.999997619629,0|8,3:2|0:3,0:0:0:0:
92,73,30321,1,4,0:3:0:0:
192,182,30501,5,2,0:2:0:0:
196,173,30591,1,6,3:2:0:0:
274,91,30771,5,8,0:2:0:0:
278,100,30861,1,4,0:3:0:0:
196,191,31042,5,0,1:2:0:0:
192,182,31132,1,4,1:3:0:0:
233,323,31312,5,8,0:3:0:0:
265,283,31402,1,4,0:3:0:0:
302,285,31492,1,4,0:3:0:0:
315,292,31582,1,0,1:2:0:0:
322,302,31672,6,0,L|438:291,1,116.999996429443,6|2,3:2|0:3,0:0:0:0:
438,93,32213,2,0,L|322:82,1,116.999996429443,2|2,3:2|0:3,0:0:0:0:
233,129,32663,1,8,0:2:0:0:
233,129,32753,6,0,P|196:141|161:126,1,77.999997619629,2|0,3:2|0:2,0:0:0:0:
121,65,33023,1,2,0:3:0:0:
31,140,33204,1,10,0:2:0:0:
31,140,33294,2,0,L|42:256,1,116.999996429443,2|2,3:2|0:3,0:0:0:0:
192,346,33834,6,0,B|222:361|252:342|238:332|265:309|297:321,1,116.999996429443,2|2,3:2|0:3,0:0:0:0:
418,334,34285,1,8,0:2:0:0:
418,334,34375,2,0,P|383:289|399:235,1,116.999996429443,2|2,3:2|0:3,0:0:0:0:
505,96,34916,5,2,3:2:0:0:
360,172,35186,1,2,0:3:0:0:
242,57,35456,1,8,0:3:0:0:
168,119,35591,5,0,3:2:0:0:
214,204,35726,1,4,1:2:0:0:
107,337,35997,6,0,B|79:356|38:357|12:316|12:316|36:292|66:304,1,168.999992263794,6|0,3:2|0:2,0:0:0:0:
309,332,36537,2,0,B|352:352|395:324|376:310|415:277|462:294,1,168.999992263794,2|2,3:2|1:2,0:0:0:0:
462,173,36988,1,8,0:2:0:0:
462,173,37078,6,0,B|415:190|376:157|395:144|353:115|309:135,1,168.999992263794,6|2,3:2|1:2,0:0:0:0:
82,203,37618,2,0,B|84:173|67:146|41:135|41:135|69:122|84:94|82:66,1,168.999992263794,2|2,3:2|1:2,0:0:0:0:
194,333,38159,5,6,3:2:0:0:
308,135,38429,1,0,1:2:0:0:
327,179,38519,1,0,1:2:0:0:
316,211,38609,1,0,1:2:0:0:
303,220,38699,6,0,L|126:204,1,168.999992263794,6|8,1:2|0:3,0:0:0:0:
383,279,39240,2,0,P|458:249|477:170,1,168.999992263794,6|4,0:3|0:3,0:0:0:0:
129,105,39780,2,0,P|53:134|34:213,1,168.999992263794,2|0,3:3|1:2,0:0:0:0:
101,319,40231,1,10,0:2:0:0:
101,319,40321,6,0,B|134:334|167:312|152:302|182:276|218:289,1,130.000004959107,6|0,3:2|0:2,0:0:0:0:
279,338,40591,1,0,1:2:0:0:
417,283,40771,1,8,0:2:0:0:
417,283,40861,2,0,L|429:143,1,130.000004959107,2|0,0:3|3:2,0:0:0:0:
367,103,41132,1,0,1:2:0:0:
206,27,41312,1,8,0:2:0:0:
206,27,41402,6,0,L|193:166,1,130.000004959107,0|0,3:2|0:2,0:0:0:0:
256,207,41672,1,0,1:2:0:0:
155,352,41852,2,0,B|77:371|14:313|14:313|37:325|59:324,1,195.00000743866,8|0,0:2|3:2,0:0:0:0:
53,245,42213,1,2,1:3:0:0:
159,86,42483,5,2,1:1:0:0:
254,273,42663,1,2,1:1:0:0:
376,116,42934,5,2,1:1:0:0:
346,122,43023,1,2,1:1:0:0:
457,315,43294,5,2,1:1:0:0:
213,207,43474,1,2,1:1:0:0:
32,357,44105,5,2,0:2:0:0:
71,329,44195,1,2,0:2:0:0:
86,286,44285,1,2,0:2:0:0:
79,250,44375,1,2,0:2:0:0:
69,233,44465,1,2,0:2:0:0:
24,236,44555,6,0,P|122:281|218:233,1,221.000004215241,6|2,3:1|0:2,0:0:0:0:
286,138,44916,2,0,P|357:121|423:151,1,147.333336143494,2|10,1:2|0:2,0:0:0:0:
475,213,45186,1,2,3:2:0:0:
371,307,45366,1,8,0:2:0:0:
371,307,45456,6,0,P|305:337|234:320,1,147.333336143494,2|2,1:2|0:2,0:0:0:0:
217,234,45726,2,0,P|169:178|98:164,1,147.333336143494,2|2,3:2|0:2,0:0:0:0:
19,184,45997,1,2,1:2:0:0:
389,76,46267,6,0,B|396:36|347:24|347:24|312:59|337:88,1,147.333336143494,0|0,3:2|0:2,0:0:0:0:
379,154,46537,1,0,1:2:0:0:
493,41,46672,1,2,0:2:0:0:
505,132,46807,6,0,L|275:111,1,221.000004215241,0|2,3:2|1:2,0:0:0:0:
7,296,47348,2,0,L|154:283,1,147.333336143494,2|2,3:2|0:2,0:0:0:0:
221,339,47618,1,2,1:2:0:0:
437,357,47798,1,8,0:2:0:0:
437,357,47888,6,0,B|458:270|393:200|393:200|408:222|405:250,1,221.000004215241,2|2,3:2|1:2,0:0:0:0:
294,168,48294,1,2,0:2:0:0:
237,81,48429,2,0,B|198:63|159:89|176:101|141:132|104:118,1,147.333336143494,0|10,3:2|0:2,0:0:0:0:
68,186,48699,1,2,0:2:0:0:
64,33,48879,6,0,P|169:54|219:149,1,221.000004215241,6|2,3:1|0:2,0:0:0:0:
248,272,49240,2,0,P|314:301|385:282,1,147.333336143494,2|2,1:2|0:2,0:0:0:0:
447,230,49510,1,2,3:2:0:0:
393,92,49690,1,8,0:2:0:0:
393,92,49780,6,0,P|327:62|256:79,1,147.333336143494,2|10,1:2|0:2,0:0:0:0:
219,149,50050,2,0,P|171:205|100:219,1,147.333336143494,2|0,3:2|0:2,0:0:0:0:
26,192,50321,1,2,1:2:0:0:
390,219,50591,6,0,B|416:216|436:197|442:173|442:173|457:195|483:204|507:198,1,147.333336143494,0|8,3:2|0:2,0:0:0:0:
462,281,50861,1,0,1:2:0:0:
307,295,50996,1,2,0:2:0:0:
350,365,51132,6,0,L|370:139,1,221.000004215241,0|2,3:2|1:2,0:0:0:0:
65,17,51672,2,0,L|81:171,1,147.333336143494,2|2,3:2|0:2,0:0:0:0:
93,250,51942,1,2,1:2:0:0:
257,34,52123,1,8,0:2:0:0:
257,34,52213,6,0,B|344:13|414:78|414:78|392:63|364:66,1,221.000004215241,2|0,3:2|1:2,0:0:0:0:
182,102,52618,1,2,0:2:0:0:
92,63,52753,1,2,3:3:0:0:
12,253,52934,5,0,1:2:0:0:
15,278,53024,1,4,1:3:0:0:
39,306,53114,1,0,1:2:0:0:
81,315,53204,1,0,1:2:0:0:
134,297,53294,6,0,P|200:267|271:284,1,147.333336143494,6|2,3:2|0:2,0:0:0:0:
346,352,53564,2,0,P|416:346|452:285,1,147.333336143494,2|2,1:2|0:2,0:0:0:0:
413,214,53834,1,2,3:2:0:0:
490,89,54015,1,8,0:2:0:0:
490,89,54105,6,0,P|424:59|353:76,1,147.333336143494,2|2,1:2|0:2,0:0:0:0:
278,144,54375,2,0,P|207:138|171:77,1,147.333336143494,2|2,3:2|0:2,0:0:0:0:
211,6,54645,1,2,1:2:0:0:
10,310,54916,6,0,B|67:336|123:299|98:281|149:237|211:260,1,221.000004215241,0|0,3:2|1:2,0:0:0:0:
490,89,55456,6,0,P|452:146|389:121,1,147.333336143494,2|2,3:2|0:2,0:0:0:0:
328,44,55726,2,0,P|255:42|193:80,1,147.333336143494,2|2,1:2|0:2,0:0:0:0:
140,143,55997,1,2,3:2:0:0:
15,298,56177,1,8,0:2:0:0:
15,298,56267,6,0,P|58:244|118:277,1,147.333336143494,2|0,1:2|0:2,0:0:0:0:
186,348,56537,2,0,P|258:349|320:311,1,147.333336143494,2|2,3:2|0:2,0:0:0:0:
369,244,56808,1,2,1:2:0:0:
108,46,57077,6,0,B|83:47|67:68|69:96|69:96|90:111|115:94,1,110.50000210762,0|2,3:2|0:2,0:0:0:0:
209,71,57348,1,0,1:2:0:0:
92,189,57483,1,2,0:2:0:0:
7,132,57618,6,0,L|237:153,1,221.000004215241,4|2,3:2|1:2,0:0:0:0:
505,252,58159,2,0,L|358:272,1,147.333336143494,2|2,3:2|0:2,0:0:0:0:
313,347,58429,1,2,1:2:0:0:
81,373,58609,1,8,0:2:0:0:
81,373,58699,6,0,B|80:333|55:300|20:289|20:289|54:269|71:231|65:195,1,221.000004215241,6|8,3:2|0:3,0:0:0:0:
220,133,59104,1,2,0:2:0:0:
197,48,59240,2,0,P|231:88|285:92,1,110.50000210762,6|2,0:3|0:2,0:0:0:0:
404,68,59510,1,8,1:2:0:0:
481,202,59645,1,2,0:2:0:0:
441,137,59780,6,0,L|421:362,1,221.000004215241,4|2,3:2|1:2,0:0:0:0:
90,357,60321,2,0,L|72:208,1,147.333336143494,2|2,3:2|0:2,0:0:0:0:
60,123,60591,1,2,1:2:0:0:
240,86,60771,1,8,0:2:0:0:
240,86,60861,6,0,B|297:60|353:97|328:115|379:159|441:136,1,221.000004215241,4|8,3:2|0:3,0:0:0:0:
494,333,61312,1,10,0:2:0:0:
494,333,61402,2,0,P|448:281|361:286,1,147.333336143494,0|8,3:2|0:3,0:0:0:0:
318,338,61672,1,2,0:2:0:0:
171,351,61852,6,0,P|67:322|24:224,1,221.000004215241,6|2,3:1|0:2,0:0:0:0:
125,174,62212,2,0,P|184:134|190:63,1,147.333336143494,2|2,1:2|0:2,0:0:0:0:
124,14,62483,1,0,3:2:0:0:
321,63,62663,1,8,0:2:0:0:
321,63,62753,6,0,P|327:134|387:174,1,147.333336143494,2|10,1:2|0:2,0:0:0:0:
458,211,63023,2,0,P|468:281|416:343,1,147.333336143494,2|2,3:2|0:2,0:0:0:0:
342,332,63294,1,0,1:2:0:0:
144,61,63564,6,0,B|164:22|219:29|219:29|188:37|174:66,1,147.333336143494,2|8,3:2|0:2,0:0:0:0:
144,140,63834,1,0,1:2:0:0:
5,207,63969,1,2,0:2:0:0:
21,124,64104,6,0,L|251:103,1,221.000004215241,2|2,3:2|1:2,0:0:0:0:
505,296,64645,2,0,L|352:280,1,147.333336143494,2|2,3:2|0:2,0:0:0:0:
297,344,64915,1,2,1:2:0:0:
61,342,65095,1,10,0:2:0:0:
61,342,65185,6,0,P|159:300|223:193,1,221.000004215241,2|2,3:2|1:2,0:0:0:0:
132,114,65591,1,2,0:2:0:0:
275,81,65726,2,0,B|313:63|352:89|335:101|370:132|407:118,1,147.333336143494,0|10,3:2|0:2,0:0:0:0:
444,186,65996,1,10,0:2:0:0:
448,33,66176,6,0,P|343:54|293:149,1,221.000004215241,6|2,3:1|0:2,0:0:0:0:
368,230,66537,2,0,P|435:238|468:304,1,147.333336143494,2|10,1:2|0:2,0:0:0:0:
406,356,66807,1,2,3:2:0:0:
193,335,66987,1,8,0:2:0:0:
193,335,67077,6,0,P|229:274|223:200,1,147.333336143494,2|2,1:2|0:2,0:0:0:0:
147,167,67348,2,0,P|79:158|46:92,1,147.333336143494,2|2,3:2|0:2,0:0:0:0:
93,27,67618,1,2,1:2:0:0:
325,186,67888,6,0,B|349:180|375:189|390:211|390:211|396:187|416:168|442:165,1,147.333336143494,2|2,3:2|0:2,0:0:0:0:
370,103,68158,1,0,1:2:0:0:
512,86,68294,1,2,0:2:0:0:
482,19,68429,6,0,L|462:245,1,221.000004215241,4|2,3:2|1:2,0:0:0:0:
107,249,68969,2,0,L|91:92,1,147.333336143494,2|2,3:2|0:2,0:0:0:0:
82,14,69239,1,2,1:2:0:0:
20,248,69420,1,8,2:0:0:0:
20,248,69510,6,0,P|50:314|119:333,1,147.333336143494,6|8,3:2|0:2,0:0:0:0:
216,303,69780,2,0,P|249:293|274:318,2,73.6666680717469,2|0|0,1:2|1:2|1:2,0:0:0:0:
291,194,70050,5,2,3:2:0:0:
306,207,70140,1,8,0:2:0:0:
340,212,70230,1,8,0:2:0:0:
376,185,70321,1,4,0:3:0:0:
410,147,70411,1,0,1:2:0:0:
468,150,70501,1,0,1:2:0:0:
508,192,70591,6,0,P|497:263|444:312,1,147.333336143494,6|2,1:2|0:2,0:0:0:0:
354,347,70861,2,0,P|279:299|222:307,1,147.333336143494,2|2,1:2|0:2,0:0:0:0:
151,341,71131,1,2,3:2:0:0:
30,230,71312,1,8,0:2:0:0:
30,230,71402,6,0,P|41:159|94:110,1,147.333336143494,2|2,1:2|1:2,0:0:0:0:
184,75,71672,2,0,P|259:123|316:115,1,147.333336143494,2|2,3:2|0:2,0:0:0:0:
387,81,71942,1,2,1:2:0:0:
456,342,72212,6,0,B|486:333|502:303|493:267|493:267|461:253|434:281,1,147.333336143494,2|8,3:3|0:2,0:0:0:0:
373,316,72483,2,0,B|334:298|297:323|314:335|279:364|239:349,1,147.333336143494,2|8,3:3|0:2,0:0:0:0:
111,350,72753,6,0,P|98:278|133:215,1,147.333336143494,6|2,3:2|0:2,0:0:0:0:
217,169,73023,2,0,P|268:126|233:57,1,147.333336143494,2|2,1:2|0:2,0:0:0:0:
165,33,73294,1,2,3:2:0:0:
36,119,73474,1,8,0:2:0:0:
36,119,73564,6,0,P|66:184|130:214,1,147.333336143494,2|2,1:2|0:2,0:0:0:0:
217,169,73834,2,0,P|283:175|291:252,1,147.333336143494,2|2,3:2|0:2,0:0:0:0:
249,312,74105,1,2,1:2:0:0:
418,124,74375,6,0,B|475:137|521:94|521:94|507:104|488:102,1,147.333336143494,0|8,3:2|0:2,0:0:0:0:
487,21,74645,1,0,1:2:0:0:
325,132,74780,1,2,0:2:0:0:
361,53,74915,6,0,L|381:287,1,221.000004215241,2|2,3:3|1:2,0:0:0:0:
87,331,75456,2,0,L|103:183,1,147.333336143494,2|2,3:2|0:2,0:0:0:0:
117,97,75726,1,2,1:2:0:0:
253,281,75906,1,2,0:2:0:0:
253,281,75996,6,0,B|310:255|366:292|341:310|392:354|454:331,1,221.000004215241,2|2,3:2|1:2,0:0:0:0:
429,224,76402,1,2,0:2:0:0:
472,122,76537,2,0,P|427:57|345:50,1,147.333336143494,0|8,3:2|0:2,0:0:0:0:
298,92,76807,1,0,1:2:0:0:
162,281,76942,1,2,0:2:0:0:
224,326,77077,6,0,L|-6:347,1,221.000004215241,0|2,3:2|1:2,0:0:0:0:
3,37,77618,2,0,L|151:52,1,147.333336143494,2|2,3:2|0:2,0:0:0:0:
226,9,77888,1,2,1:2:0:0:
347,165,78023,1,2,0:2:0:0:
439,84,78158,6,0,B|433:123|451:160|484:177|484:177|447:191|424:225|423:262,1,221.000004215241,2|2,3:2|1:2,0:0:0:0:
302,342,78609,1,10,0:2:0:0:
302,342,78699,2,0,P|245:296|173:300,1,147.333336143494,0|2,3:2|1:2,0:0:0:0:
106,344,78969,1,12,0:3:0:0:
87,122,79104,1,2,0:2:0:0:
28,176,79240,6,0,B|78:198|127:166|105:150|150:111|204:132,1,195.00000743866,6|0,3:2|1:2,0:0:0:0:
286,203,79645,1,2,0:2:0:0:
382,156,79780,2,0,P|387:79|275:47,1,195.00000743866,2|2,3:2|1:2,0:0:0:0:
187,262,80321,2,0,B|173:317|213:355|213:355|206:341|205:325,1,130.000004959107,2|2,3:2|0:2,0:0:0:0:
281,312,80591,1,2,1:2:0:0:
416,152,80861,2,0,B|433:153|446:166|450:182|450:182|460:167|477:161|493:165,1,97.50000371933,2|2,3:2|0:2,0:0:0:0:
471,49,81131,1,2,1:2:0:0:
204,86,81402,6,0,B|165:100|132:75|147:64|116:41|77:56,1,130.000004959107,2|2,3:2|0:2,0:0:0:0:
18,95,81672,1,2,1:2:0:0:
106,336,81942,2,0,P|166:352|212:310,1,130.000004959107,2|2,3:2|0:2,0:0:0:0:
274,250,82212,2,0,P|338:251|388:293,1,130.000004959107,2|0,1:2|0:0,0:0:0:0:
463,354,82483,2,0,L|480:159,1,195.00000743866,2|0,3:2|1:2,0:0:0:0:
139,48,83023,6,0,B|111:50|93:73|96:104|96:104|121:121|148:101,1,130.000004959107,2|0,3:1|1:2,0:0:0:0:
213,68,83293,1,8,0:3:0:0:
359,154,83474,5,0,1:2:0:0:
364,142,83564,1,6,3:2:0:0:
288,356,83834,5,0,1:2:0:0:
309,340,83924,1,0,1:2:0:0:
317,317,84014,1,0,1:2:0:0:
313,298,84104,6,0,L|124:281,1,130.000004959107,2|0,3:3|1:2,0:0:0:0:
116,328,84375,1,2,0:2:0:0:
50,93,84510,1,10,0:2:0:0:
13,161,84645,6,0,P|97:125|180:194,1,195.00000743866,6|2,3:2|1:2,0:0:0:0:
286,209,85050,1,2,3:2:0:0:
354,92,85185,2,0,B|279:111|218:54|218:54|237:67|261:65,1,195.00000743866,2|6,1:2|1:2,0:0:0:0:
212,304,85726,6,0,B|237:313|253:335|256:359|256:359|259:332|277:312|300:304,1,147.333336143494,2|0,3:1|0:2,0:0:0:0:
360,250,85997,6,0,B|376:229|402:220|425:225|425:225|401:213|387:190|387:166,1,147.333336143494,2|0,3:1|0:2,0:0:0:0:
354,92,86267,6,0,B|339:70|339:42|350:21|350:21|332:41|306:47|282:40,1,147.333336143494,2|0,3:1|0:2,0:0:0:0:
201,48,86537,6,0,B|175:55|149:47|133:29|133:29|146:52|143:79|129:99,1,147.333336143494,2|0,3:1|0:2,0:0:0:0:
111,179,86807,6,0,B|110:205|94:227|72:237|72:237|98:232|123:243|138:262,1,147.333336143494,2|0,1:1|0:2,0:0:0:0:
212,304,87077,6,0,B|269:278|325:315|300:333|351:377|413:354,1,221.000004215241,6|0,3:2|0:2,0:0:0:0:
412,204,87483,6,0,B|355:178|299:215|324:233|273:277|211:254,1,221.000004215241,6|0,3:2|0:2,0:0:0:0:
129,98,87888,5,6,3:1:0:0:
256,192,87956,12,4,88564,0:3:0:0:
