osu file format v14

[General]
AudioFilename: audio.mp3
AudioLeadIn: 0
PreviewTime: 52914
Countdown: 0
SampleSet: Soft
StackLeniency: 0.4
Mode: 0
LetterboxInBreaks: 0
WidescreenStoryboard: 1

[Editor]
DistanceSpacing: 1.4
BeatDivisor: 6
GridSize: 8
TimelineZoom: 1

[Metadata]
Title:Himitsu (movie ver.)
TitleUnicode:秘密 (movie ver.)
Artist:sumika
ArtistUnicode:sumika
Creator:alevi
Version:hard
Source:君の膵臓をたべたい
Tags:kimi no suizo o tabetai i want to eat your pancreas ost movie anime japanese pop male vocalist
BeatmapID:3013071
BeatmapSetID:1444727

[Difficulty]
HPDrainRate:5
CircleSize:3.8
OverallDifficulty:5.5
ApproachRate:7
SliderMultiplier:2.1
SliderTickRate:1

[Events]
//Background and Video events
0,0,"cantfindabetterbg.jpg",0,0
//Break Periods
2,117748,122501
//Storyboard Layer 0 (Background)
//Storyboard Layer 1 (Fail)
//Storyboard Layer 2 (Pass)
//Storyboard Layer 3 (Foreground)
//Storyboard Layer 4 (Overlay)
//Storyboard Sound Samples

[TimingPoints]
475,731.707317073171,4,2,2,30,1,0
475,-125,4,2,2,30,0,0
12182,-111.111111111111,4,2,2,30,0,0
35596,-111.111111111111,4,2,2,35,0,0
38523,-111.111111111111,4,2,2,40,0,0
41450,-111.111111111111,4,2,2,45,0,0
44377,-111.111111111111,4,2,2,50,0,0
50231,-111.111111111111,4,2,2,50,0,0
50474,-111.111111111111,4,2,2,52,0,0
50718,-111.111111111111,4,2,2,54,0,0
50962,-111.111111111111,4,2,2,56,0,0
51206,-111.111111111111,4,2,2,58,0,0
51450,-111.111111111111,4,2,2,60,0,0
51694,-111.111111111111,4,2,2,65,0,0
53157,-100,4,2,2,70,0,1
54133,-100,4,2,2,5,0,1
54377,-100,4,2,2,70,0,1
57060,-100,4,2,2,5,0,1
57304,-100,4,2,2,70,0,1
64377,-100,4,2,2,70,0,0
64865,-100,4,2,2,70,0,1
65840,-100,4,2,2,5,0,1
66084,-100,4,2,2,70,0,1
68767,-100,4,2,2,5,0,1
69011,-100,4,2,2,70,0,1
74865,-100,4,2,2,70,0,1
76572,-90.9090909090909,4,2,2,50,0,0
88279,-83.3333333333333,4,2,2,50,0,0
123401,-125,4,2,2,40,0,0
126328,-125,4,2,2,35,0,0
129255,-111.111111111111,4,2,2,30,0,0
135109,-111.111111111111,4,2,2,30,0,0
139499,-133.333333333333,4,2,2,30,0,0
142914,-133.333333333333,4,2,2,15,0,0

[Colours]
Combo1 : 242,242,113
Combo2 : 64,64,238
Combo3 : 80,196,239
Combo4 : 237,146,54

[HitObjects]
185,266,475,6,0,L|196:336,2,56,2|0|0,0:0|0:0|0:0,0:0:0:0:
254,205,1206,2,0,L|299:261,2,56
295,120,1938,2,0,L|362:146,2,56
193,56,2670,2,0,P|147:26|85:44,1,112
55,160,3401,6,0,L|-19:150,2,56,2|0|0,0:0|0:0|0:0,0:0:0:0:
89,244,4133,2,0,L|19:272,2,56
161,304,4865,2,0,L|115:363,2,56
220,216,5596,2,0,B|254:191|254:191|344:220,1,112
473,296,6328,6,0,L|493:222,2,56,2|0|0,0:0|0:0|0:0,0:0:0:0:
411,186,7060,2,0,L|465:131,2,56
391,68,7792,2,0,L|465:48,2,56
283,93,8523,2,0,L|298:220,1,112
202,303,9255,6,0,L|134:291,2,56,2|0|0,0:0|0:0|0:0,0:0:0:0:
158,196,9987,2,0,L|93:219,2,56
187,105,10718,1,0,0:0:0:0:
187,105,10962,2,0,P|207:89|256:85,1,56,0|0,2:0|2:0,2:0:0:0:
324,128,11450,2,0,L|314:255,1,112,0|0,2:0|0:0,2:0:0:0:
234,351,12182,6,0,P|193:319|116:335,1,125.999996154785,0|0,3:0|3:0,2:0:0:0:
25,286,12914,2,0,P|10:224|39:153,1,125.999996154785,0|0,2:0|0:0,2:0:0:0:
125,112,13645,2,0,L|202:121,2,62.9999980773927,0|0|0,2:0|2:0|2:0,2:0:0:0:
59,31,14377,1,2,2:0:0:0:
263,61,15109,6,0,B|289:95|289:95|268:183,1,125.999996154785,0|0,3:0|3:0,2:0:0:0:
214,271,15840,2,0,P|163:239|95:254,1,125.999996154785,0|0,2:0|0:0,2:0:0:0:
7,310,16572,2,0,L|15:378,2,62.9999980773927,0|0|0,2:0|2:0|2:0,2:0:0:0:
27,205,17304,1,2,2:0:0:0:
124,330,17792,5,0,0:0:0:0:
124,330,18035,2,0,B|191:327|168:275|239:271,1,125.999996154785,0|0,3:0|3:0,2:0:0:0:
331,318,18767,1,0,2:0:0:0:
390,172,19255,1,0,0:0:0:0:
390,172,19499,2,0,P|344:128|270:133,1,125.999996154785,0|0,2:0|2:0,2:0:0:0:
186,175,20231,2,0,B|152:134|152:134|175:39,1,125.999996154785,2|0,2:0|2:0,2:0:0:0:
257,4,20962,6,0,L|336:9,1,62.9999980773927,0|0,3:0|2:0,0:0:0:0:
404,51,21450,1,0,3:0:0:0:
351,125,21694,2,0,L|340:204,2,62.9999980773926,0|0|0,2:0|2:0|2:0,2:0:0:0:
432,204,22426,2,0,L|382:266,2,62.9999980773926,0|0|0,2:0|2:0|2:0,2:0:0:0:
460,318,23157,1,2,2:0:0:0:
292,163,23889,6,0,B|225:166|248:218|177:222,1,125.999996154785,0|0,3:0|3:0,0:0:0:0:
80,165,24621,2,0,P|65:102|102:41,1,125.999996154785,0|0,2:0|0:0,2:0:0:0:
197,67,25353,2,0,L|287:55,2,62.9999980773926
257,159,26084,1,2,0:0:0:0:
41,142,26816,6,0,B|9:174|9:174|32:275,1,125.999996154785,0|0,3:0|3:0,0:0:0:0:
113,332,27548,2,0,L|242:319,1,125.999996154785,0|0,2:0|0:0,2:0:0:0:
352,263,28279,2,0,L|365:187,2,62.9999980773926
429,347,29011,1,2,0:0:0:0:
289,192,29499,5,0,0:0:0:0:
289,192,29743,2,0,P|249:145|178:153,1,125.999996154785,0|0,3:0|3:0,0:0:0:0:
90,234,30475,1,0,0:0:0:0:
157,58,30962,1,0,0:0:0:0:
157,58,31206,2,0,B|300:40,1,125.999996154785
381,96,31938,2,0,P|414:135|404:216,1,125.999996154785,2|0,2:0|0:0,2:0:0:0:
302,237,32670,6,0,L|230:229,2,62.9999980773926,0|0|0,3:0|2:0|3:0,0:0:0:0:
229,132,33401,2,0,B|162:135|185:187|114:191,1,125.999996154785
22,138,34133,2,0,B|-5:167|-5:167|14:270,1,125.999996154785
45,364,34865,1,2,0:0:0:0:
148,277,35109,6,0,L|221:263,1,62.9999980773926
323,306,35596,2,0,P|341:246|297:179,1,125.999996154785,0|0,3:0|3:0,0:0:0:0:
124,144,36572,2,0,L|50:156,1,62.9999980773926
93,45,37060,2,0,B|129:23|129:23|233:57,1,125.999996154785
288,137,37792,1,2,0:0:0:0:
434,75,38279,5,0,0:0:0:0:
434,75,38523,2,0,B|465:107|465:107|446:212,1,125.999996154785,0|0,3:0|3:0,0:0:0:0:
366,264,39255,2,0,B|295:260|320:206|246:202,1,125.999996154785
200,108,39987,2,0,P|235:52|305:53,1,125.999996154785
359,138,40718,1,2,0:0:0:0:
287,236,40962,6,0,L|206:223,1,62.9999980773926
133,165,41450,2,0,P|67:172|47:239,1,125.999996154785,0|0,3:0|3:0,0:0:0:0:
134,352,42426,1,0,0:0:0:0:
199,305,42670,1,0,0:0:0:0:
276,332,42914,2,0,B|336:328|311:276|380:273,1,125.999996154785
494,307,43645,1,2,0:0:0:0:
464,131,44133,5,0,0:0:0:0:
464,131,44377,2,0,P|421:43|324:56,1,188.999994232178,0|0,3:0|0:0,0:0:0:0:
254,137,45353,1,0,0:0:0:0:
308,207,45596,1,0,0:0:0:0:
294,289,45840,2,0,B|340:314|340:314|433:285,1,125.999996154785,0|0,2:2|0:0,0:0:0:0:
507,208,46572,1,2,0:0:0:0:
470,72,47060,5,0,0:0:0:0:
470,72,47304,2,0,B|364:77|399:156|291:163,1,188.999994232178,0|0,3:0|0:0,0:0:0:0:
176,136,48279,1,0,0:0:0:0:
111,189,48523,1,0,0:0:0:0:
38,148,48767,2,0,P|17:79|51:9,1,125.999996154785
133,0,49499,1,2,0:0:0:0:
332,42,49987,1,0,3:0:0:0:
332,42,50231,6,0,L|323:130,1,62.9999980773926,0|0,3:0|0:0,0:0:0:0:
282,192,50718,1,0,0:0:0:0:
179,123,50962,6,0,P|147:101|105:104,1,62.9999980773926
41,168,51450,1,0,0:0:0:0:
111,276,51694,6,0,B|134:231|221:254|196:330|268:325,1,188.999994232178
463,211,53157,6,0,P|484:131|448:68,1,140,6|0,0:0|0:0,0:0:0:0:
360,124,53889,2,0,P|320:154|283:144,1,70
211,91,54377,1,0,3:0:0:0:
211,91,54621,2,0,B|176:122|176:122|193:235,1,140,2|0,0:0|0:0,0:0:0:0:
214,316,55353,1,0,0:0:0:0:
298,210,55840,5,0,0:0:0:0:
298,210,56084,2,0,P|340:158|426:169,1,140,2|0,3:2|0:0,0:0:0:0:
489,227,56816,2,0,L|479:301,1,70
380,353,57304,1,0,3:0:0:0:
380,353,57548,2,0,B|308:348|332:295|259:290,1,140,2|0,0:0|0:0,0:0:0:0:
155,341,58279,1,0,0:0:0:0:
189,183,58767,5,0,0:0:0:0:
189,183,59011,2,0,P|213:248|293:248,1,140,2|0,3:2|0:0,0:0:0:0:
345,180,59743,2,0,P|391:159|428:164,1,70
503,222,60231,1,0,3:0:0:0:
471,329,60474,1,2,0:0:0:0:
349,184,60962,5,0,0:0:0:0:
349,184,61206,2,0,P|284:150|229:192,1,140
137,259,61938,2,0,B|106:220|106:220|129:107,1,140,2|0,3:2|0:0,0:0:0:0:
150,27,62670,1,0,0:0:0:0:
261,74,62914,5,0,0:0:0:0:
340,36,63157,1,0,3:0:0:0:
423,71,63401,2,0,P|447:114|433:228,1,140,2|0,0:0|0:0,0:0:0:0:
369,282,64133,2,0,P|314:232|250:243,1,140
107,285,64865,6,0,B|88:257|112:218|112:218|73:193|79:159,1,140,6|0,0:0|0:0,0:0:0:0:
31,85,65596,2,0,P|77:59|112:64,1,70
183,102,66084,1,0,3:0:0:0:
183,102,66328,2,0,P|241:113|236:197,1,140,2|0,2:2|0:0,0:0:0:0:
162,245,67060,1,0,0:0:0:0:
249,331,67548,5,0,0:0:0:0:
249,331,67792,2,0,B|297:327|297:327|339:353|339:353|385:349,1,140,2|0,0:0|0:0,0:0:0:0:
478,258,68523,2,0,P|436:219|396:218,1,70,0|0,2:0|0:0,2:0:0:0:
299,242,69011,1,0,3:0:0:0:
299,242,69255,2,0,B|265:206|265:206|285:98,1,140,2|0,0:0|0:0,0:0:0:0:
370,35,69987,1,0,0:0:0:0:
181,37,70475,5,0,0:0:0:0:
181,37,70718,2,0,L|195:130,1,70,2|0,3:2|0:0,0:0:0:0:
146,206,71206,1,0,0:0:0:0:
146,206,71450,2,0,P|101:182|63:184,1,70
5,258,71938,1,0,3:0:0:0:
52,356,72182,1,2,0:0:0:0:
247,277,72670,5,0,0:0:0:0:
247,277,72914,2,0,L|226:108,1,140
286,47,73645,2,0,P|360:22|408:78,1,140,2|0,0:0|0:0,0:0:0:0:
432,150,74377,1,0,0:0:0:0:
269,128,74865,5,0,3:0:0:0:
269,128,75109,2,0,B|237:166|237:166|266:275,1,140,2|0,0:0|0:0,0:0:0:0:
196,345,75840,2,0,L|114:336,1,70
39,274,76328,1,0,0:0:0:0:
70,157,76572,6,0,P|131:104|200:146,1,154.000004699707,4|0,0:0|0:0,0:0:0:0:
268,212,77304,2,0,L|352:202,1,77.0000023498536,8|0,0:0|0:0,0:0:0:0:
426,136,77792,1,0,0:0:0:0:
380,43,78035,2,0,B|335:7|335:7|239:34,1,154.000004699707,2|0,3:2|3:2,3:2:0:0:
140,79,78767,2,0,P|125:129|134:172,1,77.0000023498536,8|0,0:0|0:0,0:0:0:0:
179,251,79255,1,0,3:0:0:0:
284,185,79499,6,0,B|366:188|338:251|424:257,1,154.000004699707,4|0,0:0|3:0,0:0:0:0:
493,183,80231,2,0,L|480:99,1,77.0000023498536,8|0,0:0|0:0,0:0:0:0:
412,33,80718,1,0,3:0:0:0:
306,108,80962,6,0,P|268:82|230:80,1,77.0000023498536,10|0,0:0|3:0,0:0:0:0:
152,138,81450,1,8,0:0:0:0:
252,230,81694,6,0,P|297:202|331:202,1,77.0000023498536,10|0,0:0|0:0,0:0:0:0:
394,262,82182,1,0,3:0:0:0:
246,318,82426,6,0,B|161:313|190:250|103:244,1,154.000004699707,6|0,0:0|3:0,0:0:0:0:
43,316,83157,1,8,0:0:0:0:
21,218,83401,1,0,3:0:0:0:
0,118,83645,1,0,3:0:0:0:
61,44,83889,2,0,P|99:24|145:40,1,77.0000023498536,10|8,0:0|0:3,0:0:0:0:
210,98,84377,1,8,0:3:0:0:
347,83,84621,2,0,P|307:136|331:230,1,154.000004699707,8|0,0:0|3:0,0:0:0:0:
244,327,85353,6,0,B|209:340|172:303|172:303|136:340|100:324,1,154.000004699707,4|0,0:0|3:0,0:0:0:0:
129,217,86084,2,0,P|168:188|210:197,1,77.0000023498536,8|0,0:0|0:0,0:0:0:0:
298,239,86572,1,0,3:0:0:0:
382,174,86816,1,0,3:0:0:0:
363,59,87060,2,0,L|371:102,2,38.5000011749268,8|8|0,0:0|0:0|3:0,0:0:0:0:
238,27,87548,5,0,3:0:0:0:
143,101,87792,1,0,3:0:0:0:
40,68,88035,1,8,2:0:0:0:
40,68,88157,1,8,2:0:0:0:
40,68,88279,6,0,L|54:243,1,167.999994873047,4|0,0:0|3:0,0:0:0:0:
124,319,89011,2,0,P|154:296|216:303,1,83.9999974365235,8|0,0:0|0:0,0:0:0:0:
286,358,89499,1,0,3:0:0:0:
394,311,89743,2,0,P|399:237|317:188,1,167.999994873047,2|0,3:2|3:0,0:0:0:0:
217,214,90474,2,0,L|236:109,1,83.9999974365235,8|0,0:0|0:0,0:0:0:0:
250,26,90962,1,0,0:0:0:0:
116,51,91206,6,0,P|39:42|9:115,1,167.999994873047,4|0,0:0|3:0,0:0:0:0:
88,183,91938,2,0,L|102:272,1,83.9999974365235,8|0,0:0|0:0,0:0:0:0:
118,374,92426,1,0,3:0:0:0:
118,374,92670,2,0,B|204:371|174:305|264:300,1,167.999994873047,2|0,3:2|3:0,0:0:0:0:
370,251,93401,2,0,L|360:166,1,83.9999974365235,8|0,0:0|0:0,0:0:0:0:
344,57,93889,1,0,3:0:0:0:
219,124,94133,6,0,P|173:65|80:97,1,167.999994873047,4|0,3:2|3:0,0:0:0:0:
35,175,94865,2,0,L|46:269,1,83.9999974365235,8|0,0:0|0:0,0:0:0:0:
91,371,95353,1,0,3:0:0:0:
91,371,95596,2,0,B|132:334|132:334|264:368,1,167.999994873047,2|0,3:2|3:0,0:0:0:0:
344,309,96328,2,0,L|328:213,1,83.9999974365235,8|0,0:0|0:0,0:0:0:0:
304,120,96816,1,0,3:0:0:0:
427,103,97060,6,0,P|392:37|298:42,1,167.999994873047,4|0,3:2|3:0,2:0:0:0:
217,99,97792,2,0,L|116:80,1,83.9999974365235,8|0,0:0|0:0,0:0:0:0:
17,132,98279,1,0,3:0:0:0:
112,244,98523,5,0,3:0:0:0:
83,370,98767,2,0,L|93:326,2,41.9999987182618,8|8|0,0:0|0:0|0:0,0:0:0:0:
227,313,99255,5,8,3:3:0:0:
195,184,99499,2,0,L|205:228,2,41.9999987182618,8|8|8,0:0|0:0|0:3,0:0:0:0:
297,262,99987,6,0,P|372:238|382:136,1,167.999994873047,6|0,0:0|0:0,0:0:0:0:
318,85,100718,2,0,P|277:67|238:77,1,83.9999974365235,12|0,0:0|0:0,0:0:0:0:
142,169,101206,1,0,3:0:0:0:
142,169,101450,2,0,L|166:0,1,167.999994873047,2|0,3:2|3:0,0:0:0:0:
270,27,102182,1,4,0:0:0:0:
371,0,102426,2,0,L|386:93,1,83.9999974365235,0|0,0:0|3:0,0:0:0:0:
399,228,102914,6,0,B|347:200|347:200|240:232,1,167.999994873047,6|0,0:0|3:0,0:0:0:0:
146,314,103645,2,0,P|125:273|123:233,1,83.9999974365235,12|0,0:0|0:0,0:0:0:0:
176,129,104133,1,0,3:0:0:0:
176,129,104377,2,0,B|260:125|230:60|319:54,1,167.999994873047,2|0,3:2|3:0,0:0:0:0:
410,135,105109,2,0,L|398:223,1,83.9999974365235,8|8,0:0|0:0,0:0:0:0:
303,305,105596,1,8,0:0:0:0:
303,305,105718,1,8,0:0:0:0:
303,305,105840,6,0,B|257:273|257:273|148:306,1,167.999994873047,4|0,3:2|3:0,0:0:0:0:
38,271,106572,2,0,L|56:170,1,83.9999974365235,10|0,0:0|0:0,0:0:0:0:
51,71,107060,1,0,3:0:0:0:
51,71,107304,2,0,P|103:14|190:44,1,167.999994873047,0|0,3:2|3:0,2:0:0:0:
232,130,108035,2,0,P|274:150|325:144,1,83.9999974365235,8|0,0:0|0:0,0:0:0:0:
394,80,108523,1,0,0:0:0:0:
485,168,108767,6,0,B|516:216|516:216|483:327,1,167.999994873047,4|0,3:2|3:0,0:0:0:0:
374,356,109499,2,0,P|329:297|241:311,1,167.999994873047,4|0,0:0|3:0,0:0:0:0:
149,370,110231,5,10,0:0:0:0:
125,285,110474,1,0,3:0:0:0:
106,198,110718,1,8,0:0:0:0:
0,240,110962,5,10,0:0:0:0:
25,146,111205,1,8,0:0:0:0:
46,51,111449,1,8,0:0:0:0:
181,115,111694,6,0,B|228:83|228:83|340:117,1,167.999994873047,6|0,0:0|3:0,0:0:0:0:
269,204,112426,2,0,L|176:214,1,83.9999974365235,8|0,0:0|0:0,0:0:0:0:
76,178,112914,1,0,3:0:0:0:
76,178,113157,2,0,P|50:225|75:338,1,167.999994873047,0|0,3:0|3:0,0:0:0:0:
179,372,113889,2,0,B|264:368|233:302|324:296,1,167.999994873047,8|0,0:0|3:0,0:0:0:0:
463,341,114621,6,0,L|447:253,1,83.9999974365235,14|0,0:0|3:0,0:0:0:0:
433,174,115109,1,0,0:0:0:0:
306,267,115353,6,0,L|323:177,1,83.9999974365235,14|0,0:0|3:0,0:0:0:0:
340,84,115841,1,0,3:0:0:0:
236,201,116084,6,0,P|198:140|108:162,1,167.999994873047,14|8,2:0|2:0,2:0:0:0:
81,259,116816,1,8,0:3:0:0:
4,176,117060,1,8,0:3:0:0:
4,176,117182,1,8,0:3:0:0:
4,176,117304,1,8,3:3:0:0:
35,318,117548,5,6,0:0:0:0:
26,127,123401,6,0,L|99:147,2,56,2|0|0,0:0|0:0|0:0,0:0:0:0:
117,60,124133,2,0,L|170:113,2,56
234,44,124865,2,0,L|253:117,2,56
346,84,125596,2,0,L|327:217,1,112
240,304,126328,6,0,L|164:292,2,56,2|0|0,0:0|0:0|0:0,0:0:0:0:
310,255,127060,2,0,L|250:206,2,56
412,268,127792,2,0,L|384:196,2,56
492,186,128523,2,0,P|459:149|382:137,1,112
291,207,129255,6,0,P|253:263|182:245,1,125.999996154785,2|0,2:0|0:0,2:0:0:0:
145,177,129987,2,0,P|137:121|186:46,1,125.999996154785,0|0,2:0|0:0,2:0:0:0:
275,85,130718,2,0,L|339:91,2,62.9999980773926
268,205,132182,6,0,B|201:209|218:256|138:259,1,125.999996154785,2|0,0:0|0:0,0:0:0:0:
65,208,132914,2,0,B|42:242|42:242|67:335,1,125.999996154785
155,367,133645,2,0,L|224:353,2,62.9999980773926
251,250,134865,5,0,0:0:0:0:
251,250,135109,2,0,P|312:225|369:273,1,125.999996154785,2|0,0:0|0:0,0:0:0:0:
390,345,135840,1,0,0:0:0:0:
454,202,136328,5,0,0:0:0:0:
454,202,136572,2,0,L|427:59,1,125.999996154785,0|0,2:0|0:0,2:0:0:0:
342,27,137304,2,0,P|284:33|280:115,1,125.999996154785
322,171,138035,2,0,L|386:156,2,62.9999980773926,2|0|0,0:0|2:0|0:0,0:0:0:0:
267,242,138767,2,0,L|329:261,2,62.9999980773926
186,146,139499,6,0,B|94:125|58:185|71:266|130:304|206:304|275:281|308:221|260:174|413:143|504:213|484:333|484:333|475:286|409:265,1,735.000028038026,2|0,2:0|2:0,2:0:0:0:
