osu file format v14

[General]
AudioFilename: audio.mp3
AudioLeadIn: 0
PreviewTime: 52914
Countdown: 0
SampleSet: Soft
StackLeniency: 0.7
Mode: 0
LetterboxInBreaks: 0
WidescreenStoryboard: 0

[Editor]
DistanceSpacing: 0.8
BeatDivisor: 6
GridSize: 16
TimelineZoom: 1.9

[Metadata]
Title:Himitsu (movie ver.)
TitleUnicode:秘密 (movie ver.)
Artist:sumika
ArtistUnicode:sumika
Creator:alevi
Version:a night under the stars
Source:君の膵臓をたべたい
Tags:kimi no suizo o tabetai i want to eat your pancreas ost movie anime japanese pop male vocalist
BeatmapID:2971802
BeatmapSetID:1444727

[Difficulty]
HPDrainRate:6
CircleSize:4.2
OverallDifficulty:7
ApproachRate:8.5
SliderMultiplier:2.7
SliderTickRate:1

[Events]
//Background and Video events
0,0,"cantfindabetterbg.jpg",0,0
//Break Periods
//Storyboard Layer 0 (Background)
//Storyboard Layer 1 (Fail)
//Storyboard Layer 2 (Pass)
//Storyboard Layer 3 (Foreground)
//Storyboard Layer 4 (Overlay)
//Storyboard Sound Samples

[TimingPoints]
475,731.707317073171,4,2,2,30,1,0
475,-133.333333333333,4,2,2,30,0,0
3279,-133.333333333333,4,2,2,5,0,0
3401,-133.333333333333,4,2,2,30,0,0
6205,-133.333333333333,4,2,2,5,0,0
6328,-133.333333333333,4,2,2,30,0,0
11084,-100,4,2,2,5,0,0
11206,-100,4,2,2,30,0,0
11327,-100,4,2,2,5,0,0
11450,-80,4,2,2,30,0,0
12059,-80,4,2,2,5,0,0
12182,-80,4,2,2,30,0,0
12547,-80,4,2,2,5,0,0
12670,-80,4,2,2,30,0,0
12791,-80,4,2,2,5,0,0
12914,-80,4,2,2,30,0,0
13279,-80,4,2,2,5,0,0
13401,-80,4,2,2,30,0,0
13522,-80,4,2,2,5,0,0
13645,-80,4,2,2,30,0,0
13766,-80,4,2,2,5,0,0
13889,-80,4,2,2,30,0,0
14010,-80,4,2,2,5,0,0
14133,-80,4,2,2,30,0,0
15109,-80,4,2,2,30,0,0
15474,-80,4,2,2,5,0,0
15596,-80,4,2,2,30,0,0
15717,-80,4,2,2,5,0,0
15840,-80,4,2,2,30,0,0
16205,-80,4,2,2,5,0,0
16328,-80,4,2,2,30,0,0
16449,-80,4,2,2,5,0,0
16572,-80,4,2,2,30,0,0
16693,-80,4,2,2,5,0,0
16816,-80,4,2,2,30,0,0
16937,-80,4,2,2,5,0,0
17060,-80,4,2,2,30,0,0
17792,-80,4,2,2,30,0,0
17913,-80,4,2,2,5,0,0
18035,-80,4,2,2,30,0,0
18400,-80,4,2,2,5,0,0
18523,-80,4,2,2,30,0,0
19255,-80,4,2,2,30,0,0
19376,-80,4,2,2,5,0,0
19499,-80,4,2,2,30,0,0
19864,-80,4,2,2,5,0,0
19987,-80,4,2,2,30,0,0
20108,-80,4,2,2,5,0,0
20231,-80,4,2,2,30,0,0
20596,-80,4,2,2,5,0,0
20718,-80,4,2,2,30,0,0
21083,-80,4,2,2,5,0,0
21206,-80,4,2,2,30,0,0
21571,-80,4,2,2,5,0,0
21694,-133.333333333333,4,2,2,30,0,0
23889,-80,4,2,2,30,0,0
24255,-80,4,2,2,5,0,0
24377,-80,4,2,2,30,0,0
24499,-80,4,2,2,5,0,0
24621,-80,4,2,2,30,0,0
24987,-80,4,2,2,5,0,0
25109,-80,4,2,2,30,0,0
25231,-80,4,2,2,5,0,0
25353,-80,4,2,2,30,0,0
25474,-80,4,2,2,5,0,0
25596,-80,4,2,2,30,0,0
25718,-80,4,2,2,5,0,0
25840,-80,4,2,2,30,0,0
27182,-80,4,2,2,5,0,0
27304,-80,4,2,2,30,0,0
27426,-80,4,2,2,5,0,0
27548,-80,4,2,2,30,0,0
27914,-80,4,2,2,5,0,0
28035,-80,4,2,2,30,0,0
28157,-80,4,2,2,5,0,0
28279,-80,4,2,2,30,0,0
28401,-80,4,2,2,5,0,0
28523,-80,4,2,2,30,0,0
28645,-80,4,2,2,5,0,0
28767,-80,4,2,2,30,0,0
29499,-80,4,2,2,30,0,0
29621,-80,4,2,2,5,0,0
29743,-80,4,2,2,30,0,0
30109,-80,4,2,2,5,0,0
30231,-80,4,2,2,30,0,0
30962,-80,4,2,2,30,0,0
31084,-80,4,2,2,5,0,0
31206,-80,4,2,2,30,0,0
31572,-80,4,2,2,5,0,0
31694,-80,4,2,2,30,0,0
31816,-80,4,2,2,5,0,0
31938,-80,4,2,2,30,0,0
32304,-80,4,2,2,5,0,0
32426,-80,4,2,2,30,0,0
32548,-80,4,2,2,5,0,0
32670,-80,4,2,2,30,0,0
32792,-80,4,2,2,5,0,0
32914,-80,4,2,2,30,0,0
33279,-80,4,2,2,5,0,0
33401,-133.333333333333,4,2,2,30,0,0
35109,-80,4,2,2,30,0,0
35231,-80,4,2,2,5,0,0
35353,-80,4,2,2,30,0,0
35474,-80,4,2,2,5,0,0
35596,-80,4,2,2,35,0,0
35962,-80,4,2,2,5,0,0
36084,-80,4,2,2,35,0,0
36572,-80,4,2,2,35,0,0
36694,-80,4,2,2,5,0,0
36816,-80,4,2,2,35,0,0
36938,-80,4,2,2,5,0,0
37060,-80,4,2,2,35,0,0
37426,-80,4,2,2,5,0,0
37548,-80,4,2,2,35,0,0
38279,-80,4,2,2,35,0,0
38401,-80,4,2,2,5,0,0
38523,-80,4,2,2,40,0,0
38889,-80,4,2,2,5,0,0
39011,-80,4,2,2,40,0,0
39133,-80,4,2,2,5,0,0
39255,-80,4,2,2,40,0,0
39621,-80,4,2,2,5,0,0
39743,-80,4,2,2,40,0,0
39865,-80,4,2,2,5,0,0
39987,-80,4,2,2,40,0,0
40353,-80,4,2,2,5,0,0
40474,-80,4,2,2,40,0,0
40962,-80,4,2,2,40,0,0
41084,-80,4,2,2,5,0,0
41206,-80,4,2,2,40,0,0
41328,-80,4,2,2,5,0,0
41450,-80,4,2,2,45,0,0
41816,-80,4,2,2,5,0,0
41938,-80,4,2,2,45,0,0
42426,-80,4,2,2,45,0,0
42548,-80,4,2,2,5,0,0
42670,-80,4,2,2,45,0,0
42792,-80,4,2,2,5,0,0
42914,-80,4,2,2,45,0,0
43279,-80,4,2,2,5,0,0
43401,-80,4,2,2,45,0,0
44133,-133.333333333333,4,2,2,45,0,0
44255,-133.333333333333,4,2,2,5,0,0
44377,-80,4,2,2,50,0,0
45231,-80,4,2,2,5,0,0
45353,-133.333333333333,4,2,2,50,0,0
45474,-133.333333333333,4,2,2,5,0,0
45596,-133.333333333333,4,2,2,50,0,0
45718,-133.333333333333,4,2,2,5,0,0
45840,-80,4,2,2,50,0,0
47060,-133.333333333333,4,2,2,50,0,0
47182,-133.333333333333,4,2,2,5,0,0
47304,-80,4,2,2,50,0,0
48157,-80,4,2,2,5,0,0
48279,-133.333333333333,4,2,2,50,0,0
48401,-133.333333333333,4,2,2,5,0,0
48523,-133.333333333333,4,2,2,50,0,0
48645,-133.333333333333,4,2,2,5,0,0
48767,-80,4,2,2,50,0,0
50231,-80,4,2,2,50,0,0
50353,-80,4,2,2,5,0,0
50474,-76.9230769230769,4,2,2,52,0,0
50596,-80,4,2,2,5,0,0
50718,-74.0740740740741,4,2,2,54,0,0
50840,-80,4,2,2,5,0,0
50962,-71.4285714285714,4,2,2,56,0,0
51084,-80,4,2,2,5,0,0
51206,-68.9655172413793,4,2,2,58,0,0
51328,-80,4,2,2,5,0,0
51450,-66.6666666666667,4,2,2,60,0,0
51572,-80,4,2,2,5,0,0
51694,-90.9090909090909,4,2,2,65,0,0
53035,-90.9090909090909,4,2,2,5,0,0
53157,-57.1428571428571,4,2,2,70,0,1
53767,-57.1428571428571,4,2,2,5,0,1
53889,-57.1428571428571,4,2,2,70,0,1
54255,-57.1428571428571,4,2,2,5,0,1
54377,-57.1428571428571,4,2,2,70,0,1
54499,-57.1428571428571,4,2,2,5,0,1
54621,-57.1428571428571,4,2,2,70,0,1
55840,-100,4,2,2,70,0,1
55962,-100,4,2,2,5,0,1
56084,-57.1428571428571,4,2,2,70,0,1
56450,-57.1428571428571,4,2,2,5,0,1
56572,-100,4,2,2,70,0,1
56694,-100,4,2,2,5,0,1
56816,-57.1428571428571,4,2,2,70,0,1
57182,-57.1428571428571,4,2,2,5,0,1
57304,-100,4,2,2,70,0,1
57426,-100,4,2,2,5,0,1
57548,-57.1428571428571,4,2,2,70,0,1
58767,-100,4,2,2,70,0,1
58889,-100,4,2,2,5,0,1
59011,-57.1428571428571,4,2,2,70,0,1
59377,-57.1428571428571,4,2,2,5,0,1
59499,-100,4,2,2,70,0,1
59621,-100,4,2,2,5,0,1
59743,-57.1428571428571,4,2,2,70,0,1
60109,-57.1428571428571,4,2,2,5,0,1
60231,-100,4,2,2,70,0,1
60353,-100,4,2,2,5,0,1
60474,-57.1428571428571,4,2,2,70,0,1
60962,-100,4,2,2,70,0,1
61084,-100,4,2,2,5,0,1
61206,-57.1428571428571,4,2,2,70,0,1
61572,-57.1428571428571,4,2,2,5,0,1
61694,-100,4,2,2,70,0,1
61816,-100,4,2,2,5,0,1
61938,-57.1428571428571,4,2,2,70,0,1
62914,-100,4,2,2,70,0,1
63035,-57.1428571428571,4,2,2,5,0,1
63157,-100,4,2,2,70,0,1
63279,-57.1428571428571,4,2,2,5,0,1
63401,-57.1428571428571,4,2,2,70,0,1
64377,-57.1428571428571,4,2,2,70,0,0
64865,-57.1428571428571,4,2,2,70,0,1
65474,-57.1428571428571,4,2,2,5,0,1
65596,-57.1428571428571,4,2,2,70,0,1
65962,-57.1428571428571,4,2,2,5,0,1
66084,-100,4,2,2,70,0,1
66206,-100,4,2,2,5,0,1
66328,-57.1428571428571,4,2,2,70,0,1
67548,-100,4,2,2,70,0,1
67670,-100,4,2,2,5,0,1
67792,-57.1428571428571,4,2,2,70,0,1
68157,-57.1428571428571,4,2,2,5,0,1
68279,-100,4,2,2,70,0,1
68401,-100,4,2,2,5,0,1
68523,-57.1428571428571,4,2,2,70,0,1
68889,-57.1428571428571,4,2,2,5,0,1
69011,-100,4,2,2,70,0,1
69133,-57.1428571428571,4,2,2,5,0,1
69255,-57.1428571428571,4,2,2,70,0,1
70231,-100,4,2,2,70,0,1
70353,-100,4,2,2,5,0,1
70474,-100,4,2,2,70,0,1
70596,-100,4,2,2,5,0,1
70718,-57.1428571428571,4,2,2,70,0,1
71084,-57.1428571428571,4,2,2,5,0,1
71206,-100,4,2,2,70,0,1
71328,-57.1428571428571,4,2,2,5,0,1
71450,-57.1428571428571,4,2,2,70,0,1
71816,-57.1428571428571,4,2,2,5,0,1
71938,-100,4,2,2,70,0,1
72060,-57.1428571428571,4,2,2,5,0,1
72182,-57.1428571428571,4,2,2,70,0,1
72670,-100,4,2,2,70,0,1
72792,-100,4,2,2,5,0,1
72914,-57.1428571428571,4,2,2,70,0,1
73279,-57.1428571428571,4,2,2,5,0,1
73401,-100,4,2,2,70,0,1
73523,-100,4,2,2,5,0,1
73645,-57.1428571428571,4,2,2,70,0,1
74621,-100,4,2,2,70,0,1
74743,-100,4,2,2,5,0,1
74865,-100,4,2,2,70,0,1
74987,-100,4,2,2,5,0,1
75109,-66.6666666666667,4,2,2,70,0,1
75718,-66.6666666666667,4,2,2,5,0,1
75840,-66.6666666666667,4,2,2,70,0,1
76206,-66.6666666666667,4,2,2,5,0,1
76328,-66.6666666666667,4,2,2,70,0,1
76450,-66.6666666666667,4,2,2,5,0,1
76572,-80,4,2,2,50,0,0
80840,-80,4,2,2,5,0,0
80962,-80,4,2,2,50,0,0
81572,-80,4,2,2,5,0,0
81694,-80,4,2,2,50,0,0
82304,-80,4,2,2,5,0,0
82426,-80,4,2,2,50,0,0
85718,-80,4,2,2,5,0,0
85840,-80,4,2,2,50,0,0
86694,-80,4,2,2,5,0,0
86816,-80,4,2,2,50,0,0
88279,-100,4,2,2,50,0,0
88401,-100,4,2,2,5,0,0
88523,-100,4,2,2,50,0,0
88645,-100,4,2,2,5,0,0
88767,-100,4,2,2,50,0,0
88889,-100,4,2,2,5,0,0
89011,-100,4,2,2,50,0,0
89133,-100,4,2,2,5,0,0
89255,-100,4,2,2,50,0,0
89377,-100,4,2,2,5,0,0
89499,-100,4,2,2,50,0,0
89621,-100,4,2,2,5,0,0
89743,-100,4,2,2,50,0,0
91328,-100,4,2,2,5,0,0
91450,-100,4,2,2,50,0,0
91572,-100,4,2,2,5,0,0
91694,-100,4,2,2,50,0,0
91816,-100,4,2,2,5,0,0
91938,-100,4,2,2,50,0,0
92060,-100,4,2,2,5,0,0
92182,-100,4,2,2,50,0,0
92304,-100,4,2,2,5,0,0
92426,-100,4,2,2,50,0,0
92548,-100,4,2,2,5,0,0
92670,-100,4,2,2,50,0,0
93523,-100,4,2,2,5,0,0
93645,-100,4,2,2,50,0,0
93767,-100,4,2,2,10,0,0
93889,-100,4,2,2,50,0,0
94011,-100,4,2,2,5,0,0
94133,-100,4,2,2,50,0,0
94987,-100,4,2,2,5,0,0
95109,-100,4,2,2,50,0,0
95231,-100,4,2,2,5,0,0
95353,-100,4,2,2,50,0,0
95474,-100,4,2,2,5,0,0
95596,-100,4,2,2,50,0,0
96694,-100,4,2,2,5,0,0
96816,-100,4,2,2,50,0,0
96938,-100,4,2,2,5,0,0
97060,-100,4,2,2,50,0,0
98157,-100,4,2,2,5,0,0
98279,-100,4,2,2,50,0,0
99133,-100,4,2,2,5,0,0
99255,-100,4,2,2,50,0,0
99987,-80,4,2,2,50,0,0
100109,-80,4,2,2,5,0,0
100231,-80,4,2,2,50,0,0
100353,-80,4,2,2,5,0,0
100474,-80,4,2,2,50,0,0
100596,-80,4,2,2,5,0,0
100718,-80,4,2,2,50,0,0
100840,-80,4,2,2,5,0,0
100962,-80,4,2,2,50,0,0
101084,-80,4,2,2,5,0,0
101206,-80,4,2,2,50,0,0
101328,-80,4,2,2,5,0,0
101450,-80,4,2,2,50,0,0
102792,-80,4,2,2,5,0,0
102914,-66.6666666666667,4,2,2,50,0,0
103035,-66.6666666666667,4,2,2,5,0,0
103157,-66.6666666666667,4,2,2,50,0,0
103279,-66.6666666666667,4,2,2,5,0,0
103401,-66.6666666666667,4,2,2,50,0,0
103523,-66.6666666666667,4,2,2,5,0,0
103645,-66.6666666666667,4,2,2,50,0,0
103767,-66.6666666666667,4,2,2,5,0,0
103889,-66.6666666666667,4,2,2,50,0,0
104011,-66.6666666666667,4,2,2,5,0,0
104133,-66.6666666666667,4,2,2,50,0,0
104255,-66.6666666666667,4,2,2,5,0,0
104377,-66.6666666666667,4,2,2,50,0,0
106206,-66.6666666666667,4,2,2,5,0,0
106328,-66.6666666666667,4,2,2,50,0,0
106450,-66.6666666666667,4,2,2,5,0,0
106572,-66.6666666666667,4,2,2,50,0,0
106694,-66.6666666666667,4,2,2,5,0,0
106816,-66.6666666666667,4,2,2,50,0,0
106938,-66.6666666666667,4,2,2,5,0,0
107060,-66.6666666666667,4,2,2,50,0,0
107182,-66.6666666666667,4,2,2,5,0,0
107304,-66.6666666666667,4,2,2,50,0,0
108401,-66.6666666666667,4,2,2,5,0,0
108523,-66.6666666666667,4,2,2,50,0,0
108645,-66.6666666666667,4,2,2,5,0,0
108767,-66.6666666666667,4,2,2,50,0,0
109377,-66.6666666666667,4,2,2,5,0,0
109499,-66.6666666666667,4,2,2,50,0,0
109865,-66.6666666666667,4,2,2,5,0,0
109987,-66.6666666666667,4,2,2,50,0,0
110109,-66.6666666666667,4,2,2,5,0,0
110231,-66.6666666666667,4,2,2,50,0,0
112792,-66.6666666666667,4,2,2,5,0,0
112914,-66.6666666666667,4,2,2,50,0,0
113035,-66.6666666666667,4,2,2,5,0,0
113157,-66.6666666666667,4,2,2,50,0,0
114255,-66.6666666666667,4,2,2,5,0,0
114377,-66.6666666666667,4,2,2,50,0,0
114499,-66.6666666666667,4,2,2,5,0,0
114621,-66.6666666666667,4,2,2,50,0,0
115231,-66.6666666666667,4,2,2,5,0,0
115353,-66.6666666666667,4,2,2,50,0,0
115962,-66.6666666666667,4,2,2,5,0,0
116084,-66.6666666666667,4,2,2,50,0,0
117548,-133.333333333333,4,2,2,30,0,0
122670,-200,4,2,2,30,0,0
123279,-200,4,2,2,5,0,0
123401,-133.333333333333,4,2,2,30,0,0
125596,-200,4,2,2,30,0,0
126206,-200,4,2,2,5,0,0
126328,-133.333333333333,4,2,2,30,0,0
129133,-133.333333333333,4,2,2,5,0,0
129255,-80,4,2,2,30,0,0
129621,-80,4,2,2,5,0,0
129743,-80,4,2,2,30,0,0
129865,-80,4,2,2,5,0,0
129987,-80,4,2,2,30,0,0
130353,-80,4,2,2,5,0,0
130474,-80,4,2,2,30,0,0
130596,-80,4,2,2,5,0,0
130718,-80,4,2,2,30,0,0
130840,-80,4,2,2,5,0,0
130962,-80,4,2,2,30,0,0
131084,-80,4,2,2,5,0,0
131206,-80,4,2,2,30,0,0
132548,-80,4,2,2,5,0,0
132670,-80,4,2,2,30,0,0
132792,-80,4,2,2,5,0,0
132914,-80,4,2,2,30,0,0
133279,-80,4,2,2,5,0,0
133401,-80,4,2,2,30,0,0
133523,-80,4,2,2,5,0,0
133645,-80,4,2,2,30,0,0
133767,-80,4,2,2,5,0,0
133889,-80,4,2,2,30,0,0
134011,-80,4,2,2,5,0,0
134133,-80,4,2,2,30,0,0
135109,-100,4,2,2,30,0,0
135474,-100,4,2,2,5,0,0
135596,-100,4,2,2,30,0,0
136450,-100,4,2,2,5,0,0
136572,-100,4,2,2,30,0,0
136938,-100,4,2,2,5,0,0
137060,-100,4,2,2,30,0,0
137304,-100,4,2,2,30,0,0
137670,-100,4,2,2,5,0,0
137792,-100,4,2,2,30,0,0
138035,-100,4,2,2,30,0,0
138157,-100,4,2,2,5,0,0
138279,-100,4,2,2,30,0,0
138645,-100,4,2,2,5,0,0
138767,-100,4,2,2,30,0,0
139499,-200,4,2,2,30,0,0
142914,-200,4,2,2,15,0,0

[Colours]
Combo1 : 242,242,113
Combo2 : 64,64,238
Combo3 : 80,196,239
Combo4 : 237,146,54

[HitObjects]
91,113,475,6,0,L|166:121,2,67.5000025749208,2|0|0,0:0|0:0|0:0,0:0:0:0:
154,218,1206,2,0,L|229:186,2,67.5000025749208
276,273,1938,2,0,L|321:208,2,67.5000025749208
327,361,2670,5,0,0:0:0:0:
436,304,2914,2,0,P|428:340|422:304,1,101.250003862381
430,322,3401,6,0,L|415:232,2,67.5000025749208,2|0|0,0:0|0:0|0:0,0:0:0:0:
490,219,4133,2,0,L|433:151,2,67.5000025749208
494,84,4865,2,0,L|403:50,2,67.5000025749208
332,123,5596,5,0,0:0:0:0:
247,61,5840,2,0,P|241:22|234:60,1,101.250003862381
243,42,6328,6,0,P|196:25|159:37,2,67.5000025749208,2|0|0,0:0|0:0|0:0,0:0:0:0:
180,101,7060,2,0,P|138:115|106:106,2,67.5000025749208
244,163,7792,2,0,P|255:211|247:253,2,67.5000025749208
172,211,8523,2,0,P|161:260|169:294,2,67.5000025749208
227,93,9255,5,2,0:0:0:0:
258,232,9499,1,0,0:0:0:0:
321,156,9743,1,0,0:0:0:0:
207,314,9987,5,0,0:0:0:0:
176,175,10231,1,0,0:0:0:0:
113,251,10475,1,0,0:0:0:0:
284,359,10718,5,0,0:0:0:0:
375,282,10962,2,0,L|368:226,1,33.7500012874604,0|0,2:0|2:0,2:0:0:0:
358,159,11206,2,0,L|352:115,1,45,0|0,2:0|2:0,2:0:0:0:
176,175,11450,6,0,B|122:159|92:-6|225:-36|342:64|154:111|197:43,1,281.25,0|0,2:0|2:0,2:0:0:0:
208,49,12182,6,0,B|321:59|228:116|365:127,1,168.75,0|0,3:0|2:0,2:0:0:0:
463,86,12670,1,0,3:0:0:0:
347,125,12914,2,0,B|298:203|386:203|326:309,1,168.75,0|0,2:0|2:0,2:0:0:0:
245,255,13401,1,0,0:0:0:0:
202,360,13645,6,0,P|186:333|180:300,1,56.25,0|0,2:0|2:0,2:0:0:0:
105,315,13889,2,0,P|104:283|115:252,1,56.25,0|0,2:0|2:0,2:0:0:0:
197,172,14133,2,0,P|133:131|81:145,1,112.5,0|2,2:0|2:0,2:0:0:0:
100,135,15109,6,0,B|72:128|58:97|58:97|72:128|91:155|54:229,1,168.75,0|0,3:0|2:0,2:0:0:0:
125,314,15596,1,0,3:0:0:0:
247,244,15840,2,0,B|286:232|308:110|211:88|125:163|262:197|231:147,1,168.75,0|0,2:0|2:0,2:0:0:0:
207,154,16328,1,0,0:0:0:0:
278,59,16572,6,0,P|313:59|352:83,1,56.25,0|0,2:0|2:0,2:0:0:0:
381,155,16816,2,0,P|363:185|323:207,1,56.25,0|0,2:0|2:0,2:0:0:0:
211,157,17060,2,0,B|142:150|185:116|115:109,1,112.5,0|2,2:0|2:0,2:0:0:0:
53,243,17792,5,0,0:0:0:0:
158,315,18035,2,0,B|271:305|178:248|315:237,1,168.75,0|0,3:0|2:0,2:0:0:0:
383,304,18523,2,0,P|362:348|306:326,1,112.5,0|0,3:0|2:0,2:0:0:0:
399,192,19255,5,0,0:0:0:0:
310,125,19499,2,0,B|284:141|246:124|235:126|235:126|237:138|281:147|277:200|277:200|269:176|251:159,1,168.75,0|0,2:0|2:0,2:0:0:0:
197,246,19987,2,0,P|169:261|114:255,1,56.25,0|0,2:0|2:0,2:0:0:0:
38,190,20231,2,0,P|35:134|46:191,1,168.75,2|0,2:0|2:0,2:0:0:0:
45,156,20718,1,0,2:0:0:0:
165,110,20962,5,0,3:0:0:0:
285,177,21206,2,0,B|246:165|224:43|321:21|407:96|270:130|301:80,1,168.75,0|0,2:0|2:0,2:0:0:0:
324,87,21694,6,0,L|402:77,2,67.5000000000002,0|0|0,2:0|2:0|2:0,2:0:0:0:
450,174,22426,2,0,L|372:164,2,67.5000000000002,0|0|0,2:0|2:0|2:0,2:0:0:0:
341,264,23157,2,0,L|419:254,2,67.5000000000002,2|0|0,2:0|2:0|2:0,2:0:0:0:
264,308,23889,6,0,B|298:319|306:363|306:363|262:312|176:325,1,168.75,0|0,3:0|0:0,0:0:0:0:
146,300,24377,1,0,3:0:0:0:
124,378,24621,2,0,B|30:358|90:296|-2:278,1,168.75,0|0,2:0|2:0,2:0:0:0:
48,191,25109,1,0,0:0:0:0:
174,175,25353,6,0,P|209:186|254:173,1,56.25
248,61,25596,2,0,P|220:85|209:131,1,56.25
296,130,25840,2,0,B|367:126|318:84|389:80,1,112.5,0|2,0:0|0:0,0:0:0:0:
421,176,26816,6,0,P|431:236|450:177,1,168.75,0|0,3:0|0:0,0:0:0:0:
436,211,27304,1,0,3:0:0:0:
292,235,27548,2,0,B|266:219|228:236|217:234|217:234|219:222|263:213|259:160|259:160|251:184|233:201,1,168.75,0|0,2:0|2:0,2:0:0:0:
258,162,28035,1,0,0:0:0:0:
207,88,28279,6,0,P|181:72|141:72,1,56.25
157,151,28523,2,0,P|126:150|91:170,1,56.25
136,229,28767,2,0,B|127:277|127:277|131:283|131:283|120:349,1,112.5,0|2,0:0|0:0,0:0:0:0:
263,292,29499,5,0,0:0:0:0:
267,372,29743,2,0,B|162:366|227:308|112:301,1,168.75,0|0,3:0|0:0,0:0:0:0:
31,248,30231,2,0,P|10:296|19:371,1,112.5,0|0,3:0|0:0,0:0:0:0:
116,174,30962,5,0,0:0:0:0:
227,217,31206,2,0,P|275:251|264:169,1,168.75
286,173,31694,1,0,0:0:0:0:
341,56,31938,2,0,B|369:49|383:18|383:18|369:49|350:76|387:150,1,168.75,2|0,2:0|2:0,2:0:0:0:
375,123,32426,1,0,0:0:0:0:
458,229,32670,6,0,P|485:224|508:209,1,56.25,0|0,3:0|0:0,0:0:0:0:
381,210,32914,2,0,B|342:222|320:344|417:366|503:291|366:257|397:307,1,168.75,0|0,2:0|2:0,2:0:0:0:
420,299,33401,2,0,L|502:315,2,67.5000025749208
348,350,34133,2,0,L|266:365,2,67.5000025749208
306,268,34865,1,2,0:0:0:0:
343,192,35109,6,0,P|308:176|270:177,1,56.25
238,93,35353,2,0,P|264:83|292:83,1,56.25
183,186,35596,2,0,B|122:177|122:177|74:202|74:202|3:192,1,168.75,0|0,3:0|0:0,0:0:0:0:
21,194,36084,1,0,3:0:0:0:
79,87,36572,6,0,P|113:83|152:98,1,56.25
204,34,36816,2,0,P|183:15|157:6,1,56.25
234,128,37060,2,0,B|339:122|274:64|388:57,1,168.75
466,130,37548,2,0,P|454:180|391:171,1,112.5,0|2,0:0|0:0,0:0:0:0:
325,307,38279,5,0,0:0:0:0:
218,260,38523,2,0,B|113:266|178:324|64:331,1,168.75,0|0,3:0|0:0,0:0:0:0:
41,223,39011,1,0,3:0:0:0:
147,109,39255,6,0,B|191:126|198:177|198:177|246:159|272:183,1,168.75
402,199,39743,1,0,0:0:0:0:
372,76,39987,2,0,B|355:59|355:59|366:32|361:-4|361:-4|369:33|392:51|392:51|385:75,1,168.75
387,66,40475,2,0,P|450:54|486:91,1,112.5,0|2,0:0|0:0,0:0:0:0:
302,143,40962,6,0,P|272:126|246:124,1,56.25
179,44,41206,2,0,P|206:34|234:36,1,56.25
142,127,41450,2,0,B|93:129|83:175|83:175|93:129|50:102,1,168.75,0|0,3:0|0:0,0:0:0:0:
50,102,41938,1,0,3:0:0:0:
129,296,42426,6,0,P|158:277|195:272,1,56.25
254,189,42670,2,0,P|226:182|199:185,1,56.25
318,287,42914,2,0,B|423:281|358:223|472:216,1,168.75
489,86,43401,2,0,P|445:49|376:58,1,112.5,0|2,0:0|0:0,0:0:0:0:
236,203,44133,6,0,P|236:178|242:156,1,33.7500012874604
282,90,44377,2,0,B|315:109|315:109|304:27|126:28|167:167|112:220|15:194,1,393.75,0|0,3:0|0:0,0:0:0:0:
35,198,45353,2,0,P|60:216|85:221,1,33.7500012874604
55,293,45596,2,0,P|85:296|109:287,1,33.7500012874604
161,241,45840,2,0,B|207:160|401:194|290:341|434:337,1,337.5,0|2,2:2|0:0,0:0:0:0:
479,148,47060,6,0,P|487:176|488:201,1,33.7500012874604
401,181,47304,2,0,B|338:121|360:56|360:56|311:131|177:145|133:79,1,393.75,0|0,3:0|0:0,0:0:0:0:
137,84,48279,2,0,P|133:114|140:142,1,33.7500012874604
75,170,48523,2,0,P|86:197|106:218,1,33.7500012874604
157,261,48767,2,0,B|195:289|200:327|200:327|173:214|224:154|317:161|341:230|299:277,1,337.5,0|2,0:0|0:0,0:0:0:0:
315,234,49987,1,0,3:0:0:0:
315,234,50231,6,0,P|313:251|311:232,1,56.25,0|0,3:0|0:0,0:0:0:0:
390,203,50475,2,0,P|430:192|462:198,1,58.4999973220826
340,146,50718,2,0,P|369:116|407:108,1,60.7500002317429
255,125,50962,2,0,P|265:84|292:54,1,62.9999980773926
173,142,51206,2,0,P|162:102|173:58,1,65.250001991272
110,215,51450,2,0,P|80:185|69:142,1,67.5000025749208
177,316,51694,6,0,B|129:331|123:365|123:365|107:279|175:227|284:249|250:284|274:327|324:344|379:329|417:303|429:243|405:199|340:230,1,544.500016616822
277,298,53157,6,0,P|261:140|457:176,1,393.750003755093,6|0,0:0|0:0,0:0:0:0:
446,152,53889,2,0,P|355:98|244:170,1,236.250002253056
154,194,54377,2,0,P|153:145|193:94,1,78.7500007510185,0|0,3:0|0:0,0:0:0:0:
149,24,54621,6,0,B|109:46|109:46|122:-51|334:-50|285:115|351:178|466:147,1,472.500004506111,2|0,0:0|0:0,0:0:0:0:
503,70,55840,2,0,P|475:65|442:84,1,45
347,125,56084,6,0,B|203:116|299:31|148:23,1,236.250002253056,2|0,3:2|0:0,0:0:0:0:
109,118,56572,2,0,P|149:120|179:135,1,45
152,211,56816,6,0,P|126:311|14:251,1,236.250002253056
21,280,57304,2,0,P|39:304|77:316,1,45,0|0,3:0|0:0,0:0:0:0:
225,297,57548,6,0,B|216:334|188:355|188:355|248:335|340:307|177:141|352:46|509:214|310:271,1,472.500004506111,2|0,0:0|0:0,0:0:0:0:
359,249,58767,6,0,P|345:286|350:314,1,45
454,279,59011,6,0,P|407:170|287:189,1,236.250002253056,2|0,3:2|0:0,0:0:0:0:
303,174,59499,2,0,P|341:159|364:155,1,45
327,255,59743,6,0,B|183:246|279:161|128:153,1,236.250002253056
128,153,60231,2,0,P|165:157|189:163,1,45,0|0,3:0|0:0,0:0:0:0:
149,68,60475,5,2,0:0:0:0:
149,68,60962,6,0,P|131:53|110:47,1,45
29,34,61206,2,0,B|41:83|-9:139|-9:139|63:163|55:226,1,236.250002253056
55,225,61694,2,0,P|55:197|36:166,1,45
84,292,61938,6,0,B|23:320|1:279|12:224|47:200|98:186|145:202|167:242|135:274|236:294|299:246|284:167|284:167|279:198|234:212,1,472.500004506111,2|0,3:2|0:0,0:0:0:0:
359,159,62914,2,0,P|354:134|336:104,1,45
351,33,63157,2,0,P|326:24|291:25,1,45,0|0,3:0|0:0,0:0:0:0:
233,93,63401,6,0,B|235:60|235:60|149:113|133:217|285:282|350:213|360:159|360:159|378:207|346:237,1,472.500004506111,2|0,0:0|0:0,0:0:0:0:
254,357,64377,1,0,0:0:0:0:
126,284,64621,1,0,0:0:0:0:
254,357,64865,6,0,P|194:191|-14:243,1,393.750003755093,6|0,0:0|0:0,0:0:0:0:
7,213,65596,2,0,P|104:168|229:223,1,236.250002253056
125,291,66084,2,0,P|116:272|114:246,1,45,0|0,3:0|0:0,0:0:0:0:
141,95,66328,6,0,B|206:-20|484:27|325:238|531:232,1,472.500004506111,2|0,2:2|0:0,0:0:0:0:
512,343,67548,2,0,P|485:325|453:322,1,45
376,370,67792,6,0,B|232:361|328:276|177:268,1,236.250002253056,2|0,0:0|0:0,0:0:0:0:
73,312,68279,2,0,P|60:334|57:368,1,45
177,268,68523,6,0,B|104:143|235:143|162:27,1,236.250002253056,0|0,2:0|2:0,2:0:0:0:
80,21,69011,2,0,P|61:4|39:-3,1,45,0|0,3:0|0:0,0:0:0:0:
51,107,69255,6,0,B|34:105|29:74|29:74|14:153|77:201|178:181|146:149|168:109|215:93|266:107|301:131|312:186|290:227|230:200,1,472.500004506111,2|0,0:0|0:0,0:0:0:0:
220,283,70231,6,0,L|225:336,1,45
370,197,70475,2,0,L|365:250,1,45
236,125,70718,6,0,P|310:34|429:68,1,236.250002253056,2|0,3:2|0:0,0:0:0:0:
409,177,71206,2,0,P|385:193|352:195,1,45
161,217,71450,6,0,P|270:223|295:333,1,236.250002253056
167,321,71938,2,0,P|188:301|216:294,1,45,0|0,3:0|0:0,0:0:0:0:
400,272,72182,5,2,0:0:0:0:
400,272,72670,6,0,P|406:236|417:210,1,45
422,98,72914,2,0,B|359:88|333:160|333:160|278:109|229:120,1,236.250002253056
152,201,73401,2,0,B|178:221|218:219,1,45
142,128,73645,6,0,B|170:154|152:202|152:202|142:148|77:79|-74:144|-58:248|27:301|27:301|25:268,1,472.500004506111,2|0,0:0|0:0,0:0:0:0:
181,294,74621,2,0,P|155:284|128:283,1,45
272,361,74865,2,0,P|246:371|219:372,1,45,0|0,3:0|0:0,0:0:0:0:
279,210,75109,6,0,P|432:208|424:378,1,337.500012874604,2|0,0:0|0:0,0:0:0:0:
363,302,75840,2,0,P|354:216|450:230,1,202.500007724762
398,256,76328,2,0,P|362:251|350:218,1,67.5000025749208
372,122,76572,6,0,B|149:135|297:267|64:279,1,337.5,4|8,0:0|0:0,0:0:0:0:
0,156,77548,1,0,0:0:0:0:
152,245,77792,1,0,0:0:0:0:
339,148,78035,6,0,P|273:75|134:84,1,225,2|0,3:2|3:2,3:2:0:0:
286,81,78767,2,0,P|352:8|491:17,1,225,8|0,0:0|3:0,0:0:0:0:
355,225,79499,6,0,L|120:191,1,225,4|0,0:0|3:0,0:0:0:0:
29,258,80231,2,0,P|2:310|24:383,1,112.5,8|0,0:0|0:0,0:0:0:0:
145,297,80718,2,0,P|150:252|140:230,1,56.25,0|0,3:0|0:0,0:0:0:0:
77,126,80962,5,10,0:0:0:0:
255,249,81206,1,0,3:0:0:0:
425,128,81450,2,0,P|457:109|484:111,1,56.25,8|0,0:0|0:0,0:0:0:0:
401,245,81694,5,10,0:0:0:0:
244,132,81938,1,0,0:0:0:0:
76,241,82182,2,0,P|69:268|72:298,1,56.25,0|0,3:0|0:0,0:0:0:0:
223,50,82426,6,0,B|367:59|271:144|422:152,1,225,6|0,0:0|3:0,0:0:0:0:
469,79,83157,1,8,0:0:0:0:
485,201,83401,1,0,3:0:0:0:
498,324,83645,1,0,3:0:0:0:
329,232,83889,6,0,P|290:190|220:183,1,112.5,10|8,0:0|0:3,0:0:0:0:
126,265,84377,1,8,0:3:0:0:
185,106,84621,6,0,P|224:64|294:57,1,112.5,8|0,0:0|3:0,0:0:0:0:
388,139,85109,1,0,3:0:0:0:
285,258,85353,6,0,B|212:247|212:247|178:272|178:272|103:261,1,168.75,4|0,0:0|0:0,0:0:0:0:
125,264,85840,1,0,3:0:0:0:
312,357,86084,2,0,L|447:335,1,112.5,8|0,0:0|0:0,0:0:0:0:
376,199,86572,2,0,P|351:180|313:174,1,56.25,0|0,3:0|0:0,0:0:0:0:
216,311,86816,5,0,3:0:0:0:
167,160,87060,1,8,0:0:0:0:
167,160,87182,1,8,0:0:0:0:
167,160,87304,2,0,P|197:130|223:128,1,56.25,0|0,3:0|3:0,3:0:0:0:
288,56,87548,6,0,P|262:21|228:14,1,56.25,0|0,3:0|3:0,3:0:0:0:
171,40,87792,2,0,P|134:54|102:43,1,56.25,0|0,3:0|3:0,3:0:0:0:
8,30,88035,1,8,2:0:0:0:
8,30,88157,1,8,2:0:0:0:
8,30,88279,6,0,P|0:52|2:87,1,45,4|0,0:0|0:0,0:0:0:0:
33,148,88523,2,0,P|42:183|39:218,1,45
5,288,88767,2,0,P|37:277|58:281,1,45,0|0,3:0|0:0,0:0:0:0:
188,330,89011,6,0,P|220:341|241:337,1,45,8|0,0:0|0:0,0:0:0:0:
295,272,89255,2,0,P|288:238|274:222,1,45
191,208,89499,2,0,P|165:230|158:250,1,45,0|0,3:0|0:0,0:0:0:0:
276,139,89743,6,0,B|386:145|312:211|428:217,1,180,2|0,3:2|3:0,0:0:0:0:
512,154,90475,1,8,0:0:0:0:
404,113,90718,1,0,0:0:0:0:
447,283,90962,1,0,0:0:0:0:
433,42,91206,6,0,P|405:29|369:27,1,45,4|0,0:0|0:0,0:0:0:0:
311,67,91450,2,0,P|283:80|247:82,1,45
177,44,91694,2,0,P|170:12|172:-13,1,45,0|0,3:0|3:0,0:0:0:0:
222,149,91938,6,0,P|221:171|215:193,1,45,8|0,0:0|0:0,0:0:0:0:
110,265,92182,2,0,P|138:253|171:258,1,45
242,302,92426,2,0,P|270:314|303:309,1,45,0|0,3:0|0:0,0:0:0:0:
367,212,92670,6,0,P|314:149|205:159,1,180,2|0,3:2|3:0,0:0:0:0:
109,237,93401,1,8,0:0:0:0:
120,152,93645,2,0,P|150:154|177:170,1,45
230,117,93889,2,0,P|217:98|197:87,1,45,0|0,3:0|3:0,0:0:0:0:
254,206,94133,6,0,B|368:200|294:134|404:128,1,180,4|0,3:2|3:0,0:0:0:0:
489,172,94865,1,8,0:0:0:0:
461,253,95109,2,0,P|428:242|393:246,1,45
371,337,95353,2,0,P|393:334|414:326,1,45,0|0,3:0|0:0,0:0:0:0:
270,324,95596,6,0,P|192:305|232:243,1,180,2|0,3:2|3:0,0:0:0:0:
318,232,96328,1,8,0:0:0:0:
263,155,96572,2,0,P|234:151|195:166,1,45
141,94,96816,2,0,P|158:80|180:73,1,45,0|0,3:0|0:0,0:0:0:0:
81,164,97060,6,0,B|129:240|41:240|94:334,1,180,4|0,3:2|3:0,2:0:0:0:
174,302,97792,2,0,P|216:296|170:296,1,135,8|0,0:0|0:0,0:0:0:0:
192,283,98279,1,0,3:0:0:0:
339,322,98523,5,0,3:0:0:0:
390,165,98767,1,8,0:0:0:0:
390,165,98889,1,8,0:0:0:0:
390,165,99011,6,0,P|424:152|448:153,1,45
432,232,99255,5,8,3:3:0:0:
381,75,99499,1,8,0:0:0:0:
381,75,99621,1,8,0:0:0:0:
381,75,99743,2,0,P|347:62|323:63,1,45,0|8,0:0|0:3,0:0:0:0:
233,131,99987,6,0,L|153:143,1,56.25,6|0,0:0|0:0,0:0:0:0:
81,179,100231,2,0,L|1:167,1,56.25
73,65,100475,2,0,P|111:41|139:41,1,56.25
233,131,100718,6,0,L|241:207,1,56.25,12|0,0:0|0:0,0:0:0:0:
107,274,100962,2,0,P|133:259|162:260,1,56.25
241,309,101206,2,0,P|267:324|296:323,1,56.25,0|0,3:0|0:0,0:0:0:0:
371,218,101450,5,2,3:2:0:0:
438,352,101694,1,0,0:0:0:0:
438,352,101816,1,0,0:0:0:0:
438,352,101937,1,0,3:0:0:0:
459,148,102181,5,4,0:0:0:0:
371,218,102426,2,0,P|340:259|365:210,1,168.75
342,231,102914,6,0,L|260:221,1,67.5000025749208,6|0,0:0|0:0,0:0:0:0:
206,175,103158,2,0,P|243:147|284:145,1,67.5000025749208
187,247,103402,2,0,P|154:237|130:215,1,67.5000025749208,0|0,3:0|0:0,0:0:0:0:
31,280,103646,6,0,L|20:372,1,67.5000025749208,12|0,0:0|0:0,0:0:0:0:
138,282,103889,2,0,L|127:190,1,67.5000025749208
94,78,104133,2,0,P|122:96|172:99,1,67.5000025749208,0|0,3:0|0:0,0:0:0:0:
258,37,104377,6,0,B|428:45|317:144|482:153,1,270.000010299683,2|0,3:2|3:0,0:0:0:0:
482,43,105109,1,8,0:0:0:0:
374,162,105353,1,8,0:0:0:0:
431,326,105596,1,8,0:0:0:0:
431,326,105717,1,8,0:0:0:0:
431,326,105840,6,0,P|378:248|288:296,1,202.500007724762,4|0,3:2|0:0,0:0:0:0:
292,284,106328,6,0,P|330:251|368:246,1,67.5000025749208,0|0,3:0|0:0,0:0:0:0:
281,363,106572,1,10,0:0:0:0:
194,297,106816,2,0,P|151:304|112:329,1,67.5000025749208
35,360,107060,2,0,P|22:319|29:264,1,67.5000025749208,0|0,3:0|0:0,0:0:0:0:
59,203,107304,6,0,B|108:187|135:34|13:6|-94:100|77:143|38:80,1,270.000010299683,0|0,3:2|3:0,2:0:0:0:
156,47,108035,1,8,0:0:0:0:
214,177,108279,6,0,P|223:134|209:92,1,67.5000025749208
301,102,108523,2,0,P|287:60|254:30,1,67.5000025749208
318,213,108767,6,0,B|247:229|213:337|213:337|110:294|44:339,1,337.500012874604,4|0,3:2|0:0,0:0:0:0:
52,334,109499,5,4,0:0:0:0:
82,214,109743,2,0,P|126:191|162:189,1,67.5000025749208
182,120,109987,2,0,P|149:110|116:111,1,67.5000025749208,0|0,3:0|0:0,0:0:0:0:
231,227,110230,5,10,0:0:0:0:
300,63,110474,1,0,3:0:0:0:
426,185,110718,1,8,0:0:0:0:
251,303,110962,5,10,0:0:0:0:
220,59,111206,1,8,0:0:0:0:
453,118,111450,1,8,0:0:0:0:
318,369,111694,6,0,B|336:389|355:353|345:305|314:284|270:271|229:285|210:320|238:348|149:366|94:324|107:254|107:254|112:282|151:294,1,405.000015449525,6|8,0:0|0:0,0:0:0:0:
161,186,112670,2,0,P|119:165|80:167,1,67.5000025749208
120,90,112914,2,0,P|73:92|40:114,1,67.5000025749208,0|0,3:0|0:0,0:0:0:0:
58,294,113157,6,0,B|123:231|100:164|100:164|151:242|290:256|336:188,1,405.000015449525,0|8,3:0|0:0,0:0:0:0:
393,95,114133,2,0,P|436:87|476:100,1,67.5000025749208
438,167,114377,2,0,P|479:181|507:212,1,67.5000025749208,0|0,3:0|2:0,2:0:0:0:
491,303,114620,5,14,0:0:0:0:
329,197,114865,1,0,3:0:0:0:
156,263,115109,2,0,P|119:268|82:247,1,67.5000025749208
306,347,115353,5,14,0:0:0:0:
210,169,115597,1,0,3:0:0:0:
283,15,115841,2,0,P|325:3|356:13,1,67.5000025749208,0|0,3:0|0:0,0:0:0:0:
94,137,116085,6,0,B|133:127|152:83|152:83|133:127|106:165|158:268,1,270.000010299683,14|8,2:0|2:0,2:0:0:0:
282,135,116816,5,8,0:3:0:0:
368,260,117059,1,8,0:3:0:0:
416,282,117182,1,8,0:3:0:0:
468,267,117304,1,8,3:3:0:0:
507,229,117426,1,8,3:3:0:0:
498,175,117548,6,0,L|420:162,2,67.5000025749208,6|0|0,0:0|0:0|0:0,0:0:0:0:
438,75,118280,2,0,L|363:102,2,67.5000025749208
327,25,119012,2,0,L|276:86,2,67.5000025749208
207,34,119743,2,0,L|193:111,2,67.5000025749208
236,171,120475,6,0,P|290:151|316:154,2,67.5000025749208,2|0|0,0:0|0:0|0:0,0:0:0:0:
173,231,121206,2,0,P|227:251|253:248,2,67.5000025749208
90,176,121938,2,0,P|144:156|170:159,2,67.5000025749208
66,259,122670,2,0,P|68:302|75:258,1,112.5
69,289,123401,6,0,L|147:278,2,67.5000025749208,2|0|0,0:0|0:0|0:0,0:0:0:0:
96,199,124133,2,0,L|18:188,2,67.5000025749208
81,110,124865,2,0,L|159:99,2,67.5000025749208
121,32,125596,2,0,P|123:-11|130:33,1,112.5
123,0,126328,6,0,L|202:13,2,67.5000025749208,2|0|0,0:0|0:0|0:0,0:0:0:0:
184,106,127060,2,0,L|258:77,2,67.5000025749208
296,161,127792,2,0,L|346:99,2,67.5000025749208
410,188,128523,2,0,B|445:148|489:167|466:234|445:298,1,168.750006437302
450,285,129255,6,0,B|337:295|430:352|293:363,1,168.75,2|0,2:0|2:0,2:0:0:0:
310,361,129743,1,0,0:0:0:0:
195,305,129987,2,0,B|156:293|134:171|231:149|317:224|180:258|211:208,1,168.75,0|0,2:0|2:0,2:0:0:0:
234,215,130475,1,0,0:0:0:0:
104,132,130718,6,0,P|146:118|183:131,1,56.25
143,28,130962,2,0,P|170:30|195:43,1,56.25
250,118,131206,2,0,B|323:123|274:165|366:171,1,112.5
395,29,132182,6,0,B|361:40|353:84|353:84|397:33|483:46,1,168.75,2|0,0:0|0:0,0:0:0:0:
437,43,132670,1,0,0:0:0:0:
356,161,132914,2,0,B|243:151|336:94|199:83,1,168.75,0|0,2:0|2:0,2:0:0:0:
216,84,133401,1,0,0:0:0:0:
154,202,133645,6,0,P|166:232|169:268,1,56.25
88,258,133889,2,0,P|83:289|67:322,1,56.25
0,246,134133,2,0,P|-12:186|21:148,1,112.5
161,44,134865,5,0,0:0:0:0:
228,125,135109,2,0,P|282:82|353:98,1,135,2|0,0:0|0:0,0:0:0:0:
424,147,135596,2,0,P|396:199|408:247,1,90
399,227,136328,5,0,0:0:0:0:
309,302,136572,2,0,B|289:296|280:275|280:275|289:296|303:316|276:367,1,135,0|0,0:0|2:0,2:0:0:0:
278,364,137060,1,0,0:0:0:0:
167,294,137304,6,0,B|77:301|151:346|42:355,1,135,0|0,2:0|2:0,2:0:0:0:
54,354,137792,1,0,0:0:0:0:
82,191,138035,6,0,P|103:186|133:195,1,45,2|0,0:0|0:0,0:0:0:0:
258,252,138279,2,0,B|226:242|208:143|287:125|356:186|245:213|270:173,1,135,0|0,2:0|2:0,2:0:0:0:
290,177,138767,2,0,L|383:162,2,90
328,85,139377,1,0,0:0:0:0:
328,85,139499,6,0,B|404:48|432:100|418:170|373:201|309:218|250:198|222:148|262:107|134:81|54:142|73:243|73:243|80:203|136:186,1,630,2|0,0:0|0:0,0:0:0:0:
