osu file format v14

[General]
AudioFilename: audio.mp3
AudioLeadIn: 0
PreviewTime: 57573
Countdown: 0
SampleSet: Soft
StackLeniency: 0.7
Mode: 0
LetterboxInBreaks: 0
WidescreenStoryboard: 0

[Editor]
DistanceSpacing: 1.7
BeatDivisor: 6
GridSize: 4
TimelineZoom: 2.2

[Metadata]
Title:Fiction (TV Size)
TitleUnicode:フィクション (TV Size)
Artist:sumika
ArtistUnicode:sumika
Creator:Agent_James
Version:Otaku Love
Source:ヲタクに恋は難しい
Tags:wotakoi wotaku ni koi wa muzukashii Love is Hard for Otaku opening e.p
BeatmapID:1731468
BeatmapSetID:826106

[Difficulty]
HPDrainRate:5
CircleSize:4
OverallDifficulty:7
ApproachRate:8.7
SliderMultiplier:2.5
SliderTickRate:1

[Events]
//Background and Video events
0,0,"wotaku-ni-koi-wa-muzukashii-0106.jpg",0,0
Video,0,"video.mp4"
//Break Periods
//Storyboard Layer 0 (Background)
//Storyboard Layer 1 (Fail)
//Storyboard Layer 2 (Pass)
//Storyboard Layer 3 (Foreground)
//Storyboard Sound Samples

[TimingPoints]
134,487.80487804878,4,2,1,60,1,0
134,-133.333333333333,4,2,1,60,0,0
1110,487.80487804878,4,2,1,60,1,0
2085,-125,4,2,1,60,0,0
2817,-250,4,2,1,60,0,0
3549,-100,4,2,1,60,0,0
5988,-133.333333333333,4,2,1,60,0,0
6719,-222.222222222222,4,2,1,60,0,0
7207,-100,4,2,1,60,0,0
9890,-125,4,2,1,60,0,0
10622,-200,4,2,1,60,0,0
11109,-100,4,2,1,60,0,0
13792,-125,4,2,1,60,0,0
14524,-200,4,2,1,60,0,0
15012,-100,4,2,1,60,0,0
15256,500,4,2,1,60,1,0
16006,468.75,4,2,1,60,1,0
16474,498.960498960499,4,2,1,60,1,0
16723,487.80487804878,4,2,1,60,1,0
18427,-133.333333333333,4,2,1,60,0,0
20625,-133.333333333333,4,2,1,50,0,0
22572,-133.333333333333,4,2,1,50,0,0
23913,-133.333333333333,4,2,1,50,0,0
24767,-133.333333333333,4,2,1,50,0,0
25500,-133.333333333333,4,2,1,50,0,0
31357,-133.333333333333,4,2,1,50,0,0
34280,-133.333333333333,4,2,1,50,0,0
47939,-100,4,2,1,60,0,0
48589,-100,4,2,1,5,0,0
48670,-100,4,2,1,60,0,0
48833,-100,4,2,1,5,0,0
48914,-100,4,2,1,60,0,0
49565,-100,4,2,1,5,0,0
49646,-100,4,2,1,60,0,0
49809,-100,4,2,1,5,0,0
49890,-100,4,2,1,60,0,0
50540,-100,4,2,1,5,0,0
50622,-100,4,2,1,60,0,0
50784,-100,4,2,1,5,0,0
50866,-100,4,2,1,60,0,0
51722,-100,4,2,1,5,0,0
51841,-100,4,2,1,60,0,0
52492,-100,4,2,1,5,0,0
52573,-100,4,2,1,60,0,0
53467,-100,4,2,1,5,0,0
53549,-100,4,2,1,60,0,0
53711,-100,4,2,1,5,0,0
53792,-100,4,2,1,60,0,0
55744,-100,4,2,1,60,0,0
56231,-125,4,2,1,60,0,0
56719,-166.666666666667,4,2,1,60,0,0
57207,-333.333333333333,4,2,1,60,0,0
57698,-83.3333333333333,4,2,1,70,0,1
73308,487.80487804878,3,2,1,65,1,0
73308,-100,4,2,1,65,0,0
78670,-83.3333333333333,3,2,1,65,0,0
78672,487.80487804878,4,2,1,65,1,0
78915,487.80487804878,4,2,1,65,1,0
80380,487.80487804878,4,2,1,65,1,0

[Colours]
Combo1 : 168,226,255
Combo2 : 255,128,192
Combo3 : 81,159,255
Combo4 : 255,193,193
SliderTrackOverride : 60,60,60
SliderBorder : 234,130,179

[HitObjects]
46,211,377,6,0,L|50:243,2,31.2500011920929,2|2|2,0:1|0:1|0:1,0:0:0:0:
117,174,621,2,0,L|114:143,1,31.2500011920929,0|0,1:0|0:0,0:0:0:0:
198,219,784,2,0,L|298:208,1,93.7500035762788,0|0,1:0|0:0,0:0:0:0:
369,247,1109,5,2,0:1:0:0:
340,136,1353,2,0,P|376:192|348:276,1,125,2|0,0:1|1:0,0:0:0:0:
300,308,1679,1,0,1:0:0:0:
300,308,1760,1,0,1:0:0:0:
300,308,1841,1,0,1:0:0:0:
36,208,2085,6,0,L|160:200,1,100,2|0,0:2|0:0,0:0:0:0:
132,24,2451,2,0,L|84:121,1,100,2|0,0:2|0:0,0:0:0:0:
248,196,2817,6,0,L|188:108,1,100,2|0,0:2|0:0,0:0:0:0:
232,32,3467,1,0,1:0:0:0:
232,32,3549,6,0,L|328:24,1,83.3333333333333,0|0,1:0|0:0,0:0:0:0:
396,4,3792,2,0,P|397:45|374:85,1,83.3333333333333,0|0,1:0|0:0,0:0:0:0:
344,132,4036,2,0,P|334:172|346:211,1,83.3333333333333,0|0,0:3|0:0,0:0:0:0:
384,232,4280,1,8,0:3:0:0:
320,296,4443,1,0,1:0:0:0:
320,296,4524,2,0,L|208:296,1,83.3333333333333,0|0,1:0|0:0,0:0:0:0:
236,296,4768,1,0,1:0:0:0:
344,132,5012,1,2,0:1:0:0:
120,332,5256,6,0,P|84:276|112:192,1,125,2|0,0:1|1:0,0:0:0:0:
177,168,5622,1,0,1:0:0:0:
166,190,5744,1,0,1:0:0:0:
456,160,5988,6,0,B|460:120|460:120|440:48,1,93.7500035762788,2|0,0:2|1:0,0:0:0:0:
368,172,6353,2,0,B|372:132|372:132|352:68,1,93.7500035762788,2|0,0:2|0:0,0:0:0:0:
280,180,6719,6,0,B|284:140|284:140|268:96,1,74.9999977111817,0|0,0:2|0:0,0:0:0:0:
192,56,7207,6,0,P|152:72|84:64,1,83.3333333333333,0|0,1:0|0:0,0:0:0:0:
36,116,7451,1,8,0:3:0:0:
30,137,7532,1,8,0:3:0:0:
29,157,7614,1,8,0:3:0:0:
30,178,7695,1,4,0:3:0:0:
136,160,7939,5,8,0:2:0:0:
116,316,8101,1,8,0:2:0:0:
262,256,8264,1,8,0:2:0:0:
172,244,8427,5,8,0:2:0:0:
220,352,8670,6,0,L|312:344,1,83.3333333333333,8|0,0:3|0:0,0:0:0:0:
359,263,8914,1,2,0:1:0:0:
428,176,9158,6,0,P|372:208|372:296,1,125,2|0,0:1|1:0,0:0:0:0:
396,348,9483,1,0,1:0:0:0:
396,348,9565,1,0,1:0:0:0:
396,348,9646,1,0,1:0:0:0:
498,226,9890,6,0,P|514:182|498:126,1,100,2|0,0:2|0:0,0:0:0:0:
348,125,10256,2,0,P|378:160|434:174,1,100,2|0,0:2|0:0,0:0:0:0:
509,49,10622,6,0,P|460:52|424:97,1,104.166666666667,2|0,2:2|2:0,2:0:0:0:
348,125,11109,6,0,B|304:137|304:137|252:125,1,83.3333333333333,4|0,1:2|0:0,0:0:0:0:
232,84,11353,2,0,B|188:72|188:72|136:84,1,83.3333333333333,4|0,1:2|0:0,0:0:0:0:
108,108,11597,2,0,P|97:147|110:187,1,83.3333333333333,2|0,0:1|0:0,0:0:0:0:
140,232,11841,2,0,P|152:271|142:311,1,83.3333333333333,2|0,0:1|0:0,0:0:0:0:
96,348,12085,1,0,1:0:0:0:
264,304,12329,1,8,0:3:0:0:
272,328,12492,2,0,B|334:317|334:317|416:328,1,125,8|0,0:3|0:0,0:0:0:0:
440,296,12817,1,2,0:1:0:0:
336,64,13061,6,0,P|280:89|254:144,1,125,2|0,0:1|1:0,0:0:0:0:
296,228,13386,1,0,1:0:0:0:
296,228,13467,1,0,1:0:0:0:
296,228,13549,1,0,1:0:0:0:
435,60,13792,6,0,L|333:64,1,100,2|0,0:2|0:0,0:0:0:0:
472,140,14158,2,0,L|370:144,1,100,2|0,0:2|0:0,0:0:0:0:
492,220,14524,6,0,L|392:224,1,83.3333333333333,2|0,0:2|0:0,0:0:0:0:
364,328,15012,6,0,L|256:332,1,83.3333333333333,0|0,1:0|0:0,0:0:0:0:
224,312,15256,2,0,P|213:272|226:232,1,83.3333333333333,8|0,0:2|0:0,0:0:0:0:
280,212,15506,2,0,L|363:215,1,83.3333333333333,4|0,3:0|0:0,0:0:0:0:
400,200,15756,2,0,P|412:160|402:120,1,83.3333333333333,8|0,0:2|0:0,0:0:0:0:
360,96,16006,2,0,L|276:99,1,83.3333333333333,4|0,3:0|0:0,0:0:0:0:
228,88,16240,2,0,P|217:48|230:8,1,83.3333333333333,8|0,0:2|0:0,0:0:0:0:
272,4,16474,2,0,L|355:7,1,83.3333333333333,4|0,3:0|0:0,0:0:0:0:
152,144,16723,5,12,0:2:0:0:
208,144,18186,5,0,1:0:0:0:
184,316,18430,2,0,B|161:276|171:238|171:238|218:201|205:131,1,187.500007152558,4|0,0:2|1:0,0:0:0:0:
24,160,19162,1,0,1:0:0:0:
207,143,19405,2,0,P|179:231|95:255,1,187.500007152558,4|0,1:2|0:0,0:0:0:0:
240,64,20137,1,0,1:0:0:0:
412,188,20381,1,2,0:1:0:0:
476,48,20625,6,0,L|364:52,1,93.7500035762788,2|0,0:1|0:0,0:0:0:0:
247,232,21113,2,0,P|291:244|336:231,1,93.7500035762788,2|0,1:0|1:0,0:0:0:0:
412,188,21479,1,0,1:0:0:0:
381,161,21601,1,2,0:1:0:0:
348,316,21844,1,0,1:0:0:0:
508,172,22088,1,2,0:1:0:0:
319,90,22332,1,0,1:0:0:0:
301,125,22454,1,0,1:0:0:0:
402,86,22576,5,2,0:1:0:0:
224,36,22820,1,0,1:0:0:0:
120,136,23064,2,0,L|213:137,1,93.7500035762788,2|0,0:1|1:0,0:0:0:0:
303,209,23430,1,0,1:0:0:0:
303,209,23552,2,0,P|315:253|302:298,1,93.7500035762788,4|0,1:0|0:0,0:0:0:0:
260,304,23918,2,0,P|215:291|170:304,1,93.7500035762788,4|0,0:1|1:0,0:0:0:0:
64,364,24283,1,0,1:0:0:0:
103,346,24405,1,0,1:0:0:0:
16,296,24527,5,2,0:1:0:0:
144,224,24771,1,0,1:0:0:0:
126,42,25015,2,0,L|119:154,1,93.7500035762788,2|0,0:1|1:0,0:0:0:0:
206,146,25381,1,0,1:0:0:0:
202,106,25503,1,2,0:1:0:0:
55,199,25747,1,0,1:0:0:0:
270,305,25991,1,2,0:1:0:0:
393,125,26235,1,0,1:0:0:0:
379,85,26357,1,0,1:0:0:0:
326,180,26479,5,2,0:1:0:0:
496,124,26722,1,0,1:0:0:0:
368,0,26966,2,0,L|256:0,1,93.7500035762788,2|0,0:1|1:0,0:0:0:0:
203,77,27332,1,0,1:0:0:0:
242,68,27454,1,2,0:1:0:0:
88,48,27698,1,0,1:0:0:0:
139,200,27942,1,2,0:1:0:0:
8,276,28186,1,0,1:0:0:0:
0,236,28308,1,0,1:0:0:0:
88,312,28430,5,2,0:1:0:0:
48,144,28674,1,0,1:0:0:0:
232,184,28918,2,0,L|332:176,1,93.7500035762788,2|0,0:1|1:0,0:0:0:0:
394,95,29283,1,0,1:0:0:0:
372,107,29405,1,2,0:1:0:0:
336,272,29649,1,0,1:0:0:0:
504,232,29893,1,2,0:1:0:0:
336,272,30137,1,0,1:0:0:0:
351,294,30259,1,0,1:0:0:0:
388,188,30381,5,2,0:1:0:0:
224,326,30625,1,0,1:0:0:0:
279,193,30869,2,0,P|292:148|280:104,1,93.7500035762788,2|0,0:1|1:0,0:0:0:0:
192,152,31235,1,0,1:0:0:0:
192,152,31357,2,0,L|88:148,1,93.7500035762788,6|0,0:1|0:0,0:0:0:0:
60,120,31722,2,0,P|47:75|60:30,1,93.7500035762788,4|0,0:1|1:0,0:0:0:0:
162,63,32088,1,0,1:0:0:0:
133,77,32210,1,0,1:0:0:0:
127,0,32332,5,2,0:1:0:0:
284,32,32576,1,0,1:0:0:0:
164,232,32820,2,0,P|151:276|163:321,1,93.7500035762788,2|0,0:1|1:0,0:0:0:0:
255,301,33186,1,0,1:0:0:0:
234,277,33308,1,2,0:1:0:0:
104,364,33552,1,0,1:0:0:0:
360,360,33796,1,2,0:1:0:0:
242,141,34040,1,0,1:0:0:0:
221,163,34162,1,0,1:0:0:0:
310,193,34283,5,2,0:1:0:0:
199,47,34527,1,0,1:0:0:0:
152,224,34771,2,0,L|44:220,1,93.7500035762788,2|0,0:1|1:0,0:0:0:0:
22,138,35137,1,0,1:0:0:0:
50,144,35259,1,2,0:1:0:0:
10,286,35503,1,0,1:0:0:0:
72,48,35747,1,2,0:1:0:0:
252,216,35991,1,0,1:0:0:0:
246,187,36113,1,0,1:0:0:0:
184,260,36235,5,2,0:1:0:0:
392,324,36479,1,0,1:0:0:0:
432,108,36722,2,0,P|399:74|354:63,1,93.7500035762788,2|0,0:1|1:0,0:0:0:0:
333,150,37088,1,0,1:0:0:0:
359,143,37210,1,2,0:1:0:0:
184,72,37454,1,0,1:0:0:0:
184,260,37698,1,2,0:1:0:0:
98,44,37942,1,0,1:0:0:0:
99,15,38064,1,0,1:0:0:0:
184,72,38186,5,2,0:1:0:0:
24,188,38430,1,0,1:0:0:0:
277,248,38674,2,0,L|177:260,1,93.7500035762788,2|0,0:1|1:0,0:0:0:0:
149,347,39040,1,0,1:0:0:0:
175,340,39162,1,2,0:1:0:0:
200,164,39405,1,0,1:0:0:0:
46,230,39649,1,4,0:3:0:0:
24,188,39771,1,4,0:3:0:0:
126,126,39893,1,0,1:0:0:0:
104,168,40015,1,0,1:0:0:0:
40,100,40137,5,2,0:1:0:0:
212,8,40381,1,0,1:0:0:0:
312,156,40625,1,2,0:1:0:0:
130,93,40869,1,0,1:0:0:0:
156,86,40991,1,0,1:0:0:0:
104,168,41113,1,2,0:1:0:0:
72,24,41357,1,0,1:0:0:0:
208,208,41601,2,0,L|200:308,1,93.7500035762788,2|0,0:1|1:0,0:0:0:0:
116,338,41966,1,0,1:0:0:0:
123,310,42088,5,2,0:1:0:0:
276,348,42332,1,0,1:0:0:0:
384,228,42576,1,2,0:1:0:0:
237,135,42820,1,0,1:0:0:0:
234,162,42942,1,0,1:0:0:0:
332,104,43064,1,2,0:1:0:0:
184,24,43308,1,0,1:0:0:0:
48,208,43552,2,0,P|35:163|48:118,1,93.7500035762788,2|0,0:1|1:0,0:0:0:0:
137,144,43918,1,0,1:0:0:0:
116,162,44040,5,2,0:1:0:0:
44,32,44283,1,0,1:0:0:0:
236,140,44527,1,2,0:1:0:0:
403,20,44771,1,0,1:0:0:0:
396,46,44893,1,0,1:0:0:0:
304,8,45015,1,4,0:2:0:0:
492,76,45259,1,0,1:0:0:0:
336,200,45503,1,2,0:1:0:0:
400,349,45747,1,0,1:0:0:0:
391,321,45869,1,2,0:1:0:0:
316,368,45991,5,4,0:2:0:0:
196,272,46235,1,0,1:0:0:0:
32,372,46479,2,0,P|19:327|32:282,1,93.7500035762788,4|0,0:1|1:0,0:0:0:0:
128,233,46844,1,0,1:0:0:0:
109,253,46966,1,2,0:1:0:0:
59,58,47210,1,0,1:0:0:0:
228,112,47454,1,2,0:1:0:0:
280,172,47576,2,0,L|400:164,1,93.7500035762788,0|0,1:0|0:0,0:0:0:0:
484,60,47942,5,4,3:0:0:0:
372,336,48186,1,4,3:0:0:0:
224,252,48430,6,0,P|184:239|145:250,1,83.3333333333333,0|0,3:0|0:0,0:0:0:0:
110,281,48674,2,0,P|70:293|31:282,1,83.3333333333333,0|0,3:0|0:0,0:0:0:0:
20,156,48918,5,4,3:0:0:0:
236,352,49162,1,4,3:0:0:0:
309,96,49405,6,0,L|227:111,1,83.3333333333333,0|0,3:0|0:0,0:0:0:0:
228,160,49649,2,0,L|309:175,1,83.3333333333333,0|0,3:0|0:0,0:0:0:0:
392,128,49893,5,4,3:0:0:0:
145,250,50137,1,4,3:0:0:0:
428,268,50381,6,0,P|388:255|349:267,1,83.3333333333333,0|0,3:0|0:0,0:0:0:0:
324,288,50625,2,0,P|284:298|245:286,1,83.3333333333333,0|0,3:0|0:0,0:0:0:0:
145,250,50869,5,4,3:0:0:0:
392,128,51113,1,4,3:0:0:0:
201,314,51357,5,4,3:0:0:0:
145,250,51479,2,0,L|137:122,1,125,0|0,3:0|0:0,0:0:0:0:
200,60,51844,5,4,3:0:0:0:
0,192,52088,1,4,3:0:0:0:
212,192,52332,6,0,L|320:188,1,83.3333333333333,2|0,0:3|0:0,0:0:0:0:
360,152,52576,2,0,L|468:156,1,83.3333333333333,4|4,0:3|0:3,0:0:0:0:
512,192,52820,5,4,3:0:0:0:
312,60,53064,1,4,3:0:0:0:
212,192,53308,6,0,B|203:236|203:236|221:295,1,83.3333333333333,0|0,3:0|0:0,0:0:0:0:
292,272,53552,2,0,B|302:235|302:235|294:190,1,83.3333333333333,0|0,3:0|0:0,0:0:0:0:
92,68,53796,6,0,P|79:107|112:184,1,125,4|0,0:2|0:0,0:0:0:0:
168,120,54162,2,0,L|28:120,1,125,2|0,0:1|0:0,0:0:0:0:
0,208,54527,1,0,1:0:0:0:
168,120,54771,2,0,P|207:108|246:121,1,83.3333333333333,8|0,0:2|0:0,0:0:0:0:
284,144,55015,2,0,P|319:124|338:87,1,83.3333333333333,8|0,0:2|0:0,0:0:0:0:
323,0,55259,2,0,P|365:-1|400:18,1,83.3333333333333,8|0,0:2|0:0,0:0:0:0:
432,52,55503,2,0,P|441:91|472:119,1,83.3333333333333,8|0,0:2|0:0,0:0:0:0:
392,192,55747,6,0,L|400:332,1,125,8|0,0:2|0:0,0:0:0:0:
304,196,56235,6,0,L|312:328,1,100,8|0,0:2|0:0,0:0:0:0:
220,200,56722,6,0,L|224:296,1,74.9999977111817,8|0,0:2|0:0,0:0:0:0:
136,204,57210,6,0,L|136:252,1,37.4999988555909,8|0,0:2|1:0,0:0:0:0:
36,52,57698,6,0,P|86:48|128:76,1,99.9999969482423,2|0,0:1|0:0,0:0:0:0:
172,132,57942,2,0,P|220:148|268:132,1,99.9999969482423,0|0,1:0|0:0,0:0:0:0:
313,53,58186,2,0,P|275:86|265:136,1,99.9999969482423,2|0,0:1|0:0,0:0:0:0:
304,208,58430,2,0,P|352:224|400:208,1,99.9999969482423,0|0,1:0|0:0,0:0:0:0:
440,140,58674,5,2,0:1:0:0:
304,208,58918,2,0,P|287:256|304:304,1,99.9999969482423,0|0,1:0|0:0,0:0:0:0:
381,349,59162,2,0,P|347:310|297:301,1,99.9999969482423,2|0,0:1|0:0,0:0:0:0:
220,345,59405,2,0,P|270:335|303:297,1,99.9999969482423,0|0,1:0|0:0,0:0:0:0:
304,208,59649,5,2,0:1:0:0:
141,211,59893,2,0,P|127:257|144:304,1,99.9999969482423,0|0,1:0|0:0,0:0:0:0:
168,196,60137,2,0,P|182:149|165:103,1,99.9999969482423,2|0,0:1|0:0,0:0:0:0:
82,59,60381,2,0,P|115:94|164:102,1,99.9999969482423,0|0,1:0|0:0,0:0:0:0:
244,53,60625,2,0,P|196:64|164:102,1,99.9999969482423,2|0,0:1|0:0,0:0:0:0:
252,148,60869,5,0,1:0:0:0:
424,144,61113,2,0,P|409:190|426:236,1,99.9999969482423,2|0,0:1|0:0,0:0:0:0:
448,320,61357,2,0,P|408:348|358:346,1,99.9999969482423,0|0,1:0|0:0,0:0:0:0:
280,312,61601,6,0,P|232:298|187:315,1,99.9999969482423,2|0,0:1|0:0,0:0:0:0:
116,368,61844,1,8,1:2:0:0:
116,368,61966,1,8,0:2:0:0:
60,288,62088,6,0,P|46:240|63:195,1,99.9999969482423,2|0,0:1|0:0,0:0:0:0:
156,148,62332,1,8,1:2:0:0:
156,148,62454,1,8,0:2:0:0:
148,240,62576,5,2,0:1:0:0:
232,52,62820,2,0,P|279:41|323:65,1,99.9999969482423,0|0,1:0|0:0,0:0:0:0:
408,112,63064,2,0,P|456:117|498:90,1,99.9999969482423,2|0,0:1|0:0,0:0:0:0:
434,23,63308,2,0,P|405:62|407:111,1,99.9999969482423,0|0,1:0|0:0,0:0:0:0:
471,179,63552,6,0,P|450:134|407:111,1,99.9999969482423,2|0,0:1|0:0,0:0:0:0:
324,132,63796,2,0,P|295:171|297:220,1,99.9999969482423,0|0,1:0|0:0,0:0:0:0:
361,288,64040,2,0,P|340:243|297:220,1,99.9999969482423,2|0,0:1|0:0,0:0:0:0:
188,324,64283,2,0,P|236:329|278:302,1,99.9999969482423,0|0,1:0|0:0,0:0:0:0:
188,144,64527,6,0,P|187:193|217:232,1,99.9999969482423,2|0,0:1|0:0,0:0:0:0:
224,72,64771,2,0,P|190:34|142:27,1,99.9999969482423,0|0,1:0|0:0,0:0:0:0:
188,144,65015,2,0,P|239:153|279:131,1,99.9999969482423,2|0,0:1|0:0,0:0:0:0:
352,16,65259,1,0,1:0:0:0:
508,136,65422,1,0,1:0:0:0:
508,136,65503,6,0,P|493:183|453:211,1,99.9999969482423,2|0,0:1|0:0,0:0:0:0:
328,236,65747,2,0,P|342:190|383:163,1,99.9999969482423,0|0,1:0|0:0,0:0:0:0:
352,320,65991,2,0,P|303:325|262:299,1,99.9999969482423,2|0,0:1|0:0,0:0:0:0:
184,256,66235,2,0,P|135:250|94:276,1,99.9999969482423,0|0,1:0|0:0,0:0:0:0:
64,352,66479,5,2,0:1:0:0:
184,256,66722,2,0,P|213:216|211:167,1,99.9999969482423,0|0,1:0|0:0,0:0:0:0:
148,100,66966,2,0,P|167:145|210:167,1,99.9999969482423,2|0,0:1|0:0,0:0:0:0:
300,147,67210,2,0,P|251:141|210:167,1,99.9999969482423,0|0,1:0|0:0,0:0:0:0:
184,256,67454,5,2,0:1:0:0:
368,197,67698,2,0,P|386:151|372:104,1,99.9999969482423,0|0,1:0|0:0,0:0:0:0:
351,226,67942,2,0,P|333:272|348:320,1,99.9999969482423,2|0,0:1|0:0,0:0:0:0:
500,324,68186,2,0,P|468:286|420:274,1,99.9999969482423,0|0,1:0|0:0,0:0:0:0:
347,318,68430,2,0,P|315:355|267:367,1,99.9999969482423,2|0,0:1|0:0,0:0:0:0:
192,324,68674,1,0,1:0:0:0:
0,224,68918,6,0,P|33:188|82:180,1,99.9999969482423,2|0,0:1|0:0,0:0:0:0:
160,196,69162,2,0,P|208:187|242:152,1,99.9999969482423,0|0,1:0|0:0,0:0:0:0:
188,0,69405,6,0,P|170:46|184:93,1,99.9999969482423,2|0,0:1|0:0,0:0:0:0:
240,152,69649,1,8,1:2:0:0:
240,152,69771,1,8,0:2:0:0:
308,100,69893,6,0,P|354:82|401:96,1,99.9999969482423,2|0,0:1|0:0,0:0:0:0:
452,176,70137,1,8,1:2:0:0:
452,176,70259,1,8,0:2:0:0:
360,176,70381,5,2,0:1:0:0:
223,294,70625,2,0,P|176:309|130:292,1,99.9999969482423,0|0,1:0|0:0,0:0:0:0:
178,213,70869,2,0,P|215:246|222:295,1,99.9999969482423,2|0,0:1|0:0,0:0:0:0:
175,374,71113,2,0,P|186:325|224:294,1,99.9999969482423,0|0,1:0|0:0,0:0:0:0:
316,297,71357,6,0,P|269:311|223:294,1,99.9999969482423,2|0,0:1|0:0,0:0:0:0:
360,216,71601,2,0,P|396:248|404:297,1,99.9999969482423,0|0,1:0|0:0,0:0:0:0:
268,208,71844,2,0,P|278:160|316:129,1,99.9999969482423,2|0,0:1|0:0,0:0:0:0:
409,132,72088,2,0,P|362:146|316:129,1,99.9999969482423,0|0,1:0|0:0,0:0:0:0:
271,47,72332,6,0,P|307:79|315:128,1,99.9999969482423,2|0,0:1|0:0,0:0:0:0:
152,136,72576,2,0,P|159:87|196:54,1,99.9999969482423,0|0,1:0|0:0,0:0:0:0:
161,284,72820,2,0,P|114:298|68:281,1,99.9999969482423,2|0,0:1|0:0,0:0:0:0:
152,136,73064,2,0,P|190:166|200:214,1,99.9999969482423,4|0,0:3|0:0,0:0:0:0:
56,176,73308,5,4,0:3:0:0:
224,312,73551,2,0,L|328:320,1,83.3333333333333,0|0,1:0|0:0,0:0:0:0:
324,272,73795,2,0,L|224:264,1,83.3333333333333,0|0,1:0|0:0,0:0:0:0:
408,276,74039,6,0,P|399:227|364:193,1,83.3333333333333,4|0,0:3|0:0,0:0:0:0:
316,172,74283,2,0,P|362:189|409:175,1,83.3333333333333,0|0,1:0|0:0,0:0:0:0:
456,148,74527,2,0,P|418:179|406:227,1,83.3333333333333,0|0,1:0|0:0,0:0:0:0:
408,276,74771,5,4,0:3:0:0:
267,102,75015,2,0,P|230:135|224:184,1,83.3333333333333,0|0,1:0|0:0,0:0:0:0:
292,88,75259,2,0,P|328:54|335:6,1,83.3333333333333,0|0,1:0|0:0,0:0:0:0:
172,36,75503,6,0,B|120:52|120:52|60:40,1,83.3333333333333,4|0,0:3|0:0,0:0:0:0:
32,28,75747,2,0,B|71:65|71:65|91:122,1,83.3333333333333,0|0,1:0|0:0,0:0:0:0:
88,156,75990,2,0,B|100:102|100:102|140:57,1,83.3333333333333,0|0,1:0|0:0,0:0:0:0:
172,36,76234,5,4,0:3:0:0:
132,224,76478,2,0,P|84:237|38:220,1,83.3333333333333,0|0,1:0|0:0,0:0:0:0:
160,212,76722,2,0,P|206:194|253:208,1,83.3333333333333,0|0,1:0|0:0,0:0:0:0:
456,232,76966,6,0,P|408:245|362:228,1,83.3333333333333,4|0,0:3|0:0,0:0:0:0:
318,146,77210,2,0,P|353:179|361:228,1,83.3333333333333,0|0,1:0|0:0,0:0:0:0:
312,307,77454,2,0,P|323:259|361:227,1,83.3333333333333,0|0,1:0|0:0,0:0:0:0:
456,232,77698,6,0,P|491:265|499:314,1,83.3333333333333,0|0,1:0|0:0,0:0:0:0:
318,146,77942,2,0,P|329:98|367:66,1,83.3333333333333,0|0,1:0|0:0,0:0:0:0:
312,307,78186,1,4,1:2:0:0:
312,307,78672,6,0,L|192:304,1,83.3333333333333,4|0,0:2|0:0,0:0:0:0:
120,304,78915,2,0,P|72:318|26:301,1,83.3333333333333,2|0,0:1|0:0,0:0:0:0:
124,152,79158,2,0,P|160:186|168:234,1,83.3333333333333,0|0,1:0|0:0,0:0:0:0:
40,152,79402,2,0,P|51:103|89:72,1,83.3333333333333,2|0,0:1|0:0,0:0:0:0:
172,48,79646,1,0,1:0:0:0:
80,228,79890,1,2,0:1:0:0:
328,188,80134,6,0,P|280:174|234:191,1,83.3333333333333,0|0,1:0|0:0,0:0:0:0:
358,197,80380,2,0,P|406:211|452:194,1,83.3333333333333,2|0,0:1|0:0,0:0:0:0:
496,128,80623,2,0,P|487:79|451:45,1,83.3333333333333,0|0,1:0|0:0,0:0:0:0:
368,36,80867,2,0,P|321:52|274:38,1,83.3333333333333,2|0,0:1|0:0,0:0:0:0:
208,4,81111,1,0,1:0:0:0:
112,248,81355,1,2,0:1:0:0:
208,288,81599,6,0,P|222:240|168:152,1,125,0|0,1:0|0:0,0:0:0:0:
66,236,81965,1,2,0:2:0:0:
112,248,82087,1,2,1:2:0:0:
174,158,82209,1,2,1:2:0:0:
128,170,82331,1,2,0:2:0:0:
328,188,82575,6,0,L|448:184,1,83.3333333333333,0|0,1:0|0:0,0:0:0:0:
495,181,82819,2,0,P|486:229|450:263,1,83.3333333333333,2|0,0:1|0:0,0:0:0:0:
367,257,83062,2,0,P|334:219|329:170,1,83.3333333333333,0|0,1:0|0:0,0:0:0:0:
424,66,83306,2,0,P|412:113|375:145,1,83.3333333333333,2|0,0:1|0:0,0:0:0:0:
314,107,83550,1,0,1:0:0:0:
495,181,83794,1,2,0:1:0:0:
328,188,84038,2,0,P|314:236|331:282,1,83.3333333333333,0|0,1:0|0:0,0:0:0:0:
400,324,84282,5,8,0:3:0:0:
208,64,84770,1,4,0:3:0:0:
36,328,85258,2,0,L|28:380,5,41.6666666666667,2|2|2|2|2|0,0:2|0:2|0:2|0:2|0:2|0:0,0:0:0:0:
93,273,85745,6,0,L|81:235,2,31.25,0|0|0,0:2|0:2|0:2,0:0:0:0:
