osu file format v14

[General]
AudioFilename: audio.mp3
AudioLeadIn: 0
PreviewTime: 57573
Countdown: 0
SampleSet: Soft
StackLeniency: 0.7
Mode: 0
LetterboxInBreaks: 0
WidescreenStoryboard: 1

[Editor]
Bookmarks: 8670
DistanceSpacing: 1.2
BeatDivisor: 4
GridSize: 4
TimelineZoom: 1.8

[Metadata]
Title:Fiction (TV Size)
TitleUnicode:フィクション (TV Size)
Artist:sumika
ArtistUnicode:sumika
Creator:Agent_James
Version:Light Insane
Source:ヲタクに恋は難しい
Tags:wotakoi wotaku ni koi wa muzukashii Love is Hard for Otaku opening e.p
BeatmapID:1769893
BeatmapSetID:826106

[Difficulty]
HPDrainRate:5
CircleSize:4
OverallDifficulty:6
ApproachRate:8
SliderMultiplier:2.4
SliderTickRate:1

[Events]
//Background and Video events
0,0,"wotaku-ni-koi-wa-muzukashii-0106.jpg",0,0
Video,0,"video.mp4"
//Break Periods
//Storyboard Layer 0 (Background)
//Storyboard Layer 1 (Fail)
//Storyboard Layer 2 (Pass)
//Storyboard Layer 3 (Foreground)
//Storyboard Sound Samples

[TimingPoints]
134,487.80487804878,4,2,1,60,1,0
134,-100,4,2,1,60,0,0
1110,487.80487804878,4,2,1,60,1,0
2085,-125,4,2,1,60,0,0
2817,-250,4,2,1,60,0,0
3549,-100,4,2,1,60,0,0
5988,-125,4,2,1,60,0,0
6719,-222.222222222222,4,2,1,60,0,0
7207,-100,4,2,1,60,0,0
9890,-125,4,2,1,60,0,0
10621,-200,4,2,1,60,0,0
11109,-100,4,2,1,60,0,0
13792,-125,4,2,1,60,0,0
14523,-200,4,2,1,60,0,0
15012,-100,4,2,1,60,0,0
15256,500,4,2,1,60,1,0
16006,468.75,4,2,1,60,1,0
16474,498.960498960499,4,2,1,60,1,0
16723,487.80487804878,4,2,1,60,1,0
18426,-133.333333333333,4,2,1,60,0,0
20621,-100,4,2,1,60,0,0
20625,-100,4,2,1,50,0,0
22572,-100,4,2,1,50,0,0
23913,-100,4,2,1,50,0,0
24767,-100,4,2,1,50,0,0
25500,-100,4,2,1,50,0,0
31362,-100,4,2,1,50,0,0
32816,-100,4,2,1,50,0,0
34280,-100,4,2,1,50,0,0
47939,-100,4,2,1,60,0,0
48589,-100,4,2,1,5,0,0
48670,-100,4,2,1,60,0,0
48833,-100,4,2,1,5,0,0
48914,-100,4,2,1,60,0,0
49565,-100,4,2,1,5,0,0
49646,-100,4,2,1,60,0,0
49809,-100,4,2,1,5,0,0
49890,-100,4,2,1,60,0,0
50540,-100,4,2,1,5,0,0
50622,-100,4,2,1,60,0,0
50784,-100,4,2,1,5,0,0
50866,-100,4,2,1,60,0,0
51722,-100,4,2,1,5,0,0
51760,-100,4,2,1,5,0,0
51841,-100,4,2,1,60,0,0
52492,-100,4,2,1,5,0,0
52573,-100,4,2,1,60,0,0
53467,-100,4,2,1,5,0,0
53549,-100,4,2,1,60,0,0
53711,-100,4,2,1,5,0,0
53792,-100,4,2,1,60,0,0
55744,-100,4,2,1,60,0,0
56231,-125,4,2,1,60,0,0
56719,-166.666666666667,4,2,1,60,0,0
57206,-333.333333333333,4,2,1,60,0,0
57698,-83.3333333333333,4,2,1,70,0,1
73308,487.80487804878,4,2,1,65,1,0
73308,-100,3,2,1,65,0,0
78672,487.80487804878,4,2,1,65,1,0
78672,-83.3333333333333,4,2,1,65,0,0
78915,487.80487804878,4,2,1,65,1,0
80380,487.80487804878,4,2,1,65,1,0

[Colours]
Combo1 : 168,226,255
Combo2 : 255,128,192
Combo3 : 81,159,255
Combo4 : 255,193,193
SliderTrackOverride : 60,60,60
SliderBorder : 234,130,179

[HitObjects]
16,224,377,6,0,L|132:216,1,80,2|2,0:1|0:1,0:0:0:0:
124,184,621,1,0,1:0:0:0:
200,256,784,2,0,P|236:208|216:140,1,120,0|0,1:0|0:0,0:0:0:0:
196,112,1109,5,2,0:1:0:0:
328,156,1353,2,0,L|428:152,1,80,2|0,0:1|0:0,0:0:0:0:
424,68,1597,2,0,L|272:76,1,120,0|0,1:0|1:0,0:0:0:0:
116,156,2085,6,0,P|108:104|132:56,1,96,2|0,0:2|0:0,0:0:0:0:
88,240,2451,2,0,P|45:208|24:160,1,96,2|0,0:2|0:0,0:0:0:0:
124,320,2817,6,0,P|71:328|23:304,1,96,2|0,0:2|0:0,0:0:0:0:
216,248,3549,6,0,L|316:252,1,80,0|0,1:0|0:0,0:0:0:0:
364,212,3792,2,0,P|376:172|348:124,1,80,0|0,1:0|0:0,0:0:0:0:
272,124,4036,2,0,P|216:128|212:48,1,120,0|8,0:3|0:3,0:0:0:0:
84,32,4524,2,0,P|102:85|57:119,1,120,0|0,1:0|1:0,0:0:0:0:
148,328,5012,5,2,0:1:0:0:
232,252,5256,2,0,P|276:264|332:252,1,80,2|0,0:1|0:0,0:0:0:0:
352,236,5500,2,0,P|316:284|328:332,1,80,0|0,1:0|0:0,0:0:0:0:
320,348,5744,1,0,1:0:0:0:
452,168,5988,6,0,P|469:212|459:271,1,96,2|0,0:2|1:0,0:0:0:0:
488,160,6353,2,0,P|462:121|418:102,1,96,2|0,0:2|0:0,0:0:0:0:
328,84,6719,6,0,P|376:61|429:69,1,107.999996704102,0|0,0:2|1:0,0:0:0:0:
327,106,7451,6,0,P|268:114|214:90,1,120,8|4,0:3|0:3,0:0:0:0:
80,236,7939,2,0,B|60:184|111:128,2,80,8|8|8,0:2|0:2|0:2,0:0:0:0:
184,168,8427,2,0,P|193:225|165:263,1,80,8|0,0:2|0:0,0:0:0:0:
184,284,8670,2,0,P|202:318|237:337,1,80,8|0,0:3|0:0,0:0:0:0:
396,240,8914,6,0,L|268:248,1,120,2|2,0:1|0:1,0:0:0:0:
472,276,9402,2,0,P|483:238|424:160,1,120,0|0,1:0|1:0,0:0:0:0:
496,100,9890,6,0,P|451:83|405:91,1,96,2|0,0:2|0:0,0:0:0:0:
380,128,10256,2,0,P|333:136|289:119,1,96,2|0,0:2|0:0,0:0:0:0:
280,76,10622,6,0,P|220:56|160:84,1,120,2|4,2:2|1:2,0:0:0:0:
184,160,11353,6,0,P|193:217|168:252,1,80,4|0,1:2|0:0,0:0:0:0:
156,264,11597,2,0,P|144:301|156:339,1,80,2|0,0:1|0:0,0:0:0:0:
248,296,11841,2,0,B|304:280|304:280|376:304,1,120,2|0,0:1|1:0,0:0:0:0:
406,208,12329,2,0,P|358:244|388:323,1,120,8|0,0:3|0:0,0:0:0:0:
476,160,12817,5,2,0:1:0:0:
468,28,13061,2,0,P|428:26|395:47,1,80,2|0,0:1|0:0,0:0:0:0:
376,88,13305,2,0,P|318:96|270:63,1,120,0|0,1:0|1:0,0:0:0:0:
216,137,13792,6,0,P|253:106|269:62,1,96,2|0,0:2|0:0,0:0:0:0:
144,140,14158,2,0,P|191:144|234:125,1,96,2|0,0:2|0:0,0:0:0:0:
92,92,14524,6,0,P|122:129|199:142,1,120,2|0,0:2|1:0,0:0:0:0:
72,200,15256,6,0,P|60:237|72:275,1,80,8|0,0:2|0:0,0:0:0:0:
112,292,15506,2,0,P|146:273|165:238,1,80,4|0,3:0|0:0,0:0:0:0:
240,296,15756,2,0,P|296:312|363:280,1,120,8|4,0:2|3:0,0:0:0:0:
303,120,16240,2,0,P|281:153|303:236,1,120,8|4,0:2|3:0,0:0:0:0:
392,72,16723,5,12,0:2:0:0:
112,88,18186,5,0,1:0:0:0:
32,128,18430,2,0,B|48:176|112:192|156:168|156:168|156:200|184:220,1,180.000006866455,4|0,0:2|1:0,0:0:0:0:
250,214,19162,1,0,1:0:0:0:
112,268,19405,2,0,P|220:268|252:196,1,180.000006866455,4|0,1:2|0:0,0:0:0:0:
280,64,20137,1,0,1:0:0:0:
400,140,20381,1,2,0:1:0:0:
408,112,20503,1,0,0:0:0:0:
416,84,20625,6,0,L|424:224,1,120,2|0,0:1|0:0,0:0:0:0:
316,348,21113,2,0,L|324:208,1,120,2|0,1:0|1:0,0:0:0:0:
316,200,21479,1,0,1:0:0:0:
308,172,21601,1,2,0:1:0:0:
180,208,21844,1,0,1:0:0:0:
216,80,22088,1,2,0:1:0:0:
74,124,22332,1,0,1:0:0:0:
50,124,22454,1,0,1:0:0:0:
27,122,22576,5,2,0:1:0:0:
88,24,22820,1,0,1:0:0:0:
40,224,23064,1,2,0:1:0:0:
184,217,23308,1,0,1:0:0:0:
190,241,23430,1,0,1:0:0:0:
196,264,23552,2,0,P|152:328|176:396,1,120,4|0,1:0|0:0,0:0:0:0:
236,336,23918,2,0,L|368:336,1,120,4|0,0:1|1:0,0:0:0:0:
440,284,24283,1,0,1:0:0:0:
440,284,24405,1,0,1:0:0:0:
440,284,24527,6,0,P|440:216|432:152,1,120,2|0,0:1|1:0,0:0:0:0:
344,80,25015,2,0,P|344:148|352:212,1,120,2|0,0:1|1:0,0:0:0:0:
357,223,25381,1,0,1:0:0:0:
371,242,25503,1,2,0:1:0:0:
256,144,25747,1,0,1:0:0:0:
144,232,25991,1,2,0:1:0:0:
260,318,26235,1,0,1:0:0:0:
257,293,26357,1,0,1:0:0:0:
254,269,26479,5,2,0:1:0:0:
144,376,26722,1,0,1:0:0:0:
364,368,26966,1,2,0:1:0:0:
431,184,27210,1,0,1:0:0:0:
433,208,27332,1,0,1:0:0:0:
436,232,27454,2,0,P|383:205|326:220,1,120,2|0,0:1|1:0,0:0:0:0:
144,248,27942,2,0,P|196:274|253:259,1,120,2|0,0:1|1:0,0:0:0:0:
255,235,28308,1,0,1:0:0:0:
255,211,28430,5,2,0:1:0:0:
132,120,28674,1,0,1:0:0:0:
40,264,28918,1,2,0:1:0:0:
129,97,29162,1,0,1:0:0:0:
126,73,29283,1,0,1:0:0:0:
124,49,29405,1,2,0:1:0:0:
20,152,29649,1,0,1:0:0:0:
248,120,29893,1,2,0:1:0:0:
160,320,30137,1,0,1:0:0:0:
156,296,30259,1,0,1:0:0:0:
152,272,30381,6,0,L|296:276,1,120,2|0,0:1|1:0,0:0:0:0:
456,216,30869,1,2,0:1:0:0:
380,341,31113,1,0,1:0:0:0:
389,319,31235,1,0,1:0:0:0:
399,295,31357,2,0,P|355:231|374:175,1,120,6|0,0:1|0:0,0:0:0:0:
392,152,31722,2,0,P|407:95|381:42,1,120,4|0,0:1|1:0,0:0:0:0:
279,66,32088,1,0,1:0:0:0:
287,90,32210,1,2,0:1:0:0:
296,112,32332,6,0,L|148:108,1,120,2|0,0:1|1:0,0:0:0:0:
28,224,32820,2,0,L|176:220,1,120,2|0,0:1|1:0,0:0:0:0:
140,244,33186,1,0,1:0:0:0:
132,268,33308,1,2,0:1:0:0:
232,356,33552,1,0,1:0:0:0:
272,232,33796,1,2,0:1:0:0:
376,316,34040,1,0,1:0:0:0:
400,312,34162,1,0,1:0:0:0:
424,308,34283,5,2,0:1:0:0:
320,384,34527,1,0,1:0:0:0:
412,196,34771,1,2,0:1:0:0:
224,116,35015,1,0,1:0:0:0:
232,92,35137,1,0,1:0:0:0:
240,72,35259,2,0,P|244:136|240:216,1,120,2|0,0:1|1:0,0:0:0:0:
144,304,35747,2,0,P|148:240|144:160,1,120,2|0,0:1|1:0,0:0:0:0:
136,162,36113,1,0,1:0:0:0:
128,138,36235,5,2,0:1:0:0:
8,216,36479,1,0,1:0:0:0:
144,304,36722,1,2,0:1:0:0:
292,216,36966,1,0,1:0:0:0:
288,240,37088,1,0,1:0:0:0:
284,264,37210,1,2,0:1:0:0:
308,128,37454,1,0,1:0:0:0:
264,352,37698,1,2,0:1:0:0:
484,272,37942,1,0,1:0:0:0:
479,247,38064,1,0,1:0:0:0:
476,223,38186,6,0,L|344:235,1,120,2|0,0:1|1:0,0:0:0:0:
188,117,38674,2,0,L|320:129,1,120,2|0,0:1|1:0,0:0:0:0:
312,104,39040,1,0,1:0:0:0:
318,81,39162,1,2,0:1:0:0:
188,20,39405,1,0,1:0:0:0:
72,100,39649,1,4,0:3:0:0:
65,141,39771,1,4,0:3:0:0:
76,181,39893,1,0,1:0:0:0:
103,212,40015,1,0,1:0:0:0:
132,244,40137,6,0,P|164:316|132:376,1,120,2|0,0:1|1:0,0:0:0:0:
236,260,40625,2,0,P|264:208|319:187,1,120,2|0,0:1|1:0,0:0:0:0:
320,211,40991,1,0,1:0:0:0:
321,235,41113,1,2,0:1:0:0:
408,324,41357,1,0,1:0:0:0:
476,208,41601,1,2,0:1:0:0:
400,56,41844,1,0,1:0:0:0:
394,79,41966,1,0,1:0:0:0:
388,102,42088,5,2,0:1:0:0:
488,92,42332,1,0,1:0:0:0:
292,72,42576,1,2,0:1:0:0:
151,178,42820,1,0,1:0:0:0:
157,155,42942,1,0,1:0:0:0:
164,132,43064,2,0,L|172:276,1,120,2|0,0:1|1:0,0:0:0:0:
48,344,43552,2,0,L|54:224,1,120,2|0,0:1|1:0,0:0:0:0:
53,200,43918,1,0,1:0:0:0:
55,176,44040,5,2,0:1:0:0:
170,251,44283,1,0,1:0:0:0:
284,180,44527,1,2,0:1:0:0:
182,75,44771,1,0,1:0:0:0:
177,99,44893,1,0,1:0:0:0:
173,122,45015,5,4,0:2:0:0:
284,180,45259,1,0,1:0:0:0:
404,140,45503,1,2,0:1:0:0:
360,324,45747,1,0,1:0:0:0:
355,300,45869,1,2,0:1:0:0:
351,277,45991,5,4,0:2:0:0:
508,284,46235,1,0,1:0:0:0:
248,356,46479,1,4,0:1:0:0:
286,162,46722,1,0,1:0:0:0:
280,185,46844,1,0,1:0:0:0:
276,208,46966,6,0,L|152:200,1,120,2|0,0:1|1:0,0:0:0:0:
52,127,47454,1,2,0:1:0:0:
80,160,47617,2,0,L|204:168,1,120,0|0,0:0|0:0,0:0:0:0:
212,68,47942,5,4,3:0:0:0:
96,296,48186,1,4,3:0:0:0:
304,56,48918,5,4,3:0:0:0:
188,284,49162,1,4,3:0:0:0:
392,44,49893,5,4,3:0:0:0:
276,272,50137,1,4,3:0:0:0:
480,32,50869,5,4,3:0:0:0:
364,260,51113,1,4,3:0:0:0:
484,192,51357,5,4,3:0:0:0:
451,151,51479,2,0,P|387:119|307:143,1,120,0|0,3:0|0:0,0:0:0:0:
240,180,51844,6,0,P|171:200|110:173,1,120,4|4,3:0|3:0,0:0:0:0:
64,91,52332,2,0,P|109:129|127:185,1,120,2|4,0:3|0:3,0:0:0:0:
92,259,52739,1,4,0:3:0:0:
82,271,52820,2,0,P|99:327|145:365,1,120,4|4,3:0|3:0,0:0:0:0:
304,260,53308,2,0,P|246:247|190:267,1,120,0|0,3:0|3:0,0:0:0:0:
392,324,53796,6,0,B|412:264|412:264|392:196,1,120,4|0,0:2|0:0,0:0:0:0:
388,176,54162,2,0,B|371:121|371:121|391:61,1,120,2|0,0:1|0:0,0:0:0:0:
412,32,54527,1,0,1:0:0:0:
274,81,54771,2,0,P|205:101|135:69,1,120,8|8,0:2|0:2,0:0:0:0:
46,80,55259,2,0,P|103:67|159:87,1,120,8|8,0:2|0:2,0:0:0:0:
100,156,55747,6,0,L|108:292,1,120,8|0,0:2|0:0,0:0:0:0:
184,196,56235,6,0,L|192:308,1,96,8|0,0:2|0:0,0:0:0:0:
268,236,56722,6,0,L|276:324,1,71.9999978027344,8|0,0:2|0:0,0:0:0:0:
352,272,57210,6,0,L|356:318,1,35.9999989013672,8|0,0:2|1:0,0:0:0:0:
448,116,57698,6,0,P|379:134|312:110,1,143.999995605469,2|0,0:1|1:0,0:0:0:0:
104,64,58186,2,0,P|173:46|240:70,1,143.999995605469,2|0,0:1|1:0,0:0:0:0:
120,264,58674,5,2,0:1:0:0:
274,307,58918,2,0,P|321:312|366:297,1,95.9999970703126,0|0,1:0|0:0,0:0:0:0:
311,222,59162,2,0,P|282:259|273:306,1,95.9999970703126,2|0,0:1|0:0,0:0:0:0:
408,216,59405,2,0,P|389:172|353:141,1,95.9999970703126,0|0,1:0|0:0,0:0:0:0:
260,151,59649,6,0,P|307:156|352:141,1,95.9999970703126,2|0,0:1|0:0,0:0:0:0:
448,71,59893,2,0,P|385:39|316:54,1,143.999995605469,0|2,1:0|0:1,0:0:0:0:
242,282,60381,2,0,P|274:219|259:150,1,143.999995605469,0|2,1:0|0:1,0:0:0:0:
80,152,60869,2,0,P|110:188|153:209,1,95.9999970703126,0|0,1:0|0:0,0:0:0:0:
154,209,61113,2,0,P|117:238|97:281,1,95.9999970703126,2|0,0:1|0:0,0:0:0:0:
102,318,61357,1,0,1:0:0:0:
242,282,61601,5,2,0:1:0:0:
372,312,61844,2,0,L|366:383,2,71.9999978027344,8|8|2,1:2|0:2|0:1,0:0:0:0:
454,231,62332,2,0,L|449:159,2,71.9999978027344,8|8|2,1:2|0:2|0:1,0:0:0:0:
372,88,62820,6,0,P|327:72|279:78,1,95.9999970703126,0|0,1:0|0:0,0:0:0:0:
279,77,63064,2,0,P|231:82|186:67,1,95.9999970703126,2|0,0:1|0:0,0:0:0:0:
97,91,63308,2,0,P|82:136|87:183,1,95.9999970703126,0|0,1:0|0:0,0:0:0:0:
88,184,63552,6,0,P|103:228|97:276,1,95.9999970703126,2|0,0:1|0:0,0:0:0:0:
21,330,63796,2,0,P|51:295|96:276,1,95.9999970703126,0|0,1:0|0:0,0:0:0:0:
180,314,64040,2,0,P|134:304|95:275,1,95.9999970703126,2|0,0:1|0:0,0:0:0:0:
88,184,64283,1,0,1:0:0:0:
347,209,64527,6,0,P|364:278|348:348,1,143.999995605469,2|0,0:1|1:0,0:0:0:0:
261,265,65015,2,0,P|245:196|263:127,1,143.999995605469,2|0,0:1|1:0,0:0:0:0:
120,3,65503,6,0,P|124:72|185:105,1,143.999995605469,2|0,0:1|1:0,0:0:0:0:
38,251,65991,2,0,P|71:188|40:120,1,143.999995605469,2|0,0:1|1:0,0:0:0:0:
128,360,66479,5,2,0:1:0:0:
256,284,66722,2,0,P|302:274|348:285,1,95.9999970703126,0|0,1:0|0:0,0:0:0:0:
441,287,66966,2,0,P|394:296|348:285,1,95.9999970703126,2|0,0:1|0:0,0:0:0:0:
344,132,67210,2,0,P|390:120|436:130,1,95.9999970703126,0|0,1:0|0:0,0:0:0:0:
391,210,67454,6,0,P|357:175|343:130,1,95.9999970703126,2|0,0:1|0:0,0:0:0:0:
348,36,67698,2,0,P|280:52|260:156,1,143.999995605469,0|2,1:0|0:1,0:0:0:0:
270,239,68186,2,0,P|289:173|210:103,1,143.999995605469,0|2,1:0|0:1,0:0:0:0:
54,19,68674,6,0,P|44:65|56:112,1,95.9999970703126,0|0,1:0|0:0,0:0:0:0:
84,132,68918,2,0,P|130:142|176:131,1,95.9999970703126,2|0,0:1|0:0,0:0:0:0:
16,180,69162,2,0,P|6:226|17:272,1,95.9999970703126,0|0,1:0|0:0,0:0:0:0:
48,304,69405,5,2,0:1:0:0:
188,288,69649,2,0,L|272:304,2,71.9999978027344,8|8|2,1:2|0:2|0:1,0:0:0:0:
308,384,70137,2,0,L|388:369,2,71.9999978027344,8|8|2,1:2|0:2|0:1,0:0:0:0:
460,284,70625,6,0,P|469:237|458:191,1,95.9999970703126,0|0,1:0|0:0,0:0:0:0:
377,146,70869,2,0,P|412:177|458:190,1,95.9999970703126,2|0,0:1|0:0,0:0:0:0:
456,98,71113,2,0,P|410:112|376:145,1,95.9999970703126,0|0,1:0|0:0,0:0:0:0:
378,238,71357,6,0,P|387:191|376:145,1,95.9999970703126,2|0,0:1|0:0,0:0:0:0:
295,100,71601,2,0,P|330:131|376:144,1,95.9999970703126,0|0,1:0|0:0,0:0:0:0:
374,53,71844,2,0,P|328:67|294:100,1,95.9999970703126,2|0,0:1|0:0,0:0:0:0:
293,188,72088,2,0,P|309:140|291:95,1,95.9999970703126,0|0,1:0|0:0,0:0:0:0:
165,152,72332,6,0,P|187:197|292:183,1,143.999995605469,2|0,0:1|1:0,0:0:0:0:
221,76,72820,2,0,P|177:102|201:205,1,143.999995605469,2|4,0:1|0:3,0:0:0:0:
40,252,73308,5,4,0:3:0:0:
288,312,73551,2,0,L|393:315,1,80,0|0,1:0|0:0,0:0:0:0:
387,329,73795,2,0,L|483:329,1,80,0|0,1:0|0:0,0:0:0:0:
496,236,74039,5,4,0:3:0:0:
256,224,74283,2,0,P|216:250|191:291,1,80,0|0,1:0|0:0,0:0:0:0:
163,264,74527,2,0,P|154:310|166:357,1,80,0|0,1:0|0:0,0:0:0:0:
244,380,74771,5,4,0:3:0:0:
340,200,75015,2,0,L|336:88,1,80,0|0,1:0|0:0,0:0:0:0:
316,101,75259,2,0,L|313:6,1,80,0|0,1:0|0:0,0:0:0:0:
394,19,75503,5,4,0:3:0:0:
184,164,75747,2,0,P|144:137|119:96,1,80,0|0,1:0|0:0,0:0:0:0:
91,123,75990,2,0,P|82:76|93:30,1,80,0|0,1:0|0:0,0:0:0:0:
184,32,76234,5,4,0:3:0:0:
55,199,76478,2,0,L|71:307,1,80,0|0,1:0|0:0,0:0:0:0:
36,289,76722,2,0,L|51:384,1,80,0|0,1:0|0:0,0:0:0:0:
136,372,76966,5,4,0:3:0:0:
263,263,77210,2,0,P|278:296|270:342,1,80,0|0,1:0|0:0,0:0:0:0:
263,263,77454,2,0,P|212:258|176:228,1,80,0|0,1:0|0:0,0:0:0:0:
263,263,77698,2,0,P|287:223|331:207,1,80,0|0,1:0|0:0,0:0:0:0:
467,233,77942,5,0,1:0:0:0:
235,145,78186,1,4,1:2:0:0:
470,8,78672,6,0,B|393:117|525:117|465:236,1,239.999992675781,4|0,0:2|0:0,0:0:0:0:
393,281,79158,2,0,P|348:295|303:279,1,80,0|0,1:0|0:0,0:0:0:0:
285,252,79402,2,0,P|240:235|195:250,1,80,2|0,0:1|0:0,0:0:0:0:
174,272,79646,2,0,P|131:250|111:208,1,80,0|0,1:0|0:0,0:0:0:0:
96,142,79890,5,2,0:1:0:0:
216,0,80134,2,0,P|209:46|176:79,1,80,0|0,1:0|0:0,0:0:0:0:
142,66,80380,2,0,P|98:49|53:61,1,80,2|0,0:1|0:0,0:0:0:0:
0,93,80623,2,0,P|16:149|0:197,1,80,0|0,1:0|0:0,0:0:0:0:
40,207,80867,2,8,P|81:227|159:197,1,80,2|0,2:1|0:0,0:0:0:0:
199,202,81111,5,0,1:0:0:0:
266,302,81355,2,0,P|327:286|392:315,1,120,2|0,0:1|1:0,0:0:0:0:
472,360,81843,1,0,0:0:0:0:
487,320,81965,1,2,0:2:0:0:
479,278,82087,1,2,1:2:0:0:
465,237,82209,1,2,1:2:0:0:
475,196,82331,5,2,0:2:0:0:
387,101,82575,2,0,P|326:121|260:89,1,120,0|2,1:0|0:1,0:0:0:0:
160,105,83062,2,0,P|117:126|96:168,1,80,0|0,1:0|0:0,0:0:0:0:
104,199,83306,2,0,P|117:244|102:288,1,80,2|0,0:1|0:0,0:0:0:0:
64,336,83550,1,0,1:0:0:0:
256,272,83794,1,2,0:1:0:0:
428,344,84038,1,0,1:0:0:0:
416,160,84282,5,8,0:3:0:0:
244,376,84770,1,4,0:3:0:0:
96,160,85258,2,0,L|96:104,5,40,2|2|2|2|2|0,0:2|0:2|0:2|0:2|0:2|0:0,0:0:0:0:
96,64,85745,6,0,L|176:69,1,60,0|0,0:2|0:2,0:0:0:0:
