osu file format v14

[General]
AudioFilename: audio.mp3
AudioLeadIn: 0
PreviewTime: 57573
Countdown: 0
SampleSet: Soft
StackLeniency: 0.7
Mode: 0
LetterboxInBreaks: 0
WidescreenStoryboard: 1

[Editor]
Bookmarks: 8670
DistanceSpacing: 1
BeatDivisor: 4
GridSize: 32
TimelineZoom: 1.8

[Metadata]
Title:Fiction (TV Size)
TitleUnicode:フィクション (TV Size)
Artist:sumika
ArtistUnicode:sumika
Creator:Agent_James
Version:Hard
Source:ヲタクに恋は難しい
Tags:wotakoi wotaku ni koi wa muzukashii Love is Hard for Otaku opening e.p
BeatmapID:1769892
BeatmapSetID:826106

[Difficulty]
HPDrainRate:4
CircleSize:4
OverallDifficulty:5
ApproachRate:7
SliderMultiplier:1.6
SliderTickRate:1

[Events]
//Background and Video events
0,0,"wotaku-ni-koi-wa-muzukashii-0106.jpg",0,0
Video,0,"video.mp4"
//Break Periods
//Storyboard Layer 0 (Background)
//Storyboard Layer 1 (Fail)
//Storyboard Layer 2 (Pass)
//Storyboard Layer 3 (Foreground)
//Storyboard Sound Samples

[TimingPoints]
134,487.80487804878,4,2,1,60,1,0
1110,487.80487804878,4,2,1,60,1,0
15256,500,4,2,1,60,1,0
16006,468.75,4,2,1,60,1,0
16474,498.960498960499,4,2,1,60,1,0
16723,487.80487804878,4,2,1,60,1,0
20625,-100,4,2,1,50,0,0
47939,-100,4,2,1,60,0,0
47942,-100,4,2,1,60,0,0
48589,-100,4,2,1,5,0,0
48670,-100,4,2,1,60,0,0
48833,-100,4,2,1,5,0,0
48914,-100,4,2,1,60,0,0
49565,-100,4,2,1,5,0,0
49646,-100,4,2,1,60,0,0
49809,-100,4,2,1,5,0,0
49890,-100,4,2,1,60,0,0
50540,-100,4,2,1,5,0,0
50622,-100,4,2,1,60,0,0
50784,-100,4,2,1,5,0,0
50866,-100,4,2,1,60,0,0
51722,-100,4,2,1,5,0,0
51841,-100,4,2,1,60,0,0
52492,-100,4,2,1,5,0,0
52573,-100,4,2,1,60,0,0
53467,-100,4,2,1,5,0,0
53549,-100,4,2,1,60,0,0
53711,-100,4,2,1,5,0,0
53792,-100,4,2,1,60,0,0
57698,-100,4,2,1,70,0,1
73308,487.80487804878,3,2,1,65,1,0
73308,-100,3,2,1,65,0,0
78672,487.80487804878,4,2,1,65,1,0
78915,487.80487804878,4,2,1,65,1,0
80380,487.80487804878,4,2,1,65,1,0

[Colours]
Combo1 : 168,226,255
Combo2 : 255,128,192
Combo3 : 81,159,255
Combo4 : 255,193,193
SliderTrackOverride : 60,60,60
SliderBorder : 234,130,179

[HitObjects]
256,312,1109,6,0,P|344:308|388:244,1,160,2|0,0:1|1:0,0:0:0:0:
288,128,2085,2,0,B|248:192|313:251,2,120,2|2|2,0:2|0:2|0:2,0:0:0:0:
92,288,3549,6,0,P|84:244|103:188,1,80,0|0,1:0|1:0,0:0:0:0:
168,180,4036,2,0,P|111:129|18:171,1,160,0|0,0:3|1:0,0:0:0:0:
188,196,5012,6,0,B|268:208|268:208|348:168,1,160,2|0,0:1|1:0,0:0:0:0:
312,16,5988,2,0,P|270:60|266:140,2,120,2|2|0,0:2|0:2|0:2,0:0:0:0:
156,44,7207,5,0,1:0:0:0:
92,88,7451,2,0,L|85:167,1,80,8|4,0:3|0:3,0:0:0:0:
69,250,7939,2,0,P|41:258|8:255,2,53.3333333333333,8|8|8,0:2|0:2|0:2,0:0:0:0:
108,285,8427,2,0,P|116:329|96:381,1,80,8|8,0:2|0:3,0:0:0:0:
186,349,8914,6,0,P|272:330|331:380,1,160,2|0,0:1|1:0,0:0:0:0:
434,252,9890,2,0,B|418:320|418:320|430:376,2,120,2|2|2,0:2|0:2|2:2,0:0:0:0:
236,228,11353,6,0,L|252:144,1,80,4|2,1:2|0:1,0:0:0:0:
288,72,11841,2,0,P|244:64|192:84,1,80,2|0,0:1|1:0,0:0:0:0:
148,124,12329,2,0,P|109:132|70:123,1,80,8|0,0:3|0:0,0:0:0:0:
20,60,12817,6,0,B|28:168,1,80,2|2,0:1|0:1,0:0:0:0:
32,220,13305,1,0,1:0:0:0:
132,327,13792,2,0,P|189:337|250:302,2,120,2|2|2,0:2|0:2|0:2,0:0:0:0:
260,228,15012,5,0,1:0:0:0:
324,272,15256,2,0,P|332:310|324:349,1,80,8|4,0:2|3:0,0:0:0:0:
400,328,15756,2,0,P|438:319|477:327,1,80,8|4,0:2|3:0,0:0:0:0:
460,248,16240,2,0,P|451:209|460:170,1,80,8|4,0:2|3:0,0:0:0:0:
380,180,16723,5,12,0:2:0:0:
256,56,18186,5,0,1:0:0:0:
188,100,18430,2,0,P|272:135|329:90,1,160,4|0,0:2|1:0,0:0:0:0:
256,56,19162,1,0,1:0:0:0:
188,100,19405,2,0,P|179:138|188:177,1,80,4|0,1:2|0:0,0:0:0:0:
236,240,19893,1,0,0:0:0:0:
236,240,20137,1,0,1:0:0:0:
188,304,20381,1,2,0:1:0:0:
256,344,20625,6,0,P|294:335|333:343,1,80,2|0,0:1|0:0,0:0:0:0:
412,356,21113,2,0,P|420:317|411:278,1,80,2|0,1:0|1:0,0:0:0:0:
376,256,21479,1,0,1:0:0:0:
376,256,21601,1,2,0:1:0:0:
432,200,21844,1,0,1:0:0:0:
384,136,22088,2,0,L|299:140,1,80,2|0,0:1|1:0,0:0:0:0:
280,108,22454,1,0,1:0:0:0:
280,108,22576,6,0,L|188:112,1,80,2|0,0:1|1:0,0:0:0:0:
172,188,23064,1,2,0:1:0:0:
96,164,23308,1,0,1:0:0:0:
96,164,23430,1,0,1:0:0:0:
96,164,23552,2,0,L|100:268,1,80,4|0,1:0|0:0,0:0:0:0:
60,252,23918,2,0,L|64:356,1,80,4|0,0:1|1:0,0:0:0:0:
90,360,24283,1,0,1:0:0:0:
90,360,24405,1,0,1:0:0:0:
90,360,24527,5,0,1:0:0:0:
160,320,24771,1,0,1:0:0:0:
220,372,25015,2,0,L|320:368,1,80,2|0,0:1|1:0,0:0:0:0:
336,352,25381,1,0,1:0:0:0:
336,352,25503,2,0,P|327:313|335:274,1,80,2|0,0:1|1:0,0:0:0:0:
411,247,25991,2,0,P|419:208|410:169,1,80,2|0,0:1|1:0,0:0:0:0:
392,136,26357,1,0,1:0:0:0:
392,136,26479,5,2,0:1:0:0:
316,156,26722,1,0,1:0:0:0:
244,124,26966,1,2,0:1:0:0:
176,168,27210,1,0,1:0:0:0:
176,168,27332,1,0,1:0:0:0:
176,168,27454,2,0,P|184:206|176:245,1,80,2|0,0:1|1:0,0:0:0:0:
100,224,27942,2,0,P|91:262|99:301,1,80,2|0,0:1|1:0,0:0:0:0:
128,332,28308,1,0,1:0:0:0:
128,332,28430,5,2,0:1:0:0:
192,284,28674,1,0,1:0:0:0:
248,340,28918,1,2,0:1:0:0:
312,292,29162,1,0,1:0:0:0:
312,292,29283,1,0,1:0:0:0:
312,292,29405,2,0,P|349:286|409:302,1,80,2|0,0:1|1:0,0:0:0:0:
460,333,29893,1,2,0:1:0:0:
468,260,30137,1,0,1:0:0:0:
468,260,30259,1,0,1:0:0:0:
468,260,30381,6,0,L|476:160,1,80,2|0,0:1|1:0,0:0:0:0:
396,168,30869,1,2,0:1:0:0:
408,88,31113,1,0,1:0:0:0:
408,88,31235,1,0,1:0:0:0:
408,88,31357,2,0,L|316:84,1,80,6|0,0:1|0:0,0:0:0:0:
300,112,31722,2,0,L|208:108,1,80,4|0,0:1|1:0,0:0:0:0:
188,132,32088,1,0,1:0:0:0:
188,132,32210,1,0,1:0:0:0:
188,132,32332,5,2,0:1:0:0:
168,208,32576,1,0,1:0:0:0:
96,172,32820,2,0,P|87:210|95:249,1,80,2|0,0:1|1:0,0:0:0:0:
120,280,33186,1,0,1:0:0:0:
120,280,33308,2,0,P|153:300|174:334,1,80,2|0,0:1|1:0,0:0:0:0:
240,380,33796,2,0,P|278:389|320:372,1,80,2|0,0:1|1:0,0:0:0:0:
352,356,34162,1,0,1:0:0:0:
352,356,34283,5,2,0:1:0:0:
312,288,34527,1,0,1:0:0:0:
392,288,34771,1,2,0:1:0:0:
352,220,35015,1,0,1:0:0:0:
352,220,35137,1,0,1:0:0:0:
352,220,35259,2,0,L|364:120,1,80,2|0,0:1|1:0,0:0:0:0:
284,164,35747,2,0,L|184:152,1,80,2|0,0:1|1:0,0:0:0:0:
184,116,36113,1,0,1:0:0:0:
184,116,36235,5,2,0:1:0:0:
120,164,36479,1,0,1:0:0:0:
160,232,36722,1,2,0:1:0:0:
105,292,36966,1,0,1:0:0:0:
105,292,37088,1,0,1:0:0:0:
105,292,37210,2,0,P|140:310|190:308,1,80,2|0,0:1|1:0,0:0:0:0:
254,290,37698,2,0,P|214:292|179:310,1,80,2|0,0:1|1:0,0:0:0:0:
188,352,38064,1,0,1:0:0:0:
188,352,38186,5,2,0:1:0:0:
264,380,38430,1,0,1:0:0:0:
332,340,38674,1,2,0:1:0:0:
264,296,38918,1,0,1:0:0:0:
264,296,39040,1,0,1:0:0:0:
264,296,39162,2,0,L|268:188,1,80,2|0,0:1|1:0,0:0:0:0:
200,168,39649,1,4,0:3:0:0:
264,120,39893,1,0,1:0:0:0:
264,120,40015,1,0,1:0:0:0:
264,120,40137,6,0,P|302:110|341:119,1,80,2|0,0:1|1:0,0:0:0:0:
412,80,40625,2,0,P|422:118|413:157,1,80,2|0,0:1|1:0,0:0:0:0:
396,192,40991,1,0,1:0:0:0:
396,192,41113,2,0,P|387:230|397:268,1,80,2|0,0:1|1:0,0:0:0:0:
332,312,41601,2,0,P|294:303|256:313,1,80,2|0,0:1|1:0,0:0:0:0:
248,352,41966,1,0,1:0:0:0:
248,352,42088,5,2,0:1:0:0:
176,316,42332,1,0,1:0:0:0:
224,252,42576,1,2,0:1:0:0:
168,196,42820,1,0,1:0:0:0:
168,196,42942,1,0,1:0:0:0:
168,196,43064,2,0,L|76:184,1,80,2|0,0:1|1:0,0:0:0:0:
68,108,43552,2,0,L|147:118,1,80,2|0,0:1|1:0,0:0:0:0:
168,84,43918,1,0,1:0:0:0:
168,84,44040,5,2,0:1:0:0:
220,144,44283,1,0,1:0:0:0:
280,92,44527,2,0,L|359:82,1,80,2|0,0:1|1:0,0:0:0:0:
384,52,44893,1,0,1:0:0:0:
384,52,45015,1,4,0:2:0:0:
456,92,45259,1,0,1:0:0:0:
412,160,45503,2,0,P|403:198|413:236,1,80,2|0,0:1|1:0,0:0:0:0:
444,264,45869,1,2,0:1:0:0:
444,264,45991,5,4,0:2:0:0:
392,324,46235,1,0,1:0:0:0:
324,280,46479,2,0,L|232:284,1,80,4|0,0:1|1:0,0:0:0:0:
212,312,46844,1,0,1:0:0:0:
212,312,46966,2,0,L|120:316,1,80,2|0,0:1|1:0,0:0:0:0:
72,260,47454,2,0,L|72:192,1,40,2|0,0:1|1:0,0:0:0:0:
124,112,47942,5,4,3:0:0:0:
124,112,48186,1,4,3:0:0:0:
124,112,48430,2,0,L|208:112,1,80,0|0,3:0|3:0,0:0:0:0:
260,56,48918,5,4,3:0:0:0:
260,56,49162,1,4,3:0:0:0:
260,56,49405,2,0,P|279:90|277:141,1,80,0|0,3:0|3:0,0:0:0:0:
224,188,49893,5,4,3:0:0:0:
224,188,50137,1,4,3:0:0:0:
224,188,50381,2,0,P|225:227|244:262,1,80,0|0,3:0|3:0,0:0:0:0:
312,216,50869,5,4,3:0:0:0:
312,216,51113,1,4,3:0:0:0:
312,216,51357,2,0,L|388:216,1,40,4|0,3:0|3:0,0:0:0:0:
444,144,51844,5,4,3:0:0:0:
444,144,52088,1,4,3:0:0:0:
444,144,52332,2,0,L|440:40,1,80,2|4,0:3|0:3,0:0:0:0:
368,96,52820,5,4,3:0:0:0:
368,96,53064,1,4,3:0:0:0:
368,96,53308,2,0,L|264:100,1,80,0|0,3:0|3:0,0:0:0:0:
180,88,53796,6,0,P|181:127|200:162,1,80,4|0,0:2|0:0,0:0:0:0:
236,180,54162,2,0,P|255:214|256:254,1,80,2|0,0:1|0:0,0:0:0:0:
236,288,54527,1,0,1:0:0:0:
296,340,54771,6,0,L|392:336,1,80,8|8,0:2|0:2,0:0:0:0:
440,288,55259,2,0,P|439:249|420:214,1,80,8|8,0:2|0:2,0:0:0:0:
352,168,55747,5,8,0:2:0:0:
328,144,56235,5,8,0:2:0:0:
304,124,56722,5,8,0:2:0:0:
284,108,57210,5,8,0:2:0:0:
347,59,57454,1,0,1:0:0:0:
284,108,57698,6,0,L|168:104,1,80,2|0,0:1|1:0,0:0:0:0:
152,164,58186,2,0,L|72:161,1,80,2|0,0:1|1:0,0:0:0:0:
20,100,58674,1,2,0:1:0:0:
72,161,58918,2,0,P|82:199|73:237,2,80,0|2|0,1:0|0:1|1:0,0:0:0:0:
20,100,59649,5,2,0:1:0:0:
80,48,59893,2,0,B|184:44|184:44|240:84,2,160,0|0|0,1:0|1:0|1:0,0:0:0:0:
20,100,61113,2,0,P|10:138|20:176,1,80,2|0,0:1|1:0,0:0:0:0:
72,240,61601,5,2,0:1:0:0:
72,240,61844,1,8,1:2:0:0:
72,240,62088,2,0,P|82:278|72:316,1,80,2|8,0:1|1:2,0:0:0:0:
152,332,62576,1,2,0:1:0:0:
232,336,62820,2,0,L|328:328,1,80,0|2,1:0|0:1,0:0:0:0:
368,272,63308,1,0,1:0:0:0:
308,220,63552,6,0,P|298:182|308:144,1,80,2|0,0:1|1:0,0:0:0:0:
328,65,64040,2,0,P|338:103|328:141,1,80,2|0,0:1|1:0,0:0:0:0:
256,104,64527,2,0,P|218:94|180:104,1,80,2|0,0:1|1:0,0:0:0:0:
100,124,65015,2,0,P|138:134|176:124,1,80,2|0,0:1|1:0,0:0:0:0:
220,192,65503,6,0,L|228:280,1,80,2|0,0:1|1:0,0:0:0:0:
292,320,65991,2,0,L|371:312,1,80,2|0,0:1|1:0,0:0:0:0:
444,276,66479,1,2,0:1:0:0:
388,220,66722,2,0,P|378:182|387:144,2,80,0|2|0,1:0|0:1|1:0,0:0:0:0:
444,276,67454,5,2,0:1:0:0:
371,312,67698,2,0,L|200:332,2,160,0|0|0,1:0|1:0|1:0,0:0:0:0:
444,276,68918,2,0,P|453:237|443:199,1,80,2|0,0:1|1:0,0:0:0:0:
384,148,69405,5,2,0:1:0:0:
384,148,69649,1,8,1:2:0:0:
384,148,69893,2,0,P|345:138|307:148,1,80,2|8,0:1|1:2,0:0:0:0:
264,216,70381,1,2,0:1:0:0:
184,200,70625,2,0,P|149:179|129:145,1,80,0|2,1:0|0:1,0:0:0:0:
128,64,71113,1,0,1:0:0:0:
56,104,71357,6,0,P|46:142|56:180,1,80,2|0,0:1|1:0,0:0:0:0:
80,260,71844,2,0,P|89:221|79:183,1,80,2|0,0:1|1:0,0:0:0:0:
56,104,72332,2,0,P|94:113|132:103,1,80,2|0,0:1|1:0,0:0:0:0:
212,84,72820,2,0,P|173:74|135:83,1,80,2|4,0:1|0:3,0:0:0:0:
172,156,73308,6,0,L|176:252,2,80,4|0|0,0:3|1:0|1:0,0:0:0:0:
244,188,74039,6,0,L|248:284,2,80,4|0|0,0:3|1:0|1:0,0:0:0:0:
316,220,74771,6,0,L|320:316,2,80,4|0|0,0:3|1:0|1:0,0:0:0:0:
392,248,75503,6,0,L|396:344,2,80,4|0|0,0:3|1:0|1:0,0:0:0:0:
452,196,76234,6,0,L|452:112,1,80,4|0,0:3|1:0,0:0:0:0:
456,36,76722,1,0,1:0:0:0:
388,76,76966,6,0,L|308:76,1,80,4|0,0:3|1:0,0:0:0:0:
236,40,77454,1,0,1:0:0:0:
168,80,77698,1,0,1:0:0:0:
100,120,77942,1,0,1:0:0:0:
32,160,78186,1,4,1:2:0:0:
152,268,78673,5,4,0:2:0:0:
152,268,78915,2,0,L|240:264,1,80,2|0,0:1|1:0,0:0:0:0:
252,188,79402,1,2,0:1:0:0:
324,224,79646,2,0,P|328:300|276:360,1,160,0|0,1:0|1:0,0:0:0:0:
348,324,80380,6,0,P|386:314|424:323,1,80,2|0,0:1|1:0,0:0:0:0:
476,260,80867,2,0,P|456:192|488:136,1,120,2|0,0:1|0:0,0:0:0:0:
512,132,81355,1,2,0:1:0:0:
444,88,81599,1,0,1:0:0:0:
380,136,81843,2,0,L|284:132,1,80,0|2,0:0|1:2,0:0:0:0:
232,88,82331,5,2,0:2:0:0:
192,156,82575,1,0,1:0:0:0:
192,156,82819,2,0,P|164:127|154:89,1,80,2|0,0:1|1:0,0:0:0:0:
80,56,83306,1,2,0:1:0:0:
56,132,83550,2,0,B|56:240|56:240|104:272,1,160,0|0,1:0|1:0,0:0:0:0:
172,300,84282,6,0,B|255:279|255:279|336:304,2,160,8|4|2,0:3|0:3|0:2,0:0:0:0:
256,164,85745,1,0,0:2:0:0:
