osu file format v14

[General]
AudioFilename: audio.mp3
AudioLeadIn: 0
PreviewTime: 133293
Countdown: 0
SampleSet: Soft
StackLeniency: 0.3
Mode: 0
LetterboxInBreaks: 0
WidescreenStoryboard: 1

[Editor]
Bookmarks: 1237,27631,36447,54068,65077,82675,100310,109104,117908,124521,131401,159759,172958
DistanceSpacing: 0.2
BeatDivisor: 4
GridSize: 32
TimelineZoom: 2.899999

[Metadata]
Title:Fanfare
TitleUnicode:ファンファーレ
Artist:sumika
ArtistUnicode:sumika
Creator:xHappy-
Version:ohmtier's Insane
Source:君の膵臓をたべたい
Tags:kimi no suizou wo tabetai I want to eat your pancreas anime rock jrock j-rock japanese p_kung sarawatlism [_lost_] conner c_o_n_n_e_r Typ4 ohm002 -_frontier_- frontier shockolatte
BeatmapID:3225238
BeatmapSetID:1557866

[Difficulty]
HPDrainRate:5
CircleSize:4
OverallDifficulty:7.6
ApproachRate:9
SliderMultiplier:1.9
SliderTickRate:1

[Events]
//Background and Video events
0,0,"ohm x frontier.jpg",0,0
//Break Periods
2,133527,136581
//Storyboard Layer 0 (Background)
//Storyboard Layer 1 (Fail)
//Storyboard Layer 2 (Pass)
//Storyboard Layer 3 (Foreground)
//Storyboard Layer 4 (Overlay)
//Storyboard Sound Samples

[TimingPoints]
1237,275.229357798165,4,3,1,55,1,0
1237,-200,4,3,1,55,0,0
2337,269.058295964126,4,3,1,55,1,0
2337,-200,4,3,1,55,0,0
3144,276.497695852535,4,3,1,55,1,0
3144,-200,4,3,1,55,0,0
3420,285.714285714286,4,3,1,55,1,0
3420,-200,4,3,1,55,0,0
3705,266.666666666667,4,3,1,55,1,0
3705,-200,4,3,1,55,0,0
3971,289.855072463769,4,3,1,55,1,0
3971,-200,4,3,1,55,0,0
4260,266.666666666667,4,3,1,55,1,0
4260,-200,4,3,1,55,0,0
4526,276.497695852535,4,3,1,55,1,0
4526,-200,4,3,1,55,0,0
5078,278.745644599304,4,3,1,55,1,0
5078,-200,4,3,1,55,0,0
5635,276.497695852535,4,3,1,55,1,0
5635,-200,4,3,1,55,0,0
7846,273.972602739726,4,3,1,55,1,0
7846,-200,4,3,1,55,0,0
8393,271.493212669683,4,3,1,55,1,0
8393,-200,4,3,1,55,0,0
8664,266.666666666667,4,3,1,55,1,0
8664,-200,4,3,1,55,0,0
8797,292.682926829268,4,3,1,55,1,0
8797,-200,4,3,1,55,0,0
8943,272.727272727273,4,3,1,55,1,0
8943,-200,4,3,1,55,0,0
9761,275.229357798165,4,3,1,55,1,0
9761,-200,4,3,1,55,0,0
9898,263.157894736842,4,3,1,55,1,0
9898,-200,4,3,1,55,0,0
10029,275.229357798165,4,3,1,55,1,0
10029,-200,4,3,1,55,0,0
10304,283.018867924528,4,3,1,55,1,0
10304,-200,4,3,1,55,0,0
10870,252.100840336134,4,3,1,55,1,0
10870,-200,4,3,1,55,0,0
11122,276.497695852534,4,3,1,55,1,0
11122,-200,4,3,1,55,0,0
11674,273.972602739726,4,3,1,55,1,0
11674,-200,4,3,1,55,0,0
12221,275.229357798165,4,3,1,55,1,0
12221,-200,4,3,1,55,0,0
12771,287.081339712918,4,3,1,55,1,0
12771,-200,4,3,1,55,0,0
13058,275.229357798165,4,3,1,55,1,0
13058,-200,4,3,1,55,0,0
13608,272.727272727273,4,3,1,55,1,0
13608,-200,4,3,1,55,0,0
13880,292.682926829268,4,3,1,55,1,0
13880,-200,4,3,1,55,0,0
14172,270.27027027027,4,3,1,55,1,0
14172,-200,4,3,1,55,0,0
14442,264.31718061674,4,3,1,55,1,0
14442,-200,4,3,1,55,0,0
14706,306.122448979592,4,3,1,55,1,0
14706,-200,4,3,1,55,0,0
15012,230.769230769231,4,3,1,55,1,0
15012,-200,4,3,1,55,0,0
15127,260.869565217391,4,3,1,55,1,0
15127,-200,4,3,1,55,0,0
15257,275.229357798165,4,3,1,55,1,0
15257,-200,4,3,1,55,0,0
15532,269.058295964125,4,3,1,55,1,0
15532,-200,4,3,1,55,0,0
16070,277.777777777778,4,3,1,55,1,0
16070,-200,4,3,1,55,0,0
16347,284.36018957346,4,3,1,55,1,0
16347,-200,4,3,1,55,0,0
16631,279.06976744186,4,3,1,55,1,0
16631,-200,4,3,1,55,0,0
17189,263.157894736842,4,3,1,55,1,0
17189,-200,4,3,1,55,0,0
17715,275.229357798165,4,3,1,55,1,0
17715,-200,4,3,1,55,0,0
18540,285.714285714286,4,3,1,55,1,0
18540,-200,4,3,1,55,0,0
18825,294.117647058824,4,2,1,70,1,0
18825,-142.857142857143,4,2,1,70,0,0
19266,276.497695852535,4,2,1,70,1,0
19266,-142.857142857143,4,2,1,70,0,0
19680,268.156424581006,4,2,1,70,1,0
19680,-142.857142857143,4,2,1,70,0,0
20216,257.510729613734,4,2,1,40,1,0
20216,-142.857142857143,4,2,1,40,0,0
20473,-142.857142857143,4,2,1,55,0,0
20731,-142.857142857143,4,2,1,70,0,0
20859,304.568527918782,4,2,1,70,1,0
20859,-142.857142857143,4,2,1,70,0,0
21011,298.507462686567,4,2,1,70,1,0
21011,-142.857142857143,4,2,1,70,0,0
21458,272.727272727273,4,2,1,70,1,0
21458,-142.857142857143,4,2,1,70,0,0
21867,284.36018957346,4,2,1,70,1,0
21867,-142.857142857143,4,2,1,70,0,0
22435,254.237288135593,4,2,1,70,1,0
22435,-142.857142857143,4,2,1,70,0,0
22562,-142.857142857143,4,2,1,70,0,0
22943,303.030303030303,4,2,1,70,1,0
22943,-142.857142857143,4,2,1,70,0,0
23246,272.727272727273,4,2,1,70,1,0
23246,-142.857142857143,4,2,1,70,0,0
23655,285.714285714286,4,2,1,70,1,0
23655,-142.857142857143,4,2,1,70,0,0
23940,244.897959183673,4,2,1,70,1,0
23940,-142.857142857143,4,2,1,70,0,0
24184,307.692307692308,4,2,1,70,1,0
24337,275.545350172216,4,2,1,70,1,0
24337,-142.857142857143,4,2,1,70,0,0
24750,292.682926829268,4,2,1,70,1,0
24750,-142.857142857143,4,2,1,70,0,0
25042,265.486725663717,4,2,1,70,1,0
25042,-142.857142857143,4,2,1,70,0,0
25440,304.568527918782,4,2,1,70,1,0
25440,-142.857142857143,4,2,1,70,0,0
25744,250,4,2,1,40,1,0
25744,-133.333333333333,4,2,1,40,0,0
25994,258.620689655172,4,2,1,40,1,0
25994,-133.333333333333,4,2,1,55,0,0
26258,-133.333333333333,4,2,1,70,0,0
26381,317.460317460317,4,2,1,70,1,0
26381,-133.333333333333,4,2,1,70,0,0
26539,273.972602739726,4,2,1,70,1,0
26675,-100,4,2,1,50,0,0
26812,-100,4,2,1,60,0,0
26949,-100,4,2,1,70,0,0
27086,281.69014084507,4,2,1,70,1,0
27226,270.27027027027,4,2,1,60,1,0
27631,275.229357798165,4,2,1,70,1,0
27631,-108.633504859919,4,2,1,70,0,0
29007,-108.63350485992,4,2,1,70,0,0
29557,-108.63350485992,4,2,1,70,0,0
29762,-108.63350485992,4,2,1,5,0,0
29832,276.497695852534,4,2,1,70,1,0
29832,-108.633504859921,4,2,1,70,0,0
30246,-108.63350485992,4,2,1,70,0,0
30661,-108.629080796165,4,2,1,70,0,0
30937,271.493212669683,4,2,1,70,1,0
31208,291.26213592233,4,2,1,70,1,0
31208,-108.619004007902,4,2,1,70,0,0
31499,272.727272727272,4,2,1,70,1,0
31499,-108.63350485992,4,2,1,70,0,0
31771,281.69014084507,4,2,1,70,1,0
31771,-108.63350485992,4,2,1,70,0,0
32052,275.229357798165,4,2,1,70,1,0
32052,-108.633504859919,4,2,1,70,0,0
33428,-108.63350485992,4,2,1,70,0,0
34391,-99.5807127882577,4,2,1,70,0,0
34804,-91.9206579583957,4,2,1,60,0,0
35217,-119.496855345911,4,2,1,50,0,0
35629,264.31718061674,4,2,1,60,1,0
35761,-100,4,2,1,40,0,0
35826,-100,4,2,1,55,0,0
35893,267.857142857143,4,2,1,70,1,0
35893,-119.496855345919,4,2,1,70,0,0
35959,-119.496855345919,4,2,1,5,0,0
36026,-119.496855345919,4,2,1,70,0,0
36091,-119.496855345919,4,2,1,5,0,0
36160,275.229357798165,4,2,1,70,1,0
36160,-119.496855345917,4,2,1,70,0,0
36228,-119.496855345919,4,2,1,5,0,0
36297,300,4,2,1,70,1,0
36297,-119.496855345912,4,2,1,70,0,0
36372,-119.496855345919,4,2,1,5,0,0
36447,275.229357798165,4,2,1,60,1,0
36447,-133.333333333333,4,2,1,60,0,0
38648,277.777777777778,4,2,1,60,1,0
38648,-133.333333333333,4,2,1,60,0,0
39759,273.037542662116,4,2,1,60,1,0
39759,-133.333333333333,4,2,1,60,0,0
40851,275.229357798165,4,2,1,60,1,0
41057,-100,4,2,1,5,0,0
41126,-100,4,2,1,60,0,0
41607,-100,4,2,1,5,0,0
41676,-100,4,2,1,60,0,0
43052,276.497695852534,4,2,1,60,1,0
43052,-133.333333333333,4,2,1,60,0,0
46093,266.666666666666,4,2,1,60,1,0
46093,-133.333333333333,4,2,1,60,0,0
46359,275.229357798165,4,2,1,60,1,0
46359,-133.333333333333,4,2,1,60,0,0
47459,273.972602739726,4,2,1,60,1,0
47459,-133.333333333333,4,2,1,60,0,0
49376,280.373831775701,4,2,1,60,1,0
49376,-133.333333333333,4,2,1,60,0,0
49656,265.486725663717,4,2,1,60,1,0
49656,-133.333333333333,4,2,1,60,0,0
49921,278.422273781902,4,2,1,60,1,0
49921,-133.333333333333,4,2,1,60,0,0
50199,273.972602739726,4,2,1,60,1,0
50472,-133.333333333333,4,2,1,60,0,0
50746,277.777777777778,4,2,1,60,1,0
50746,-133.333333333333,4,2,1,60,0,0
50954,-133.333333333333,4,2,1,5,0,0
51023,-133.333333333333,4,2,1,60,0,0
51857,-133.333333333333,4,2,1,60,0,0
52898,-133.333333333333,4,2,1,5,0,0
52968,275.229357798165,4,2,1,60,1,0
53174,-100,4,2,1,5,0,0
53243,-100,4,2,1,60,0,0
54068,-119.496855345911,4,2,1,70,0,0
54619,333.333333333333,4,2,1,70,1,0
54785,-109.587910552061,4,2,1,70,0,0
54952,250,4,2,1,70,1,0
55014,-100,4,2,1,5,0,0
55077,-119.496855345912,4,2,1,70,0,0
55452,295.566502463054,4,2,1,70,1,0
55452,-119.441588050315,4,2,1,70,0,0
55747,246.913580246913,4,2,1,70,1,0
55747,-119.49685534591,4,2,1,70,0,0
55993,275.229357798165,4,2,1,70,1,0
56268,267.857142857143,4,2,1,70,1,0
56268,-119.496855345906,4,2,1,70,0,0
56463,-119.496855345906,4,2,1,5,0,0
56535,285.714285714286,4,2,1,70,1,0
56535,-119.496855345907,4,2,1,70,0,0
56820,266.075388026607,4,2,1,70,1,0
56953,-119.496855345912,4,2,1,70,0,0
57145,-119.496855345912,4,2,1,5,0,0
57219,295.566502463055,4,2,1,70,1,0
57219,-119.230035938901,4,2,1,70,0,0
57514,244.897959183674,4,2,1,70,1,0
57514,-119.230035938901,4,2,1,70,0,0
57636,283.018867924528,4,2,1,70,1,0
57636,-119.496855345916,4,2,1,70,0,0
57848,-119.496855345916,4,2,1,5,0,0
57919,271.493212669683,4,2,1,70,1,0
58461,279.06976744186,4,2,1,70,1,0
58461,-119.496855345912,4,2,1,70,0,0
59158,275.229357798165,4,2,1,70,1,0
59158,-119.496855345913,4,2,1,70,0,0
59364,-119.496855345913,4,2,1,5,0,0
59433,314.13612565445,4,2,1,70,1,0
59433,-118.835927880934,4,2,1,70,0,0
59747,238.095238095238,4,2,1,70,1,0
59866,269.058295964126,4,2,1,70,1,0
59866,-119.496855345908,4,2,1,70,0,0
60135,275.229357798166,4,2,1,70,1,0
60135,-118.535421137006,4,2,1,70,0,0
60272,235.294117647059,4,2,1,70,1,0
60389,285.035629453683,4,2,1,70,1,0
60674,275.229357798165,4,2,1,60,1,0
60674,-119.496855345911,4,2,1,60,0,0
61224,264.317180616739,4,2,1,60,1,0
61224,-119.496855345913,4,2,1,60,0,0
61488,288.115246098438,4,2,1,60,1,0
61488,-119.496855345914,4,2,1,60,0,0
61776,275.229357798165,4,2,1,60,1,0
61776,-119.496855345911,4,2,1,60,0,0
63977,270.27027027027,4,2,1,70,1,0
63977,-119.496855345915,4,2,1,70,0,0
64176,-119.496855345915,4,2,1,5,0,0
64247,280.3738317757,4,2,1,80,1,0
64247,-66.3871418588393,4,2,1,60,0,0
64457,-66.3871418588393,4,2,1,5,0,0
64527,275.229357798165,4,2,1,60,1,0
64527,-59.7484276729553,4,2,1,60,0,0
64802,-59.7484276729553,4,2,1,30,0,0
65077,275.229357798165,4,2,1,80,1,1
66384,-99.5807127882603,4,2,1,5,0,1
66453,-99.5807127882603,4,2,1,80,0,1
66728,264.31718061674,4,2,1,80,1,1
66992,287.081339712918,4,2,1,80,1,1
67279,275.229357798165,4,2,1,80,1,1
68379,272.727272727273,4,2,1,80,1,1
68583,-100,4,2,1,5,0,1
68651,-100,4,2,1,80,0,1
69197,283.018867924528,4,2,1,80,1,1
69480,269.058295964126,4,2,1,80,1,1
69749,278.422273781903,4,2,1,80,1,1
70027,264.31718061674,4,2,1,80,1,1
70291,284.36018957346,4,2,1,80,1,1
70575,276.497695852535,4,2,1,80,1,1
70782,-100,4,2,1,5,0,1
70851,-100,4,2,1,80,0,1
71888,-100,4,2,1,5,0,1
71957,-100,4,2,1,80,0,1
72233,270.27027027027,4,2,1,80,1,1
72773,275.229357798165,4,2,1,80,1,1
72979,-100,4,2,1,5,0,1
73048,-100,4,2,1,80,0,1
73873,279.72027972028,4,2,1,80,1,1
74432,271.493212669683,4,2,1,80,1,1
74703,282.35294117647,4,2,1,80,1,1
74985,269.058295964126,4,2,1,80,1,1
75186,-100,4,2,1,5,0,1
75254,-100,4,2,1,80,0,1
75792,281.69014084507,4,2,1,80,1,1
76073,275.862068965517,4,2,1,80,1,1
76279,-100,4,2,1,5,0,1
76348,-100,4,2,1,80,0,1
77176,281.69014084507,4,2,1,80,1,1
78302,262.008733624454,4,2,1,80,1,1
78826,267.857142857143,4,2,1,80,1,1
79093,294.117647058823,4,2,1,80,1,1
79387,270.27027027027,4,2,1,80,1,1
80468,280.373831775701,4,2,1,80,1,1
81028,275.229357798165,4,2,1,80,1,1
81578,277.777777777778,4,2,1,80,1,1
81786,-100,4,2,1,5,0,1
81855,-100,4,2,1,80,0,1
82133,272.727272727273,4,2,1,80,1,1
82405,270.27027027027,4,2,1,80,1,1
82675,287.081339712918,4,2,1,80,1,1
82962,279.06976744186,4,2,1,80,1,1
83241,275.229357798165,4,2,1,80,1,1
83791,275.229357798165,4,2,1,80,1,1
87093,271.493212669683,4,2,1,80,1,1
87907,281.690140845071,4,2,1,80,1,1
88188,273.972602739726,4,2,1,80,1,1
89009,275.229357798165,4,2,1,80,1,1
89284,276.497695852534,4,2,1,80,1,1
92048,272.727272727273,4,2,1,80,1,1
92593,275.229357798165,4,2,1,80,1,1
94726,-99.5807127882592,4,2,1,5,0,1
94794,-99.5807127882578,4,2,1,80,0,1
95826,-99.5807127882592,4,2,1,5,0,1
95895,281.69014084507,4,2,1,80,1,1
95895,-82.340848572096,4,2,1,80,0,1
96458,262.008733624454,4,2,1,80,1,1
96720,295.566502463054,4,2,1,80,1,1
97015,266.075388026607,4,2,1,80,1,1
97547,271.493212669683,4,2,1,80,1,1
97818,279.06976744186,4,2,1,80,1,1
98097,275.229357798165,4,2,1,80,1,1
99473,279.06976744186,4,2,1,80,1,1
99612,-99.5807127882489,4,2,1,80,0,1
99752,288.461538461538,4,2,1,80,1,1
99896,271.493212669683,4,2,1,80,1,1
99912,-100,4,2,1,80,0,1
100031,276.497695852534,4,2,1,80,1,1
100169,283.018867924528,4,2,1,80,1,1
100310,280.373831775701,4,2,1,70,1,0
100870,254.237288135593,4,2,1,70,1,0
101124,295.566502463054,4,2,1,70,1,0
101124,-96.1538461538461,4,2,1,70,0,0
101271,275.229357798165,4,2,1,70,1,0
101408,275.229357798165,4,2,1,70,1,0
102233,278.422273781902,4,2,1,70,1,0
102511,273.972602739726,4,2,1,70,1,0
106004,-100,4,2,1,5,0,0
106072,-100,4,2,1,70,0,0
106346,277.777777777777,4,2,1,70,1,0
106554,-100,4,2,1,5,0,0
106623,286.396181384248,4,2,1,70,1,0
106909,272.727272727273,4,2,1,70,1,0
107454,270.27027027027,4,2,1,70,1,0
107724,289.855072463768,4,2,1,70,1,0
108013,266.666666666666,4,2,1,70,1,0
108279,287.081339712918,4,2,1,70,1,0
108566,267.857142857143,4,2,1,70,1,0
108699,230.769230769231,4,2,1,70,1,0
108814,265.486725663717,4,2,1,70,1,0
108946,316.205533596838,4,2,1,70,1,0
109104,287.081339712918,4,2,1,70,1,0
109104,-108.630216098453,4,2,1,70,0,0
109678,256.410256410256,4,2,1,70,1,0
109678,-108.630216098453,4,2,1,70,0,0
109806,-108.694212304207,4,2,1,70,0,0
109934,294.117647058823,4,2,1,70,1,0
109934,-108.694212304207,4,2,1,70,0,0
110081,-103.113901713956,4,2,1,70,0,0
110228,264.31718061674,4,2,1,70,1,0
110228,-108.694212304207,4,2,1,70,0,0
110492,281.69014084507,4,2,1,70,1,0
110492,-108.694212304207,4,2,1,70,0,0
110632,-108.633504859929,4,2,1,70,0,0
110914,245.901639344262,4,2,1,70,1,0
110914,-108.633504859929,4,2,1,70,0,0
111036,277.777777777777,4,2,1,70,1,0
111036,-108.633504859932,4,2,1,70,0,0
111313,275.229357798165,4,2,1,70,1,0
111313,-108.595411817817,4,2,1,70,0,0
111863,262.008733624454,4,2,1,70,1,0
111863,-108.595411817817,4,2,1,70,0,0
111994,-109.033290840635,4,2,1,70,0,0
112125,295.566502463053,4,2,1,70,1,0
112125,-109.033290840635,4,2,1,70,0,0
112272,-104.542535604289,4,2,1,70,0,0
112420,273.972602739726,4,2,1,70,1,0
112420,-109.033290840635,4,2,1,70,0,0
112830,-108.633504859919,4,2,1,70,0,0
113241,280.373831775701,4,2,1,70,1,0
113241,-108.633504859931,4,2,1,70,0,0
113521,271.493212669683,4,2,1,70,1,0
113521,-108.633504859921,4,2,1,70,0,0
114063,-108.633504859927,4,2,1,70,0,0
114606,279.06976744186,4,2,1,70,1,0
114606,-108.633504859922,4,2,1,70,0,0
114885,-108.633504859934,4,2,1,70,0,0
115164,275.229357798165,4,2,1,70,1,0
115164,-108.633504859925,4,2,1,70,0,0
115714,275.229357798165,4,2,1,70,1,0
115714,-108.633504859914,4,2,1,70,0,0
115782,-108.633504859914,4,2,1,5,0,0
115851,-108.633504859914,4,2,1,70,0,0
115920,-108.633504859914,4,2,1,5,0,0
115989,-108.633504859914,4,2,1,70,0,0
117365,266.666666666667,4,2,1,70,1,0
117631,277.777777777778,4,2,1,70,1,0
117908,267.857142857142,4,2,1,60,1,0
118175,300,4,2,1,60,1,0
118475,269.058295964125,4,2,1,60,1,0
118542,-100,4,2,1,5,0,0
118609,-100,4,2,1,60,0,0
118809,-100,4,2,1,5,0,0
118878,275.229357798165,4,2,1,60,1,0
119290,289.855072463768,4,2,1,60,1,0
119579,264.31718061674,4,2,1,60,1,0
119843,280.373831775701,4,2,1,60,1,0
120123,275.229357798165,4,2,1,60,1,0
120742,-100,4,2,1,5,0,0
120811,-100,4,2,1,60,0,0
121017,-100,4,2,1,5,0,0
121086,-100,4,2,1,60,0,0
122944,-100,4,2,1,5,0,0
123012,-100,4,2,1,60,0,0
123219,-100,4,2,1,5,0,0
123288,-100,4,2,1,60,0,0
124251,270.27027027027,4,2,1,60,1,0
124521,275.229357798165,4,2,1,60,1,0
124521,-149.371069182388,4,2,1,60,0,0
128924,-119.496855345911,4,2,1,60,0,0
129750,284.36018957346,4,2,1,60,1,0
129750,-119.496855345911,4,2,1,60,0,0
130034,270.27027027027,4,2,1,60,1,0
130034,-119.496855345912,4,2,1,60,0,0
130844,248.96265560166,4,2,1,60,1,0
130844,-119.496855345912,4,2,1,60,0,0
130968,317.460317460317,4,2,1,60,1,0
130968,-119.496855345912,4,2,1,60,0,0
131126,275.229357798165,4,2,1,60,1,0
131401,-100,4,2,1,40,0,0
131607,-100,4,2,1,5,0,0
131676,-90.9090909090909,4,2,1,46,0,0
131882,-90.9090909090909,4,2,1,5,0,0
131951,-83.3333333333333,4,2,1,52,0,0
132158,-83.3333333333333,4,2,1,5,0,0
132226,-76.9230769230769,4,2,1,58,0,0
132433,-76.9230769230769,4,2,1,5,0,0
132502,-71.4285714285714,4,2,1,64,0,0
132708,-71.4285714285714,4,2,1,5,0,0
132777,-66.6666666666667,4,2,1,72,0,0
132983,-66.6666666666667,4,2,1,5,0,0
133052,-62.5,4,2,1,80,0,0
133259,-62.5,4,2,1,5,0,0
133327,-1000,4,2,1,70,0,0
137181,-62.5,4,2,1,60,0,0
137387,-62.5,4,2,1,5,0,0
137456,-62.5,4,2,1,60,0,0
137662,-62.5,4,2,1,5,0,0
137731,278.745644599303,4,2,1,80,1,1
137731,-66.6666666666667,4,2,1,80,0,1
138288,266.666666666667,4,2,1,80,1,1
138821,275.229357798165,4,2,1,80,1,1
139027,-100,4,2,1,5,0,1
139096,-100,4,2,1,80,0,1
139371,281.69014084507,4,2,1,80,1,1
139652,275.229357798165,4,2,1,80,1,1
139927,275.229357798165,4,2,1,80,1,1
141578,269.058295964125,4,2,1,80,1,1
142116,300,4,2,1,80,1,1
142416,275.229357798165,4,2,1,80,1,1
142691,258.620689655172,4,2,1,80,1,1
142949,281.69014084507,4,2,1,80,1,1
143230,275.229357798165,4,2,1,80,1,1
143436,-100,4,2,1,5,0,1
143505,-100,4,2,1,80,0,1
144330,276.497695852534,4,2,1,80,1,1
146541,271.493212669683,4,2,1,80,1,1
147355,287.081339712919,4,2,1,80,1,1
147642,275.229357798165,4,2,1,80,1,1
148192,262.008733624454,4,2,1,80,1,1
148454,281.69014084507,4,2,1,80,1,1
148735,275.229357798165,4,2,1,80,1,1
150042,-100,4,2,1,5,0,1
150111,-66.6666666666667,4,2,1,80,0,1
150315,-66.6666666666667,4,2,1,5,0,1
150386,280.373831775701,4,2,1,80,1,1
150666,257.510729613734,4,2,1,80,1,1
150794,289.855072463768,4,2,1,80,1,1
150938,277.777777777778,4,2,1,80,1,1
151425,-100,4,2,1,5,0,1
151493,271.493212669683,4,2,1,80,1,1
151764,273.972602739726,4,2,1,80,1,1
152037,277.777777777778,4,2,1,80,1,1
152592,-66.6666666666667,4,2,1,80,0,1
152800,-66.6666666666667,4,2,1,5,0,1
152870,-66.6666666666667,4,2,1,80,0,1
153078,-66.6666666666667,4,2,1,5,0,1
153148,275.229357798165,4,2,1,80,1,1
153148,-66.6666666666667,4,2,1,80,0,1
153354,-66.6666666666667,4,2,1,5,0,1
153423,-100,4,2,1,30,0,1
153698,-100,4,2,1,40,0,1
153973,-100,4,2,1,50,0,1
154248,273.972602739726,4,2,1,80,1,1
154521,-100,4,2,1,70,0,1
154795,272.727272727273,4,2,1,80,1,1
155340,303.030303030303,4,2,1,80,1,1
155643,280.373831775701,4,2,1,80,1,1
155923,253.164556962025,4,2,1,80,1,1
156176,281.030444964871,4,2,1,80,1,1
156457,275.229357798165,4,2,1,80,1,1
156663,-100,4,2,1,5,0,1
156732,-100,4,2,1,80,0,1
157213,-100,4,2,1,5,0,1
157282,-100,4,2,1,80,0,1
159140,-100,4,2,1,5,0,1
159209,-100,4,2,1,80,0,1
160860,272.727272727273,4,2,1,80,1,1
162496,280.373831775701,4,2,1,80,1,1
163056,275.229357798165,4,2,1,80,1,1
164156,281.69014084507,4,2,1,80,1,1
164719,262.008733624454,4,2,1,80,1,1
164981,295.566502463054,4,2,1,80,1,1
164981,-99.5807127882459,4,2,1,80,0,1
165276,257.510729613734,4,2,1,80,1,1
165276,-99.7099025082646,4,2,1,80,0,1
165533,281.69014084507,4,2,1,80,1,1
165814,264.31718061674,4,2,1,80,1,1
166078,287.081339712918,4,2,1,80,1,1
166365,269.058295964125,4,2,1,80,1,1
166365,-99.5807127882689,4,2,1,80,0,1
167172,294.117647058823,4,2,1,80,1,1
167466,275.229357798165,4,2,1,80,1,1
167466,-99.5807127882631,4,2,1,80,0,1
168016,-99.5807127882592,4,2,1,80,0,1
168222,-99.5807127882592,4,2,1,5,0,1
168291,-132.774283717679,4,2,1,80,0,1
168498,-132.774283717679,4,2,1,5,0,1
168566,272.727272727273,4,2,1,80,1,1
168566,-99.5807127882599,4,2,1,80,0,1
169111,266.666666666667,4,2,1,80,1,1
169377,279.06976744186,4,2,1,80,1,1
169656,265.486725663717,4,2,1,80,1,1
169921,290.556900726392,4,2,1,80,1,1
170211,280.373831775701,4,2,1,80,1,1
170211,-99.5807127882448,4,2,1,80,0,1
170491,277.777777777778,4,2,1,80,1,1
170491,-99.5807127882621,4,2,1,80,0,1
170768,259.74025974026,4,2,1,80,1,1
171157,303.030303030303,4,2,1,80,1,1
171461,230.769230769231,4,2,1,80,1,1
171576,282.352941176471,4,2,1,80,1,1
171858,275.229357798165,4,2,1,80,1,1
172958,283.018867924528,4,2,1,60,1,0
172958,-100,4,2,1,60,0,0
173382,270.27027027027,4,2,1,60,1,0
173787,-102.040816326531,4,2,1,60,0,0
174059,284.36018957346,4,2,1,60,1,0
174343,260.869565217391,4,2,1,60,1,0
174473,250,4,2,1,60,1,0
174598,266.666666666666,4,2,1,60,1,0
174731,247.93388429752,4,2,1,60,1,0
174854,267.857142857142,4,2,1,60,1,0
174987,306.122448979591,4,2,1,60,1,0
175140,285.714285714286,4,2,1,60,1,0
175997,267.857142857143,4,2,1,60,1,0
176532,300,4,2,1,60,1,0
176757,-100,4,2,1,5,0,0
176832,279.06976744186,4,2,1,70,1,0

[Colours]
Combo1 : 202,91,255
Combo2 : 254,95,210
Combo3 : 230,0,160
Combo4 : 255,170,253

[HitObjects]
28,98,1099,5,0,3:0:0:0:
28,98,1168,1,0,3:0:0:0:
28,98,1237,2,0,L|46:203,1,95,2|0,3:0|3:0,0:0:0:0:
44,191,1787,6,0,L|90:198,1,47.5,0|0,3:0|0:0,0:0:0:0:
156,158,2062,2,0,L|202:150,1,47.5,2|0,3:0|0:0,0:0:0:0:
267,195,2337,2,0,L|313:202,1,47.5,2|0,3:0|3:0,0:0:0:0:
380,149,2606,1,2,3:0:0:0:
380,149,2875,6,0,P|386:121|399:72,1,47.5,2|0,3:0|3:0,0:0:0:0:
329,53,3144,2,0,P|323:25|310:-24,1,47.5,2|0,3:0|0:0,0:0:0:0:
244,42,3420,1,2,0:0:0:0:
244,42,3705,1,0,0:0:0:0:
244,42,3971,6,0,L|190:33,1,47.5
152,94,4260,2,0,L|98:103,1,47.5,2|0,0:0|0:0,0:0:0:0:
55,43,4526,2,0,L|1:34,1,47.5,2|0,0:0|0:0,0:0:0:0:
22,118,4802,1,2,0:0:0:0:
30,125,5078,6,0,L|42:203,1,47.5,2|0,0:0|0:0,0:0:0:0:
102,224,5356,2,0,L|90:302,1,47.5,2|0,0:0|0:0,0:0:0:0:
80,346,5635,1,2,0:0:0:0:
75,353,5911,1,0,0:0:0:0:
69,358,6187,6,0,L|139:353,1,47.5
172,302,6464,2,0,L|242:307,1,47.5,2|0,0:0|0:0,0:0:0:0:
279,369,6740,2,0,L|349:364,1,47.5,2|0,0:0|0:0,0:0:0:0:
382,313,7017,1,2,0:0:0:0:
382,313,7293,6,0,L|387:243,1,47.5,2|0,0:0|0:0,0:0:0:0:
342,205,7570,2,0,L|337:135,1,47.5,2|0,0:0|0:0,0:0:0:0:
388,100,7846,1,2,0:0:0:0:
402,89,8119,1,0,0:0:0:0:
417,77,8393,6,0,L|406:11,1,47.5
331,0,8664,2,0,L|323:46,1,47.5,2|0,0:0|0:0,0:0:0:0:
244,89,8943,5,2,0:0:0:0:
244,89,9079,1,0,0:0:0:0:
244,89,9215,2,0,L|236:42,1,47.5,2|0,0:0|0:0,0:0:0:0:
161,7,9488,2,0,L|150:73,1,47.5,2|0,0:0|0:0,0:0:0:0:
75,84,9761,2,0,L|67:37,1,47.5,2|0,0:0|0:0,0:0:0:0:
21,146,10029,1,2,0:0:0:0:
12,155,10304,1,0,0:0:0:0:
2,161,10587,6,0,L|10:214,1,47.5
0,288,10870,2,0,L|53:280,1,47.5,2|0,0:0|0:0,0:0:0:0:
130,297,11122,2,0,L|122:244,1,47.5,2|0,0:0|0:0,0:0:0:0:
85,179,11398,1,2,0:0:0:0:
85,179,11674,6,0,L|138:171,1,47.5,2|0,0:0|0:0,0:0:0:0:
197,217,11947,2,0,L|250:209,1,47.5,2|0,0:0|0:0,0:0:0:0:
289,144,12221,1,2,0:0:0:0:
301,126,12496,1,0,0:0:0:0:
314,108,12771,6,0,L|395:99,1,47.5,2|0,0:0|0:0,0:0:0:0:
433,60,13058,2,0,L|442:141,1,47.5
512,230,13333,2,0,L|431:221,1,47.5,2|0,0:0|0:0,0:0:0:0:
393,182,13608,5,0,0:0:0:0:
393,182,13880,2,0,L|384:263,1,47.5,2|0,0:0|0:0,0:0:0:0:
307,354,14172,6,0,L|388:345,1,47.5
426,306,14442,2,0,L|435:387,1,47.5,2|0,0:0|0:0,0:0:0:0:
494,259,14706,1,0,0:0:0:0:
494,259,15012,6,0,L|488:211,1,47.5
509,134,15257,2,0,L|461:139,1,47.5,2|2,0:0|0:0,0:0:0:0:
407,88,15532,1,2,0:0:0:0:
399,75,15801,1,0,0:0:0:0:
392,64,16070,6,0,L|344:69,1,47.5,2|0,0:0|0:0,0:0:0:0:
286,123,16347,2,0,L|238:128,1,47.5
175,77,16631,1,2,0:0:0:0:
166,68,16910,1,0,0:0:0:0:
159,60,17189,6,0,L|153:12,1,47.5
113,122,17452,2,0,L|119:170,1,47.5,2|2,0:0|0:0,0:0:0:0:
54,60,17715,2,0,L|48:12,1,47.5,2|0,0:0|0:0,0:0:0:0:
31,136,17990,1,2,0:0:0:0:
159,60,18265,6,0,L|217:72,1,47.5,2|0,0:0|0:0,0:0:0:0:
268,141,18540,2,0,L|326:129,1,47.5,2|0,0:0|0:0,0:0:0:0:
380,26,18825,6,0,P|429:67|429:132,1,132.999995941162,6|0,1:2|0:0,0:0:0:0:
402,259,19266,2,0,P|443:209|508:209,1,132.999995941162,6|0,1:2|0:0,0:0:0:0:
481,289,19680,6,0,B|455:311|417:300|404:268|410:265|412:257|406:252|401:254|402:213|372:194|330:212,1,199.499993911743,6|0,1:2|0:0,0:0:0:0:
240,191,20216,6,0,L|249:256,1,66.4999979705811,8|8,0:0|0:0,0:0:0:0:
158,189,20473,2,0,L|167:254,1,66.4999979705811,8|8,0:0|0:0,0:0:0:0:
77,188,20731,2,0,L|86:253,1,66.4999979705811,8|8,0:2|0:2,0:0:0:0:
217,360,21011,6,0,P|167:318|167:253,1,132.999995941162,6|0,1:2|0:0,0:0:0:0:
194,127,21458,2,0,P|152:176|87:176,1,132.999995941162,6|0,1:2|0:0,0:0:0:0:
113,92,21867,6,0,B|138:69|176:80|189:112|183:115|181:123|187:128|192:126|191:167|229:189|263:168,1,199.499993911743,6|2,1:2|0:3,0:0:0:0:
274,161,22364,1,2,0:3:0:0:
285,152,22435,2,0,L|292:76,1,66.4999979705811,2|2,0:3|0:3,0:0:0:0:
368,129,22689,2,0,L|375:53,1,66.4999979705811,2|2,0:3|0:3,0:0:0:0:
450,95,22943,5,2,0:1:0:0:
450,95,23246,6,0,B|495:146|495:146|470:206,1,132.999995941162,6|0,1:2|0:0,0:0:0:0:
511,289,23655,2,0,L|359:266,1,132.999995941162,6|8,1:2|0:0,0:0:0:0:
307,313,24062,2,0,L|300:237,1,66.4999979705811,8|8,0:0|0:0,0:0:0:0:
237,138,24337,6,0,B|192:189|192:189|217:249,1,132.999995941162,6|0,1:2|0:0,0:0:0:0:
175,332,24750,2,0,L|327:309,1,132.999995941162,6|8,1:2|3:0,0:0:0:0:
387,384,25174,2,0,L|394:308,1,66.4999979705811,4|4,3:0|3:0,0:0:0:0:
354,251,25440,5,6,1:2:0:0:
354,251,25744,6,0,P|323:232|306:202,1,71.2500027179719,8|8,0:0|0:0,0:0:0:0:
222,216,25994,2,0,P|222:180|240:150,1,71.2500027179719,10|8,0:0|0:0,0:0:0:0:
188,82,26252,2,0,P|218:65|254:65,1,71.2500027179719,8|8,0:0|0:0,0:0:0:0:
345,59,26539,5,6,1:2:0:0:
241,151,26675,1,8,0:0:0:0:
241,151,26744,1,8,0:0:0:0:
241,151,26812,2,0,L|191:164,3,47.5,8|8|8|8,0:0|0:0|0:0|0:0,0:0:0:0:
389,177,27086,5,8,0:0:0:0:
245,28,27226,1,6,1:2:0:0:
0,130,27631,6,0,B|95:134|54:195|160:204,1,174.900000000001,6|8,1:2|0:0,0:0:0:0:
292,221,28043,2,0,P|214:215|161:311,1,174.900000000001,2|0,1:2|1:0,0:0:0:0:
310,320,28456,2,0,L|332:137,1,174.900000000001,10|0,0:0|0:0,0:0:0:0:
347,59,28869,5,2,1:2:0:0:
421,33,29007,2,0,P|426:75|405:113,1,87.4500000000002,10|2,0:0|0:0,0:0:0:0:
273,85,29282,2,0,P|267:42|288:4,1,87.4500000000002,2|0,1:2|1:0,0:0:0:0:
471,184,29557,2,0,B|418:219|418:219|348:199,1,131.175,10|0,0:0|0:0,0:0:0:0:
338,207,29832,6,0,L|143:185,1,174.899999999998,2|8,1:2|0:0,0:0:0:0:
77,120,30246,2,0,P|124:145|95:252,1,174.900000000001,2|0,0:0|1:2,0:0:0:0:
0,305,30661,2,0,B|103:298|70:364|163:361,1,174.900005337525,10|0,0:0|0:0,0:0:0:0:
223,313,31072,69,2,1:2:0:0:
364,330,31208,2,0,P|409:333|447:310,1,87.4616747480844,10|2,0:2|1:2,0:0:0:0:
333,194,31499,2,0,P|307:231|308:275,1,87.4500000000003,2|2,1:2|1:2,0:0:0:0:
466,235,31771,2,0,P|446:194|407:173,1,87.4499999999996,10|2,0:2|0:2,0:0:0:0:
321,162,32052,70,0,B|327:101|327:101|320:75|320:75|328:-12,1,174.900000000001,6|8,1:2|0:0,0:0:0:0:
488,41,32464,2,0,P|455:100|359:86,1,174.900000000001,2|0,0:2|1:0,0:0:0:0:
240,45,32877,2,0,L|428:35,1,174.900000000001,10|0,0:0|0:0,0:0:0:0:
321,162,33290,69,2,1:2:0:0:
321,162,33428,2,0,P|276:159|242:132,1,87.4500000000002,10|2,0:2|0:2,0:0:0:0:
163,11,33703,2,0,P|182:51|176:94,1,87.4500000000002,2|2,1:2|1:2,0:0:0:0:
112,224,33978,2,0,P|137:186|177:170,1,87.4500000000002,10|2,0:2|0:2,0:0:0:0:
175,170,34391,70,0,L|305:189,1,95.4000000000022,14|0,0:0|0:0,0:0:0:0:
358,198,34666,1,0,1:0:0:0:
96,243,34804,6,0,L|248:265,1,103.349999999998,14|0,0:0|0:0,0:0:0:0:
310,275,35079,1,0,1:0:0:0:
17,316,35217,6,0,L|179:339,1,159.000000000002,14|0,0:0|1:0,0:0:0:0:
353,356,35629,1,14,0:0:0:0:
192,218,35761,5,8,0:0:0:0:
192,218,35827,1,8,0:0:0:0:
192,218,35893,6,0,L|201:279,1,39.7499999999976,8|0,0:0|0:0,0:0:0:0:
271,322,36026,2,0,L|280:261,1,39.7499999999976,8|0,0:0|0:0,0:0:0:0:
173,206,36160,6,0,L|182:267,1,39.7499999999984,8|0,0:0|0:0,0:0:0:0:
290,310,36297,2,0,L|297:253,1,39.75,8|0,0:0|0:0,0:0:0:0:
213,375,36447,22,0,P|155:335|85:341,1,142.500005435944,6|10,1:2|0:0,0:0:0:0:
26,288,36859,1,2,0:0:0:0:
26,288,36997,2,0,L|45:209,1,71.2500027179719,0|2,1:0|1:2,0:0:0:0:
37,136,37272,2,0,L|116:155,1,71.2500027179719,10|0,0:0|0:0,0:0:0:0:
294,190,37547,6,0,P|225:184|168:225,1,142.500005435944,2|8,1:2|0:0,0:0:0:0:
389,210,37960,1,2,1:2:0:0:
389,210,38098,2,0,L|370:131,1,71.2500027179719,2|0,1:2|1:0,0:0:0:0:
378,58,38373,2,0,L|299:77,1,71.2500027179719,10|2,0:0|0:0,0:0:0:0:
235,113,38648,6,0,L|46:85,2,142.500005435944,2|10|2,1:2|0:0|1:2,0:0:0:0:
308,74,39342,1,0,1:0:0:0:
308,74,39481,2,0,L|325:144,1,71.2500027179719,10|0,0:0|0:0,0:0:0:0:
206,269,39759,2,0,P|222:240|222:199,1,71.2500027179719,2|0,1:2|0:0,0:0:0:0:
332,258,40032,2,0,P|332:293|348:324,1,71.2500027179719,8|2,0:0|0:0,0:0:0:0:
247,375,40305,5,2,1:2:0:0:
247,375,40441,1,2,1:2:0:0:
206,269,40578,2,0,L|121:282,1,71.2500027179719,10|0,0:0|0:0,0:0:0:0:
41,341,40851,6,0,B|52:272|52:272|21:206,1,142.5,6|0,1:2|0:0,0:0:0:0:
28,199,41126,2,0,L|128:183,1,95,10|0,0:0|0:0,0:0:0:0:
314,269,41401,6,0,B|303:200|303:200|333:134,1,142.5,2|0,1:2|0:0,0:0:0:0:
331,124,41676,2,0,L|230:108,1,95,10|0,0:0|0:0,0:0:0:0:
145,3,41951,6,0,L|159:96,1,95,2|0,1:2|0:0,0:0:0:0:
244,32,42227,2,0,L|337:46,1,95,10|0,0:0|0:0,0:0:0:0:
406,6,42502,5,2,1:2:0:0:
406,6,42639,1,0,1:0:0:0:
457,70,42777,2,0,L|442:163,1,95,10|0,0:2|0:0,0:0:0:0:
511,247,43052,6,0,L|369:262,1,142.500005435944,2|8,1:2|0:0,0:0:0:0:
261,213,43466,1,2,0:0:0:0:
279,363,43604,2,0,P|283:327|299:296,1,71.2500027179719,2|0,1:2|1:0,0:0:0:0:
168,204,43881,2,0,P|184:235|188:270,1,71.2500027179719,10|2,0:0|0:2,0:0:0:0:
141,352,44157,5,2,1:2:0:0:
141,352,44296,1,0,0:0:0:0:
70,303,44434,2,0,L|-8:314,1,71.2500027179719,8|2,0:0|0:0,0:0:0:0:
158,331,44710,5,0,0:0:0:0:
158,331,44849,1,2,1:2:0:0:
87,282,44987,2,0,L|9:293,1,71.2500027179719,10|2,0:2|0:0,0:0:0:0:
70,202,45263,6,0,P|63:167|43:138,1,71.2500027179719,6|2,1:2|0:2,0:0:0:0:
16,47,45540,2,0,P|49:59|84:56,1,71.2500027179719,8|2,0:0|0:2,0:0:0:0:
177,78,45816,2,0,P|149:100|134:132,1,71.2500027179719,2|2,1:2|1:2,0:0:0:0:
70,202,46093,2,0,P|63:167|43:138,1,71.2500027179719,8|2,0:0|0:0,0:0:0:0:
215,149,46359,6,0,L|291:140,1,71.2500027179719,2|2,1:2|1:2,0:0:0:0:
348,79,46634,2,0,P|316:140|348:200,1,142.500005435944,10|2,0:2|1:2,0:0:0:0:
422,241,47047,1,0,1:0:0:0:
422,241,47184,2,0,L|431:317,1,71.2500027179719,10|0,0:2|0:0,0:0:0:0:
341,291,47459,6,0,L|265:300,1,71.2500027179719,2|0,1:2|0:0,0:0:0:0:
196,349,47732,2,0,L|187:273,1,71.2500027179719,8|2,0:0|0:0,0:0:0:0:
142,205,48006,2,0,L|218:196,1,71.2500027179719,2|2,1:2|1:2,0:0:0:0:
287,147,48280,2,0,L|296:223,1,71.2500027179719,8|2,0:0|1:2,0:0:0:0:
341,291,48554,5,0,1:0:0:0:
341,291,48691,1,0,1:0:0:0:
422,241,48828,2,0,L|413:170,1,71.2500027179719,8|2,0:0|0:0,0:0:0:0:
512,146,49102,5,2,1:2:0:0:
512,146,49239,1,2,1:2:0:0:
447,97,49376,2,0,L|455:26,1,71.2500027179719,10|2,0:0|0:0,0:0:0:0:
371,54,49656,6,0,L|300:62,1,71.2500027179719,6|0,1:2|0:0,0:0:0:0:
219,58,49921,2,0,P|282:85|301:151,1,142.500005435944,10|0,0:2|1:2,0:0:0:0:
366,203,50335,1,0,1:0:0:0:
366,203,50472,2,0,P|353:237|351:272,1,71.2500027179719,10|2,0:2|0:2,0:0:0:0:
277,329,50746,2,0,P|275:293|262:260,1,71.2500027179719,2|0,1:2|0:0,0:0:0:0:
203,184,51023,2,0,P|238:182|271:169,1,71.2500027179719,10|0,0:0|0:0,0:0:0:0:
346,112,51301,2,0,P|347:147|360:180,1,71.2500027179719,2|0,1:2|1:0,0:0:0:0:
420,257,51579,2,0,P|384:258|351:271,1,71.2500027179719,10|0,0:0|0:0,0:0:0:0:
208,384,51857,6,0,P|155:339|87:349,1,142.500005435944,2|8,1:2|0:0,0:0:0:0:
26,298,52273,1,2,0:0:0:0:
26,298,52412,2,0,P|26:262|11:230,1,71.2500027179719,2|0,1:2|1:0,0:0:0:0:
103,244,52690,2,0,P|138:244|170:229,1,71.2500027179719,8|0,0:0|0:0,0:0:0:0:
261,304,52968,6,0,B|219:249|219:249|248:181,1,142.5,2|0,1:2|0:0,0:0:0:0:
172,131,53243,2,0,B|252:112|268:191|351:177,1,190,12|0,0:2|1:2,0:0:0:0:
435,145,53656,5,8,0:0:0:0:
401,294,53793,1,8,0:0:0:0:
435,145,53931,1,8,0:0:0:0:
401,294,54068,38,0,P|443:288|482:283,1,79.5000000000009,6|2,1:2|0:2,0:0:0:0:
378,166,54344,2,0,P|338:160|299:155,1,79.5000000000009,10|2,0:0|0:2,0:0:0:0:
456,126,54619,1,2,1:2:0:0:
391,42,54785,2,0,P|330:35|279:90,1,119.25,12|0,0:0|0:0,0:0:0:0:
281,74,55077,6,0,B|190:72|220:23|128:20,1,159,12|0,0:2|1:2,0:0:0:0:
68,152,55452,2,0,P|117:148|150:116,1,79.5367857634151,8|0,0:0|0:0,0:0:0:0:
72,66,55747,2,0,P|26:69|-10:102,1,79.500000000001,2|0,1:2|1:0,0:0:0:0:
1,245,55993,1,8,0:0:0:0:
121,234,56130,5,2,0:2:0:0:
121,234,56199,1,2,0:0:0:0:
121,234,56268,2,0,L|107:317,1,79.5000000000038,2|0,1:2|0:0,0:0:0:0:
236,384,56535,2,0,L|222:305,1,79.500000000003,8|0,0:0|0:0,0:0:0:0:
204,218,56820,1,2,1:2:0:0:
315,321,56953,2,0,P|368:324|418:275,1,119.25,2|0,1:2|0:0,0:0:0:0:
417,275,57219,70,0,B|409:205|409:205|418:180|418:180|410:116,1,159.539153853533,10|2,0:0|1:2,0:0:0:0:
481,51,57636,2,0,P|438:51|386:-7,1,119.249999999996,12|0,0:0|0:0,0:0:0:0:
377,0,57919,1,4,3:0:0:0:
256,96,58054,69,8,0:0:0:0:
247,17,58190,1,8,0:0:0:0:
241,104,58326,1,10,0:0:0:0:
232,25,58461,70,0,L|148:13,1,79.4999999999999,6|0,1:2|0:0,0:0:0:0:
120,176,58740,2,0,B|141:142|141:142|132:97,1,79.5000000000038,8|2,0:0|0:0,0:0:0:0:
15,3,59019,1,2,1:2:0:0:
15,3,59158,2,0,L|28:122,1,119.249999999999,2|0,1:2|0:0,0:0:0:0:
27,128,59433,70,0,P|-10:162|6:261,1,160.049906950629,10|0,0:0|1:0,0:0:0:0:
22,364,59866,2,0,P|64:353|107:353,1,79.5000000000024,10|0,0:0|0:0,0:0:0:0:
167,268,60135,2,0,P|127:266|89:256,1,80.0823856925732,2|0,1:2|1:0,0:0:0:0:
219,336,60389,1,10,0:0:0:0:
320,256,60531,5,0,1:0:0:0:
328,251,60602,1,0,1:0:0:0:
337,246,60674,2,0,B|329:171|329:171|332:155|332:155|325:81,1,159.000000000002,6|8,1:2|0:0,0:0:0:0:
419,10,61086,1,0,0:0:0:0:
419,10,61224,2,0,B|427:52|427:52|406:87,1,79.4999999999991,2|0,1:2|1:0,0:0:0:0:
249,153,61488,2,0,L|241:62,1,79.4999999999987,10|2,0:0|0:2,0:0:0:0:
191,230,61776,6,0,P|249:249|340:185,1,159.000000000002,2|8,1:2|0:0,0:0:0:0:
448,305,62188,1,2,0:0:0:0:
386,356,62326,2,0,L|222:333,1,159.000000000006,2|10,1:2|0:2,0:0:0:0:
115,366,62739,5,2,0:0:0:0:
36,363,62876,2,0,P|82:294|172:314,1,158.999999999998,6|8,1:2|0:0,0:0:0:0:
228,334,63289,1,2,0:0:0:0:
228,334,63427,2,0,P|267:331|299:309,1,79.5000000000009,2|0,1:2|1:0,0:0:0:0:
293,150,63702,2,0,P|260:127|221:125,1,79.5000000000009,10|0,0:0|0:0,0:0:0:0:
56,192,63977,6,0,P|113:198|154:158,1,119.249998659234,2|0,1:2|0:0,0:0:0:0:
214,202,64247,70,0,P|117:221|87:127,1,214.650000000002,10|0,0:0|0:0,0:0:0:0:
77,53,64527,70,0,P|24:173|154:158,1,318.000000000004,10|0,0:0|0:0,0:0:0:0:
302,58,65077,6,0,L|499:37,2,190,6|8|0,1:2|0:0|1:2,0:0:0:0:
273,237,65765,1,0,1:0:0:0:
184,83,65902,2,0,P|210:122|217:169,1,95.4000013637503,10|0,0:0|0:0,0:0:0:0:
392,259,66177,6,0,B|362:196|362:196|395:129,1,143.100002045625,2|0,1:2|0:0,0:0:0:0:
400,122,66453,2,0,L|296:132,1,95.4000013637503,10|0,0:0|0:0,0:0:0:0:
179,248,66728,2,0,L|273:237,1,95.4000013637503,2|0,1:2|1:0,0:0:0:0:
420,307,66992,2,0,L|316:317,1,95,10|0,0:0|0:0,0:0:0:0:
262,384,67279,6,0,B|153:377|206:317|90:311,1,190,2|8,1:0|0:0,0:0:0:0:
25,365,67691,1,2,0:3:0:0:
25,365,67760,1,2,0:3:0:0:
25,365,67829,2,0,B|3:322|3:322|10:275,1,95,0|0,1:2|1:0,0:0:0:0:
93,311,68104,2,0,P|148:301|231:283,1,95,10|0,0:0|0:3,0:0:0:0:
307,180,68379,6,0,P|265:235|279:303,1,142.5,2|0,1:2|0:0,0:0:0:0:
286,308,68651,2,0,P|333:313|379:327,1,95,10|0,0:0|0:3,0:0:0:0:
457,384,68924,2,0,B|452:338|452:338|473:294,1,95,2|0,1:2|1:0,0:0:0:0:
399,142,69197,2,0,B|404:188|404:188|382:231,1,95,10|0,0:0|0:3,0:0:0:0:
498,107,69480,6,0,P|406:105|355:30,1,190,2|8,1:0|0:0,0:0:0:0:
450,33,69888,1,0,0:0:0:0:
473,217,70027,1,0,1:0:0:0:
314,164,70159,1,0,1:0:0:0:
314,164,70291,2,0,L|210:176,1,95,10|0,0:0|0:0,0:0:0:0:
95,154,70575,6,0,P|146:200|147:269,1,142.5,2|0,1:0|0:0,0:0:0:0:
153,276,70851,2,0,L|247:265,1,95,10|0,0:0|0:0,0:0:0:0:
294,364,71127,5,2,1:0:0:0:
323,234,71266,1,0,1:0:0:0:
294,364,71404,2,0,L|199:353,1,95,10|0,0:2|0:0,0:0:0:0:
360,311,71680,6,0,B|428:297|428:297|490:335,1,142.5,2|0,1:0|0:0,0:0:0:0:
498,330,71957,2,0,L|508:235,1,95,8|0,0:0|0:0,0:0:0:0:
437,95,72233,5,2,1:0:0:0:
375,223,72368,1,0,1:0:0:0:
375,223,72435,1,0,1:0:0:0:
375,223,72503,2,0,L|364:128,1,95,10|0,0:0|0:0,0:0:0:0:
290,274,72773,6,0,B|222:260|222:260|159:298,1,142.5,2|0,1:0|0:0,0:0:0:0:
154,289,73048,2,0,L|143:194,1,95,10|0,0:0|0:0,0:0:0:0:
1,93,73323,5,2,1:0:0:0:
63,221,73461,1,0,1:0:0:0:
63,221,73529,1,0,1:0:0:0:
63,221,73598,2,0,L|73:126,1,95,10|0,0:0|0:0,0:0:0:0:
245,11,73873,6,0,P|335:14|371:97,2,190,6|8|0,1:2|0:0|1:2,0:0:0:0:
192,71,74567,1,0,1:0:0:0:
192,71,74703,2,0,P|216:111|219:158,1,95,10|0,0:0|0:0,0:0:0:0:
108,251,74985,6,0,L|248:228,1,142.5,2|0,1:2|0:0,0:0:0:0:
254,235,75254,2,0,B|245:284|245:284|263:329,1,95,10|0,0:0|0:0,0:0:0:0:
378,188,75523,2,0,B|387:139|387:139|369:94,1,95,2|0,1:2|1:0,0:0:0:0:
330,276,75792,2,0,L|423:294,1,95,10|0,0:0|0:0,0:0:0:0:
293,114,76073,6,0,L|153:141,1,142.5,2|0,1:0|0:0,0:0:0:0:
146,134,76348,2,0,B|128:91|128:91|138:43,1,95,8|0,0:0|0:0,0:0:0:0:
328,40,76624,5,2,1:2:0:0:
378,188,76762,1,0,1:2:0:0:
378,188,76900,2,0,L|393:88,1,95,8|0,0:0|0:0,0:0:0:0:
500,247,77176,6,0,B|419:259|419:259|408:269|408:269|314:282,2,190,2|8|2,1:0|0:0|1:2,0:0:0:0:
446,344,77880,1,0,1:2:0:0:
378,188,78021,2,0,P|331:178|289:157,1,95,8|0,0:0|0:0,0:0:0:0:
250,239,78302,6,0,P|161:235|130:319,1,190,2|8,1:0|0:0,0:0:0:0:
206,366,78695,1,0,0:0:0:0:
206,366,78826,2,0,L|319:346,1,95,0|0,1:2|1:0,0:0:0:0:
485,294,79093,2,0,L|391:277,1,95,8|0,0:0|0:0,0:0:0:0:
326,190,79387,6,0,L|308:1,2,190,0|8|0,1:2|0:0|1:2,0:0:0:0:
364,266,80062,1,0,1:0:0:0:
227,219,80197,2,0,P|263:249|283:291,1,95,10|0,0:0|0:0,0:0:0:0:
236,135,80468,6,0,L|48:104,1,190,2|8,1:0|0:2,0:0:0:0:
25,31,80888,1,0,0:0:0:0:
48,104,81028,2,0,B|72:144|72:144|66:192,1,95,2|0,1:0|1:0,0:0:0:0:
5,271,81303,2,0,L|99:285,1,95,8|0,0:2|0:0,0:0:0:0:
228,125,81578,6,0,B|206:56|206:56|249:-2,1,142.5,2|0,1:0|0:0,0:0:0:0:
316,54,81855,5,14,0:2:0:0:
316,54,82133,5,2,1:0:0:0:
332,149,82269,1,8,0:0:0:0:
305,60,82405,1,8,0:0:0:0:
321,155,82540,1,8,0:0:0:0:
402,187,82675,6,0,P|336:189|288:315,1,190.799994177246,6|12,1:2|0:0,0:0:0:0:
267,381,83101,1,0,0:0:0:0:
337,348,83241,2,0,P|395:358|460:366,1,95.3999999999971,0|0,1:0|1:0,0:0:0:0:
202,232,83516,2,0,B|180:274|180:274|196:322,1,95.3999999999971,10|0,0:2|0:0,0:0:0:0:
267,381,83791,6,0,L|78:353,2,190,2|10|2,1:2|0:0|1:2,0:0:0:0:
340,342,84479,1,0,1:0:0:0:
340,342,84616,2,0,P|387:339|424:307,1,95.3999999999971,10|0,0:2|0:0,0:0:0:0:
461,227,84891,70,0,B|455:173|455:173|460:158|460:158|448:24,1,190.800002727501,2|8,1:0|0:0,0:0:0:0:
364,83,85304,1,2,0:3:0:0:
366,94,85373,1,2,0:3:0:0:
369,106,85442,2,0,P|318:94|263:87,1,95.3999999999971,0|0,1:2|1:2,0:0:0:0:
190,19,85717,2,0,P|237:12|283:1,1,95.3999999999971,10|0,0:0|0:0,0:0:0:0:
194,117,85992,70,0,P|139:100|25:166,2,190.799999999999,2|10|2,1:2|0:2|1:2,0:0:0:0:
256,161,86680,1,0,1:2:0:0:
225,230,86818,2,0,P|177:224|131:215,1,95.3999999999971,10|0,0:0|0:0,0:3:0:0:
36,294,87093,70,0,B|141:282|112:361|222:347,1,190.799999999996,2|8,1:0|0:0,0:0:0:0:
363,236,87500,1,0,0:0:0:0:
306,289,87635,2,0,P|293:342|292:388,1,95.399999999988,0|0,1:0|1:0,0:0:0:0:
474,357,87907,2,0,P|459:311|435:270,1,95.3999999999921,10|0,0:0|0:0,0:0:0:0:
282,208,88188,70,0,L|256:17,2,190,2|10|2,1:0|0:2|1:0,0:0:0:0:
383,44,88872,1,0,1:0:0:0:
383,44,89009,2,0,P|359:84|351:134,1,95.3999999999971,10|0,0:2|0:0,0:0:0:0:
270,310,89284,6,0,P|194:316|98:243,1,190.800000000001,2|8,1:0|0:0,0:0:0:0:
114,162,89698,1,0,0:0:0:0:
221,130,89836,2,0,P|196:178|187:217,1,95.3999999999906,2|0,1:0|1:0,0:0:0:0:
55,374,90113,2,0,P|43:327|20:286,1,95.3999999999906,10|0,0:2|0:0,0:0:0:0:
26,197,90389,6,0,B|38:116|38:116|48:105|48:105|61:11,2,190,2|10|2,1:0|0:2|1:0,0:0:0:0:
162,0,91081,1,0,1:0:0:0:
162,0,91219,2,0,P|173:45|152:87,1,95.4000000000006,10|0,0:0|0:0,0:0:0:0:
130,215,91495,6,0,P|201:172|309:186,1,190.800000000001,6|8,1:2|0:0,0:0:0:0:
497,87,91910,1,0,0:0:0:0:
426,127,92048,2,0,P|377:118|337:75,1,95.4000000000001,0|0,1:2|1:0,0:0:0:0:
347,273,92320,2,0,P|382:241|428:234,1,95.4000000000001,10|0,0:0|0:0,0:0:0:0:
304,183,92593,6,0,B|314:262|314:262|312:278|312:278|326:372,2,190,2|10|2,1:2|0:0|1:2,0:0:0:0:
249,113,93281,1,0,1:0:0:0:
344,88,93418,2,0,B|367:43|367:43|354:-1,1,95.3999999999971,10|0,0:0|0:0,0:0:0:0:
471,135,93693,70,0,P|378:126|303:182,1,190.800000000004,2|8,1:0|0:0,0:3:0:0:
336,263,94106,1,0,0:0:0:0:
336,263,94244,2,0,L|349:371,1,95.3999999999971,2|0,1:2|1:0,0:0:0:0:
193,162,94519,2,0,L|174:315,1,143.100000000001,8|0,0:0|0:0,0:0:0:0:
173,316,94794,70,0,B|75:303|97:373|-5:368,1,190.800000000004,2|8,1:0|0:0,0:0:0:0:
2,129,95207,1,0,0:0:0:0:
2,212,95345,2,0,P|42:236|97:239,1,95.3999999999971,2|0,1:2|1:0,0:0:0:0:
235,86,95620,2,0,P|155:81|116:129,1,143.100000000001,10|0,0:0|0:0,0:0:0:0:
109,137,95895,70,0,B|82:-16|82:-16|114:12|171:8,2,230.959585034899,6|8|0,1:2|0:0|1:2,0:0:0:0:
8,180,96589,1,0,1:0:0:0:
15,189,96654,1,0,1:0:0:0:
22,199,96720,2,0,P|15:255|4:302,1,95.3999999999946,10|2,0:0|0:2,0:0:0:0:
78,360,97015,70,0,B|183:373|148:295|254:306,1,190.8,6|8,1:2|0:0,0:0:0:0:
322,197,97414,1,0,0:0:0:0:
361,268,97547,2,0,P|342:313|334:363,1,95.3999999999982,2|0,1:2|1:2,0:0:0:0:
504,308,97818,2,0,P|474:269|435:237,1,95.4000000000006,8|0,0:0|0:0,0:0:0:0:
322,197,98097,6,0,P|397:203|489:125,1,190.800000000004,6|8,1:2|0:0,0:0:0:0:
410,37,98509,1,2,0:3:0:0:
401,45,98578,1,2,0:3:0:0:
391,52,98647,2,0,P|332:45|281:36,1,95.3999999999971,0|0,1:2|1:0,0:0:0:0:
217,95,98922,1,10,0:2:0:0:
217,95,99060,1,0,0:0:0:0:
105,12,99197,6,0,B|33:34|33:34|46:164,1,191.492938306504,6|10,1:2|0:2,0:0:0:0:
112,262,99612,2,0,L|121:201,1,47.7000000000053,2|2,0:0|0:0,0:0:0:0:
202,133,99752,5,10,0:0:0:0:
44,148,99896,1,8,0:0:0:0:
208,117,100031,1,10,0:0:0:0:
50,132,100169,1,8,0:0:0:0:
206,219,100310,6,0,P|295:238|330:322,1,190,6|8,1:2|0:0,0:0:0:0:
418,261,100730,2,0,L|512:249,1,95,2|2,0:2|1:2,0:0:0:0:
409,99,100997,1,0,1:0:0:0:
369,173,101124,6,0,B|294:140|294:140|323:36,1,190,10|0,0:0|0:0,0:0:0:0:
409,99,101545,1,2,1:2:0:0:
484,197,101683,6,0,P|445:224|420:264,1,95,10|2,0:2|0:2,0:0:0:0:
379,338,101958,2,0,P|374:290|352:249,1,95,2|0,1:2|1:0,0:0:0:0:
369,173,102233,2,0,L|275:189,1,95,10|2,0:0|0:0,0:0:0:0:
278,272,102511,6,0,B|162:253|162:253|131:277|96:280,1,190,2|8,1:2|0:0,0:0:0:0:
68,372,102921,2,0,B|62:318|62:318|67:303|67:303|55:169,1,190.800002727501,2|2,0:2|1:2,0:0:0:0:
36,33,103332,2,0,P|27:80|1:119,1,95,8|2,0:0|1:2,0:0:0:0:
106,108,103606,2,0,L|241:93,1,95,0|2,0:0|1:2,0:0:0:0:
381,75,103880,6,0,P|294:104|270:192,1,190,10|2,0:0|1:2,0:0:0:0:
401,157,104291,1,2,1:2:0:0:
482,111,104428,2,0,P|491:64|512:22,1,95,10|2,0:0|0:0,0:0:0:0:
417,171,104702,6,0,L|454:374,2,190,6|8|2,1:2|0:0|1:2,0:0:0:0:
352,296,105387,1,0,1:0:0:0:
352,295,105524,2,0,P|344:341|361:384,1,95,8|2,0:0|0:2,0:0:0:0:
262,356,105798,6,0,P|211:310|146:330,1,142.5,2|0,1:2|0:0,0:0:0:0:
137,333,106072,2,0,P|99:307|54:316,1,95,10|2,0:0|0:0,0:0:0:0:
0,241,106346,6,0,P|50:195|115:215,1,142.5,2|0,1:2|0:0,0:0:0:0:
123,218,106623,2,0,P|160:191|206:200,1,95,10|2,0:0|0:0,0:0:0:0:
344,118,106909,6,0,P|298:104|263:73,1,95,6|0,1:2|0:0,0:0:0:0:
342,201,107181,2,0,P|376:168|420:153,1,95,8|0,0:0|0:0,0:0:0:0:
270,158,107454,2,0,P|280:203|271:249,1,95,2|0,1:2|1:0,0:0:0:0:
220,334,107724,2,0,P|265:323|311:332,1,95,8|2,0:0|1:2,0:0:0:0:
381,281,108013,1,2,1:2:0:0:
381,281,108146,1,0,1:0:0:0:
404,370,108279,6,0,L|423:180,1,190,14|0,0:0|1:2,0:0:0:0:
395,24,108699,5,8,0:0:0:0:
350,101,108814,1,8,0:0:0:0:
287,41,108946,1,8,0:0:0:0:
245,115,109104,22,0,B|196:122|162:140|162:140|144:104|98:76,2,174.905291191835,6|12|0,1:2|0:0|1:0,0:0:0:0:
87,246,109806,2,0,P|43:237|-6:232,1,87.4500026687623,0|8,1:0|0:0,0:0:0:0:
137,169,110081,2,0,P|173:217|138:321,1,174.900005337525,2|2,1:2|1:2,0:0:0:0:
198,379,110492,1,8,0:0:0:0:
261,326,110632,2,0,P|312:333|350:338,1,87.4499999999929,2|2,0:0|1:2,0:0:0:0:
386,215,110914,1,0,1:2:0:0:
386,215,110975,1,0,1:2:0:0:
386,215,111036,2,0,P|342:209|299:203,1,87.4499999999907,8|0,0:2|0:0,0:0:0:0:
440,304,111313,6,0,B|450:231|450:231|435:199|435:199|444:112,2,174.900005337525,2|8|0,1:2|0:0|1:0,0:0:0:0:
438,57,111994,2,0,P|393:67|368:105,1,87.4500026687623,2|8,1:2|0:0,0:0:0:0:
305,49,112272,2,0,P|222:40|131:31,1,174.900005337525,2|2,1:2|1:2,0:0:0:0:
55,105,112693,1,8,0:0:0:0:
121,207,112830,2,0,P|170:204|201:173,1,87.4500000000009,2|2,0:2|1:2,0:0:0:0:
132,78,113104,1,0,1:2:0:0:
132,78,113173,1,0,1:0:0:0:
132,78,113241,2,0,P|83:81|52:112,1,87.4499984584387,8|2,0:0|0:0,0:0:0:0:
14,324,113521,6,0,B|113:339|87:279|184:294,1,174.899999999998,6|8,1:2|0:0,0:0:0:0:
248,341,113928,1,2,0:0:0:0:
353,247,114063,2,0,P|302:235|262:218,1,87.4499999999941,2|0,1:2|1:0,0:0:0:0:
323,384,114335,2,0,P|363:368|406:359,1,87.4499999999941,10|0,0:0|1:0,0:0:0:0:
481,210,114606,70,0,P|460:251|443:293,1,87.449999999998,0|2,0:0|1:2,0:0:0:0:
338,160,114885,2,0,P|347:205|353:250,1,87.4499999999889,10|2,0:0|0:0,0:0:0:0:
412,123,115164,70,0,P|470:129|494:94,1,87.4499999999955,2|2,1:2|1:2,0:0:0:0:
453,11,115439,2,0,P|395:5|371:40,1,87.4499999999955,10|0,0:0|0:0,0:0:0:0:
247,117,115714,70,0,P|253:88|262:64,1,43.7250000000024,2|0,1:2|0:0,0:0:0:0:
216,3,115851,2,0,P|222:23|226:45,1,43.7250000000024,2|0,0:0|0:0,0:0:0:0:
303,12,115989,1,10,0:0:0:0:
167,93,116126,2,0,B|77:76|98:140|-5:121,1,174.900000000001,2|2,0:2|1:2,0:0:0:0:
22,0,116539,2,0,P|67:11|112:15,1,87.4499999999955,10|2,0:0|1:2,0:0:0:0:
139,184,116814,69,2,1:2:0:0:
87,264,116952,1,2,0:0:0:0:
87,264,117021,1,2,0:0:0:0:
87,264,117090,2,0,P|89:313|93:359,1,87.4499999999955,14|2,0:0|1:2,0:0:0:0:
175,382,117365,5,2,1:2:0:0:
257,360,117498,1,8,0:0:0:0:
167,367,117631,1,8,3:0:0:0:
249,345,117769,1,4,3:0:0:0:
344,384,117908,6,0,B|333:339|333:339|348:292,1,95,6|2,1:2|0:0,0:0:0:0:
223,139,118175,2,0,B|234:184|234:184|218:230,1,95,10|0,0:2|0:0,0:0:0:0:
308,217,118475,6,0,L|354:207,1,47.5,2|0,1:2|0:0,0:0:0:0:
403,146,118609,2,0,L|382:306,1,142.5,14|0,0:0|0:0,0:0:0:0:
390,296,118878,6,0,P|299:301|264:384,1,190,14|0,0:0|1:2,0:0:0:0:
472,278,119290,6,0,L|484:183,1,95,10|0,0:0|0:0,0:0:0:0:
512,84,119579,2,0,P|465:89|422:70,1,95,2|0,1:2|1:0,0:0:0:0:
341,6,119843,2,0,P|346:52|327:95,1,95,10|2,0:2|0:3,0:0:0:0:
333,103,120053,1,2,0:3:0:0:
338,110,120123,2,0,L|325:204,1,95,2|0,1:2|0:0,0:0:0:0:
383,257,120398,5,8,0:0:0:0:
251,145,120535,1,2,0:0:0:0:
183,190,120673,6,0,L|137:180,1,47.5,2|0,1:2|0:0,0:0:0:0:
88,119,120811,2,0,L|106:260,1,142.5,2|0,1:2|0:0,0:0:0:0:
101,268,121086,6,0,P|191:272|227:355,1,190,8|2,0:0|0:0,0:0:0:0:
444,215,121499,2,0,P|353:219|317:302,1,190,8|8,0:0|0:2,0:0:0:0:
406,369,121911,5,10,0:0:0:0:
489,359,122049,1,10,0:0:0:0:
410,384,122187,1,10,0:0:0:0:
494,374,122324,2,0,P|497:326|510:281,1,95,6|0,1:2|0:0,0:0:0:0:
449,109,122600,2,0,P|462:154|465:201,1,95,10|0,0:2|0:0,0:0:0:0:
320,299,122875,6,0,L|330:253,1,47.5,2|0,1:2|0:0,0:0:0:0:
384,194,123012,2,0,L|242:212,1,142.5,2|0,1:2|0:0,0:0:0:0:
236,218,123288,6,0,P|145:213|109:130,1,190,10|0,0:0|1:0,0:0:0:0:
341,22,123700,2,0,P|327:66|344:110,1,95,10|0,0:0|0:0,0:0:0:0:
209,116,123976,2,0,P|254:104|284:68,1,95,8|4,3:0|3:0,0:0:0:0:
359,187,124251,2,0,P|326:153|280:145,1,95,4|0,3:0|0:0,0:0:0:0:
134,277,124521,54,0,P|81:267|12:322,1,127.200000000001,6|0,1:2|0:0,0:0:0:0:
26,198,124933,1,2,0:0:0:0:
153,152,125071,2,0,P|211:165|291:179,1,127.200000000001,10|0,0:2|0:0,0:0:0:0:
278,97,125484,1,8,0:0:0:0:
335,248,125621,6,0,B|373:197|373:197|352:134,1,127.200000000001,2|0,1:2|1:2,0:0:0:0:
388,17,126034,1,2,0:0:0:0:
454,56,126172,2,0,P|462:132|471:207,1,127.200000000001,10|0,0:2|1:0,0:0:0:0:
512,243,126585,1,2,0:0:0:0:
408,275,126722,6,0,P|372:324|394:388,1,127.200000000001,6|0,1:2|0:0,0:0:0:0:
465,352,127135,1,2,0:0:0:0:
294,314,127273,2,0,P|223:326|150:332,1,127.200000000001,10|0,0:2|1:2,0:0:0:0:
96,379,127686,1,2,1:2:0:0:
8,221,127823,2,0,B|82:227|58:268|129:273,1,127.200000000001,2|0,1:2|1:0,0:0:0:0:
186,217,128236,1,2,0:0:0:0:
112,96,128374,69,10,0:0:0:0:
112,96,128511,2,0,P|77:108|43:114,1,63.5999999999974,8|8,0:0|3:0,0:0:0:0:
171,35,128787,1,4,3:0:0:0:
286,155,128924,70,0,P|328:109|298:14,1,159.000000000002,14|0,0:2|1:0,0:0:0:0:
254,81,129337,1,8,3:0:0:0:
364,205,129475,2,0,L|373:309,1,79.4999999999967,4|4,3:0|3:0,0:0:0:0:
279,384,129750,2,0,L|285:304,1,79.4999999999967,14|0,0:0|0:0,0:0:0:0:
228,236,130034,70,0,B|134:246|165:182|60:193,1,159,2|2,1:2|0:0,0:0:0:0:
220,109,130439,1,0,1:0:0:0:
220,109,130574,6,0,P|181:119|141:120,1,79.4999999999999,14|0,0:0|0:0,0:0:0:0:
301,11,130844,1,8,0:0:0:0:
301,11,130967,1,8,0:0:0:0:
359,142,131126,21,2,0:0:0:0:
359,142,131401,22,0,B|344:133|353:102|382:104|390:89|390:89|392:108|422:115|419:144|405:149,1,142.5,6|0,1:2|0:0,0:0:0:0:
242,117,131676,22,0,B|224:123|205:94|227:71|220:54|220:54|237:66|264:45|286:68|281:84,1,156.750004783631,6|0,1:2|0:0,0:0:0:0:
194,244,131951,22,0,B|193:259|153:262|143:227|122:224|122:224|143:214|139:176|174:167|186:182,1,170.999994781494,6|0,1:2|0:0,0:0:0:0:
306,321,132226,6,0,B|322:336|304:374|267:365|253:382|253:382|255:357|218:341|228:305|248:302,1,185.249991519928,6|0,1:2|0:0,0:0:0:0:
441,240,132502,6,0,B|457:233|484:273|454:303|463:326|463:326|440:310|404:337|375:307|386:285,1,199.499993911743,6|0,1:2|0:0,0:0:0:0:
387,84,132777,6,0,B|392:60|440:56|453:99|478:102|478:102|452:115|458:161|415:171|401:151,1,213.750008153916,6|0,1:2|0:0,0:0:0:0:
227,69,133052,6,0,B|206:51|229:5|274:16|291:-4|291:-4|289:25|334:44|322:89|295:92,1,228,6|0,1:2|0:0,0:0:0:0:
174,129,133327,5,2,0:0:0:0:
324,194,137181,6,0,B|340:180|327:135|290:143|262:119|262:119|252:149|216:160|222:212|249:216,1,228,6|0,1:2|0:0,0:0:0:0:
185,290,137456,6,0,B|201:303|188:348|151:340|123:364|123:364|113:334|77:323|83:271|111:266,1,228,6|0,1:2|0:0,0:0:0:0:
133,183,137731,6,0,B|157:159|124:102|80:118|47:94|47:94|36:140|-6:159|13:214|40:217,2,285.000010871888,6|8|0,1:2|0:0|1:0,0:0:0:0:
150,53,138421,1,0,1:0:0:0:
216,110,138554,2,0,P|262:115|300:88,1,95,10|0,0:0|0:0,0:0:0:0:
404,92,138821,6,0,B|360:148|360:148|380:216,1,142.5,2|0,1:0|0:0,0:0:0:0:
385,224,139096,2,0,P|342:203|295:206,1,95,10|0,0:2|0:0,0:0:0:0:
190,260,139371,2,0,P|210:217|207:170,1,95,2|0,1:0|1:0,0:0:0:0:
168,83,139652,2,0,L|261:99,1,95,10|0,0:2|0:0,0:0:0:0:
328,58,139927,6,8,B|419:46|407:129|502:119,2,190,2|8|2,1:0|0:0|1:0,0:0:0:0:
233,0,140615,1,0,1:0:0:0:
162,98,140752,2,0,P|150:51|130:8,1,95,10|0,0:0|0:0,0:0:0:0:
261,99,141027,2,0,P|241:142|229:188,1,95,2|0,1:0|0:0,0:0:0:0:
148,283,141303,6,0,P|220:227|309:255,1,190,10|2,0:0|1:0,0:0:0:0:
357,188,141712,1,0,1:0:0:0:
414,302,141847,2,0,B|412:257|412:257|437:213,1,95,10|0,0:0|0:0,0:0:0:0:
334,331,142116,6,0,B|242:309|249:394|157:377,1,190,6|8,1:2|0:0,0:0:0:0:
69,333,142553,1,2,0:3:0:0:
69,333,142622,1,2,0:3:0:0:
69,333,142691,2,0,B|73:286|73:286|56:241,1,95,0|0,1:2|1:0,0:0:0:0:
0,170,142949,2,0,L|94:158,1,95,10|0,0:2|0:0,0:0:0:0:
302,128,143230,6,0,B|261:188|261:188|278:255,1,142.5,2|0,1:2|0:0,0:0:0:0:
281,268,143505,2,0,L|186:256,1,95,10|0,0:0|0:0,0:0:0:0:
352,59,143780,5,2,1:2:0:0:
369,189,143918,1,0,1:2:0:0:
352,59,144055,2,0,L|446:47,1,95,10|0,0:0|0:0,0:0:0:0:
208,100,144330,6,0,P|133:46|45:73,2,190,2|8|2,1:0|0:0|1:2,0:0:0:0:
280,16,145021,1,0,1:0:0:0:
364,184,145159,2,0,P|345:141|352:95,1,95,8|0,0:0|0:0,0:0:0:0:
288,256,145435,6,0,L|99:235,2,190,2|8|2,1:0|0:0|1:2,0:0:0:0:
365,185,146127,1,0,1:2:0:0:
436,315,146265,2,0,P|429:268|448:225,1,95,8|0,0:0|0:0,0:0:0:0:
457,121,146541,6,0,B|370:98|367:176|277:159,1,190,2|8,1:0|0:0,0:0:0:0:
171,90,146948,1,2,0:3:0:0:
171,90,147016,1,2,0:3:0:0:
171,90,147083,2,0,P|194:148|206:194,1,95,0|0,1:2|1:0,0:0:0:0:
355,100,147355,2,0,P|368:54|386:10,1,95,8|0,0:0|0:0,0:0:0:0:
278,160,147642,6,0,B|287:237|287:237|294:249|294:249|307:349,2,190,0|8|0,1:2|0:0|1:2,0:0:0:0:
373,202,148323,1,0,1:0:0:0:
373,202,148454,2,0,P|420:195|465:180,1,95,10|0,0:0|0:0,0:0:0:0:
470,315,148735,2,0,P|425:299|377:293,1,95,2|0,1:0|0:0,0:0:0:0:
306,346,149010,6,0,P|230:294|144:325,1,190,12|2,0:2|1:0,0:0:0:0:
217,384,149423,1,0,1:0:0:0:
129,238,149560,2,0,P|81:233|36:220,1,95,12|0,0:2|0:0,0:0:0:0:
200,179,149835,6,0,L|186:37,1,142.5,2|0,1:0|0:0,0:0:0:0:
193,33,150111,6,0,P|305:46|295:145,1,213.750008153916,14|0,0:2|0:0,0:0:0:0:
354,197,150386,5,2,1:0:0:0:
278,210,150526,1,8,0:0:0:0:
357,212,150666,1,8,0:0:0:0:
281,225,150794,1,8,0:0:0:0:
455,171,150938,6,0,P|435:213|438:260,1,95,6|0,1:2|0:0,0:0:0:0:
308,127,151215,2,0,L|166:110,1,142.5,12|0,0:0|0:0,0:0:0:0:
156,110,151493,5,0,1:0:0:0:
231,169,151628,1,0,1:0:0:0:
134,274,151764,2,0,P|179:259|226:252,1,95,10|0,0:0|0:0,0:0:0:0:
175,368,152037,6,0,B|268:386|257:301|353:330,1,190,2|8,1:2|0:0,0:0:0:0:
416,369,152453,1,8,0:0:0:0:
497,315,152592,6,0,B|518:312|524:262|489:251|479:223|479:223|452:246|417:238|404:281|420:295,1,213.750008153916,6|0,1:2|0:0,0:0:0:0:
328,250,152870,6,0,B|306:247|300:197|335:186|345:158|345:158|372:181|407:173|420:216|405:228,1,213.750008153916,6|0,1:2|0:0,0:0:0:0:
498,178,153148,6,0,B|519:175|525:125|490:114|480:86|480:86|453:109|418:101|405:144|420:156,1,213.750008153916,6|0,1:2|0:0,0:0:0:0:
358,60,153423,6,0,P|334:58|311:52,3,47.5,8|8|8|8,0:0|0:0|0:0|0:0,0:0:0:0:
256,111,153698,6,0,P|232:112|209:118,3,47.5,8|8|8|8,0:0|0:0|0:0|0:0,0:0:0:0:
155,52,153973,6,0,P|142:71|125:88,3,47.5,8|8|8|8,0:0|0:0|0:0|0:0,0:0:0:0:
145,171,154248,6,0,P|134:192|128:215,3,47.5,8|8|8|8,0:0|0:0|0:0|0:0,0:0:0:0:
53,242,154521,6,0,P|63:263|69:286,3,47.5,8|8|8|8,0:0|0:0|0:0|0:0,0:0:0:0:
142,326,154795,5,8,0:0:0:0:
151,327,154863,1,8,0:0:0:0:
160,328,154931,1,8,0:0:0:0:
169,329,154999,1,8,0:0:0:0:
178,330,155067,1,8,0:0:0:0:
187,331,155135,1,8,0:0:0:0:
196,332,155204,1,8,0:0:0:0:
205,333,155272,1,8,0:0:0:0:
223,313,155340,6,0,P|269:298|316:292,1,95,6|0,1:2|0:0,0:0:0:0:
297,194,155643,6,0,B|199:174|209:258|113:241,1,190,12|0,0:0|1:2,0:0:0:0:
54,155,156049,1,0,1:2:0:0:
139,94,156176,2,0,P|184:108|231:114,1,95,10|0,0:0|0:0,0:0:0:0:
352,42,156457,6,0,B|322:109|322:109|352:171,1,142.5,2|0,1:0|0:0,0:0:0:0:
357,179,156732,2,0,L|258:192,1,95,10|0,0:0|0:0,0:0:0:0:
163,166,157007,6,0,B|193:233|193:233|162:295,1,142.5,2|0,1:0|0:0,0:0:0:0:
158,303,157282,2,0,L|257:316,1,95,10|0,0:2|0:0,0:0:0:0:
332,368,157557,6,0,L|309:179,2,190,2|8|2,1:0|0:0|1:0,0:0:0:0:
405,257,158245,1,0,1:0:0:0:
498,364,158383,2,0,B|455:341|455:341|395:349,1,95,10|0,0:0|0:0,0:0:0:0:
252,315,158658,2,0,L|157:327,1,95,2|0,1:0|0:0,0:0:0:0:
51,317,158934,6,0,B|64:252|64:252|26:185,1,142.5,10|0,0:0|0:0,0:0:0:0:
34,180,159209,2,0,L|128:167,1,95,2|0,1:0|1:2,0:0:0:0:
232,235,159484,2,0,P|224:188|241:144,1,95,10|0,0:2|0:0,0:0:0:0:
319,287,159759,22,0,L|131:257,1,190.799999999994,6|8,1:2|0:0,0:0:0:0:
42,208,160172,1,0,0:0:0:0:
46,381,160310,2,0,B|73:342|73:342|53:266,1,95.4000000000072,0|0,1:2|1:0,0:0:0:0:
57,113,160585,2,0,L|42:207,1,95.4000000000072,10|0,0:0|0:0,0:0:0:0:
175,73,160860,6,0,P|111:25|-2:41,2,190,2|10|2,1:2|0:0|1:2,0:0:0:0:
219,143,161541,1,0,1:0:0:0:
309,52,161678,2,0,L|403:67,1,95.4000000000001,10|0,0:2|0:0,0:0:0:0:
500,29,161950,6,0,P|449:74|464:196,1,190.8,2|8,1:0|0:0,0:0:0:0:
388,243,162360,1,2,0:3:0:0:
388,243,162428,1,2,0:3:0:0:
388,243,162496,2,0,P|392:292|397:338,1,95.3999999999947,2|0,1:2|1:0,0:0:0:0:
496,372,162776,2,0,P|501:324|504:277,1,95.4000000000145,8|0,0:0|0:0,0:0:0:0:
391,212,163056,70,0,B|279:199|324:274|189:253,1,190.799999999994,2|8,1:0|0:0,0:0:0:0:
139,207,163468,1,0,0:0:0:0:
59,367,163606,2,0,P|104:354|177:347,1,95.4000000000072,2|0,1:2|1:0,0:0:0:0:
139,207,163881,2,0,P|93:220|41:224,1,95.4000000000072,8|0,0:0|0:0,0:0:0:0:
191,115,164156,70,0,P|97:100|4:81,2,190,4|8|0,1:2|0:0|1:0,0:0:0:0:
271,0,164850,1,0,1:0:0:0:
271,0,164915,1,0,1:0:0:0:
271,0,164981,2,0,B|291:43|291:43|274:88,1,95.4000000000134,10|2,0:0|0:2,0:0:0:0:
237,217,165276,70,0,P|286:170|405:184,1,190.799994177246,6|8,1:2|0:0,0:0:0:0:
512,167,165673,1,0,0:0:0:0:
470,101,165814,2,0,P|411:90|364:75,1,95.4000000000204,2|0,1:2|1:0,0:0:0:0:
442,326,166078,2,0,P|450:279|463:233,1,95.4000000000212,8|0,0:0|0:0,0:0:0:0:
332,147,166365,70,0,L|354:363,1,190.799999999983,6|8,1:2|0:0,0:0:0:0:
267,373,166768,1,0,0:0:0:0:
267,373,166903,2,0,P|218:377|178:343,1,95.4000013637503,0|0,1:0|1:0,0:0:0:0:
109,238,167172,1,10,0:2:0:0:
109,238,167319,1,0,0:0:0:0:
31,307,167466,6,0,B|130:319|114:251|216:266,1,190.799999999994,6|8,1:2|0:0,0:0:0:0:
278,207,167878,1,6,1:2:0:0:
225,86,168016,6,0,P|159:92|58:97,1,143.100000000001,2|0,1:2|0:0,0:0:0:0:
106,110,168291,6,0,P|159:106|213:102,1,107.325000000001,8|0,0:0|0:0,0:0:0:0:
299,26,168566,6,0,B|410:41|361:102|482:123,1,190.8,6|8,1:2|0:0,0:0:0:0:
340,242,168975,2,0,P|335:183|333:122,1,95.4000013637503,6|0,1:2|1:0,0:0:0:0:
488,200,169244,1,0,1:0:0:0:
488,200,169311,1,0,1:0:0:0:
488,200,169377,2,0,P|485:247|481:295,1,95.3999999999906,10|2,0:0|0:0,0:0:0:0:
370,354,169656,70,0,P|272:378|187:341,1,190.08331627483,2|8,1:2|0:0,0:0:0:0:
178,233,170066,1,6,1:2:0:0:
178,233,170211,2,0,L|281:242,1,95.4000000000145,2|0,1:2|1:0,0:0:0:0:
165,121,170491,2,0,L|268:112,1,95.3999999999979,8|0,0:0|0:0,0:0:0:0:
503,111,170768,70,0,B|396:97|430:185|300:167,1,190.799999999999,6|8,1:2|0:0,0:0:0:0:
297,5,171157,1,0,1:0:0:0:
260,114,171308,2,0,P|268:65|274:20,1,95,2|0,0:0|1:0,0:0:0:0:
165,121,171576,1,10,0:0:0:0:
165,121,171717,1,2,0:0:0:0:
105,36,171858,70,0,P|61:106|103:207,1,190.799999999994,6|2,1:2|1:2,0:0:0:0:
168,244,172270,1,0,0:0:0:0:
287,103,172408,69,10,0:0:0:0:
274,222,172546,1,8,0:0:0:0:
303,108,172683,1,10,0:0:0:0:
290,227,172821,1,8,0:0:0:0:
334,26,172958,6,0,B|428:10|412:88|509:79,1,190,6|0,1:2|0:0,0:0:0:0:
429,158,173382,2,0,L|403:373,1,190,6|0,1:2|0:0,0:0:0:0:
215,339,173787,6,0,B|191:337|180:276|232:265|244:222|244:222|270:258|327:245|339:309|310:325,1,285,6|8,1:2|0:0,0:0:0:0:
406,346,174272,1,8,0:0:0:0:
406,347,174343,2,0,P|409:300|435:261,1,95,8|8,0:0|0:0,0:0:0:0:
370,216,174598,5,8,0:0:0:0:
370,216,174731,1,8,0:0:0:0:
496,114,174854,2,0,P|456:140|410:143,1,95,4|4,3:0|3:0,0:0:0:0:
316,0,175140,6,0,L|332:189,1,190,6|0,1:2|0:0,0:0:0:0:
240,267,175568,2,0,L|223:77,1,190,6|0,1:2|0:0,0:0:0:0:
316,0,175997,6,0,B|332:-27|396:-15|383:41|419:67|419:67|376:79|365:131|303:120|301:95,1,285,6|0,1:2|0:0,0:0:0:0:
156,135,176532,6,0,P|85:144|20:173,1,142.5,4|0,3:0|0:0,0:0:0:0:
0,93,176832,5,10,0:0:0:0:
202,207,176971,1,10,0:0:0:0:
