osu file format v14

[General]
AudioFilename: audio.mp3
AudioLeadIn: 0
PreviewTime: 55903
Countdown: 0
SampleSet: Soft
StackLeniency: 0.3
Mode: 0
LetterboxInBreaks: 0
WidescreenStoryboard: 1

[Editor]
Bookmarks: 10491,19298,36912
DistanceSpacing: 1.12
BeatDivisor: 4
GridSize: 32
TimelineZoom: 3.700004

[Metadata]
Title:Fanfare
TitleUnicode:ファンファーレ
Artist:sumika
ArtistUnicode:sumika
Creator:Teky
Version:Normal
Source:君の膵臓をたべたい
Tags:Mohab500 realy0_ kimi no suizou wo tabetai kimisui i want to eat your pancreas anime jpop j-pop
BeatmapID:2102122
BeatmapSetID:1004378

[Difficulty]
HPDrainRate:3
CircleSize:2.6
OverallDifficulty:4
ApproachRate:6
SliderMultiplier:0.85
SliderTickRate:1

[Events]
//Background and Video events
0,0,"978466.jpg",0,0
//Break Periods
//Storyboard Layer 0 (Background)
//Storyboard Layer 1 (Fail)
//Storyboard Layer 2 (Pass)
//Storyboard Layer 3 (Foreground)
//Storyboard Layer 4 (Overlay)
//Storyboard Sound Samples

[TimingPoints]
9803,275.229357798165,4,2,1,70,1,0
16408,-111.111111111111,4,2,1,70,0,0
18610,-95.2380952380952,4,2,2,80,0,0
26454,264.31718061674,4,2,2,80,1,0
26850,-95.2380952380952,4,2,2,80,0,0
27417,275.229357798165,4,2,2,50,1,0
27417,-111.111111111111,4,2,2,50,0,0
45031,-111.111111111111,4,2,2,65,0,0
45994,-100,4,2,2,65,0,0
56040,-90.9090909090909,4,2,3,90,0,1
91270,-100,4,2,1,65,0,0
95123,-100,4,2,3,65,0,0

[Colours]
Combo1 : 0,255,128
Combo2 : 255,128,192
Combo3 : 255,128,128
Combo4 : 128,255,255

[HitObjects]
51,71,9803,6,0,P|117:60|193:72,2,127.509916666666,4|4|4,2:0|2:0|2:0,2:0:0:0:
467,71,12004,2,0,P|401:60|328:71,2,127.509916666666,4|4|4,2:0|2:0|2:0,2:0:0:0:
76,239,14206,6,0,L|213:227,1,127.664333333333,4|4,2:0|2:0,2:0:0:0:
319,295,15032,2,0,L|379:298,1,42.5,0|0,3:0|3:0,2:0:0:0:
397,297,15307,6,0,P|387:237|412:167,1,127.5,4|4,2:0|2:0,2:0:0:0:
479,121,15995,1,0,2:0:0:0:
479,121,16133,2,0,L|428:88,1,42.5,2|0,3:0|3:0,2:0:0:0:
401,76,16408,6,0,P|327:66|234:85,2,153.104545330811,4|2|2,2:0|2:0|2:0,2:0:0:0:
8,48,18610,6,0,L|109:57,1,89.4731222763061,4|10,2:0|2:0,2:0:0:0:
138,72,19023,1,2,2:0:0:0:
138,72,19160,1,2,3:0:0:0:
221,39,19436,2,0,L|309:31,1,89.4731222763061,10|0,2:0|3:0,2:0:0:0:
382,82,19986,1,10,2:0:0:0:
470,51,20261,2,0,P|491:101|491:143,1,89.4731222763061,2|10,3:0|2:0,2:0:0:0:
450,219,20812,5,2,3:0:0:0:
367,184,21087,1,10,2:0:0:0:
367,184,21225,1,2,2:0:0:0:
274,198,21500,1,2,3:0:0:0:
274,198,21637,2,0,B|168:208,1,89.4731222763061,10|0,2:0|2:0,2:0:0:0:
91,215,22188,1,10,2:0:0:0:
41,300,22463,1,2,3:0:0:0:
113,358,22738,1,10,2:0:0:0:
211,349,23014,6,0,B|249:363|249:363|298:355,1,89.4731222763061,6|10,3:0|2:0,2:0:0:0:
340,345,23426,1,2,2:0:0:0:
340,345,23564,1,0,3:0:0:0:
428,332,23839,2,0,L|435:239,2,89.3109847763061,10|2|10,2:0|3:0|2:0,2:0:0:0:
340,345,24665,1,2,3:0:0:0:
350,251,24940,1,10,2:0:0:0:
326,113,25353,6,0,L|222:120,1,89.4731222763061,4|0,2:0|2:0,2:0:0:0:
206,83,25766,2,0,L|102:76,1,89.4731222763061,4|0,2:0|2:0,2:0:0:0:
78,50,26179,5,4,2:0:0:0:
16,120,26454,1,10,2:1:0:0:
52,206,26718,1,8,2:1:0:0:
52,206,26850,2,0,L|57:268,1,44.7856486381531,8|8,2:1|2:1,2:0:0:0:
23,277,27114,2,0,L|28:339,1,44.7856486381531,8|8,2:1|2:1,2:0:0:0:
48,352,27417,6,0,L|141:342,1,76.6912476654053,6|8,2:0|2:0,2:0:0:0:
205,367,27967,2,0,L|298:377,1,76.6912476654053,0|8,3:0|2:0,2:0:0:0:
352,330,28517,2,0,L|428:321,2,76.5522726654053,0|8|0,3:0|2:0|3:0,2:0:0:0:
276,292,29343,1,8,2:0:0:0:
324,223,29618,6,0,L|337:130,1,76.6912476654053,0|8,3:0|2:0,2:0:0:0:
265,98,30169,2,0,L|252:5,1,76.6912476654053,0|8,3:0|2:0,2:0:0:0:
170,11,30719,1,0,3:0:0:0:
142,136,31132,1,0,2:0:0:0:
142,136,31270,2,0,L|152:224,1,76.6912476654053,0|8,3:0|2:0,2:0:0:0:
217,266,31820,6,0,L|207:354,2,76.5522726654053,2|8|0,3:0|2:0|3:0,2:0:0:0:
279,208,32646,1,8,2:0:0:0:
349,253,32921,2,0,L|359:341,2,76.5522726654053,0|8|0,3:0|2:0|3:0,2:0:0:0:
279,208,33747,1,8,2:0:0:0:
311,129,34022,6,0,L|316:39,1,76.6912476654053,0|8,3:0|2:0,2:0:0:0:
322,11,34435,1,0,2:0:0:0:
322,11,34572,1,0,3:0:0:0:
401,40,34848,1,10,2:0:0:0:
482,16,35123,2,0,L|492:103,2,76.5522726654053,2|10|2,3:0|2:0|3:0,2:0:0:0:
353,16,36086,1,0,2:0:0:0:
353,16,36224,6,0,L|266:25,1,76.6912476654053,2|8,3:0|2:0,2:0:0:0:
200,61,36774,2,0,L|113:52,1,76.6912476654053,0|8,3:0|2:0,2:0:0:0:
62,113,37325,1,0,3:0:0:0:
73,198,37600,1,8,2:0:0:0:
38,276,37875,2,0,L|31:360,1,76.6912476654053,0|8,3:0|2:0,2:0:0:0:
112,380,38426,5,0,3:0:0:0:
189,347,38701,1,8,2:0:0:0:
268,376,38976,2,0,L|350:380,1,76.6912476654053,0|8,3:0|2:0,2:0:0:0:
413,331,39527,2,0,L|489:327,1,76.6912476654053,0|8,3:0|2:0,2:0:0:0:
507,243,40077,1,0,3:0:0:0:
438,191,40352,1,8,2:0:0:0:
364,248,40628,6,0,L|279:239,2,76.5522726654053,2|8|0,3:0|2:0|3:0,2:0:0:0:
376,164,41453,1,8,2:0:0:0:
300,127,41728,2,0,L|215:136,1,76.6912476654053,0|8,3:0|2:0,2:0:0:0:
217,50,42279,2,0,L|302:41,1,76.6912476654053,0|8,3:0|2:0,2:0:0:0:
371,71,42829,6,0,L|447:62,1,76.6912476654053,0|8,3:0|2:0,2:0:0:0:
489,60,43242,1,0,2:0:0:0:
489,60,43380,1,0,3:0:0:0:
492,144,43655,2,0,P|504:181|491:227,2,76.5522726654053,8|0|8,2:0|3:0|2:0,2:0:0:0:
417,182,44481,2,0,L|367:174,1,38.2499988327027,10|8,2:1|2:1,2:0:0:0:
338,189,44756,2,0,L|289:196,1,38.4845988327027,8|8,2:1|2:1,2:0:0:0:
260,180,45031,5,4,2:0:0:0:
183,225,45306,1,8,2:0:0:0:
183,225,45444,1,0,2:0:0:0:
100,190,45719,1,8,2:0:0:0:
17,223,45994,2,0,L|13:128,1,85.2124999999999,8|0,2:0|3:0,2:0:0:0:
21,96,46407,2,0,P|60:101|112:81,2,85.0580833333331,8|0|8,2:0|3:0|2:0,2:0:0:0:
50,11,47233,5,0,3:0:0:0:
139,5,47508,1,8,2:0:0:0:
191,77,47783,1,0,3:0:0:0:
191,77,47921,1,0,3:0:0:0:
272,40,48196,2,0,L|375:47,1,85.2124999999999,8|0,2:0|3:0,2:0:0:0:
400,54,48609,1,8,2:0:0:0:
488,44,48884,2,0,L|495:87,1,42.7606666666665,0|8,2:0|2:1,2:0:0:0:
475,126,49160,2,0,L|467:171,1,42.5,8|8,2:1|2:1,2:0:0:0:
489,207,49435,5,4,2:0:0:0:
492,296,49710,1,8,2:0:0:0:
409,330,49985,1,0,3:0:0:0:
409,330,50123,1,0,3:0:0:0:
344,266,50398,2,0,L|258:273,1,85.2124999999999,8|0,2:0|3:0,2:0:0:0:
219,283,50811,1,0,3:0:0:0:
140,241,51086,1,0,3:0:0:0:
57,275,51361,1,8,2:0:0:0:
14,196,51637,6,0,L|24:101,1,85.2124999999999,0|8,3:0|2:0,2:0:0:0:
104,75,52187,1,0,3:0:0:0:
173,131,52462,2,0,L|226:126,1,42.7606666666665,8|0,2:0|2:0,2:0:0:0:
250,154,52738,2,0,L|245:250,1,85.2124999999999,0|8,3:0|2:0,2:0:0:0:
227,279,53150,1,0,2:0:0:0:
227,279,53288,1,0,3:0:0:0:
292,339,53563,1,8,2:0:0:0:
374,304,53839,6,0,L|461:315,2,85.0580833333332,0|8|0,3:0|2:0|3:0,2:0:0:0:
285,313,54664,5,8,2:0:0:0:
290,223,54939,1,8,2:0:0:0:
258,139,55215,1,8,2:0:0:0:
187,83,55490,1,8,2:0:0:0:
385,69,56040,6,0,L|491:57,2,93.5638945200602,6|8|0,3:2|2:0|3:0,2:0:0:0:
311,127,56866,1,10,2:0:0:0:
234,73,57141,2,0,L|128:61,2,93.5638945200602,2|10|2,3:0|2:0|3:0,2:0:0:0:
311,127,57967,2,0,L|318:186,1,47.03673476003,10|0,2:0|2:0,2:0:0:0:
314,220,58242,6,0,P|268:210|209:232,2,93.5638945200602,6|8|0,3:0|2:0|3:0,2:0:0:0:
394,268,59068,2,0,P|440:278|499:256,2,93.5638945200602,10|2|10,2:0|3:0|2:0,2:0:0:0:
351,351,59894,1,2,3:0:0:0:
258,335,60169,2,0,L|195:345,1,46.7500014266968,10|0,2:0|2:0,2:0:0:0:
166,330,60444,6,0,B|179:291|179:291|163:230,2,93.5000028533936,6|8|0,3:0|2:0|3:0,2:0:0:0:
73,344,61270,1,10,2:0:0:0:
47,255,61545,2,0,L|39:156,2,93.5638945200602,2|10|2,3:0|2:0|3:0,2:0:0:0:
125,203,62371,2,0,L|191:208,1,46.7500014266968,10|0,2:0|2:0,2:0:0:0:
211,231,62646,6,0,L|311:227,1,93.7337528533935,6|8,3:0|2:0,2:0:0:0:
392,257,63196,1,2,3:1:0:0:
462,195,63472,2,0,L|467:139,1,46.7500014266968,10|0,2:0|2:0,2:0:0:0:
473,102,63747,1,2,3:1:0:0:
412,30,64022,2,0,L|346:44,1,47.03673476003,10|0,2:0|2:0,2:0:0:0:
314,44,64297,2,0,L|248:30,1,47.03673476003,2|0,3:1|3:0,2:0:0:0:
231,79,64572,1,10,2:0:0:0:
148,35,64848,6,0,L|49:43,2,93.5638945200602,6|8|0,3:0|2:0|3:0,2:0:0:0:
231,79,65673,2,0,L|227:139,1,47.03673476003,10|0,2:0|2:0,2:0:0:0:
201,164,65949,2,0,L|194:273,1,93.7337528533935,2|10,3:0|2:0,2:0:0:0:
217,300,66361,1,0,2:0:0:0:
217,300,66499,1,2,3:0:0:0:
315,301,66774,1,10,2:0:0:0:
403,344,67050,6,0,L|421:240,1,93.7337528533935,6|8,3:0|2:0,2:0:0:0:
497,193,67600,2,0,L|479:89,1,93.7337528533935,2|8,3:0|2:0,2:0:0:0:
413,37,68150,6,0,P|359:28|314:43,1,93.7337528533935,6|8,3:0|2:0,2:0:0:0:
283,64,68563,1,0,2:0:0:0:
283,64,68701,2,0,P|229:73|184:58,1,93.7337528533935,2|10,3:0|2:0,2:0:0:0:
104,92,69251,6,0,L|92:205,1,93.7337528533935,6|8,3:0|2:0,2:0:0:0:
172,236,69802,2,0,L|184:349,1,93.7337528533935,0|8,3:0|2:0,2:0:0:0:
273,308,70352,2,0,L|376:327,2,93.5638945200602,0|8|0,3:0|2:0|3:0,2:0:0:0:
181,328,71178,2,0,L|129:337,1,47.03673476003,8|0,2:0|2:0,2:0:0:0:
88,339,71453,6,0,L|76:233,1,93.7337528533935,6|8,3:0|2:0,2:0:0:0:
142,179,72004,2,0,L|154:73,1,93.7337528533935,6|8,3:0|2:0,2:0:0:0:
185,52,72416,1,0,2:0:0:0:
185,52,72554,6,0,P|235:51|285:68,1,93.7337528533935,6|8,3:0|2:0,2:0:0:0:
336,134,73105,2,0,L|395:124,1,46.7500014266968,8|8,3:1|3:1,2:0:0:0:
421,101,73380,2,0,L|478:110,1,46.7500014266968,12|8,2:1|2:1,2:0:0:0:
499,142,73655,6,0,P|496:188|510:245,2,93.5638945200602,6|8|0,3:2|2:0|3:0,2:0:0:0:
414,182,74481,1,10,2:0:0:0:
323,159,74756,2,0,L|220:166,1,93.7337528533934,2|10,3:0|2:0,2:0:0:0:
155,92,75306,1,2,3:0:0:0:
67,126,75582,2,0,L|62:187,1,46.7500014266968,10|0,2:0|2:0,2:0:0:0:
24,199,75857,6,0,P|35:258|23:302,2,93.5638945200601,6|8|0,3:0|2:0|3:0,2:0:0:0:
10,106,76683,1,10,2:0:0:0:
95,67,76958,2,0,L|196:75,1,93.7337528533934,2|10,3:0|2:0,2:0:0:0:
272,116,77508,1,2,3:0:0:0:
362,75,77783,2,0,L|374:140,1,47.03673476003,10|0,2:0|2:0,2:0:0:0:
394,161,78059,6,0,L|373:271,1,93.7337528533934,6|8,3:0|2:0,2:0:0:0:
372,346,78609,1,0,3:0:0:0:
277,372,78884,2,0,L|262:314,1,47.03673476003,10|0,2:0|2:0,2:0:0:0:
241,283,79160,2,0,L|139:295,2,93.5638945200601,2|10|2,3:0|2:0|3:0,2:0:0:0:
191,198,79985,2,0,L|144:192,1,47.03673476003,10|0,2:0|2:0,2:0:0:0:
99,211,80261,6,0,L|97:109,1,93.7337528533934,6|8,3:0|2:0,2:0:0:0:
163,44,80811,1,2,3:1:0:0:
245,91,81086,1,10,2:0:0:0:
331,56,81361,2,0,B|370:43|370:43|438:54,1,93.7337528533934,2|10,3:1|2:0,2:0:0:0:
507,99,81912,1,2,3:1:0:0:
454,177,82187,2,0,L|462:245,1,47.03673476003,10|0,2:0|2:0,2:0:0:0:
472,271,82462,6,0,L|358:276,2,93.5638945200601,6|8|0,3:0|2:0|3:0,2:0:0:0:
454,177,83288,1,10,2:0:0:0:
358,197,83563,2,0,L|250:192,1,93.7337528533934,2|10,3:0|2:0,2:0:0:0:
227,227,83976,1,0,2:0:0:0:
227,227,84114,2,0,L|119:232,1,93.7337528533934,2|10,3:0|2:0,2:0:0:0:
24,235,84664,5,6,3:0:0:0:
65,146,84939,1,8,2:0:0:0:
20,63,85215,2,0,L|116:51,1,93.7337528533934,2|8,3:0|2:0,2:0:0:0:
205,64,85765,6,0,L|297:75,1,93.7337528533934,6|8,3:0|2:0,2:0:0:0:
295,173,86316,2,0,L|292:236,1,46.7500014266968,2|2,3:0|3:0,2:0:0:0:
312,264,86591,1,10,2:0:0:0:
416,241,86866,6,0,L|431:340,2,93.5638945200601,6|8|2,3:0|2:0|3:0,2:0:0:0:
458,157,87692,2,0,L|463:98,1,46.7500014266968,10|2,2:0|2:0,2:0:0:0:
457,63,87967,6,0,P|409:76|358:64,1,93.7337528533934,6|8,3:0|2:0,2:0:0:0:
279,34,88517,2,0,P|231:21|180:33,1,93.7337528533934,2|8,3:0|2:0,2:0:0:0:
145,46,88930,1,0,2:0:0:0:
145,46,89068,6,0,L|134:154,2,93.5638945200601,6|8|0,3:0|2:0|3:0,2:0:0:0:
223,96,89894,2,0,L|229:155,1,46.7500014266968,10|2,2:0|2:0,2:0:0:0:
206,184,90169,6,0,L|217:292,1,93.7337528533934,6|8,3:0|2:0,2:0:0:0:
257,366,90719,2,0,L|323:369,1,47.03673476003,8|8,2:1|2:1,2:0:0:0:
320,321,90994,2,0,L|386:318,1,47.03673476003,12|8,2:1|2:1,2:0:0:0:
411,314,91270,6,0,P|402:248|420:182,2,127.509916666666,4|4|4,2:0|2:0|2:0,2:0:0:0:
233,102,93472,2,0,P|247:163|238:226,2,127.509916666666,6|4|4,2:0|2:0|2:0,2:0:0:0:
53,180,95123,5,8,2:0:0:0:
53,180,95261,1,8,2:0:0:0:
