osu file format v14

[General]
AudioFilename: audio.mp3
AudioLeadIn: 0
PreviewTime: 26971
Countdown: 0
SampleSet: Soft
StackLeniency: 0.6
Mode: 0
LetterboxInBreaks: 0
WidescreenStoryboard: 1

[Editor]
Bookmarks: 7075,13742,27075,57075,60409,73742,87075,100409,127075,137075,140409,153742,154575
DistanceSpacing: 1.6
BeatDivisor: 4
GridSize: 32
TimelineZoom: 2.799997

[Metadata]
Title:EMIYA -Time alter-
TitleUnicode:エミヤ -Time alter-
Artist:sumiisan
ArtistUnicode:sumiisan
Creator:xbopost
Version:Advanced
Source:Fate/Zero
Tags:piroshki フェイト/ゼロ fate zero anime electronic instrumental James Harris Toshimichi Isoe いそえ としみち Kotaro Odaka おだか こうたろう
BeatmapID:2462425
BeatmapSetID:1105097

[Difficulty]
HPDrainRate:3.7
CircleSize:3.8
OverallDifficulty:5.7
ApproachRate:7
SliderMultiplier:1.25
SliderTickRate:1

[Events]
//Background and Video events
0,0,"pirozhok_BG.jpg",0,0
//Break Periods
2,609,6175
2,53942,56175
2,127275,136175
//Storyboard Layer 0 (Background)
//Storyboard Layer 1 (Fail)
//Storyboard Layer 2 (Pass)
//Storyboard Layer 3 (Foreground)
//Storyboard Layer 4 (Overlay)
//Storyboard Sound Samples

[TimingPoints]
409,416.666666666667,4,2,1,45,1,0
7075,-125,4,2,1,45,0,0
13950,-125,4,2,1,60,0,0
27075,-100,4,2,1,55,0,0
27700,-100,4,2,1,75,0,0
27909,-100,4,2,1,55,0,0
30409,-100,4,2,1,75,0,0
30825,-100,4,2,1,55,0,0
33742,-100,4,2,1,75,0,0
34159,-100,4,2,1,55,0,0
35409,-100,4,2,1,75,0,0
35825,-100,4,2,1,55,0,0
37075,-100,4,2,1,75,0,0
37492,-100,4,2,1,55,0,0
40409,-100,4,2,1,75,0,0
40617,-100,4,2,1,55,0,0
47075,-100,4,2,1,75,0,0
47388,-100,4,2,1,55,0,0
48742,-100,4,2,1,75,0,0
48950,-100,4,2,1,55,0,0
50409,-100,4,2,1,75,0,0
50721,-100,4,2,1,55,0,0
60409,-125,4,2,1,65,0,0
73742,-83.3333333333333,4,2,1,75,0,1
100409,-100,4,2,1,55,0,0
103742,-100,4,2,1,75,0,0
104054,-100,4,2,1,55,0,0
107075,-100,4,2,1,75,0,0
107492,-100,4,2,1,55,0,0
108742,-100,4,2,1,75,0,0
109159,-100,4,2,1,55,0,0
110409,-100,4,2,1,75,0,0
110825,-100,4,2,1,55,0,0
120409,-100,4,2,1,75,0,0
120721,-100,4,2,1,55,0,0
122075,-100,4,2,1,75,0,0
122284,-100,4,2,1,55,0,0
123742,-100,4,2,1,75,0,0
124054,-100,4,2,1,55,0,0
127075,-100,4,2,1,75,0,0
137075,-125,4,2,1,40,0,0
137492,-125,4,2,1,70,0,0
140409,-83.3333333333333,4,2,1,75,0,1
146659,-83.3333333333333,4,2,1,60,0,1
147075,-83.3333333333333,4,2,1,75,0,1
153742,-83.3333333333333,4,2,1,75,0,0

[Colours]
Combo1 : 17,254,176
Combo2 : 173,255,95
Combo3 : 255,88,100
Combo4 : 255,94,55

[HitObjects]
212,120,409,5,0,3:0:0:0:
70,30,7075,5,0,0:0:0:0:
130,75,7284,2,0,L|121:134,1,50,0|0,0:0|3:0,0:0:0:0:
55,158,7700,2,0,L|64:217,1,50,2|0,0:3|3:0,0:0:0:0:
130,239,8117,2,0,L|172:252,2,25,6|0|0,1:3|0:0|0:0,0:0:0:0:
109,311,8534,6,0,P|155:301|207:299,1,100,2|2,0:3|0:3,0:0:0:0:
276,328,9159,1,0,3:0:0:0:
344,358,9367,2,0,L|374:352,3,25,2|0|0|0,0:3|0:0|0:0|0:0,0:0:0:0:
397,377,9784,2,0,P|403:330|419:280,1,100,6|2,1:3|0:3,0:0:0:0:
475,230,10409,5,0,0:0:0:0:
433,166,10618,2,0,L|425:113,1,50,2|0,0:3|3:0,0:0:0:0:
355,89,11034,2,0,L|367:34,1,50,0|0,0:0|3:0,0:0:0:0:
295,12,11451,2,0,L|253:25,2,25,6|0|0,1:3|0:0|0:0,0:0:0:0:
219,10,11868,6,0,P|220:57|213:108,1,100,2|2,0:3|0:3,0:0:0:0:
269,159,12493,1,0,3:0:0:0:
332,198,12701,2,0,L|325:236,4,25,2|2|0|2|6,0:3|3:2|3:0|3:2|1:3,0:0:0:0:
402,173,13325,1,0,0:0:0:0:
454,241,13534,1,2,0:3:0:0:
454,241,13638,1,4,0:3:0:0:
454,241,13742,6,0,L|503:229,2,50,0|8|2,3:0|1:0|1:2,0:0:0:0:
406,305,14367,2,0,L|415:348,3,25,0|0|0|8,3:0|1:0|3:0|3:0,0:0:0:0:
416,369,14784,2,0,P|374:357|313:352,1,100,8|0,1:0|3:0,0:0:0:0:
246,372,15409,1,0,3:0:0:0:
246,372,15513,1,0,0:0:0:0:
246,372,15617,2,0,P|248:317|243:267,1,100,8|0,1:0|3:0,0:0:0:0:
178,224,16242,1,0,3:0:0:0:
104,254,16450,2,0,P|102:199|107:149,1,100,8|0,1:0|3:0,0:0:0:0:
79,78,17075,6,0,L|14:82,2,50,0|8|0,3:0|1:0|0:0,0:0:0:0:
140,26,17700,1,0,3:0:0:0:
210,64,17909,1,0,3:0:0:0:
274,17,18117,2,0,B|337:28|300:44|376:65,1,100,8|0,1:0|0:0,0:0:0:0:
449,64,18742,5,0,3:0:0:0:
449,64,18846,1,0,0:0:0:0:
449,64,18950,2,0,P|433:109|420:176,1,100,8|0,1:0|3:0,0:0:0:0:
342,152,19575,1,0,3:0:0:0:
283,206,19784,2,0,P|299:251|312:318,1,100,8|0,1:0|3:0,0:0:0:0:
271,372,20409,6,0,L|324:382,2,50,0|8|0,3:0|1:0|3:0,0:0:0:0:
215,314,21034,2,0,L|223:282,3,25,0|8|0|8,0:0|3:0|3:0|3:0,0:0:0:0:
201,324,21450,2,0,P|145:328|112:373,1,100,8|0,1:0|3:0,0:0:0:0:
44,360,22075,5,0,3:0:0:0:
44,360,22179,1,8,3:0:0:0:
44,360,22284,2,0,L|27:243,1,100,8|0,1:0|3:0,0:0:0:0:
86,204,22909,1,0,3:0:0:0:
165,201,23117,2,0,L|263:215,1,100,8|0,1:0|3:0,0:0:0:0:
327,263,23742,6,0,P|318:289|315:317,2,50,0|8|2,3:0|1:0|2:0,0:0:0:0:
382,205,24367,2,0,L|418:197,3,25,0|0|0|0,3:0|0:0|3:0|0:0,0:0:0:0:
430,231,24784,2,0,P|438:183|463:128,1,100,8|0,1:0|3:0,0:0:0:0:
418,78,25409,5,2,3:2:0:0:
418,78,25513,1,0,0:0:0:0:
418,78,25617,2,0,P|368:68|322:51,1,100,8|0,1:0|3:0,0:0:0:0:
250,14,26242,1,2,3:2:0:0:
172,33,26450,2,0,P|175:80|170:142,1,100,8|0,1:0|3:0,0:0:0:0:
90,122,27075,5,8,3:2:0:0:
36,183,27284,1,8,3:2:0:0:
73,254,27492,1,8,3:2:0:0:
153,249,27700,2,0,P|158:281|161:316,1,62.5,4|8,3:1|3:0,0:0:0:0:
234,344,28117,2,0,P|297:340|359:345,1,125,8|0,1:0|3:0,0:0:0:0:
439,338,28742,6,0,P|445:276|485:195,1,125,4|2,3:2|2:0,0:0:0:0:
426,162,29367,1,0,3:0:0:0:
426,162,29471,1,0,3:0:0:0:
426,162,29575,2,0,B|296:166|370:230|246:243,1,187.5,4|0,3:2|3:0,0:0:0:0:
182,235,30409,6,0,P|123:232|83:119,1,187.5,4|0,3:1|3:0,0:0:0:0:
140,71,31242,1,8,3:0:0:0:
218,51,31450,2,0,B|289:66|243:89|332:118,1,125,8|0,1:0|3:0,0:0:0:0:
373,51,32075,5,8,3:0:0:0:
455,54,32284,2,0,L|441:115,1,62.5,8|2,1:0|2:0,0:0:0:0:
488,192,32700,1,0,3:0:0:0:
488,192,32804,1,0,3:0:0:0:
488,192,32909,2,0,B|370:190|452:263|327:279,1,187.5,4|0,3:2|3:0,0:0:0:0:
298,350,33742,6,0,P|303:256|300:162,1,187.5,4|0,3:1|3:0,0:0:0:0:
221,143,34575,1,8,3:0:0:0:
170,206,34784,2,0,L|100:198,1,62.5,8|2,1:0|2:0,0:0:0:0:
38,232,35200,1,0,3:0:0:0:
38,232,35304,1,0,3:0:0:0:
38,232,35409,6,0,P|24:291|129:361,1,187.5,4|0,3:1|3:0,0:0:0:0:
184,326,36242,1,8,3:0:0:0:
250,372,36450,2,0,L|327:364,1,62.5,8|2,1:0|2:0,0:0:0:0:
389,338,36867,1,0,3:0:0:0:
461,376,37075,6,0,P|474:284|502:188,1,187.5,4|0,3:1|3:0,0:0:0:0:
457,123,37909,1,8,3:0:0:0:
376,133,38117,2,0,L|304:117,1,62.5,8|2,1:0|2:0,0:0:0:0:
249,154,38534,1,0,3:0:0:0:
249,154,38638,1,0,3:0:0:0:
249,154,38742,6,0,P|249:71|150:30,1,187.5,4|0,3:2|0:0,0:0:0:0:
85,6,39575,1,8,3:0:0:0:
21,57,39784,2,0,L|36:130,1,62.5,8|2,1:0|2:0,0:0:0:0:
8,199,40200,1,0,3:0:0:0:
8,199,40304,1,0,3:0:0:0:
8,199,40409,6,0,B|121:191|62:252|209:257,1,187.5,4|0,3:2|3:0,0:0:0:0:
256,223,41242,1,0,3:0:0:0:
288,297,41450,2,0,P|349:286|411:294,1,125,8|0,1:1|3:0,0:0:0:0:
492,285,42075,5,8,1:3:0:0:
465,207,42284,2,0,L|476:145,1,62.5,8|2,1:0|2:0,0:0:0:0:
455,76,42700,1,0,3:0:0:0:
455,76,42804,1,0,3:0:0:0:
455,76,42909,2,0,P|394:78|306:72,1,125,4|2,3:2|2:0,0:0:0:0:
279,10,43534,6,0,P|281:67|275:147,1,125,0|8,3:0|1:0,0:0:0:0:
343,283,44367,1,0,3:0:0:0:
263,267,44575,1,8,3:0:0:0:
206,325,44784,2,0,B|160:360|160:360|89:335,1,125,8|0,1:0|3:0,0:0:0:0:
24,301,45409,6,0,L|42:225,1,62.5,8|8,3:0|1:0,0:0:0:0:
64,163,45825,1,2,2:0:0:0:
130,226,46034,1,0,3:0:0:0:
130,226,46138,1,0,3:0:0:0:
130,226,46242,2,0,P|212:190|209:95,1,187.5,4|0,3:2|3:0,0:0:0:0:
220,20,47075,6,0,P|269:31|297:103,1,125,4|2,3:1|2:0,0:0:0:0:
373,126,47700,2,0,L|358:169,3,31.25,0|2|8|0,3:0|2:3|3:0|0:0,0:0:0:0:
384,120,48117,2,0,L|459:138,1,62.5,8|2,1:0|2:0,0:0:0:0:
495,198,48534,1,0,0:0:0:0:
481,278,48742,6,0,B|382:259|400:339|296:319,1,187.5,4|0,3:1|0:0,0:0:0:0:
242,267,49575,1,0,3:0:0:0:
165,295,49784,2,0,L|170:381,1,62.5,8|0,1:0|0:0,0:0:0:0:
94,364,50200,1,0,3:0:0:0:
94,364,50304,1,0,3:0:0:0:
94,364,50409,6,0,P|53:356|45:232,1,187.5,4|0,3:1|3:0,0:0:0:0:
123,230,51242,1,8,3:0:0:0:
122,148,51450,2,0,L|112:78,1,62.5,8|2,1:0|2:0,0:0:0:0:
189,49,51867,1,0,3:0:0:0:
189,49,51971,1,0,3:0:0:0:
189,49,52075,6,0,P|257:69|283:174,1,187.5,4|0,3:2|3:0,0:0:0:0:
364,163,52909,1,8,3:0:0:0:
428,212,53117,2,0,L|413:264,2,31.25,8|0|0,1:0|0:0|0:0,0:0:0:0:
499,172,53534,2,0,L|490:141,2,31.25,2|2|0,3:1|3:1|0:0,0:0:0:0:
256,192,57075,12,4,59992,3:1:0:0:
244,91,60409,6,0,L|182:85,2,50,4|2|8,1:0|1:0|3:0,0:0:0:0:
308,42,61034,1,0,0:0:0:0:
394,62,61242,1,2,0:3:0:0:
394,62,61346,1,0,1:0:0:0:
394,62,61450,2,0,P|380:104|371:171,1,100,10|0,3:1|0:0,0:0:0:0:
444,191,62075,1,0,3:0:0:0:
387,340,62492,5,0,3:0:0:0:
322,292,62700,2,0,P|271:298|224:331,1,100,8|8,3:0|3:0,0:0:0:0:
160,362,63325,2,0,L|95:346,1,50,4|2,3:0|2:0,0:0:0:0:
60,287,63742,6,0,L|-1:302,2,50,4|2|8,1:0|1:0|3:0,0:0:0:0:
117,230,64367,1,0,0:0:0:0:
204,241,64575,1,2,0:3:0:0:
204,241,64679,1,0,1:0:0:0:
204,241,64784,2,0,P|209:194|224:132,1,100,10|0,3:1|0:0,0:0:0:0:
245,66,65408,1,0,3:0:0:0:
400,106,65825,5,0,3:0:0:0:
472,72,66034,2,0,B|489:108|489:108|464:182,1,100,8|8,3:0|3:0,0:0:0:0:
405,213,66659,2,0,L|418:270,1,50,4|2,3:0|2:0,0:0:0:0:
440,337,67075,6,0,L|488:325,2,50,4|2|8,1:0|1:0|3:0,0:0:0:0:
366,369,67700,1,0,0:0:0:0:
308,328,67909,1,2,0:3:0:0:
308,328,68013,1,0,1:0:0:0:
308,328,68117,2,0,P|260:333|205:353,1,100,10|0,3:1|0:0,0:0:0:0:
136,379,68742,1,0,3:0:0:0:
31,257,69159,5,0,3:0:0:0:
96,211,69367,2,0,L|79:103,1,100,8|8,3:0|3:0,0:0:0:0:
134,52,69992,2,0,L|192:62,1,50,4|2,3:0|2:0,0:0:0:0:
263,60,70409,6,0,L|271:10,2,50,4|2|8,1:0|1:0|3:0,0:0:0:0:
305,128,71034,1,0,0:0:0:0:
249,184,71242,1,2,0:3:0:0:
249,184,71346,1,0,1:0:0:0:
249,184,71450,2,0,P|257:232|259:287,1,100,10|0,3:1|0:0,0:0:0:0:
315,347,72075,5,0,3:0:0:0:
315,347,72179,2,0,L|394:332,1,75,8|0,1:3|3:0,0:0:0:0:
459,295,72700,2,0,L|470:252,2,25,0|0|8,0:0|1:0|1:0,0:0:0:0:
389,255,73117,2,0,L|400:212,4,25,8|0|8|0|2,3:0|1:0|1:0|1:0|2:0,0:0:0:0:
324,193,73742,6,0,L|145:203,1,149.999995422363,4|8,3:0|3:0,0:0:0:0:
99,245,74367,1,0,3:0:0:0:
99,245,74471,1,0,0:0:0:0:
99,245,74575,2,0,P|87:202|56:135,1,112.499996566773,2|0,3:2|0:0,0:0:0:0:
18,119,74992,2,0,P|29:76|50:28,1,74.9999977111817,4|0,0:0|3:0,0:0:0:0:
127,17,75409,6,0,L|133:53,3,37.4999988555909,4|0|0|0,3:0|0:0|0:0|0:0,0:0:0:0:
178,57,75825,2,0,L|252:52,1,74.9999977111817,8|0,3:0|3:0,0:0:0:0:
327,111,76242,1,2,3:2:0:0:
327,111,76346,1,0,0:0:0:0:
330,115,76450,1,8,1:0:0:0:
413,79,76659,2,0,B|423:105|423:105|407:177,1,74.9999977111817,4|0,0:0|3:0,0:0:0:0:
485,203,77075,5,4,3:0:0:0:
432,276,77284,1,0,0:0:0:0:
342,265,77492,2,0,L|347:338,3,37.4999988555909,8|0|0|0,3:0|1:0|3:0|0:0,0:0:0:0:
332,258,77909,2,0,P|272:250|222:303,1,112.499996566773,2|0,3:2|0:0,0:0:0:0:
187,274,78325,2,0,L|197:365,1,74.9999977111817,4|0,0:0|3:0,0:0:0:0:
105,362,78742,6,0,L|43:352,3,37.4999988555909,4|8|8|0,3:0|3:0|1:0|0:0,0:0:0:0:
24,368,79159,2,0,L|19:268,1,74.9999977111817,8|0,3:0|3:0,0:0:0:0:
100,247,79575,1,2,3:2:0:0:
100,247,79679,1,0,0:0:0:0:
100,247,79784,1,8,1:0:0:0:
83,158,79992,2,0,L|69:58,1,74.9999977111817,4|0,0:0|3:0,0:0:0:0:
147,32,80409,6,0,B|240:14|206:69|309:81,1,149.999995422363,4|8,3:0|3:0,0:0:0:0:
371,41,81034,1,0,3:0:0:0:
371,41,81138,1,0,1:0:0:0:
371,41,81242,2,0,P|361:98|357:181,1,112.499996566773,2|0,3:2|0:0,0:0:0:0:
401,161,81659,2,0,P|435:158|484:164,1,74.9999977111817,4|0,0:0|3:0,0:0:0:0:
490,251,82075,6,0,L|485:299,3,37.4999988555909,4|0|0|0,3:0|0:0|0:0|3:0,0:0:0:0:
447,264,82492,2,0,P|412:266|364:261,1,74.9999977111817,8|0,3:0|3:0,0:0:0:0:
287,230,82909,2,0,P|281:264|287:319,2,74.9999977111817,2|8|4,3:2|1:0|0:0,0:0:0:0:
210,204,83534,1,0,3:0:0:0:
210,204,83638,1,8,3:0:0:0:
210,204,83742,1,4,3:0:0:0:
239,119,83950,5,8,1:0:0:0:
173,61,84159,2,0,L|162:98,3,37.4999988555909,8|0|0|2,3:0|0:0|3:0|1:3,0:0:0:0:
133,63,84575,2,0,P|80:53|0:51,1,112.499996566773
10,94,84992,2,0,P|6:131|12:172,1,74.9999977111817,4|0,0:0|3:0,0:0:0:0:
49,250,85409,6,0,L|34:314,3,37.4999988555909,4|0|8|0,3:0|0:0|1:0|0:0,0:0:0:0:
76,258,85825,2,0,L|163:256,1,74.9999977111817,8|0,3:0|3:0,0:0:0:0:
218,331,86242,1,2,3:2:0:0:
218,331,86346,1,0,3:0:0:0:
218,331,86450,1,8,1:0:0:0:
302,363,86659,2,0,L|382:355,1,74.9999977111817,4|0,0:0|3:0,0:0:0:0:
454,310,87075,6,0,P|457:342|451:403,2,74.9999977111817,4|10|8,1:0|1:0|3:0,0:0:0:0:
428,223,87700,1,0,0:0:0:0:
345,238,87909,1,2,3:2:0:0:
345,238,88013,1,0,3:0:0:0:
345,238,88117,2,0,B|263:221|308:177|203:164,1,149.999995422363,10|8,1:0|1:3,0:0:0:0:
143,216,88742,6,0,L|133:275,3,37.4999988555909,4|0|8|0,3:0|3:0|1:0|0:0,0:0:0:0:
97,231,89159,2,0,B|76:243|76:243|15:217,1,74.9999977111817,2|2,1:2|3:2,0:0:0:0:
76,146,89575,2,0,P|86:90|100:36,1,112.499996566773,2|0,3:2|0:0,0:0:0:0:
139,12,89992,2,0,P|171:13|215:29,1,74.9999977111817,6|2,2:2|3:2,0:0:0:0:
285,77,90409,6,0,P|276:114|278:160,2,74.9999977111817,4|10|8,1:0|1:0|3:0,0:0:0:0:
363,32,91034,1,0,3:0:0:0:
451,77,91242,1,2,3:2:0:0:
451,77,91346,1,0,3:0:0:0:
451,77,91450,2,0,P|455:151|442:253,1,149.999995422363,10|0,1:0|3:0,0:0:0:0:
364,262,92075,6,0,L|374:309,4,37.4999988555909,4|0|8|0|8,3:0|3:0|1:0|0:0|3:0,0:0:0:0:
302,328,92700,2,0,P|263:321|219:329,1,74.9999977111817,0|2,1:0|1:2,0:0:0:0:
167,273,93117,1,8,1:1:0:0:
167,273,93221,1,0,1:0:0:0:
167,273,93325,1,4,0:0:0:0:
108,342,93534,1,0,3:0:0:0:
24,307,93742,6,0,L|36:409,2,74.9999977111817,4|10|8,1:0|1:0|3:0,0:0:0:0:
82,238,94367,1,0,0:0:0:0:
14,195,94575,1,2,1:2:0:0:
14,195,94679,1,0,1:0:0:0:
14,195,94784,2,0,P|92:197|179:209,1,149.999995422363,10|0,1:0|3:0,0:0:0:0:
253,198,95409,6,0,L|245:260,3,37.4999988555909,4|0|8|0,3:0|0:0|1:0|0:0,0:0:0:0:
267,194,95825,2,0,P|313:197|351:248,1,112.499996566773,8|0,3:0|0:0,0:0:0:0:
394,234,96242,2,0,P|379:269|369:307,1,74.9999977111817,2|8,3:2|1:0,0:0:0:0:
298,361,96659,2,0,P|263:350|200:343,1,74.9999977111817,4|0,0:0|3:0,0:0:0:0:
148,296,97075,6,0,P|141:330|142:373,2,74.9999977111817,4|10|8,1:0|1:0|3:0,0:0:0:0:
71,247,97700,1,0,0:0:0:0:
153,204,97909,1,2,3:2:0:0:
153,204,98013,1,0,3:0:0:0:
153,204,98117,2,0,P|151:131|162:41,1,149.999995422363,10|0,1:0|1:0,0:0:0:0:
241,16,98742,6,0,L|249:77,3,37.4999988555909,4|0|8|0,3:0|3:0|1:0|0:0,0:0:0:0:
285,31,99159,2,0,P|323:34|384:51,1,74.9999977111817,8|0,3:0|3:0,0:0:0:0:
436,88,99575,2,0,L|418:139,3,37.4999988555909,2|0|8|8,3:2|0:0|1:0|1:3,0:0:0:0:
388,152,99992,2,0,L|407:202,3,37.4999988555909,4|8|8|8,1:2|1:3|1:3|3:0,0:0:0:0:
439,201,100409,6,0,P|425:231|410:281,1,62.5,8|8,3:2|3:2,0:0:0:0:
392,336,100825,1,8,3:2:0:0:
313,313,101034,1,4,3:1:0:0:
246,358,101242,2,0,L|176:349,1,62.5,0|0,3:0|0:0,0:0:0:0:
105,326,101659,2,0,L|42:333,1,62.5,4|0,3:0|3:0,0:0:0:0:
14,257,102075,6,0,B|-5:226|-5:226|34:121,1,125,4|8,3:2|3:0,0:0:0:0:
114,157,102700,1,0,3:0:0:0:
114,157,102804,1,0,3:0:0:0:
114,157,102909,2,0,B|223:140|183:194|306:205,1,187.5,4|0,3:2|3:0,0:0:0:0:
325,276,103742,6,0,P|326:174|339:68,1,187.5,4|0,3:1|3:0,0:0:0:0:
361,11,104575,1,0,3:0:0:0:
280,26,104784,2,0,P|223:28|182:94,1,125,10|0,1:0|3:0,0:0:0:0:
102,70,105409,6,0,P|111:100|120:153,1,62.5,0|10,3:0|1:0,0:0:0:0:
63,191,105825,1,8,3:0:0:0:
63,191,105929,1,0,3:0:0:0:
63,191,106034,1,0,3:0:0:0:
99,263,106242,1,4,3:2:0:0:
179,256,106450,2,0,L|174:286,4,31.25,0|2|4|2|0,0:0|1:2|3:0|1:2|3:0,0:0:0:0:
246,302,107075,6,0,P|295:295|363:302,1,93.75,4|0,3:1|0:0,0:0:0:0:
371,323,107492,2,0,L|360:377,2,31.25,8|0|0,3:0|0:0|3:0,0:0:0:0:
447,293,107909,2,0,L|432:205,1,62.5,0|10,3:0|1:0,0:0:0:0:
485,166,108325,2,0,L|500:78,1,62.5,4|0,3:0|3:0,0:0:0:0:
471,26,108742,6,0,P|384:31|335:132,1,187.5,4|0,3:1|3:0,0:0:0:0:
259,79,109575,1,0,3:0:0:0:
202,137,109784,1,8,1:0:0:0:
202,137,109888,1,2,1:0:0:0:
202,137,109992,2,0,L|210:186,3,31.25,4|0|0|0,3:0|0:0|3:0|3:0,0:0:0:0:
172,189,110409,6,0,B|112:175|112:175|63:218,1,125,4|8,3:1|3:0,0:0:0:0:
14,282,111034,1,0,3:0:0:0:
14,282,111138,1,0,3:0:0:0:
14,282,111242,1,0,3:0:0:0:
89,310,111450,2,0,L|80:373,2,62.5,10|4|0,1:0|3:0|3:0,0:0:0:0:
170,310,112075,6,0,B|291:296|226:345|366:358,1,187.5,4|0,3:2|0:0,0:0:0:0:
423,329,112909,1,0,3:0:0:0:
374,277,113117,1,8,1:0:0:0:
374,277,113221,1,0,3:0:0:0:
374,277,113325,2,0,L|381:235,3,31.25,2|0|2|2,3:1|1:0|1:3|1:0,0:0:0:0:
340,233,113742,6,0,L|333:132,1,93.75,4|0,3:2|0:0,0:0:0:0:
346,100,114159,2,0,L|387:107,2,31.25,8|0|0,3:0|1:0|0:0,0:0:0:0:
296,35,114575,2,0,L|219:52,1,62.5,0|8,1:0|1:1,0:0:0:0:
166,27,114992,1,4,1:3:0:0:
166,27,115096,1,0,1:0:0:0:
166,27,115200,1,0,3:0:0:0:
86,10,115409,6,0,B|66:33|66:33|76:109,1,93.75,0|0,3:0|0:0,0:0:0:0:
51,129,115825,2,0,L|14:125,2,31.25,8|0|0,3:0|0:0|3:0,0:0:0:0:
126,160,116242,2,0,P|109:217|95:298,1,125,4|4,3:2|3:0,0:0:0:0:
20,310,116867,6,0,P|79:324|148:373,1,125,2|0,3:2|0:0,0:0:0:0:
209,329,117492,2,0,L|213:381,2,31.25,8|0|0,3:0|0:0|3:0,0:0:0:0:
289,315,117909,2,0,L|371:329,1,62.5,0|8,3:0|1:0,0:0:0:0:
423,362,118325,2,0,L|484:351,1,62.5,4|0,3:0|3:0,0:0:0:0:
477,269,118742,6,0,L|488:208,1,62.5,0|0,3:0|0:0,0:0:0:0:
431,148,119159,2,0,L|382:153,3,31.25,8|0|0|0,3:0|0:0|0:0|0:0,0:0:0:0:
403,191,119575,2,0,P|324:180|279:288,1,187.5,4|0,3:2|3:0,0:0:0:0:
235,336,120409,6,0,P|192:317|129:303,1,93.75,4|0,3:1|0:0,0:0:0:0:
109,322,120825,2,0,L|114:363,2,31.25,8|0|0,1:3|0:0|3:0,0:0:0:0:
33,290,121242,2,0,L|48:207,1,62.5,2|8,1:3|1:0,0:0:0:0:
23,159,121659,1,4,3:0:0:0:
23,159,121763,1,2,2:3:0:0:
23,159,121867,1,0,3:0:0:0:
65,89,122075,6,0,B|186:78|125:132|259:155,1,187.5,4|0,3:1|0:0,0:0:0:0:
301,101,122909,1,0,3:0:0:0:
384,135,123117,1,8,1:0:0:0:
384,135,123221,1,2,1:0:0:0:
384,135,123325,2,0,L|376:173,3,31.25,4|2|0|0,3:0|2:3|3:0|0:0,0:0:0:0:
339,180,123742,6,0,P|358:224|373:286,1,93.75,4|0,3:1|0:0,0:0:0:0:
400,295,124159,2,0,L|437:288,2,31.25,8|0|0,3:0|0:0|3:0,0:0:0:0:
338,347,124575,1,0,3:0:0:0:
262,315,124784,2,0,P|256:343|252:381,2,62.5,8|4|0,1:0|3:0|3:0,0:0:0:0:
180,322,125409,6,0,P|128:316|78:184,1,187.5,4|0,3:2|3:0,0:0:0:0:
130,151,126242,1,0,3:0:0:0:
212,190,126450,1,8,1:0:0:0:
212,190,126554,1,2,1:0:0:0:
212,190,126659,2,0,L|220:150,4,31.25,4|2|0|2|4,3:0|1:0|3:0|1:0|3:1,0:0:0:0:
238,92,137075,6,0,L|240:155,2,50,8|8|4,3:2|3:2|3:1,0:0:0:0:
256,192,137700,12,0,139575,0:0:0:0:
311,49,140409,5,8,3:2:0:0:
398,27,140617,1,8,3:2:0:0:
468,98,140825,1,4,3:1:0:0:
468,98,140929,1,0,3:0:0:0:
468,98,141034,2,0,L|474:58,2,37.4999988555909,0|0|8,3:0|1:0|3:2,0:0:0:0:
383,128,141450,2,0,L|394:207,1,74.9999977111817,4|0,3:1|3:0,0:0:0:0:
491,210,141867,1,8,3:2:0:0:
491,210,141971,1,2,1:2:0:0:
491,210,142075,6,0,P|465:275|443:367,1,149.999995422363,4|8,3:1|3:2,0:0:0:0:
369,303,142700,1,4,3:1:0:0:
295,354,142909,2,0,L|218:339,1,74.9999977111817,8|10,3:0|2:1,0:0:0:0:
133,321,143325,2,0,L|126:360,4,37.4999988555909,4|2|0|2|8,3:1|1:2|3:0|1:2|3:2,0:0:0:0:
43,312,143950,5,8,3:2:0:0:
93,237,144159,2,0,L|76:149,1,74.9999977111817,4|0,3:1|3:0,0:0:0:0:
97,81,144575,1,8,3:2:0:0:
97,81,144679,1,0,3:0:0:0:
97,81,144784,2,0,P|163:85|197:160,1,149.999995422363,4|8,3:1|3:2,0:0:0:0:
274,201,145409,6,0,L|285:126,2,74.9999977111817,4|0|0,3:1|0:0|0:0,0:0:0:0:
358,231,146034,1,4,3:1:0:0:
427,173,146242,2,0,L|522:165,1,74.9999977111817,8|8,3:0|3:2,0:0:0:0:
496,76,146659,2,0,L|503:39,3,37.4999988555909,4|8|8|8,3:1|3:0|3:0|3:0,0:0:0:0:
458,39,147075,5,8,3:2:0:0:
371,13,147284,1,8,3:2:0:0:
301,66,147492,1,4,3:1:0:0:
301,66,147596,1,0,3:0:0:0:
301,66,147700,2,0,L|308:102,2,37.4999988555909,8|8|8,1:3|1:3|3:2,0:0:0:0:
223,20,148117,2,0,L|138:32,1,74.9999977111817,4|8,3:1|1:0,0:0:0:0:
65,34,148534,1,8,3:2:0:0:
65,34,148638,1,8,1:3:0:0:
65,34,148742,6,0,P|82:105|95:201,1,149.999995422363,4|8,3:1|3:2,0:0:0:0:
181,164,149367,1,4,3:1:0:0:
238,233,149575,2,0,P|278:221|337:216,1,74.9999977111817,0|8,3:0|3:2,0:0:0:0:
398,193,149992,2,0,L|393:253,4,37.4999988555909,0|8|0|8|8,3:0|1:3|3:0|1:3|3:2,0:0:0:0:
487,202,150617,5,8,3:2:0:0:
493,291,150825,2,0,P|476:326|460:375,1,74.9999977111817,4|0,3:1|3:0,0:0:0:0:
386,339,151242,1,8,3:2:0:0:
386,339,151346,1,0,3:0:0:0:
386,339,151450,2,0,B|285:314|327:357|234:352,1,149.999995422363,4|8,3:1|3:2,0:0:0:0:
256,192,152075,12,4,153742,1:0:0:0:
