osu file format v14

[General]
AudioFilename: audio.mp3
AudioLeadIn: 0
PreviewTime: 226568
Countdown: 0
SampleSet: Soft
StackLeniency: 0.7
Mode: 0
LetterboxInBreaks: 0
WidescreenStoryboard: 1

[Editor]
DistanceSpacing: 1
BeatDivisor: 4
GridSize: 32
TimelineZoom: 1

[Metadata]
Title:Yume no Naka e
TitleUnicode:夢の中へ
Artist:suis from Yorushika
ArtistUnicode:suis from ヨルシカ
Creator:CoLouRed GlaZeE
Version:Hard
Source:
Tags:japanese jpop pop delis shirohamymommy smm PlayStation 4 ps4 Lineup MV Music Video 井上陽水 Yosui Inoue 石風呂 ishifuro
BeatmapID:3666023
BeatmapSetID:1789187

[Difficulty]
HPDrainRate:5
CircleSize:4
OverallDifficulty:6
ApproachRate:7
SliderMultiplier:1.6
SliderTickRate:1

[Events]
//Background and Video events
0,0,"BG.jpg",0,0
//Break Periods
2,157268,169868
2,209868,213768
//Storyboard Layer 0 (Background)
//Storyboard Layer 1 (Fail)
//Storyboard Layer 2 (Pass)
//Storyboard Layer 3 (Foreground)
//Storyboard Layer 4 (Overlay)
//Storyboard Sound Samples

[TimingPoints]
8268,400,4,2,0,60,1,0
9668,-100,4,2,1,60,0,0
15968,-100,4,2,0,60,0,0
16168,-100,4,2,1,60,0,0
22668,-133.333333333333,4,2,1,60,0,0
23068,-100,4,3,1,50,0,0
23468,-133.333333333333,4,3,1,50,0,0
26868,-133.333333333333,4,3,0,50,0,0
27368,-133.333333333333,4,3,1,50,0,0
31468,-133.333333333333,4,3,0,50,0,0
32268,-133.333333333333,4,3,1,50,0,0
35468,-100,4,2,1,60,0,0
36868,-100,4,2,0,60,0,0
37068,-100,4,2,1,60,0,0
37268,-100,4,2,0,60,0,0
37468,-100,4,2,1,60,0,0
37668,-100,4,2,0,60,0,0
37868,-100,4,2,1,60,0,0
39968,-100,4,2,0,60,0,0
40268,-100,4,2,1,60,0,0
40368,-100,4,2,0,60,0,0
40568,-100,4,2,1,60,0,0
40768,-100,4,2,0,60,0,0
41068,-100,4,2,2,60,0,0
41668,-100,4,2,1,60,0,0
41868,-100,4,2,2,60,0,0
42268,-100,4,2,1,60,0,0
42468,-100,4,2,0,60,0,0
42668,-100,4,2,1,60,0,0
44368,-100,4,2,0,60,0,0
44668,-100,4,2,1,60,0,0
44768,-100,4,2,0,60,0,0
44968,-100,4,2,1,60,0,0
46868,-100,4,2,0,60,0,0
46968,-100,4,2,1,60,0,0
47168,-100,4,2,0,60,0,0
47268,-100,4,2,1,60,0,0
48368,-100,4,2,2,60,0,0
51168,-100,4,2,0,60,0,0
51568,-100,4,2,2,60,0,0
57568,-100,4,2,0,60,0,0
58068,-100,4,2,2,60,0,0
61068,-83.3333333333333,4,2,1,60,0,0
63168,-83.3333333333333,4,2,0,60,0,0
63368,-83.3333333333333,4,2,1,60,0,0
63868,-83.3333333333333,4,2,1,60,0,0
64268,-83.3333333333333,4,2,1,60,0,0
66668,-100,4,2,1,60,0,0
67068,-100,4,2,1,60,0,0
73868,-100,4,2,2,70,0,0
74268,-100,4,2,2,70,0,0
74668,-100,4,2,1,70,0,0
75968,-100,4,2,2,70,0,0
76168,-100,4,2,1,70,0,0
76568,-100,4,2,2,70,0,0
76968,-100,4,2,1,70,0,0
81368,-100,4,2,2,70,0,0
81768,-100,4,2,1,70,0,0
82968,-100,4,2,2,70,0,0
83368,-100,4,2,1,70,0,0
83568,-100,4,2,2,70,0,0
83768,-100,4,2,1,70,0,0
86868,-133.333333333333,4,2,1,50,0,0
89868,-100,4,3,1,60,0,0
99568,-100,4,2,2,60,0,0
102668,-100,4,2,1,60,0,0
102968,-100,4,2,1,30,0,0
103068,-100,4,2,1,60,0,0
103768,-100,4,2,1,30,0,0
103868,-100,4,2,1,60,0,0
106168,-100,4,2,1,30,0,0
106268,-100,4,2,1,60,0,0
113168,-100,4,2,0,60,0,0
113368,-100,4,2,1,60,0,0
119968,-100,4,2,0,60,0,0
120268,-100,4,2,1,60,0,0
126568,-100,4,2,0,60,0,0
127368,-100,4,2,1,60,0,0
128268,-133.333333333333,4,2,1,60,0,0
130668,-133.333333333333,4,2,0,60,0,0
131468,-133.333333333333,4,2,1,60,0,0
134668,-100,4,2,1,60,0,0
134768,-100,4,2,1,70,0,0
135168,-100,4,2,1,60,0,0
136468,-100,4,2,2,60,0,0
136668,-100,4,2,1,60,0,0
138268,-100,4,2,1,40,0,0
138568,-100,4,2,1,45,0,0
138968,-100,4,2,1,50,0,0
139368,-100,4,2,1,55,0,0
139768,-100,4,2,1,60,0,0
140168,-100,4,2,1,65,0,0
141068,-100,4,2,1,70,0,0
143168,-100,4,2,2,70,0,0
143368,-100,4,2,1,70,0,0
143768,-100,4,2,2,70,0,0
144268,-100,4,2,1,70,0,0
150768,-100,4,2,2,70,0,0
151068,-100,4,2,1,70,0,0
153868,-100,4,2,1,60,0,0
154068,-133.333333333333,4,2,1,50,0,0
169068,-100,4,2,1,60,0,0
169868,-100,4,2,0,60,0,0
170868,-100,4,2,1,60,0,0
171468,-83.3333333333333,4,2,1,70,0,0
177168,-83.3333333333333,4,2,2,70,0,0
177468,-83.3333333333333,4,2,1,70,0,0
181968,-83.3333333333333,4,2,2,70,0,0
182168,-83.3333333333333,4,2,1,70,0,0
189468,-100,4,2,1,60,0,0
189668,-100,4,2,1,30,0,0
190268,-100,4,2,1,35,0,0
190668,-100,4,2,1,40,0,0
191068,-100,4,2,1,45,0,0
191568,-100,4,2,1,50,0,0
192268,-100,4,2,1,60,0,0
195468,-100,4,2,2,70,0,0
195769,-100,4,2,1,70,0,0
206668,-100,4,2,1,60,0,0
207468,-133.333333333333,4,2,2,60,0,0
208268,-133.333333333333,4,2,2,50,0,0
214668,-133.333333333333,4,2,2,40,0,0
220268,-133.333333333333,4,2,2,50,0,0
221468,-133.333333333333,4,2,2,40,0,0
222668,-100,4,2,1,50,0,0
224268,-100,4,2,1,60,0,0
225668,-133.333333333333,4,2,1,60,0,0
227468,-133.333333333333,4,2,1,70,0,1
227868,-83.3333333333333,4,2,2,80,0,1
228968,-83.3333333333333,4,2,1,80,0,1
229168,-83.3333333333333,4,2,2,80,0,1
230668,-83.3333333333333,4,2,1,80,0,1
230868,-83.3333333333333,4,2,2,80,0,1
232168,-83.3333333333333,4,2,1,80,0,1
232368,-83.3333333333333,4,2,2,80,0,1
233568,-83.3333333333333,4,2,2,65,0,1
233868,-83.3333333333333,4,2,2,80,0,1
234568,-83.3333333333333,4,2,1,80,0,1
234968,-83.3333333333333,4,2,2,80,0,1
236168,-83.3333333333333,4,2,1,80,0,1
236568,-83.3333333333333,4,2,2,80,0,1
237768,-83.3333333333333,4,2,1,80,0,1
238168,-83.3333333333333,4,2,2,80,0,1
239268,-83.3333333333333,4,2,1,80,0,0
239668,-83.3333333333333,4,2,2,50,0,0
240268,-83.3333333333333,4,2,2,60,0,0
240468,-133.333333333333,4,2,1,60,0,0
253068,-133.333333333333,4,2,1,50,0,0
264168,-133.333333333333,4,2,0,50,0,0
264768,-133.333333333333,4,2,1,50,0,0
273868,-133.333333333333,4,2,0,50,0,0

[Colours]
Combo1 : 150,248,90
Combo2 : 45,165,210
Combo3 : 130,186,255
Combo4 : 69,237,107

[HitObjects]
256,192,8268,5,2,3:0:0:0:
256,192,8668,1,2,3:0:0:0:
394,138,9068,1,8,0:0:0:0:
389,216,9268,1,0,1:0:0:0:
384,294,9468,1,8,0:0:0:0:
307,342,9668,6,0,B|221:364|145:319,1,160,4|2,0:0|0:0,0:0:0:0:
61,345,10268,2,0,L|75:245,1,80,8|0,0:0|0:0,0:0:0:0:
84,179,10668,1,2,0:0:0:0:
177,162,10868,2,0,B|165:202|153:268,1,80,2|8,0:0|0:0,0:0:0:0:
257,245,11268,6,0,B|341:262|422:271,1,160,2|2,0:0|0:0,0:0:0:0:
438,141,11868,2,0,B|354:124|273:115,1,160,8|2,0:0|0:0,0:0:0:0:
199,148,12468,1,2,0:0:0:0:
118,116,12668,1,8,0:0:0:0:
29,223,12868,6,0,B|24:281|93:320|149:287,1,160,6|2,0:0|0:0,0:0:0:0:
235,301,13468,2,0,B|273:277|328:282,2,80,8|0|2,0:0|0:0|0:0,0:0:0:0:
143,206,14068,2,0,B|191:195|239:220,1,80,2|8,0:0|0:0,0:0:0:0:
275,146,14468,2,0,L|456:104,1,160,2|2,0:0|0:0,0:0:0:0:
474,191,15068,2,0,L|395:208,1,80,8|0,0:0|0:0,0:0:0:0:
316,230,15468,1,2,0:0:0:0:
170,178,15668,5,2,0:0:0:0:
216,256,15868,1,8,0:0:0:0:
159,325,16068,1,2,0:0:0:0:
75,301,16268,2,0,B|56:249|-4:221|-4:221|-3:157,1,160,6|8,0:0|0:0,0:0:0:0:
1,87,16868,2,0,L|105:87,1,80,0|2,0:0|0:0,0:0:0:0:
169,84,17268,1,2,0:0:0:0:
268,198,17468,5,8,0:0:0:0:
323,127,17668,2,0,B|378:152|382:240|317:270,1,160,2|2,0:0|0:0,0:0:0:0:
259,307,18268,1,8,0:0:0:0:
131,286,18468,2,0,B|81:256|61:232,1,80,0|2,0:0|0:0,0:0:0:0:
204,151,18868,2,0,B|254:181|274:205,1,80,2|8,0:0|0:0,0:0:0:0:
103,114,19268,6,0,B|96:52|172:13|226:50,1,160,6|2,0:0|0:0,0:0:0:0:
301,78,19868,1,8,0:0:0:0:
371,132,20068,1,0,0:0:0:0:
301,78,20268,1,2,0:0:0:0:
246,156,20468,2,0,B|214:189|173:236,1,80,2|8,0:0|0:0,0:0:0:0:
228,322,20868,2,0,B|287:260|338:200,1,160,0|2,0:0|0:0,0:0:0:0:
408,151,21468,1,8,0:0:0:0:
425,246,21668,5,0,0:0:0:0:
425,246,21768,1,8,0:0:0:0:
425,246,21868,1,2,0:0:0:0:
237,182,22268,2,0,L|189:162,2,40,8|8|0,0:0|0:0|0:0,0:0:0:0:
119,133,22668,6,0,B|100:190|115:257,1,120.000004577637,6|0,0:0|0:0,0:0:0:0:
113,251,23268,1,0,2:0:0:0:
176,317,23468,2,0,L|303:306,1,120.000004577637,0|0,0:0|0:0,0:0:0:0:
378,297,24068,2,0,L|430:293,2,30.0000011444092,2|2|2,0:0|0:0|0:0,0:0:0:0:
358,140,24668,1,0,0:0:0:0:
196,160,25068,6,0,B|157:165|125:172,1,60.0000022888184,0|0,0:0|2:0,0:0:0:0:
58,186,25468,1,0,0:0:0:0:
86,266,25668,2,0,B|113:264|142:248|142:248|184:261|219:247,1,120.000004577637,2|0,0:0|2:0,0:0:0:0:
280,234,26268,2,0,B|301:224|325:228,2,30.0000011444092,2|2|2,0:0|0:0|0:0,0:0:0:0:
443,191,26868,6,0,B|461:222|459:274,2,60.0000022888184,2|0|2,2:2|0:0|2:2,0:0:0:0:
399,117,27468,2,0,L|258:94,1,120.000004577637,0|0,0:0|0:0,0:0:0:0:
280,97,28068,1,0,2:0:0:0:
210,56,28268,2,0,B|179:70|135:72,1,60.0000022888184,0|0,0:0|2:0,0:0:0:0:
188,194,28668,2,0,B|209:168|219:126,1,60.0000022888184,0|0,0:0|2:0,0:0:0:0:
275,202,29068,1,0,0:0:0:0:
115,252,29468,1,0,0:0:0:0:
176,317,29668,5,0,2:0:0:0:
176,317,29868,2,0,L|303:306,1,120.000004577637,0|0,0:0|0:0,0:0:0:0:
378,297,30468,2,0,L|382:349,2,30.0000011444092,2|2|2,0:0|0:0|0:0,0:0:0:0:
356,144,31068,2,0,B|298:163|228:155,1,120.000004577637,0|2,0:0|0:2,0:0:0:0:
160,134,31668,1,2,2:0:0:0:
93,88,31868,1,2,0:2:0:0:
112,206,32068,6,0,B|93:274|125:338,1,120.000004577637,2|0,2:0|0:0,0:0:0:0:
202,333,32668,2,0,L|240:328,2,30.0000011444092,2|2|2,0:0|0:0|0:0,0:0:0:0:
417,305,33268,2,0,L|357:312,2,60.0000022888184,0|0|0,3:0|0:0|0:0,0:0:0:0:
432,222,33868,6,0,L|298:239,1,120.000004577637,0|0,0:0|0:0,0:0:0:0:
234,217,34468,2,0,B|204:229|157:223,1,60.0000022888184,0|0,2:0|0:0,0:0:0:0:
105,183,34868,1,0,2:0:0:0:
168,62,35068,1,0,0:0:0:0:
178,145,35268,1,0,2:0:0:0:
95,100,35468,1,2,0:0:0:0:
332,88,35868,5,2,0:0:0:0:
396,144,36068,1,0,0:0:0:0:
396,144,36268,2,2,B|437:231|369:303,1,160,2|2,0:0|0:0,0:1:0:0:
289,278,36868,1,2,0:0:0:0:
289,278,36968,1,2,0:0:0:0:
289,278,37068,2,0,L|118:275,1,160,2|2,0:0|0:0,0:0:0:0:
129,275,37868,5,2,0:0:0:0:
68,214,38068,1,0,0:0:0:0:
113,139,38268,1,2,0:0:0:0:
201,148,38468,2,0,B|222:111|229:57,1,80,0|2,0:0|0:0,0:0:0:0:
302,104,38868,1,0,0:0:0:0:
423,117,39068,1,2,0:0:0:0:
423,117,39168,1,2,3:0:0:0:
423,117,39268,2,0,B|388:201|289:210,1,160,8|0,3:0|0:0,0:0:0:0:
199,284,39868,6,0,L|284:291,1,80,4|2,0:0|0:0,0:0:0:0:
278,290,40168,1,2,0:0:0:0:
278,290,40268,2,0,B|329:282|364:299,1,80,2|2,0:0|0:0,0:0:0:0:
404,224,40668,2,0,B|368:198|366:155,1,80,2|0,0:0|0:0,0:0:0:0:
400,75,41068,2,0,L|485:82,2,80,2|0|2,3:2|0:2|3:2,0:0:0:0:
314,68,41668,1,0,0:0:0:0:
231,65,41868,1,2,3:2:0:0:
231,65,42268,1,2,0:0:0:0:
236,157,42468,5,2,0:0:0:0:
236,157,42568,1,2,0:0:0:0:
236,157,42668,2,0,L|156:150,1,80,2|0,0:0|1:0,0:0:0:0:
132,148,42968,2,0,B|102:186|128:230,1,80,0|0,1:0|1:0,0:0:0:0:
114,243,43268,2,0,B|129:294|196:301,1,80,2|6,1:0|0:0,0:0:0:0:
349,298,43868,1,2,0:0:0:0:
421,253,44068,1,0,0:0:0:0:
437,160,44268,6,0,B|392:167|358:174,1,80,2|2,0:0|0:0,0:0:0:0:
358,173,44568,1,2,0:0:0:0:
358,173,44668,2,0,B|324:180|279:187,1,80,2|2,0:0|0:0,0:0:0:0:
197,156,45068,2,0,L|110:139,1,80,2|0,0:0|0:0,0:0:0:0:
232,64,45468,2,0,L|400:44,2,160,10|2|2,0:0|0:0|0:0,0:0:0:0:
150,43,46468,1,0,0:0:0:0:
59,150,46668,6,0,B|87:185|132:184,1,80,2|2,0:0|0:0,0:0:0:0:
148,181,46968,2,0,L|236:169,1,80,2|2,0:0|0:0,0:0:0:0:
254,181,47268,2,0,B|312:193|327:277|273:310,1,160,2|2,0:0|3:0,0:0:0:0:
226,251,47868,1,8,0:0:0:0:
447,241,48268,6,0,L|459:143,1,80,2|2,3:2|0:0,0:0:0:0:
397,91,48668,2,0,B|345:98|292:80,1,80,8|2,0:0|0:0,0:0:0:0:
298,62,48968,2,0,L|168:87,1,120,2|2,0:0|0:0,0:0:0:0:
96,148,49468,1,10,0:0:0:0:
111,165,49568,2,0,L|239:178,1,120,2|2,0:0|0:0,0:0:0:0:
325,185,50068,6,0,L|353:132,1,40,2|2,0:0|0:0,0:0:0:0:
328,272,50368,2,0,L|384:294,1,40,2|2,0:0|0:0,0:0:0:0:
251,316,50668,2,0,B|203:316|173:269,2,80,0|2|8,1:0|3:0|0:0,0:0:0:0:
262,228,51268,1,2,3:0:0:0:
262,228,51368,1,8,3:0:0:0:
262,228,51468,2,0,B|185:177|104:212,1,160,4|8,3:0|0:0,0:0:0:0:
39,260,52068,1,2,0:0:0:0:
11,97,52268,6,0,L|21:196,1,80,2|2,0:0|0:0,0:0:0:0:
52,137,52568,2,0,B|98:140|144:111,1,80,2|0,0:0|0:0,0:0:0:0:
155,94,52868,2,0,B|201:97|247:68,1,80,2|2,0:0|0:0,0:0:0:0:
319,96,53268,2,0,L|357:69,1,40,0|2,0:0|0:0,0:0:0:0:
261,176,53568,2,0,L|215:162,2,40,0|2|2,0:0|0:0|0:0,0:0:0:0:
293,185,53868,2,0,B|376:146|455:166,1,160,2|8,0:0|0:0,0:0:0:0:
500,243,54468,5,0,0:0:0:0:
500,243,54568,1,2,0:0:0:0:
500,243,54668,2,0,B|473:252|436:252,3,40,2|2|2|2,0:0|0:0|0:0|0:0,0:0:0:0:
440,281,55068,2,0,B|412:279|383:294,3,40,10|2|2|2,0:0|0:0|0:0|0:0,0:0:0:0:
373,311,55468,2,0,B|318:321|273:304,1,80,2|2,0:0|0:0,0:0:0:0:
275,332,55768,2,0,L|129:362,1,120,2|2,0:0|0:0,0:0:0:0:
92,299,56268,6,0,B|89:260|103:221,1,80,2|0,0:0|0:0,0:0:0:0:
205,105,56668,2,0,B|208:144|194:183,1,80,10|0,0:0|0:0,0:0:0:0:
290,200,57068,1,2,0:0:0:0:
290,200,57168,1,2,0:0:0:0:
290,200,57268,2,0,L|385:183,1,80,2|8,0:0|0:0,0:0:0:0:
442,92,57668,5,0,3:0:0:0:
442,92,57768,1,0,3:0:0:0:
442,92,57868,2,0,B|349:83|265:120,1,160,2|8,0:0|0:0,0:0:0:0:
206,87,58468,1,2,0:0:0:0:
100,144,58668,2,0,B|93:196|122:228,1,80,2|2,0:0|0:0,0:0:0:0:
140,234,58968,2,0,L|258:208,1,120,2|2,0:0|0:0,0:0:0:0:
360,176,59468,6,0,L|416:245,1,80,2|0,0:0|0:0,0:0:0:0:
425,257,59768,2,0,L|394:349,1,80,2|0,0:0|0:0,0:0:0:0:
393,356,60068,2,0,B|307:388|221:325,1,160,2|0,0:0|1:0,0:0:0:0:
198,259,60668,2,0,L|176:193,2,40,8|8|0,0:0|0:0|1:0,0:0:0:0:
218,130,61068,5,2,1:0:0:0:
412,107,61468,1,2,1:0:0:0:
282,202,61868,1,2,1:0:0:0:
476,179,62268,1,2,1:0:0:0:
350,278,62668,5,4,1:2:0:0:
350,278,62868,1,0,0:0:0:0:
268,310,63068,1,8,1:2:0:0:
268,310,63268,1,2,0:0:0:0:
188,281,63468,2,0,B|146:244|171:182,1,95.9999970703126,2|2,1:2|0:0,0:0:0:0:
68,78,63868,2,0,B|110:115|85:177,1,95.9999970703126,8|0,0:0|0:0,0:0:0:0:
177,97,64268,5,2,1:0:0:0:
3,140,64668,1,2,1:0:0:0:
79,262,65068,1,2,1:0:0:0:
253,219,65468,1,2,1:0:0:0:
328,199,65668,1,0,1:0:0:0:
427,176,65868,6,0,B|369:151|362:91,1,95.9999970703126,4|0,1:2|0:0,0:0:0:0:
386,259,66268,2,0,B|328:271|312:332,1,95.9999970703126,0|2,1:0|3:0,0:0:0:0:
253,219,66668,2,0,L|75:196,1,160,2|8,3:0|0:0,0:0:0:0:
86,198,67168,1,8,0:0:0:0:
78,197,67268,1,8,0:0:0:0:
70,196,67368,1,8,0:0:0:0:
62,195,67468,1,12,0:0:0:0:
169,331,67868,5,0,0:0:0:0:
248,305,68068,1,0,1:0:0:0:
326,339,68268,2,0,B|381:323|394:226|325:194,1,160,0|8,1:0|0:0,0:0:0:0:
267,173,68868,1,0,1:0:0:0:
267,173,68968,1,0,1:0:0:0:
267,173,69068,2,0,B|212:189|199:286|268:318,1,160,4|8,1:2|0:0,0:0:0:0:
58,322,69868,1,0,1:0:0:0:
131,287,70068,2,0,L|142:204,1,80,0|0,1:0|1:0,0:0:0:0:
185,129,70468,5,0,1:0:0:0:
185,129,70568,1,0,1:0:0:0:
185,129,70668,2,0,B|284:131|333:58,1,160,4|2,1:2|1:0,0:0:0:0:
340,73,71168,1,0,1:0:0:0:
354,78,71268,2,0,B|408:96|447:121,1,80,2|8,1:0|0:0,0:0:0:0:
456,210,71668,2,0,B|402:192|363:167,1,80,0|8,1:0|0:0,1:1:0:0:
267,231,72068,1,2,1:0:0:0:
303,157,72268,1,2,1:0:0:0:
438,344,73868,6,0,B|392:349|335:344,1,80,4|2,0:0|0:0,0:0:0:0:
276,324,74268,2,0,B|182:305|94:334,1,160,10|2,0:2|0:0,0:0:0:0:
42,346,74868,1,2,0:0:0:0:
46,188,75068,2,0,L|56:86,1,80,8|0,0:0|0:0,0:0:0:0:
131,160,75468,1,2,0:0:0:0:
110,247,75668,2,0,L|17:277,1,80,2|8,0:0|0:0,0:0:0:0:
198,222,76068,2,0,B|245:203|294:200,1,80,2|2,0:0|0:0,0:0:0:0:
431,262,76468,2,0,B|388:257|335:230,1,80,2|10,0:0|0:0,0:0:0:0:
422,168,76868,5,2,0:0:0:0:
422,168,76968,1,0,0:0:0:0:
422,168,77068,1,2,0:0:0:0:
335,140,77268,1,0,0:0:0:0:
252,116,77468,1,8,0:0:0:0:
316,51,77668,1,0,0:0:0:0:
252,116,77868,2,0,B|211:133|153:130,1,80,2|2,0:0|0:0,0:0:0:0:
260,268,78268,2,0,B|301:251|359:254,1,80,8|0,0:0|0:0,0:0:0:0:
468,139,78668,6,0,L|481:228,2,80,2|0|8,0:0|0:0|0:0,0:0:0:0:
395,195,79268,1,2,0:1:0:0:
395,195,79368,1,0,0:1:0:0:
395,195,79468,2,0,B|322:141|224:162,1,160,2|10,0:1|0:1,0:0:0:0:
162,195,80068,1,2,0:1:0:0:
78,276,80268,6,0,B|45:245|45:195,1,80,2|0,0:0|0:0,0:0:0:0:
51,115,80668,1,8,0:0:0:0:
162,195,80868,1,0,0:0:0:0:
249,205,81068,2,0,L|340:215,1,80,2|2,0:0|0:0,0:0:0:0:
426,276,81468,2,0,B|404:214|432:165|432:165|384:122,1,160,10|2,0:2|0:0,0:0:0:0:
327,82,82068,5,0,0:0:0:0:
205,125,82268,2,0,L|114:115,1,80,8|0,0:0|0:0,0:0:0:0:
245,48,82668,1,2,0:0:0:0:
285,157,82868,1,2,0:0:0:0:
214,220,83068,2,0,L|123:210,1,80,10|2,0:0|0:0,0:0:0:0:
45,200,83468,1,2,0:0:0:0:
109,308,83668,6,0,B|170:309|225:321|225:321|278:303,1,160,2|2,0:2|0:0,0:0:0:0:
345,263,84268,1,2,0:0:0:0:
389,186,84468,1,2,0:0:0:0:
465,238,84668,2,0,L|490:324,1,80,8|0,0:0|0:0,0:0:0:0:
455,72,85068,2,0,L|359:119,1,80,2|2,0:0|0:0,0:0:0:0:
218,125,85468,1,8,0:0:0:0:
273,58,85668,5,0,0:0:0:0:
273,58,85768,1,8,0:0:0:0:
273,58,85868,2,0,B|313:91|303:165,1,80,2|2,0:0|0:0,0:0:0:0:
257,281,86268,2,0,B|217:248|227:174,1,80,8|8,0:0|0:0,0:0:0:0:
312,214,86668,5,12,0:2:0:0:
341,297,86868,2,2,B|345:343|289:384|248:362,1,120.000004577637,2|2,0:1|0:1,0:1:0:0:
178,351,87468,2,0,B|174:305|230:264|271:286,1,120.000004577637,2|2,0:1|0:1,0:0:0:0:
453,194,88268,2,0,B|424:226|360:217|341:170,1,120.000004577637,2|2,0:0|3:2,0:0:0:0:
110,104,89068,2,0,B|139:72|203:81|222:128,1,120.000004577637,2|2,3:2|0:1,0:0:0:0:
271,194,89668,5,0,1:0:0:0:
271,194,89768,1,0,1:0:0:0:
271,194,89868,1,0,1:0:0:0:
361,180,90068,2,0,L|420:168,2,40,0|0|8,3:0|3:0|3:2,0:0:0:0:
391,263,90468,2,0,L|456:269,2,40,0|0|8,3:0|3:2|3:2,0:0:0:0:
341,338,90868,1,0,3:0:0:0:
341,338,90968,1,8,3:2:0:0:
341,338,91068,2,0,L|385:367,4,40,0|8|8|0|8,3:0|3:2|3:2|3:0|3:2,0:0:0:0:
238,295,91668,6,0,L|250:349,2,40,0|8|0,3:0|3:2|3:2,0:0:0:0:
151,245,92068,2,0,L|163:299,2,40,0|0|8,3:0|3:0|3:2,0:0:0:0:
130,161,92468,1,0,0:2:0:0:
130,161,92568,1,8,0:2:0:0:
130,161,92668,2,0,L|65:179,4,40,8|0|8|8|8,0:2|0:0|0:2|0:2|0:2,0:0:0:0:
214,109,93268,6,0,L|196:50,2,40,0|0|8,0:0|0:0|0:2,0:0:0:0:
264,185,93668,2,0,L|210:201,2,40,0|8|8,0:0|0:2|0:2,0:0:0:0:
314,109,94068,1,8,0:2:0:0:
314,109,94168,1,8,0:2:0:0:
314,109,94268,2,0,L|364:95,4,40,8|0|0|0|8,0:2|0:0|0:0|0:0|0:2,0:0:0:0:
384,180,94868,6,0,B|432:171|467:149,1,80,0|8,0:0|0:2,0:0:0:0:
445,254,95268,2,0,B|397:263|362:285,1,80,8|8,0:2|0:2,0:0:0:0:
285,230,95668,2,0,L|270:327,1,80,8|8,0:2|0:2,0:0:0:0:
197,262,96068,1,8,0:2:0:0:
197,262,96168,1,8,0:2:0:0:
197,262,96268,1,2,0:0:0:0:
133,327,96468,6,0,L|152:376,2,40,0|0|8,0:0|0:0|0:2,0:0:0:0:
38,273,96868,2,0,L|57:322,2,40,0|0|8,0:0|0:0|0:2,0:0:0:0:
73,192,97268,1,0,0:0:0:0:
73,192,97368,1,0,0:0:0:0:
73,192,97468,2,0,L|54:143,4,40,8|0|8|8|8,0:2|0:0|0:2|0:2|0:2,0:0:0:0:
161,170,98068,5,0,0:0:0:0:
176,173,98168,1,8,0:2:0:0:
191,176,98268,1,8,0:2:0:0:
206,179,98368,1,0,0:0:0:0:
221,182,98468,1,8,0:2:0:0:
307,149,98668,2,0,L|360:129,3,40,8|0|8|8,0:2|0:0|0:2|0:2,0:0:0:0:
337,179,99068,2,0,L|354:226,3,40,8|0|8|8,0:2|0:0|0:2|0:2,0:0:0:0:
376,183,99468,1,8,0:2:0:0:
466,166,99668,6,0,L|430:73,1,80,10|10,2:2|2:2,0:0:0:0:
366,42,100068,2,0,B|323:47|273:27,1,80,10|10,2:2|2:2,0:0:0:0:
250,111,100468,2,0,B|207:116|157:96,1,80,10|10,2:2|2:2,0:0:0:0:
80,108,100868,5,10,0:0:0:0:
80,108,100968,1,10,0:0:0:0:
80,108,101068,2,0,L|48:16,1,80,10|10,0:0|0:0,0:0:0:0:
56,204,101468,2,0,L|133:180,2,80,10|10|10,0:0|0:0|0:0,0:0:0:0:
30,295,102068,5,2,2:2:0:0:
45,296,102168,1,2,2:2:0:0:
60,297,102268,1,10,2:2:0:0:
75,298,102368,1,2,2:2:0:0:
90,299,102468,2,0,B|131:315|184:304,1,80,10|4,2:2|0:2,0:0:0:0:
444,262,103268,6,0,B|406:270|351:252,1,80,8|2,0:0|0:0,0:0:0:0:
307,196,103668,2,0,L|197:184,1,80,0|2,0:0|0:0,0:0:0:0:
167,131,104068,1,0,1:0:0:0:
167,131,104168,1,0,1:0:0:0:
167,131,104268,1,2,1:2:0:0:
108,192,104468,2,0,B|163:276|101:359,2,160,2|8|2,0:0|0:0|0:0,0:0:0:0:
25,170,105468,1,2,0:0:0:0:
44,270,105668,5,0,1:0:0:0:
44,270,105768,1,0,1:0:0:0:
44,270,105868,2,0,L|214:260,1,160,2|2,1:2|0:0,0:0:0:0:
294,253,106468,1,8,1:2:0:0:
294,253,106668,2,0,B|292:204|284:163,1,80,2|0,3:2|0:0,0:0:0:0:
462,238,107068,2,0,B|425:242|365:246,1,80,2|0,0:0|1:0,0:0:0:0:
382,244,107368,1,0,1:0:0:0:
382,244,107468,1,2,1:2:0:0:
362,120,107668,6,0,B|457:94|514:183,2,160,2|8|4,0:0|0:0|3:0,0:0:0:0:
275,100,108668,1,2,0:0:0:0:
210,160,108868,1,0,1:0:0:0:
210,160,108968,1,0,1:0:0:0:
210,160,109068,2,0,B|163:163|118:127,1,80,2|0,1:2|0:0,0:0:0:0:
325,199,109468,6,0,B|332:242|304:273,1,80,2|8,0:0|0:0,0:0:0:0:
256,354,109868,2,0,B|317:285|412:314,1,160,2|2,0:0|0:0,0:0:0:0:
492,339,110468,1,0,1:0:0:0:
492,339,110568,1,0,1:0:0:0:
492,339,110668,2,0,L|453:160,1,160,2|2,1:2|0:0,0:0:0:0:
317,60,111468,6,0,B|270:68|222:64,2,80,2|2|2,0:0|3:0|0:0,0:0:0:0:
413,37,112068,1,0,1:0:0:0:
413,37,112168,1,0,1:0:0:0:
413,37,112268,2,0,L|436:136,1,80,2|0,1:2|0:0,0:0:0:0:
358,167,112668,2,0,L|381:266,1,80,2|8,0:0|0:0,0:0:0:0:
336,318,113068,1,2,0:0:0:0:
259,279,113268,1,2,0:2:0:0:
260,178,113468,6,0,B|244:136|235:94,1,80,0|0,1:0|1:0,0:0:0:0:
236,101,113768,1,0,1:0:0:0:
236,101,113868,2,0,B|154:52|63:94,1,160,0|2,1:0|0:0,0:0:0:0:
22,199,114468,2,0,B|104:248|195:206,1,160,8|0,0:0|1:0,0:0:0:0:
256,250,115068,2,0,L|303:277,2,40,8|8|8,0:0|0:0|0:0,0:0:0:0:
362,222,115468,1,4,1:2:0:0:
256,54,115868,5,0,1:0:0:0:
173,56,116068,1,0,1:0:0:0:
173,56,116268,2,0,B|173:111|179:152,1,80,0|0,1:0|1:0,0:0:0:0:
243,203,116668,1,0,1:0:0:0:
184,271,116868,1,8,0:0:0:0:
184,271,116968,1,8,0:0:0:0:
184,271,117068,2,0,B|143:279|90:276,1,80,0|0,1:0|1:0,0:0:0:0:
243,203,117468,2,0,B|284:195|337:198,1,80,2|0,0:0|1:0,0:0:0:0:
386,257,117868,2,0,B|410:295|446:320,2,80,8|2|0,0:0|0:0|1:0,0:0:0:0:
477,227,118468,5,0,1:0:0:0:
477,227,118568,1,0,1:0:0:0:
477,227,118668,2,0,B|511:177|470:103|405:116,1,160,8|2,0:0|0:0,0:0:0:0:
332,149,119268,1,0,1:0:0:0:
287,232,119468,2,0,B|234:239|201:252,1,80,2|0,0:0|1:0,0:0:0:0:
381,240,119868,1,0,1:0:0:0:
332,149,120068,2,0,B|241:152|201:58,1,160,2|8,0:0|0:0,0:0:0:0:
306,53,120668,2,0,B|355:47|398:40,1,80,0|2,1:0|0:0,0:0:0:0:
458,96,121068,5,8,0:0:0:0:
470,185,121268,1,2,0:0:0:0:
383,201,121468,1,8,0:0:0:0:
367,204,121568,1,0,1:0:0:0:
351,207,121668,1,0,1:0:0:0:
335,210,121768,1,0,1:0:0:0:
319,213,121868,2,0,B|229:224|155:183,1,160,0|8,1:0|0:0,0:0:0:0:
178,281,122468,5,8,0:0:0:0:
246,131,122668,2,0,B|326:99|416:112,1,160,0|2,1:0|0:0,0:0:0:0:
485,177,123268,1,0,1:0:0:0:
485,177,123368,1,0,1:0:0:0:
485,177,123468,2,0,L|468:356,1,160,0|0,1:0|1:0,0:0:0:0:
385,229,124068,2,0,B|382:292|369:345,1,80,8|2,0:0|0:0,0:0:0:0:
284,288,124468,2,0,B|287:235|300:182,1,80,0|8,1:0|0:0,0:0:0:0:
357,135,124868,6,0,B|273:87|179:132,1,160,0|0,1:0|1:0,0:0:0:0:
117,90,125468,1,0,3:0:0:0:
117,90,125568,1,8,3:2:0:0:
117,90,125668,2,0,B|63:172|98:274,1,160,8|0,3:2|1:0,0:0:0:0:
151,310,126268,1,0,1:0:0:0:
240,322,126468,2,0,B|286:319|313:283,1,80,8|2,0:0|0:0,0:0:0:0:
350,166,126868,2,0,B|304:169|277:205,2,80,2|2|2,0:0|0:0|0:0,0:0:0:0:
425,226,127468,6,0,B|450:255|494:251,2,53.3333333333333,8|0|8,0:0|0:0|0:0,0:0:0:0:
484,174,127868,2,0,B|509:149|499:110,2,53.3333333333333,8|0|4,3:0|0:0|3:0,0:0:0:0:
424,124,128268,2,0,B|329:125|244:78,1,180.000006866455,4|2,0:0|0:0,0:0:0:0:
185,129,129068,1,12,0:0:0:0:
99,305,129668,1,2,0:0:0:0:
167,349,129868,2,0,B|196:370|261:362|267:308,1,120.000004577637,0|0,1:0|0:0,0:0:0:0:
403,222,130668,2,0,B|471:233|511:244,2,90.0000034332277,0|2|2,1:0|0:0|0:0,0:0:0:0:
327,179,131468,6,0,L|203:204,1,120.000004577637,4|0,1:2|0:0,0:0:0:0:
136,220,132068,1,2,0:0:0:0:
173,126,132268,2,0,B|118:157|42:154,1,120.000004577637,8|0,0:0|0:0,0:0:0:0:
18,223,132868,2,0,B|47:275|121:301,1,120.000004577637,2|2,0:0|0:0,0:0:0:0:
186,311,133468,2,0,B|223:300|273:299,1,60.0000022888184,2|0,0:0|0:0,0:0:0:0:
321,318,133868,5,8,0:0:0:0:
365,173,134268,1,8,0:0:0:0:
409,28,134668,1,12,0:0:0:0:
485,89,134868,6,0,L|402:107,1,80,2|2,0:0|0:0,0:0:0:0:
329,77,135268,1,8,0:0:0:0:
234,174,135468,2,0,B|278:174|312:156,1,80,2|2,1:2|0:0,0:0:0:0:
436,216,135868,2,0,B|392:216|358:234,1,80,8|2,1:2|0:1,0:0:0:0:
308,301,136268,1,2,0:0:0:0:
172,251,136468,2,0,L|147:167,2,80,2|2|2,0:2|0:0|0:0,0:0:0:0:
241,156,137068,6,0,B|245:199|266:239,1,80,8|0,1:2|0:0,0:0:0:0:
388,143,137468,2,0,B|384:100|363:60,1,80,8|2,0:0|0:0,0:0:0:0:
433,227,137868,2,0,L|416:352,1,120,4|2,0:2|0:0,0:0:0:0:
416,345,138268,2,0,B|365:351|321:362,1,80,0|0,1:0|1:0,0:0:0:0:
253,334,138668,5,0,1:0:0:0:
192,267,138868,1,0,1:0:0:0:
190,178,139068,1,0,1:0:0:0:
249,109,139268,1,0,1:0:0:0:
302,190,139468,1,0,1:0:0:0:
374,108,139668,1,0,1:0:0:0:
288,34,139868,2,0,B|227:35|162:23,1,120,0|0,1:0|0:0,0:0:0:0:
136,42,140268,6,0,L|126:99,3,40,0|0|0|0,1:0|0:0|1:0|1:0,0:0:0:0:
96,99,140668,2,0,L|86:156,3,40,0|0|0|0,1:0|1:0|1:0|1:0,0:0:0:0:
58,161,141068,2,0,L|44:240,1,80,4|0,0:0|0:0,0:0:0:0:
123,304,141468,6,0,L|137:225,2,80,8|0|2,0:0|0:0|0:0,0:0:0:0:
237,287,142068,2,0,L|193:359,2,80,2|8|0,0:0|0:0|0:0,0:0:0:0:
314,332,142668,1,2,0:0:0:0:
366,222,142868,2,0,L|397:296,1,80,0|8,0:0|0:0,0:0:0:0:
461,215,143268,2,0,L|390:43,1,160,2|2,0:0|0:0,0:0:0:0:
325,111,143868,1,10,0:0:0:0:
251,69,144068,1,2,0:0:0:0:
180,116,144268,1,2,0:0:0:0:
91,97,144468,6,0,B|104:50|143:33,2,80,0|8|0,0:0|0:0|0:0,0:0:0:0:
37,165,145068,2,0,B|58:213|92:233,1,80,2|2,0:0|0:0,0:0:0:0:
245,186,145468,2,0,B|192:181|154:208,1,80,8|0,0:0|0:0,0:0:0:0:
144,294,145868,2,0,B|197:299|235:272,1,80,2|0,0:0|0:0,0:0:0:0:
307,257,146268,1,8,0:0:0:0:
381,308,146468,1,0,0:0:0:0:
448,252,146668,2,0,B|485:213|469:134|395:125,1,160,2|8,0:0|0:0,0:0:0:0:
322,118,147268,1,0,0:0:0:0:
236,171,147468,6,0,B|225:130|220:86,1,80,2|0,0:0|0:0,0:0:0:0:
322,118,147868,1,8,0:0:0:0:
343,232,148068,1,0,0:0:0:0:
322,118,148268,2,0,B|363:107|407:102,1,80,2|2,0:0|0:0,0:0:0:0:
343,232,148668,2,0,B|262:253|175:263,1,160,8|2,0:0|0:0,0:0:0:0:
100,243,149268,1,0,0:0:0:0:
153,164,149468,5,8,0:0:0:0:
38,138,149668,1,0,0:0:0:0:
153,164,149868,2,0,B|164:118|161:77,1,80,2|2,0:0|0:0,0:0:0:0:
38,138,150268,2,0,B|17:223|23:299,1,160,8|2,0:0|0:0,0:0:0:0:
109,347,150868,2,0,L|192:356,1,80,2|8,0:0|0:0,0:0:0:0:
259,305,151268,5,2,0:0:0:0:
259,305,151368,1,2,0:0:0:0:
259,305,151468,1,2,0:0:0:0:
348,329,151668,1,2,0:0:0:0:
310,232,151868,1,8,0:0:0:0:
432,248,152068,1,0,0:0:0:0:
401,126,152268,6,0,B|392:86|394:36,1,80,2|2,0:0|0:0,0:0:0:0:
227,134,152668,2,0,B|236:174|234:224,1,80,8|2,0:0|0:0,0:0:0:0:
173,289,153068,2,0,B|134:329|42:294|51:223,1,160,2|8,0:0|0:0,0:0:0:0:
53,150,153668,1,0,0:0:0:0:
134,208,153868,5,6,0:2:0:0:
234,213,154068,2,2,B|296:216|369:189,1,120.000004577637,2|2,0:1|0:1,0:1:0:0:
421,271,154668,2,2,B|359:268|286:295,1,120.000004577637,2|2,0:1|0:1,0:1:0:0:
230,322,155268,1,2,0:1:0:0:
352,195,155668,1,2,0:1:0:0:
165,141,156068,1,2,0:1:0:0:
165,141,156268,1,2,0:1:0:0:
288,45,156668,2,2,B|356:38|413:70,1,120.000004577637,2|4,0:1|0:0,0:1:0:0:
281,277,171468,6,0,L|424:257,2,143.999995605469,4|8|2,1:0|0:0|0:0,0:0:0:0:
200,312,172268,1,8,0:0:0:0:
218,332,172368,2,0,B|162:354|110:301,1,95.9999970703126,0|8,1:0|0:0,0:0:0:0:
106,288,172668,2,0,L|129:180,1,95.9999970703126,0|8,0:0|0:0,0:0:0:0:
92,112,173068,2,0,L|203:92,1,95.9999970703126,2|8,0:0|0:0,0:0:0:0:
283,134,173468,1,2,0:0:0:0:
283,134,173568,1,8,0:0:0:0:
283,134,173668,1,8,0:0:0:0:
356,192,173868,2,0,B|416:199|463:161,1,95.9999970703126,2|2,0:0|0:0,0:0:0:0:
481,83,174268,6,0,L|497:27,3,47.9999985351563,2|8|8|8,0:0|0:0|0:0|0:0,0:0:0:0:
446,64,174668,2,0,B|386:57|339:95,1,95.9999970703126,2|0,0:0|0:0,0:0:0:0:
272,117,175068,2,0,L|200:95,2,47.9999985351563,2|0|8,0:0|0:0|0:0,0:0:0:0:
227,196,175468,1,8,0:0:0:0:
306,233,175668,1,2,0:1:0:0:
266,310,175868,1,2,0:0:0:0:
190,279,176068,1,8,0:0:0:0:
190,279,176168,1,8,0:0:0:0:
190,279,176268,2,0,B|138:292|93:283,1,95.9999970703126,8|8,0:0|0:0,0:0:0:0:
25,214,176668,6,0,L|-9:278,2,47.9999985351563,2|8|0,0:0|0:0|0:0,0:0:0:0:
77,139,177068,2,0,B|127:123|154:69,1,95.9999970703126,8|2,0:0|0:0,0:0:0:0:
148,78,177368,1,2,0:0:0:0:
148,78,177468,2,0,B|211:82|256:59,1,95.9999970703126,2|0,0:0|1:0,0:0:0:0:
333,52,177868,1,0,1:0:0:0:
314,136,178068,1,8,0:0:0:0:
238,183,178268,2,0,B|201:237|194:289,1,95.9999970703126,2|0,0:0|0:0,0:0:0:0:
281,340,178668,6,0,L|388:326,1,95.9999970703126,8|0,0:0|0:0,0:0:0:0:
376,327,178968,1,2,0:0:0:0:
376,327,179068,2,0,L|439:347,4,47.9999985351563,2|8|8|8|2,0:0|0:0|0:0|0:0|0:0,0:0:0:0:
414,234,179668,2,0,B|401:176|401:124,1,95.9999970703126,8|2,0:0|0:0,0:0:0:0:
317,104,180068,1,2,0:0:0:0:
302,199,180268,2,0,B|232:223|157:212,1,143.999995605469,8|8,0:0|0:0,0:0:0:0:
159,212,180668,2,0,L|63:186,1,95.9999970703126,2|8,0:0|0:0,0:0:0:0:
52,94,181068,6,0,L|3:81,2,47.9999985351563,2|8|0,0:0|0:0|0:0,0:0:0:0:
152,81,181468,2,0,B|203:73|253:63,1,95.9999970703126,8|0,0:0|0:0,0:0:0:0:
246,64,181768,1,8,0:0:0:0:
246,64,181868,2,0,L|344:87,1,95.9999970703126,2|2,0:0|0:0,0:0:0:0:
411,143,182268,2,0,B|431:201|399:253,1,95.9999970703126,2|2,0:0|0:0,0:0:0:0:
330,286,182668,5,4,0:2:0:0:
247,257,182868,1,8,0:0:0:0:
295,179,183068,1,2,0:0:0:0:
314,194,183168,2,0,B|384:163|458:184,1,143.999995605469,8|8,0:0|0:0,0:0:0:0:
491,266,183668,2,0,B|482:295|502:322,2,47.9999985351563,0|8|2,0:0|0:0|0:0,0:0:0:0:
408,330,184068,5,8,0:0:0:0:
408,330,184168,1,8,0:0:0:0:
408,330,184268,2,0,B|354:338|303:356,1,95.9999970703126,2|2,0:0|0:0,0:0:0:0:
245,289,184668,2,0,B|183:286|121:261,1,95.9999970703126,8|2,0:0|0:0,0:0:0:0:
86,205,185068,1,2,0:0:0:0:
170,173,185268,1,8,0:0:0:0:
255,202,185468,2,0,B|315:199|356:168,1,95.9999970703126,2|8,0:0|0:0,0:0:0:0:
345,174,185768,1,8,0:0:0:0:
345,174,185868,1,8,0:0:0:0:
387,93,186068,5,8,0:0:0:0:
285,53,186268,1,2,0:0:0:0:
300,72,186368,2,0,B|250:72|193:49,1,95.9999970703126,8|2,0:0|0:0,0:0:0:0:
168,34,186668,2,0,B|161:96|177:147,1,95.9999970703126,8|2,0:0|0:0,0:0:0:0:
68,143,187068,2,0,B|60:188|74:248,1,95.9999970703126,2|8,0:0|0:0,0:0:0:0:
165,290,187468,2,0,L|152:352,2,47.9999985351563,2|8|0,0:0|0:0|0:0,0:0:0:0:
250,260,187868,1,8,0:0:0:0:
335,230,188068,1,2,0:0:0:0:
432,239,188268,6,0,B|463:249|499:243,3,47.9999985351563,8|8|8|8,0:0|0:0|0:0|0:0,0:0:0:0:
442,197,188668,2,0,B|473:207|509:201,3,47.9999985351563,8|8|8|8,0:0|0:0|0:0|0:0,0:0:0:0:
452,155,189068,2,0,B|433:94|321:79|288:155,1,191.999994140625,12|0,0:0|1:0,0:0:0:0:
233,233,189668,5,0,1:0:0:0:
147,216,189868,2,0,B|85:199|73:122|138:86,1,160,0|0,1:0|1:0,0:0:0:0:
204,46,190468,1,0,1:0:0:0:
204,46,190568,1,0,1:0:0:0:
204,46,190668,2,0,B|220:103|219:149,1,80,0|0,1:0|1:0,0:0:0:0:
308,140,191068,2,0,B|362:154|400:153,1,80,0|0,1:0|1:0,0:0:0:0:
464,209,191468,5,0,1:0:0:0:
417,287,191668,1,0,1:0:0:0:
329,294,191868,1,0,1:0:0:0:
248,257,192068,2,0,B|204:267|182:317,2,80,0|0|0,1:0|1:0|1:0,0:0:0:0:
315,185,192668,1,0,1:0:0:0:
315,185,192768,1,0,1:0:0:0:
315,185,192868,2,0,B|367:182|405:223,2,80,0|0|0,1:0|1:0|1:0,0:0:0:0:
233,129,193468,1,0,1:0:0:0:
200,35,193668,1,0,1:0:0:0:
482,232,195468,6,0,B|486:189|478:147,1,80,4|2,0:0|0:0,0:0:0:0:
395,194,195868,1,8,0:0:0:0:
402,287,196068,1,0,0:0:0:0:
316,245,196268,1,2,0:0:0:0:
309,151,196468,1,0,0:0:0:0:
231,204,196668,2,0,B|187:213|141:209,1,80,8|0,0:0|0:0,0:0:0:0:
185,119,197068,1,2,0:0:0:0:
263,66,197268,2,0,B|307:57|353:61,1,80,0|8,0:0|0:0,0:0:0:0:
428,100,197668,2,0,B|478:146|445:226|377:219,1,160,0|0,0:0|0:0,0:0:0:0:
313,274,198268,5,10,0:0:0:0:
253,205,198468,1,0,0:0:0:0:
327,150,198668,1,6,0:0:0:0:
390,219,198868,1,0,0:0:0:0:
366,347,199068,2,0,B|317:358|275:358,1,80,8|0,0:0|0:0,0:0:0:0:
177,278,199468,2,0,L|188:361,1,80,2|0,0:0|0:0,0:0:0:0:
67,310,199868,2,0,L|56:227,1,80,8|0,0:0|0:0,0:0:0:0:
121,162,200268,5,2,0:0:0:0:
205,182,200468,1,0,0:0:0:0:
263,114,200668,1,8,0:0:0:0:
298,197,200868,1,0,0:0:0:0:
371,143,201068,2,0,B|419:133|453:137,1,80,2|0,0:0|0:0,0:0:0:0:
345,275,201468,2,0,B|297:285|263:281,1,80,8|2,0:0|0:0,0:0:0:0:
265,281,201768,1,2,0:0:0:0:
265,281,201868,1,6,0:0:0:0:
174,237,202068,5,0,0:0:0:0:
192,332,202268,1,8,0:0:0:0:
102,302,202468,1,0,0:0:0:0:
163,158,202668,2,0,B|171:199|175:241,1,80,2|0,0:0|0:0,0:0:0:0:
259,181,203068,2,0,B|307:178|346:166,1,80,8|0,0:0|0:0,0:0:0:0:
337,168,203368,1,0,0:0:0:0:
337,168,203468,1,2,0:0:0:0:
428,126,203668,5,0,0:0:0:0:
439,224,203868,1,8,0:0:0:0:
353,273,204068,1,0,0:0:0:0:
345,176,204268,2,0,B|336:135|336:89,1,80,2|0,0:0|0:0,0:0:0:0:
259,242,204668,2,0,B|221:253|176:253,1,80,8|0,0:0|0:0,0:0:0:0:
180,252,204968,1,8,0:0:0:0:
180,252,205068,1,6,0:0:0:0:
106,182,205268,6,0,B|68:127|107:53|173:60,1,160,2|2,0:0|0:0,0:0:0:0:
252,107,205868,2,0,B|243:62|239:23,1,80,2|0,0:0|0:0,0:0:0:0:
336,52,206268,2,0,B|345:97|349:136,1,80,8|0,0:0|0:0,0:0:0:0:
348,130,206568,1,8,0:0:0:0:
348,130,206668,1,4,0:0:0:0:
269,221,206868,5,0,1:0:0:0:
186,194,207068,2,0,B|201:147|245:136,1,80,0|8,1:0|3:0,0:0:0:0:
204,279,207468,2,2,B|130:288|103:217,1,120.000004577637
238,137,208268,5,2,0:0:0:0:
212,125,214668,6,0,B|166:125|130:181|164:230,3,120.000004577637,2|2|2|2,0:0|0:0|0:0|0:0,0:0:0:0:
300,259,216268,2,0,B|346:259|382:203|348:154,3,120.000004577637,2|2|2|2,0:0|0:0|0:0|0:0,0:0:0:0:
252,62,217868,2,0,B|215:37|154:51|143:104,1,120.000004577637,2|0,0:0|0:0,0:0:0:0:
84,235,218668,2,0,B|121:260|182:246|193:193,1,120.000004577637,2|2,0:0|0:0,0:0:0:0:
321,305,219468,2,0,B|362:288|369:228|329:198,1,120.000004577637,0|2,0:0|0:0,0:0:0:0:
269,82,220268,6,0,B|251:69|218:76,2,40.000001525879,8|8|8,0:0|0:0|0:0,0:0:0:0:
341,86,220668,2,0,B|342:61|325:35,2,40.000001525879,0|0|0,1:0|1:0|1:0,0:0:0:0:
413,90,221068,2,0,B|462:110|468:176|429:213,1,120.000004577637,4|8,1:2|0:0,0:0:0:0:
390,242,221668,5,8,0:0:0:0:
390,242,221868,2,0,L|317:242,1,60.0000022888184,8|8,0:0|0:0,0:0:0:0:
274,168,222268,2,0,L|347:168,1,60.0000022888184,8|8,0:0|0:0,0:0:0:0:
266,297,222668,6,0,L|173:297,1,80,8|8,0:0|0:0,0:0:0:0:
109,269,223068,1,8,0:0:0:0:
79,193,223268,1,8,0:0:0:0:
160,106,223468,6,0,L|240:106,1,80,8|8,0:0|0:0,0:0:0:0:
300,180,223868,2,0,L|380:180,1,80,8|8,0:0|0:0,0:0:0:0:
433,274,224268,2,0,L|353:274,1,80,8|8,0:0|0:0,0:0:0:0:
215,226,224668,5,8,0:0:0:0:
215,139,224868,1,8,0:0:0:0:
300,100,225068,2,0,L|300:180,1,80,8|8,0:0|0:0,0:0:0:0:
457,195,225468,2,0,L|457:115,1,80,8|8,0:0|0:0,0:0:0:0:
311,352,226668,5,0,3:0:0:0:
256,352,226868,1,0,3:0:0:0:
200,352,227068,2,0,B|187:289|200:233,1,120.000004577637,0|4,3:0|0:0,0:0:0:0:
385,124,227868,6,0,B|336:178|240:147|233:85,1,191.999994140625,8|2,0:0|0:0,0:0:0:0:
320,57,228468,1,2,0:0:0:0:
422,37,228668,2,0,B|471:62|482:130,1,95.9999970703126,8|2,0:0|0:0,0:0:0:0:
464,206,229068,1,2,0:0:0:0:
392,275,229268,1,2,0:0:0:0:
308,217,229468,2,0,B|267:185|201:196,1,95.9999970703126,8|2,0:0|0:0,0:0:0:0:
109,214,229868,2,0,B|78:250|80:306,2,95.9999970703126,2|2|10,0:0|0:0|0:0,0:0:0:0:
184,287,230468,6,0,B|236:192|194:88,1,191.999994140625,2|2,0:0|0:0,0:0:0:0:
293,131,231068,1,8,0:0:0:0:
378,85,231268,2,0,L|490:66,1,95.9999970703126,2|0,0:0|0:0,0:0:0:0:
426,177,231668,2,0,L|417:283,1,95.9999970703126,2|8,0:0|0:0,0:0:0:0:
345,322,232068,1,2,0:0:0:0:
242,217,232268,5,2,0:0:0:0:
332,186,232468,1,2,0:0:0:0:
312,92,232668,1,10,0:0:0:0:
226,125,232868,1,2,0:0:0:0:
226,125,232968,1,0,1:0:0:0:
226,125,233068,2,0,B|171:137|122:99,1,95.9999970703126,0|0,1:0|1:0,0:0:0:0:
44,185,233468,5,8,0:0:0:0:
66,192,233568,1,8,0:0:0:0:
88,199,233668,1,8,0:0:0:0:
110,206,233768,1,8,0:0:0:0:
132,213,233868,2,0,B|182:231|234:228,1,95.9999970703126,4|2,0:0|0:0,0:0:0:0:
323,215,234268,2,0,B|374:216|425:230,1,95.9999970703126,8|2,0:0|0:0,0:0:0:0:
375,309,234668,2,0,B|331:296|280:295,1,95.9999970703126,2|2,0:0|0:0,0:0:0:0:
281,128,235068,2,0,B|324:140|375:141,1,95.9999970703126,8|2,0:0|0:0,0:0:0:0:
341,52,235468,5,2,0:0:0:0:
246,37,235668,1,2,0:0:0:0:
178,102,235868,1,10,0:0:0:0:
207,201,236068,1,2,0:0:0:0:
207,201,236168,1,2,0:0:0:0:
207,201,236268,2,0,B|206:263|190:304,1,95.9999970703126,2|2,0:0|0:0,0:0:0:0:
73,253,236668,2,0,B|74:191|90:150,1,95.9999970703126,8|0,0:0|1:0,0:0:0:0:
178,102,237068,5,0,1:0:0:0:
262,73,237268,1,2,0:0:0:0:
336,125,237468,2,0,B|393:127|436:98,1,95.9999970703126,8|0,0:0|0:0,0:0:0:0:
477,186,237868,2,0,B|485:240|455:296,1,95.9999970703126,2|2,0:0|0:0,0:0:0:0:
371,317,238268,5,10,0:0:0:0:
348,309,238368,1,0,1:0:0:0:
325,301,238468,1,0,1:0:0:0:
302,293,238568,1,0,1:0:0:0:
279,285,238668,2,0,L|251:179,1,95.9999970703126,4|0,1:2|1:0,0:0:0:0:
141,85,239068,2,0,L|165:177,1,95.9999970703126,0|0,1:0|1:0,0:0:0:0:
319,35,239668,6,0,L|354:25,3,31.9999990234375,2|2|2|2,0:0|0:0|0:0|0:0,0:0:0:0:
392,162,240268,5,4,1:0:0:0:
460,208,240468,2,2,B|443:245|386:261|347:230,1,120.000004577637,2|2,0:1|0:1,0:1:0:0:
286,198,241068,2,2,B|269:235|212:251|173:220,1,120.000004577637,10|2,0:1|0:1,0:1:0:0:
43,302,241868,2,0,L|30:236,1,60.0000022888184,2|2,0:0|0:0,0:0:0:0:
67,174,242268,2,0,L|54:108,1,60.0000022888184,2|2,0:0|0:0,0:0:0:0:
96,49,242668,1,10,0:1:0:0:
291,69,243068,1,10,0:1:0:0:
165,117,243468,5,6,0:0:0:0:
142,192,243668,2,2,L|165:309,1,120.000004577637,2|2,0:1|0:1,0:1:0:0:
236,260,244268,2,0,B|239:305|261:365,2,90.0000034332277,0|0|0,1:0|1:0|1:0,0:0:0:0:
317,288,245068,2,0,L|384:274,1,60.0000022888184,0|0,1:0|1:0,0:0:0:0:
389,199,245468,2,0,L|431:135,1,60.0000022888184,8|0,0:0|1:0,0:0:0:0:
346,132,245868,1,4,1:2:0:0:
191,206,246268,1,0,1:0:0:0:
191,206,246468,1,0,1:0:0:0:
117,170,246668,5,4,1:2:0:0:
130,93,246868,2,2,B|172:40|245:53,1,120.000004577637,2|2,0:1|0:1,0:1:0:0:
311,87,247468,2,0,B|369:86|405:58,1,90.0000034332277,8|0,0:0|1:0,0:0:0:0:
396,63,247868,2,0,B|417:92|417:142,1,60.0000022888184,8|2,0:0|0:0,0:0:0:0:
443,203,248268,6,0,L|310:236,1,120.000004577637,0|2,1:0|0:0,0:0:0:0:
251,251,248868,1,2,0:1:0:0:
146,177,249068,2,0,B|189:189|215:189,1,60.0000022888184,8|0,0:0|0:0,0:0:0:0:
261,130,249468,2,0,B|304:142|330:142,1,60.0000022888184,8|2,0:0|0:0,0:0:0:0:
400,90,249868,5,4,1:2:0:0:
462,144,250068,2,2,B|505:199|472:279,1,120.000004577637,2|2,0:1|0:1,0:1:0:0:
394,328,250668,1,0,1:0:0:0:
384,240,250868,1,0,1:0:0:0:
317,179,251068,2,0,B|290:177|258:167,1,60.0000022888184,0|0,1:0|1:0,0:0:0:0:
250,78,251468,2,0,B|276:79|308:89,1,60.0000022888184,0|0,1:0|1:0,0:0:0:0:
172,186,251868,6,0,B|150:158|147:125,1,60.0000022888184,0|0,1:0|1:0,0:0:0:0:
247,261,252268,2,0,B|252:298|237:327,1,60.0000022888184,0|0,1:0|1:0,0:0:0:0:
91,303,252668,2,0,B|121:283|149:279,1,60.0000022888184,0|0,1:0|1:0,0:0:0:0:
49,173,253068,5,0,1:0:0:0:
124,203,253268,2,0,L|251:178,1,120.000004577637,2|2,0:1|0:1,0:0:0:0:
320,190,253868,2,0,B|389:187|443:162,1,120.000004577637,2|2,0:0|0:0,0:0:0:0:
313,66,254668,2,0,B|244:69|190:94,1,120.000004577637,2|2,0:0|0:0,0:0:0:0:
133,235,255468,2,0,B|122:266|104:311,2,60.0000022888184,0|0|0,1:0|1:0|1:0,0:0:0:0:
304,325,256268,5,4,1:2:0:0:
380,345,256468,2,2,B|385:282|377:218,1,120.000004577637,2|2,0:1|0:1,0:0:0:0:
379,146,257068,2,0,B|303:150|246:148,1,120.000004577637,0|2,0:0|0:0,0:0:0:0:
113,64,257868,2,0,B|161:62|190:63,2,60.0000022888184,2|8|8,0:0|3:0|3:0,0:0:0:0:
41,97,258468,1,0,1:0:0:0:
88,160,258668,2,0,B|90:197|88:240,1,60.0000022888184,8|0,0:0|1:0,0:0:0:0:
165,239,259068,2,0,B|163:202|165:159,1,60.0000022888184,8|4,3:0|3:0,0:0:0:0:
259,148,259468,5,4,2:2:0:0:
262,228,259668,2,0,B|272:289|263:360,1,120.000004577637,2|2,0:1|0:1,0:0:0:0:
186,345,260268,2,0,B|123:339|53:348,1,120.000004577637,2|2,0:0|0:1,0:0:0:0:
23,194,261068,2,0,B|29:129|21:61,1,120.000004577637,2|2,0:1|0:0,0:0:0:0:
98,101,261668,1,0,0:0:0:0:
160,56,261868,2,0,B|194:54|228:57,1,60.0000022888184,0|8,1:0|0:0,0:0:0:0:
227,136,262268,2,0,B|193:138|159:135,1,60.0000022888184,8|8,0:0|0:0,0:0:0:0:
305,94,262668,5,4,1:2:0:0:
416,204,263068,1,2,0:0:0:0:
278,273,263468,1,2,0:0:0:0:
167,163,263868,1,0,1:0:0:0:
367,140,264268,5,2,1:2:0:0:
354,256,264668,1,2,1:2:0:0:
214,244,265068,2,0,B|177:245|145:241,1,60.0000022888184,2|2,1:0|1:0,0:0:0:0:
81,233,265468,1,2,1:0:0:0:
81,233,265668,1,4,1:2:0:0:
256,192,265868,12,2,273868,0:0:0:0:
