osu file format v14

[General]
AudioFilename: audio.mp3
AudioLeadIn: 0
PreviewTime: -1
Countdown: 1
SampleSet: Soft
StackLeniency: 0.7
Mode: 0
LetterboxInBreaks: 0
WidescreenStoryboard: 0

[Editor]
DistanceSpacing: 2.5
BeatDivisor: 4
GridSize: 32
TimelineZoom: 3.052

[Metadata]
Title:me & u
TitleUnicode:me & u
Artist:succducc
ArtistUnicode:succducc
Creator:r_______
Version:us
Source:
Tags:
BeatmapID:4537450
BeatmapSetID:2153456

[Difficulty]
HPDrainRate:3.2
CircleSize:4
OverallDifficulty:7.4
ApproachRate:9.8
SliderMultiplier:1.58999996446073
SliderTickRate:1

[Events]
//Background and Video events
0,0,"wp6006464.jpg",0,0
//Break Periods
2,72223,77544
//Storyboard Layer 0 (Background)
//Storyboard Layer 1 (Fail)
//Storyboard Layer 2 (Pass)
//Storyboard Layer 3 (Foreground)
//Storyboard Layer 4 (Overlay)
//Storyboard Sound Samples

[TimingPoints]
23,375,4,2,0,60,1,0
23,-454.285704131637,4,2,0,60,0,0
773,-99.999995851517,4,2,0,60,0,0
1335,-199.999998021127,4,2,0,60,0,0
1710,-99.9999967753892,4,2,0,60,0,0
2273,-60.0000011050706,4,2,0,60,0,0
3022,-133.333329060316,4,2,0,60,0,0
3585,-66.6666677607304,4,2,0,60,0,0
4148,-66.6666684566188,4,2,0,60,0,0
5273,-88.8888922773773,4,2,0,60,0,0
8273,-1000,4,2,0,60,0,0
9023,-37.4999991618097,4,2,0,60,0,0
9398,-1000,4,2,0,60,0,0
9773,-37.4999991618097,4,2,0,60,0,0
10148,-1000,4,2,0,60,0,0
10522,-56.249966199838,4,2,0,60,0,0
12023,-112.499929723205,4,2,0,60,0,0
12398,-56.2499635233665,4,2,0,60,0,0
13429,-234.374832021702,4,2,0,60,0,0
13710,-58.5937079764474,4,2,0,60,0,0
13898,-47.6190476190476,4,2,0,60,0,0
14273,-65.217391685555,4,2,0,60,0,0
14648,-35.7142857142857,4,2,0,60,0,0
15023,-153.84614920264,4,2,0,60,0,0
16523,-58.8235294117647,4,2,0,60,0,0
16898,-123.076922719535,4,2,0,60,0,0
17273,-49.2307707310711,4,2,0,60,0,0
17648,-36.9230791940014,4,2,0,60,0,0
18023,-70.9219858156028,4,2,0,60,0,0
18773,-47.2813209861605,4,2,0,60,0,0
24023,-425.531893355033,4,2,0,60,0,0
26273,-33.3333333333333,4,2,0,60,0,0
26554,-425.531893355033,4,2,0,60,0,0
27023,-33.3333333333333,4,2,0,60,0,0
27398,-425.531893355033,4,2,0,60,0,0
27773,-425.531884150734,4,2,0,60,0,0
28335,-425.531893355033,4,2,0,60,0,0
29273,-33.3333333333333,4,2,0,60,0,0
29554,-425.531893355033,4,2,0,60,0,0
31148,-25,4,2,0,60,0,0
31335,-425.531893355033,4,2,0,60,0,0
32272,-33.3333333333333,4,2,0,60,0,0
33210,-425.531893355033,4,2,0,60,0,0
33773,-31.5208825908068,4,2,0,60,0,0
34148,-425.531893355033,4,2,0,60,0,0
34523,-30.3951330392323,4,2,0,60,0,0
34710,-425.531893355033,4,2,0,60,0,0
35273,-53.1914875834397,4,2,0,60,0,0
37054,-35.4609903427268,4,2,0,60,0,0
37335,-53.1914875834397,4,2,0,60,0,0
38273,-52.9093045424585,4,2,0,60,0,0
39023,-35.4609925455513,4,2,0,60,0,0
39398,-53.1914875834397,4,2,0,60,0,0
40054,-35.4609925455513,4,2,0,60,0,0
40523,-53.1914875834397,4,2,0,60,0,0
41273,-35.4609925455513,4,2,0,60,0,0
42398,-45.4545454545455,4,2,0,60,0,0
42585,-100,4,2,0,60,0,0
42773,-45.4545454545455,4,2,0,60,0,0
42960,-100,4,2,0,60,0,0
43148,-53.1914875834397,4,2,0,60,0,0
43710,-100,4,2,0,60,0,0
43898,-53.1914875834397,4,2,0,60,0,0
44085,-100,4,2,0,60,0,0
44273,-53.1914875834397,4,2,0,60,0,0
44460,-100,4,2,0,60,0,0
45023,-33.3333336591721,4,2,0,60,0,0
45210,-100,4,2,0,60,0,0
45398,-33.3333336591721,4,2,0,60,0,0
45585,-100,4,2,0,60,0,0
45773,-39.9999998609226,4,2,0,60,0,0
46148,-62.4999981951552,4,2,0,60,0,0
46335,-62.4999995624803,4,2,0,60,0,0
46523,-49.9999988824129,4,2,0,60,0,0
46710,-100,4,2,0,60,0,0
46898,-49.9999988824129,4,2,0,60,0,0
47085,-100,4,2,0,60,0,0
47273,-29.6296299033695,4,2,0,60,0,0
47648,-100,4,2,0,60,0,0
48023,-83.3333314706882,4,2,0,60,0,0
48585,-62.5,4,2,0,60,0,0
49898,-112.499993842096,4,2,0,60,0,0
50273,-66.6666684566188,4,2,0,60,0,0
51023,-49.9999996090875,4,2,0,60,0,0
52054,-99.9999969830009,4,2,0,60,0,0
52335,-66.6666631652179,4,2,0,60,0,0
52522,-49.9999996090875,4,2,0,60,0,0
54023,-37.4999988686253,4,2,0,60,0,0
54585,-75.0000020138842,4,2,0,60,0,0
56273,-45.0000034378558,4,2,0,60,0,0
57023,-75.0000025299933,4,2,0,60,0,0
58523,-55.5555555555556,4,2,0,60,0,0
60023,-182.539687536597,4,2,0,60,0,0
62460,-91.2698395685613,4,2,0,60,0,0
63023,-157.302170175147,4,2,0,60,0,0
64710,-78.6510872822914,4,2,0,60,0,0
69023,-66.6666666666667,4,2,0,60,0,0
71273,-100.000001579523,4,2,0,60,0,0
71648,-50.0000007897616,4,2,0,60,0,0
78023,-66.6666666666667,4,2,0,60,0,0
86460,-66.6666641036672,4,2,0,60,0,0
87022,-66.6666666666667,4,2,0,60,0,0
88523,-50,4,2,0,60,0,0
90023,-99.9999977648259,4,2,0,60,0,0
92647,-76.9230769230769,4,2,0,60,0,0
96022,-425.531893355033,4,2,0,60,0,0
97523,-40.5268448025471,4,2,0,60,0,0
97897,-54.7112594343193,4,2,0,60,0,0
98835,-425.531893355033,4,2,0,60,0,0
99022,-50.0000169776614,4,2,0,60,0,0
99960,-425.531874946461,4,2,0,60,0,0
100148,-50.0000007897616,4,2,0,60,0,0
101085,-425.531874946461,4,2,0,60,0,0
101272,-50.0000169776614,4,2,0,60,0,0
101648,-425.531893355033,4,2,0,60,0,0
102023,-70.9219811825084,4,2,0,60,0,0
102960,-425.531893355033,4,2,0,60,0,0
103335,-70.9219811825084,4,2,0,60,0,0
104085,-425.531893355033,4,2,0,60,0,0
104273,-70.9219811825084,4,2,0,60,0,0
105023,-425.531893355033,4,2,0,60,0,0
105210,-70.9219811825084,4,2,0,60,0,0
105585,-425.531893355033,4,2,0,60,0,0
105772,-70.9219811825084,4,2,0,60,0,0
106518,-425.531893355033,4,2,0,60,0,0
106710,-70.9219811825084,4,2,0,60,0,0
106897,-425.531893355033,4,2,0,60,0,0
107090,-70.9219811825084,4,2,0,60,0,0
107460,-425.531893355033,4,2,0,60,0,0
107648,-70.9219811825084,4,2,0,60,0,0
109148,-425.531893355033,4,2,0,60,0,0
110085,-70.9219811825084,4,2,0,60,0,0
110648,-425.531893355033,4,2,0,60,0,0
110831,-70.9219811825084,4,2,0,60,0,0
111585,-425.531893355033,4,2,0,60,0,0
111773,-70.9219811825084,4,2,0,60,0,0
112147,-425.531893355033,4,2,0,60,0,0
112335,-70.9219811825084,4,2,0,60,0,0
112523,-425.531893355033,4,2,0,60,0,0
112710,-70.9219811825084,4,2,0,60,0,0
112897,-425.531893355033,4,2,0,60,0,0
113085,-70.9219811825084,4,2,0,60,0,0
113460,-425.531893355033,4,2,0,60,0,0
113648,-70.9219811825084,4,2,0,60,0,0
114960,-425.531893355033,4,2,0,60,0,0
115148,-70.9219811825084,4,2,0,60,0,0
115710,-425.531893355033,4,2,0,60,0,0
115898,-70.9219811825084,4,2,0,60,0,0
116085,-425.531893355033,4,2,0,60,0,0
116273,-70.9219811825084,4,2,0,60,0,0
116460,-425.531893355033,4,2,0,60,0,0
116648,-70.9219811825084,4,2,0,60,0,0
117398,-425.531893355033,4,2,0,60,0,0
117585,-42.5531870133767,4,2,0,60,0,0
117772,-425.531893355033,4,2,0,60,0,0
117960,-42.5531870133767,4,2,0,60,0,0
118148,-425.531893355033,4,2,0,60,0,0
118335,-42.5531870133767,4,2,0,60,0,0
118522,-425.531893355033,4,2,0,60,0,0
120023,-638.297833129319,4,2,0,60,0,0
120773,-425.531897227972,4,2,0,60,0,0
120960,-53.1914846770047,4,2,0,60,0,0
121335,-125,4,2,0,60,0,0
121523,-638.297833129319,4,2,0,60,0,0
122273,-53.1914846770047,4,2,0,60,0,0
123022,-638.297833129319,4,2,0,60,0,0
123772,-425.531897227972,4,2,0,60,0,0
123960,-53.1914846770047,4,2,0,60,0,0
124335,-125,4,2,0,60,0,0
124522,-638.297833129319,4,2,0,60,0,0
125272,-83.3333333333333,4,2,0,60,0,0
126023,-319.148897337953,4,2,0,60,0,0
126210,-212.765949946822,4,2,0,60,0,0
126397,-319.148897337953,4,2,0,60,0,0
127148,-53.1914857833849,4,2,0,60,0,0
127335,-319.148897337953,4,2,0,60,0,0
128272,-53.1914857833849,4,2,0,60,0,0
128460,-319.148897337953,4,2,0,60,0,0
129023,-53.1914857833849,4,2,0,60,0,0
129210,-319.148897337953,4,2,0,60,0,0
130148,-45.5927023353541,4,2,0,60,0,0
130335,-319.148897337953,4,2,0,60,0,0
130523,-63.8297787411493,4,2,0,60,0,0
132023,-62.5,4,2,0,60,0,0
132210,-319.148897337953,4,2,0,60,0,0
135023,-62.5,4,2,0,60,0,0
135210,-319.148897337953,4,2,0,60,0,0
135960,-45.5854917768351,4,2,0,60,0,0
136523,-319.148897337953,4,2,0,60,0,0
138023,-62.5,4,2,0,60,0,0
141023,-54.9450549450549,4,2,0,60,0,0

[Colours]
Combo1 : 6,160,253
Combo2 : 213,226,234
Combo3 : 242,168,237

[HitObjects]
108,373,23,6,0,L|54:390,1,35,0|0,1:0|1:0,1:0:0:0:
32,237,585,5,0,1:0:0:0:
32,237,679,1,0,1:0:0:0:
28,234,773,6,0,L|107:248,2,79.5,0|0|0,1:0|1:0|1:0,1:0:0:0:
75,383,1335,2,0,L|88:322,1,59.625,0|0,1:0|1:0,1:0:0:0:
114,246,1710,6,0,L|103:204,1,39.75,0|0,1:0|1:0,1:0:0:0:
174,184,1898,2,0,L|185:222,1,39.75,0|0,1:0|1:0,1:0:0:0:
255,198,2085,2,0,L|244:156,1,39.75,0|0,1:0|1:0,1:0:0:0:
350,139,2273,6,0,L|128:101,1,198.75,0|0,1:0|1:0,1:0:0:0:
151,96,2648,2,0,L|347:130,1,198.75,0|0,1:0|1:0,1:0:0:0:
390,283,3022,2,0,L|406:355,1,59.625,0|0,1:0|1:0,1:0:0:0:
403,342,3304,1,0,1:0:0:0:
403,342,3398,2,0,L|453:332,1,29.8125,0|0,1:0|1:0,1:0:0:0:
479,263,3585,2,0,L|336:237,2,119.25,0|0|0,1:0|1:0|1:0,1:0:0:0:
303,302,4148,2,0,L|316:361,1,59.6249961853027,0|0,1:0|1:0,1:0:0:0:
233,383,4335,2,0,L|220:325,1,59.6249961853027,0|0,1:0|1:0,1:0:0:0:
362,242,4523,6,0,L|392:102,1,119.249992370605,0|0,1:0|1:0,1:0:0:0:
387,125,4804,6,0,L|270:101,1,119.249992370605,0|0,1:0|1:0,1:0:0:0:
270,101,5085,6,0,L|250:196,1,59.6249961853027,0|0,1:0|1:0,1:0:0:0:
199,240,5273,2,0,L|26:283,2,178.874984741211,0|0|0,1:0|1:0|1:0,1:0:0:0:
94,125,6398,1,0,1:0:0:0:
94,125,6773,1,0,1:0:0:0:
94,125,7148,1,0,1:0:0:0:
197,229,7523,5,0,1:0:0:0:
94,125,7897,1,0,1:0:0:0:
94,125,8273,6,0,L|103:135,1,11.9249992370605,0|0,1:0|1:0,1:0:0:0:
94,125,8648,2,0,L|103:135,1,11.9249992370605,0|0,1:0|1:0,1:0:0:0:
152,27,9023,6,0,L|100:362,1,318,0|0,1:0|1:0,1:0:0:0:
103,341,9398,2,0,L|115:343,1,11.9249992370605,0|0,1:0|1:0,1:0:0:0:
103,341,9773,6,0,L|438:289,1,318,0|0,1:0|1:0,1:0:0:0:
416,295,10148,2,0,L|428:298,1,11.9249992370605,0|0,1:0|1:0,1:0:0:0:
479,362,10522,6,0,L|442:154,1,212.000350952148,0|0,1:0|1:0,1:0:0:0:
353,173,10898,6,0,L|389:382,1,212.000350952148,0|0,1:0|1:0,1:0:0:0:
389,382,11272,6,0,L|353:174,1,212.000350952148,0|0,1:0|1:0,1:0:0:0:
442,154,11648,6,0,L|479:362,1,212.000350952148,0|0,1:0|1:0,1:0:0:0:
291,283,12023,2,0,L|182:253,1,70.6667098999023,0|0,1:0|1:0,1:0:0:0:
200,344,12304,1,0,1:0:0:0:
200,344,12398,2,0,L|299:374,1,70.6667098999023,0|0,1:0|1:0,1:0:0:0:
291,284,12585,6,0,L|223:263,1,70.6667098999023,0|0,1:0|1:0,1:0:0:0:
200,344,12773,2,0,L|268:365,1,70.6667098999023,0|0,1:0|1:0,1:0:0:0:
291,284,12960,6,0,L|223:263,1,70.6667098999023,0|0,1:0|1:0,1:0:0:0:
200,344,13148,2,0,L|268:365,1,70.6667098999023,0|0,1:0|1:0,1:0:0:0:
161,200,13335,1,0,1:0:0:0:
157,197,13429,2,0,L|147:163,1,33.9200248718262,0|0,1:0|1:0,1:0:0:0:
144,161,13710,2,0,L|78:178,1,67.8400497436523,0|0,1:0|1:0,1:0:0:0:
48,280,13898,2,0,L|259:227,1,166.949996948242,0|0,1:0|1:0,1:0:0:0:
280,123,14179,5,0,1:0:0:0:
279,123,14273,2,0,L|181:93,1,60.9499969482422,0|0,1:0|1:0,1:0:0:0:
125,296,14460,1,0,1:0:0:0:
78,178,14648,6,0,L|417:274,1,333.899993896484,0|0,1:0|1:0,1:0:0:0:
400,269,15023,2,0,L|445:256,4,25.8374996185303,0|0|0|0|0,1:0|1:0|1:0|1:0|1:0,1:0:0:0:
238,382,15585,1,0,1:0:0:0:
317,338,15773,2,0,L|363:324,2,25.8374996185303,0|0|0,1:0|1:0|1:0,1:0:0:0:
329,245,16148,2,0,L|322:220,1,25.8374996185303,0|0,1:0|1:0,1:0:0:0:
247,245,16335,2,0,L|254:269,1,25.8374996185303,0|0,1:0|1:0,1:0:0:0:
391,383,16523,2,0,L|153:339,1,202.724990844727,0|0,1:0|1:0,1:0:0:0:
88,297,16898,2,0,L|56:306,1,32.296875,0|0,1:0|1:0,1:0:0:0:
106,372,17085,5,0,1:0:0:0:
110,374,17179,1,0,1:0:0:0:
110,374,17273,2,0,L|75:248,1,80.7421798706055,0|0,1:0|1:0,1:0:0:0:
171,268,17460,2,0,L|192:346,1,80.7421798706055,0|0,1:0|1:0,1:0:0:0:
33,223,17648,2,0,L|415:112,1,322.968719482422,0|0,1:0|1:0,1:0:0:0:
343,132,18023,6,0,L|427:155,1,56.0475006103516,0|0,1:0|1:0,1:0:0:0:
376,230,18210,1,0,1:0:0:0:
376,230,18304,1,0,1:0:0:0:
376,230,18398,2,0,L|322:215,1,56.0475006103516,0|0,1:0|1:0,1:0:0:0:
343,132,18585,6,0,L|427:155,1,56.0475006103516,0|0,1:0|1:0,1:0:0:0:
468,258,18773,2,0,L|272:317,1,168.142501831055,0|0,1:0|1:0,1:0:0:0:
284,384,19054,1,0,1:0:0:0:
284,384,19148,2,0,L|145:341,1,84.0712509155273,0|0,1:0|1:0,1:0:0:0:
230,281,19335,2,0,L|311:304,1,84.0712509155273,0|0,1:0|1:0,1:0:0:0:
208,359,19523,2,0,L|129:71,1,252.213745117188,0|0,1:0|1:0,1:0:0:0:
141,116,19898,6,0,L|20:84,1,84.0712509155273,0|0,1:0|1:0,1:0:0:0:
82,14,20085,2,0,L|163:35,1,84.0712509155273,0|0,1:0|1:0,1:0:0:0:
141,116,20267,6,0,L|20:84,1,84.0712509155273,0|0,1:0|1:0,1:0:0:0:
81,14,20454,2,0,L|162:35,1,84.0712509155273,0|0,1:0|1:0,1:0:0:0:
258,54,20648,2,0,L|172:359,1,252.213745117188,0|0,1:0|1:0,1:0:0:0:
189,299,21023,6,0,L|33:342,1,84.0712509155273,0|0,1:0|1:0,1:0:0:0:
107,321,21210,2,0,L|188:298,1,84.0712509155273,0|0,1:0|1:0,1:0:0:0:
248,233,21398,6,0,L|330:214,1,84.0712509155273,0|0,1:0|1:0,1:0:0:0:
330,214,21585,2,0,L|248:233,1,84.0712509155273,0|0,1:0|1:0,1:0:0:0:
164,213,21772,6,0,L|8:170,1,84.0712509155273,0|0,1:0|1:0,1:0:0:0:
83,191,21960,2,0,L|164:214,1,84.0712509155273,0|0,1:0|1:0,1:0:0:0:
274,315,22147,6,0,L|356:334,1,84.0712509155273,0|0,1:0|1:0,1:0:0:0:
356,334,22335,2,0,L|274:315,1,84.0712509155273,0|0,1:0|1:0,1:0:0:0:
139,369,22523,5,0,1:0:0:0:
139,369,22616,1,0,1:0:0:0:
139,369,22710,1,0,1:0:0:0:
139,369,22804,1,0,1:0:0:0:
164,341,22898,5,0,1:0:0:0:
154,315,22991,1,0,1:0:0:0:
144,292,23085,1,0,1:0:0:0:
134,269,23179,1,0,1:0:0:0:
99,240,23273,5,0,1:0:0:0:
164,214,23366,1,0,1:0:0:0:
230,189,23460,1,0,1:0:0:0:
295,163,23554,1,0,1:0:0:0:
358,114,23648,5,0,1:0:0:0:
370,115,23741,1,0,1:0:0:0:
404,196,23835,5,0,1:0:0:0:
418,193,23929,1,0,1:0:0:0:
470,130,24023,6,0,L|480:132,1,9.3412504196167,0|0,1:0|1:0,1:0:0:0:
421,52,24398,6,0,L|431:54,1,9.3412504196167,0|0,1:0|1:0,1:0:0:0:
392,328,24773,6,0,L|402:330,1,9.3412504196167,0|0,1:0|1:0,1:0:0:0:
358,251,25054,6,0,L|368:252,2,9.3412504196167,0|0|0,1:0|1:0|1:0,1:0:0:0:
418,190,25335,6,0,L|428:191,1,9.3412504196167,0|0,1:0|1:0,1:0:0:0:
154,244,25523,6,0,L|164:245,1,9.3412504196167,0|0,1:0|1:0,1:0:0:0:
223,310,25898,6,0,L|233:311,1,9.3412504196167,0|0,1:0|1:0,1:0:0:0:
169,383,26273,6,0,L|230:111,1,238.5,0|0,1:0|1:0,1:0:0:0:
217,146,26554,6,0,L|227:149,2,9.3412504196167,0|0|0,1:0|1:0|1:0,1:0:0:0:
25,104,26835,1,0,1:0:0:0:
34,107,26929,1,0,1:0:0:0:
40,29,27023,6,0,L|93:262,1,238.5,0|0,1:0|1:0,1:0:0:0:
93,262,27398,6,0,L|103:263,1,9.3412504196167,0|0,1:0|1:0,1:0:0:0:
27,184,27773,6,0,L|53:189,2,18.6825008392334,0|0|0,1:0|1:0|1:0,1:0:0:0:
43,323,28335,6,0,L|53:325,1,9.3412504196167,0|0,1:0|1:0,1:0:0:0:
307,245,28523,6,0,L|317:243,1,9.3412504196167,0|0,1:0|1:0,1:0:0:0:
379,308,28898,6,0,L|389:306,1,9.3412504196167,0|0,1:0|1:0,1:0:0:0:
329,368,29273,6,0,L|381:135,1,238.5,0|0,1:0|1:0,1:0:0:0:
380,135,29554,6,0,L|390:133,2,9.3412504196167,0|0|0,1:0|1:0|1:0,1:0:0:0:
267,157,29835,5,0,1:0:0:0:
275,155,29929,1,0,1:0:0:0:
301,59,30022,6,0,L|311:61,1,9.3412504196167,0|0,1:0|1:0,1:0:0:0:
310,60,30210,6,0,L|301:59,1,9.3412504196167,0|0,1:0|1:0,1:0:0:0:
455,203,30398,6,0,L|465:205,1,9.3412504196167,0|0,1:0|1:0,1:0:0:0:
463,204,30585,6,0,L|454:202,1,9.3412504196167,0|0,1:0|1:0,1:0:0:0:
374,300,30773,6,0,L|384:302,2,9.3412504196167,0|0|0,1:0|1:0|1:0,1:0:0:0:
412,375,31054,1,0,1:0:0:0:
468,307,31148,6,0,L|244:256,1,159,0|0,1:0|1:0,1:0:0:0:
91,217,31335,6,0,L|101:218,1,9.3412504196167,0|0,1:0|1:0,1:0:0:0:
172,301,31522,6,0,L|182:299,1,9.3412504196167,0|0,1:0|1:0,1:0:0:0:
181,300,31710,6,0,L|172:301,1,9.3412504196167,0|0,1:0|1:0,1:0:0:0:
56,334,31898,6,0,L|66:332,1,9.3412504196167,0|0,1:0|1:0,1:0:0:0:
65,332,32085,6,0,L|56:334,1,9.3412504196167,0|0,1:0|1:0,1:0:0:0:
136,384,32272,6,0,L|192:139,1,238.505935668945,0|0,1:0|1:0,1:0:0:0:
192,139,32554,1,0,1:0:0:0:
110,99,32648,5,0,1:0:0:0:
136,92,32741,1,0,1:0:0:0:
209,68,32835,1,0,1:0:0:0:
302,43,32929,1,0,1:0:0:0:
400,15,33022,6,0,L|444:208,1,119.255935668945,0|0,1:0|1:0,1:0:0:0:
427,131,33210,6,0,L|437:132,1,9.3412504196167,0|0,1:0|1:0,1:0:0:0:
401,296,33397,6,0,L|411:294,1,9.3412504196167,0|0,1:0|1:0,1:0:0:0:
410,295,33585,6,0,L|401:296,1,9.3412504196167,0|0,1:0|1:0,1:0:0:0:
512,277,33773,2,0,L|237:218,1,252.213745117188,0|0,1:0|1:0,1:0:0:0:
252,222,34054,1,0,1:0:0:0:
345,200,34148,6,0,L|354:198,1,9.3412504196167,0|0,1:0|1:0,1:0:0:0:
301,345,34335,6,0,L|291:347,1,9.3412504196167,0|0,1:0|1:0,1:0:0:0:
157,164,34523,2,0,L|294:135,1,130.77751159668,0|0,1:0|1:0,1:0:0:0:
285,136,34710,6,0,L|276:138,1,9.3412504196167,0|0,1:0|1:0,1:0:0:0:
217,68,34897,6,0,L|227:65,1,9.3412504196167,0|0,1:0|1:0,1:0:0:0:
217,68,35085,6,0,L|227:65,1,9.3412504196167,0|0,1:0|1:0,1:0:0:0:
39,30,35273,6,0,L|57:103,1,74.7300033569336,0|0,1:0|1:0,1:0:0:0:
138,86,35460,2,0,L|120:14,1,74.7300033569336,0|0,1:0|1:0,1:0:0:0:
13,203,35648,5,0,1:0:0:0:
90,226,35741,1,0,1:0:0:0:
165,250,35835,1,0,1:0:0:0:
240,276,35929,1,0,1:0:0:0:
318,255,36023,2,0,L|440:286,1,74.7300033569336,0|0,1:0|1:0,1:0:0:0:
376,353,36210,5,0,1:0:0:0:
358,357,36304,1,0,1:0:0:0:
304,332,36398,2,0,L|425:367,1,74.7300033569336,0|0,1:0|1:0,1:0:0:0:
237,188,36585,5,0,1:0:0:0:
255,193,36679,1,0,1:0:0:0:
309,170,36773,2,0,L|187:201,1,74.7300033569336,0|0,1:0|1:0,1:0:0:0:
455,322,36960,1,0,1:0:0:0:
469,331,37054,2,0,L|410:115,1,224.190002441406,0|0,1:0|1:0,1:0:0:0:
410,114,37335,2,0,L|334:95,1,74.7300033569336,0|0,1:0|1:0,1:0:0:0:
238,105,37522,2,0,L|116:75,1,74.7300033569336,0|0,1:0|1:0,1:0:0:0:
186,4,37710,5,0,1:0:0:0:
204,1,37804,1,0,1:0:0:0:
258,25,37897,2,0,L|137:-9,1,74.7300033569336,0|0,1:0|1:0,1:0:0:0:
95,233,38085,5,0,1:0:0:0:
77,229,38179,1,0,1:0:0:0:
145,218,38273,2,0,L|0:257,1,150.257125854492,0|0,1:0|1:0,1:0:0:0:
0,49,38554,1,0,1:0:0:0:
57,106,38648,5,0,1:0:0:0:
75,110,38741,1,0,1:0:0:0:
97,23,38835,5,0,1:0:0:0:
79,19,38929,1,0,1:0:0:0:
150,87,39023,2,0,L|428:147,1,224.190002441406,0|0,1:0|1:0,1:0:0:0:
389,298,39304,5,0,1:0:0:0:
379,305,39398,2,0,L|404:201,1,74.7300033569336,0|0,1:0|1:0,1:0:0:0:
294,241,39585,1,0,1:0:0:0:
298,261,39679,1,0,1:0:0:0:
277,315,39773,2,0,L|306:193,1,74.7300033569336,0|0,1:0|1:0,1:0:0:0:
487,376,39960,1,0,1:0:0:0:
495,369,40054,2,0,L|277:315,1,224.190002441406,0|0,1:0|1:0,1:0:0:0:
45,270,40335,5,0,1:0:0:0:
48,253,40429,1,0,1:0:0:0:
71,325,40523,2,0,L|34:206,1,74.7300033569336,0|0,1:0|1:0,1:0:0:0:
134,220,40710,5,0,1:0:0:0:
130,237,40804,1,0,1:0:0:0:
157,290,40898,2,0,L|117:172,1,74.7300033569336,0|0,1:0|1:0,1:0:0:0:
79,52,41085,5,0,1:0:0:0:
84,41,41179,1,0,1:0:0:0:
0,55,41273,2,0,L|233:111,1,224.190002441406,0|0,1:0|1:0,1:0:0:0:
342,123,41554,1,0,1:0:0:0:
437,125,41648,5,0,1:0:0:0:
455,120,41741,1,0,1:0:0:0:
396,47,41835,5,0,1:0:0:0:
414,42,41929,1,0,1:0:0:0:
495,61,42023,2,0,L|432:356,1,224.190002441406,0|0,1:0|1:0,1:0:0:0:
477,369,42304,5,0,1:0:0:0:
465,369,42398,2,0,L|347:344,1,87.4499969482422,0|0,1:0|1:0,1:0:0:0:
380,351,42585,2,0,L|367:296,1,39.75,0|0,1:0|1:0,1:0:0:0:
158,265,42773,6,0,L|277:239,1,87.4499969482422,0|0,1:0|1:0,1:0:0:0:
244,246,42960,2,0,L|257:192,1,39.75,0|0,1:0|1:0,1:0:0:0:
177,337,43148,2,0,L|146:216,1,74.7300033569336,0|0,1:0|1:0,1:0:0:0:
150,80,43335,5,0,1:0:0:0:
146,97,43429,1,0,1:0:0:0:
173,151,43522,6,0,L|134:32,1,74.7300033569336,0|0,1:0|1:0,1:0:0:0:
60,48,43710,2,0,L|-8:31,1,39.75,0|0,1:0|1:0,1:0:0:0:
286,48,43898,6,0,L|247:167,1,74.7300033569336,0|0,1:0|1:0,1:0:0:0:
173,151,44085,2,0,L|104:167,1,39.75,0|0,1:0|1:0,1:0:0:0:
399,151,44273,6,0,L|360:32,1,74.7300033569336,0|0,1:0|1:0,1:0:0:0:
286,48,44460,2,0,L|217:31,1,39.75,0|0,1:0|1:0,1:0:0:0:
293,261,44648,5,0,1:0:0:0:
311,254,44741,1,0,1:0:0:0:
378,228,44835,1,0,1:0:0:0:
460,205,44929,1,0,1:0:0:0:
439,282,45023,6,0,L|257:231,1,119.249992370605,0|0,1:0|1:0,1:0:0:0:
216,164,45210,2,0,L|148:141,1,39.75,0|0,1:0|1:0,1:0:0:0:
108,384,45398,6,0,L|287:326,1,119.249992370605,0|0,1:0|1:0,1:0:0:0:
293,261,45585,2,0,L|361:238,1,39.75,0|0,1:0|1:0,1:0:0:0:
366,364,45773,2,0,L|146:290,1,198.75,0|0,1:0|1:0,1:0:0:0:
13,161,46054,1,0,1:0:0:0:
11,168,46148,2,0,L|39:284,1,63.5999984741211,0|0,1:0|1:0,1:0:0:0:
113,200,46335,2,0,L|96:139,1,63.5999984741211,0|0,1:0|1:0,1:0:0:0:
98,279,46523,6,0,L|206:312,1,79.5,0|0,1:0|1:0,1:0:0:0:
0,71,46710,2,0,L|44:86,1,39.75,0|0,1:0|1:0,1:0:0:0:
159,84,46898,6,0,L|267:50,1,79.5,0|0,1:0|1:0,1:0:0:0:
60,291,47085,2,0,L|105:276,1,39.75,0|0,1:0|1:0,1:0:0:0:
258,384,47273,2,0,L|308:112,1,268.3125,0|0,1:0|1:0,1:0:0:0:
322,27,47554,1,0,1:0:0:0:
331,31,47648,2,0,L|375:45,1,39.75,0|0,1:0|1:0,1:0:0:0:
464,369,47835,2,0,L|450:324,1,39.75,0|0,1:0|1:0,1:0:0:0:
149,183,48023,6,0,L|379:252,1,238.5,0|0,1:0|1:0,1:0:0:0:
377,251,48585,2,0,L|344:338,1,63.5999984741211,0|0,1:0|1:0,1:0:0:0:
239,356,48773,2,0,L|322:136,1,190.799987792969,0|0,1:0|1:0,1:0:0:0:
359,55,49148,1,0,1:0:0:0:
501,144,49335,1,0,1:0:0:0:
511,146,49429,2,0,L|450:164,1,63.5999984741211,0|0,1:0|1:0,1:0:0:0:
450,164,49898,6,0,L|270:214,1,106,0|0,1:0|1:0,1:0:0:0:
250,282,50273,6,0,L|210:144,1,119.249992370605,0|0,1:0|1:0,1:0:0:0:
216,167,50554,6,0,L|331:135,1,119.249992370605,0|0,1:0|1:0,1:0:0:0:
331,135,50835,6,0,L|358:228,1,59.6249961853027,0|0,1:0|1:0,1:0:0:0:
397,287,51023,2,0,L|139:241,1,238.499984741211,0|0,1:0|1:0,1:0:0:0:
162,245,51398,2,0,L|55:278,3,79.5,0|0|0|0,1:0|1:0|1:0|1:0,1:0:0:0:
92,270,51960,1,0,1:0:0:0:
86,268,52054,2,0,L|117:379,1,79.5,0|0,1:0|1:0,1:0:0:0:
104,341,52335,2,0,L|161:324,1,59.625,0|0,1:0|1:0,1:0:0:0:
259,327,52522,6,0,L|512:259,1,238.499984741211,0|0,1:0|1:0,1:0:0:0:
489,265,52897,2,0,L|456:158,3,79.5,0|0|0|0,1:0|1:0|1:0|1:0,1:0:0:0:
401,64,53460,5,0,1:0:0:0:
397,68,53554,1,0,1:0:0:0:
397,68,53648,2,0,L|381:148,1,79.5,0|0,1:0|1:0,1:0:0:0:
297,129,53835,2,0,L|314:51,1,79.5,0|0,1:0|1:0,1:0:0:0:
465,189,54023,2,0,L|115:122,1,318,0|0,1:0|1:0,1:0:0:0:
83,79,54398,5,0,1:0:0:0:
151,146,54585,2,0,L|67:170,2,52.9999961853027,0|0|0,1:0|1:0|1:0,1:0:0:0:
74,69,54960,5,0,1:0:0:0:
151,146,55147,2,0,L|67:170,2,52.9999961853027,0|0|0,1:0|1:0|1:0,1:0:0:0:
66,59,55523,5,0,1:0:0:0:
151,146,55710,2,0,L|67:170,3,52.9999961853027,0|0|0|0,1:0|1:0|1:0|1:0,1:0:0:0:
59,49,56085,1,0,1:0:0:0:
122,301,56273,6,0,L|196:9,1,265,0|0,1:0|1:0,1:0:0:0:
188,35,56648,1,0,1:0:0:0:
226,31,56741,1,0,1:0:0:0:
278,49,56835,1,0,1:0:0:0:
301,44,56929,1,0,1:0:0:0:
352,54,57023,6,0,L|403:40,3,52.9999961853027,0|0|0|0,1:0|1:0|1:0|1:0,1:0:0:0:
300,176,57398,6,0,L|350:162,3,52.9999961853027,0|0|0|0,1:0|1:0|1:0|1:0,1:0:0:0:
291,253,57773,6,0,L|341:239,3,52.9999961853027,0|0|0|0,1:0|1:0|1:0|1:0,1:0:0:0:
279,334,58148,6,0,L|339:317,3,52.9999961853027,0|0|0|0,1:0|1:0|1:0|1:0,1:0:0:0:
354,67,58523,6,0,L|457:39,3,71.5499954223633,0|0|0|0,1:0|1:0|1:0|1:0,1:0:0:0:
490,287,58898,6,0,L|422:267,3,71.5499954223633,0|0|0|0,1:0|1:0|1:0|1:0,1:0:0:0:
330,337,59273,2,0,L|348:396,2,35.7749977111816,0|0|0,1:0|1:0|1:0,1:0:0:0:
422,267,59460,2,0,L|402:209,2,35.7749977111816,0|0|0,1:0|1:0|1:0,1:0:0:0:
416,344,59648,2,0,L|434:402,2,35.7749977111816,0|0|0,1:0|1:0|1:0,1:0:0:0:
328,193,59835,2,0,L|309:135,2,35.7749977111816,0|0|0,1:0|1:0|1:0,1:0:0:0:
512,171,60023,2,0,L|-6:305,1,500.849975585938,0|0,1:0|1:0,1:0:0:0:
8,205,62273,5,0,1:0:0:0:
27,297,62460,2,0,L|79:309,3,43.552173614502,0|0|0|0,1:0|1:0|1:0|1:0,1:0:0:0:
129,234,62835,2,0,L|60:218,1,43.552173614502,0|0,1:0|1:0,1:0:0:0:
104,383,63023,2,0,L|25:9,1,379.047515869141,0|0,1:0|1:0,1:0:0:0:
120,41,64523,5,0,1:0:0:0:
67,113,64710,2,0,L|0:99,3,50.5396690368652,0|0|0|0,1:0|1:0|1:0|1:0,1:0:0:0:
222,103,65085,5,0,1:0:0:0:
169,31,65272,2,0,L|103:45,3,50.5396690368652,0|0|0|0,1:0|1:0|1:0|1:0,1:0:0:0:
317,15,65648,2,0,L|304:86,1,50.5396690368652,0|0,1:0|1:0,1:0:0:0:
385,90,65835,2,0,L|399:24,1,50.5396690368652,0|0,1:0|1:0,1:0:0:0:
326,143,66023,6,0,L|426:121,7,101.07933807373,0|0|0|0|0|0|0|0,1:0|1:0|1:0|1:0|1:0|1:0|1:0|1:0,1:0:0:0:
402,254,67523,6,0,L|499:283,3,101.07933807373,0|0|0|0,1:0|1:0|1:0|1:0,1:0:0:0:
374,335,68273,1,0,1:0:0:0:
402,254,68460,2,0,L|385:165,1,50.5396690368652,0|0,1:0|1:0,1:0:0:0:
309,217,68648,2,0,L|318:267,3,50.5396690368652,0|0|0|0,1:0|1:0|1:0|1:0,1:0:0:0:
427,99,69023,2,0,L|300:126,5,119.25,0|0|0|0|0|0,1:0|1:0|1:0|1:0|1:0|1:0,1:0:0:0:
454,137,70148,2,0,L|249:80,1,178.875,0|0,1:0|1:0,1:0:0:0:
187,58,70523,2,0,L|124:71,3,59.625,0|0|0|0,1:0|1:0|1:0|1:0,1:0:0:0:
55,51,70898,5,0,1:0:0:0:
73,125,71085,1,0,1:0:0:0:
180,363,71273,2,0,L|202:219,1,119.25,0|0,1:0|1:0,1:0:0:0:
55,57,71648,2,0,L|17:339,1,238.5,0|0,1:0|1:0,1:0:0:0:
393,183,72023,1,0,1:0:0:0:
357,158,78023,6,0,L|345:98,1,59.625,0|0,1:0|1:0,1:0:0:0:
433,25,78210,2,0,L|424:84,1,59.625,0|0,1:0|1:0,1:0:0:0:
357,158,78397,6,0,L|345:98,1,59.625,0|0,1:0|1:0,1:0:0:0:
495,198,78585,2,0,L|481:140,1,59.625,0|0,1:0|1:0,1:0:0:0:
481,140,80273,6,0,L|495:198,1,59.625,0|0,1:0|1:0,1:0:0:0:
415,224,80460,2,0,L|400:166,1,59.625,0|0,1:0|1:0,1:0:0:0:
434,22,80648,2,0,L|421:80,1,59.625,0|0,1:0|1:0,1:0:0:0:
312,350,80835,2,0,L|325:292,1,59.625,0|0,1:0|1:0,1:0:0:0:
325,292,82148,6,0,L|312:350,1,59.625,0|0,1:0|1:0,1:0:0:0:
386,383,82335,2,0,L|398:325,1,59.625,0|0,1:0|1:0,1:0:0:0:
325,292,82898,6,0,L|312:350,1,59.625,0|0,1:0|1:0,1:0:0:0:
176,383,83085,2,0,L|164:325,1,59.625,0|0,1:0|1:0,1:0:0:0:
116,115,83460,2,0,L|205:127,1,59.625,0|0,1:0|1:0,1:0:0:0:
183,41,83648,2,0,L|124:33,1,59.625,0|0,1:0|1:0,1:0:0:0:
116,115,83835,2,0,L|205:127,1,59.625,0|0,1:0|1:0,1:0:0:0:
282,84,84023,6,0,L|383:57,3,59.625,0|0|0|0,1:0|1:0|1:0|1:0,1:0:0:0:
387,134,84398,1,0,1:0:0:0:
480,44,84773,6,0,L|378:17,2,59.625,0|0|0,1:0|1:0|1:0,1:0:0:0:
387,134,85148,1,0,1:0:0:0:
350,224,85335,1,0,1:0:0:0:
452,208,85523,6,0,L|479:310,3,59.625,0|0|0|0,1:0|1:0|1:0|1:0,1:0:0:0:
387,134,85898,1,0,1:0:0:0:
350,224,86085,1,0,1:0:0:0:
310,320,86273,2,0,L|224:343,1,59.625,0|0,1:0|1:0,1:0:0:0:
210,207,86460,2,0,L|407:255,1,178.875,0|0,1:0|1:0,1:0:0:0:
384,249,86835,2,0,L|400:322,1,59.625,0|0,1:0|1:0,1:0:0:0:
287,141,87022,6,0,L|274:82,3,59.625,0|0|0|0,1:0|1:0|1:0|1:0,1:0:0:0:
206,24,87398,1,0,1:0:0:0:
287,141,87585,6,0,L|274:82,4,59.625,0|0|0|0|0,1:0|1:0|1:0|1:0|1:0,1:0:0:0:
351,57,88148,1,0,1:0:0:0:
201,128,88335,1,0,1:0:0:0:
63,186,88523,6,0,L|48:264,3,79.5,0|0|0|0,1:0|1:0|1:0|1:0,1:0:0:0:
77,350,88898,1,0,1:0:0:0:
139,285,89085,6,0,L|154:207,3,79.5,0|0|0|0,1:0|1:0|1:0|1:0,1:0:0:0:
77,350,89460,1,0,1:0:0:0:
7,137,89648,2,0,L|255:191,1,238.5,0|0,1:0|1:0,1:0:0:0:
240,188,90023,6,0,L|268:275,1,79.5,0|0,1:0|1:0,1:0:0:0:
444,357,90398,6,0,L|420:282,1,79.5,0|0,1:0|1:0,1:0:0:0:
240,188,90772,6,0,L|268:275,1,79.5,0|0,1:0|1:0,1:0:0:0:
444,357,91147,6,0,L|420:282,1,79.5,0|0,1:0|1:0,1:0:0:0:
240,188,91522,6,0,L|268:275,1,79.5,0|0,1:0|1:0,1:0:0:0:
444,357,91897,6,0,L|420:282,1,79.5,0|0,1:0|1:0,1:0:0:0:
36,27,92272,6,0,L|111:51,1,79.5,0|0,1:0|1:0,1:0:0:0:
246,101,92647,6,0,L|224:35,1,51.6758041381836,0|0,1:0|1:0,1:0:0:0:
314,11,92835,6,0,L|330:60,1,51.6758041381836,0|0,1:0|1:0,1:0:0:0:
332,152,93023,5,0,1:0:0:0:
339,154,93116,1,0,1:0:0:0:
350,157,93210,1,0,1:0:0:0:
364,161,93304,1,0,1:0:0:0:
467,199,93398,5,0,1:0:0:0:
455,203,93491,1,0,1:0:0:0:
444,205,93585,1,0,1:0:0:0:
438,208,93679,1,0,1:0:0:0:
374,269,93773,5,0,1:0:0:0:
351,278,93866,1,0,1:0:0:0:
315,291,93960,1,0,1:0:0:0:
273,307,94054,1,0,1:0:0:0:
191,365,94148,5,0,1:0:0:0:
177,316,94241,1,0,1:0:0:0:
154,237,94335,1,0,1:0:0:0:
128,146,94429,1,0,1:0:0:0:
100,48,94523,6,0,L|164:58,1,51.6749992370605,0|0,1:0|1:0,1:0:0:0:
294,146,94710,2,0,L|357:123,1,51.6749992370605,0|0,1:0|1:0,1:0:0:0:
347,121,94898,2,0,L|298:139,1,51.6749992370605,0|0,1:0|1:0,1:0:0:0:
62,212,95085,5,0,1:0:0:0:
285,263,95273,2,0,L|350:279,1,51.6749992370605,0|0,1:0|1:0,1:0:0:0:
340,281,95460,2,0,L|289:270,1,51.6749992370605,0|0,1:0|1:0,1:0:0:0:
62,212,95648,5,0,1:0:0:0:
143,383,95835,5,0,1:0:0:0:
161,301,95929,1,0,1:0:0:0:
180,222,96022,6,0,L|190:224,1,9.3412504196167,0|0,1:0|1:0,1:0:0:0:
236,134,96397,6,0,L|246:132,1,9.3412504196167,0|0,1:0|1:0,1:0:0:0:
73,4,96772,6,0,L|83:2,1,9.3412504196167,0|0,1:0|1:0,1:0:0:0:
42,82,97053,6,0,L|52:81,2,9.3412504196167,0|0|0,1:0|1:0|1:0,1:0:0:0:
104,141,97334,6,0,L|114:140,1,9.3412504196167,0|0,1:0|1:0,1:0:0:0:
355,81,97523,2,0,L|426:64,3,65.3887557983398,0|0|0|0,1:0|1:0|1:0|1:0,1:0:0:0:
454,0,97897,6,0,L|415:216,1,217.962509155273,0|0,1:0|1:0,1:0:0:0:
392,331,98273,1,0,1:0:0:0:
392,331,98835,6,0,L|402:334,1,9.3412504196167,0|0,1:0|1:0,1:0:0:0:
176,116,99022,6,0,L|229:349,1,238.5,0|0,1:0|1:0,1:0:0:0:
229,349,99398,6,0,L|176:116,1,238.5,0|0,1:0|1:0,1:0:0:0:
145,0,99773,1,0,1:0:0:0:
89,223,99960,6,0,L|73:217,1,9.3412504196167,0|0,1:0|1:0,1:0:0:0:
8,115,100148,2,0,L|277:177,1,238.5,0|0,1:0|1:0,1:0:0:0:
305,215,100523,2,0,L|451:182,1,79.5,0|0,1:0|1:0,1:0:0:0:
464,178,100710,1,0,1:0:0:0:
438,252,100898,1,0,1:0:0:0:
284,92,101085,6,0,L|268:86,1,9.3412504196167,0|0,1:0|1:0,1:0:0:0:
423,346,101272,6,0,L|371:113,1,238.5,0|0,1:0|1:0,1:0:0:0:
358,36,101648,6,0,L|368:34,1,9.3412504196167,0|0,1:0|1:0,1:0:0:0:
155,247,102023,6,0,L|122:239,2,28.0237503051758,0|0|0,1:0|1:0|1:0,1:0:0:0:
211,304,102210,6,0,L|244:308,2,28.0237503051758,0|0|0,1:0|1:0|1:0,1:0:0:0:
238,227,102398,2,0,L|271:232,2,28.0237503051758,0|0|0,1:0|1:0|1:0,1:0:0:0:
181,373,102585,2,0,L|214:379,2,28.0237503051758,0|0|0,1:0|1:0|1:0,1:0:0:0:
176,77,102773,2,0,L|112:95,1,56.0475006103516,0|0,1:0|1:0,1:0:0:0:
70,25,102960,6,0,L|80:27,1,9.3412504196167,0|0,1:0|1:0,1:0:0:0:
316,292,103148,6,0,L|334:295,1,9.3412504196167,0|0,1:0|1:0,1:0:0:0:
397,196,103335,2,0,L|333:214,1,56.0475006103516,0|0,1:0|1:0,1:0:0:0:
293,373,103522,6,0,L|262:385,2,28.0237503051758,0|0|0,1:0|1:0|1:0,1:0:0:0:
233,313,103710,2,0,L|202:325,2,28.0237503051758,0|0|0,1:0|1:0|1:0,1:0:0:0:
175,254,103897,2,0,L|144:267,2,28.0237503051758,0|0|0,1:0|1:0|1:0,1:0:0:0:
126,350,104085,6,0,L|109:358,1,9.3412504196167,0|0,1:0|1:0,1:0:0:0:
226,56,104273,2,0,L|290:74,1,56.0475006103516,0|0,1:0|1:0,1:0:0:0:
477,158,104460,6,0,L|482:190,2,28.0237503051758,0|0|0,1:0|1:0|1:0,1:0:0:0:
398,102,104648,2,0,L|404:135,2,28.0237503051758,0|0|0,1:0|1:0|1:0,1:0:0:0:
471,53,104835,2,0,L|478:86,2,28.0237503051758,0|0|0,1:0|1:0|1:0,1:0:0:0:
496,367,105023,6,0,L|479:375,1,9.3412504196167,0|0,1:0|1:0,1:0:0:0:
455,294,105210,6,0,L|423:286,2,28.0237503051758,0|0|0,1:0|1:0|1:0,1:0:0:0:
409,361,105397,2,0,L|376:357,2,28.0237503051758,0|0|0,1:0|1:0|1:0,1:0:0:0:
196,142,105585,6,0,L|179:149,1,9.3412504196167,0|0,1:0|1:0,1:0:0:0:
33,311,105772,2,0,L|97:293,1,56.0475006103516,0|0,1:0|1:0,1:0:0:0:
227,331,105960,6,0,L|240:300,2,28.0237503051758,0|0|0,1:0|1:0|1:0,1:0:0:0:
167,272,106148,2,0,L|179:241,2,28.0237503051758,0|0|0,1:0|1:0|1:0,1:0:0:0:
108,214,106335,2,0,L|121:182,2,28.0237503051758,0|0|0,1:0|1:0|1:0,1:0:0:0:
145,374,106518,6,0,L|139:392,1,9.81107902526855,0|0,1:0|1:0,1:0:0:0:
255,203,106710,6,0,L|267:173,2,28.0237503051758,0|0|0,1:0|1:0|1:0,1:0:0:0:
330,315,106897,6,0,L|337:332,1,9.81107902526855,0|0,1:0|1:0,1:0:0:0:
175,75,107090,6,0,L|187:44,2,28.0237503051758,0|0|0,1:0|1:0|1:0,1:0:0:0:
291,104,107273,2,0,L|355:122,1,56.0475006103516,0|0,1:0|1:0,1:0:0:0:
87,296,107460,6,0,L|70:302,1,9.81107902526855,0|0,1:0|1:0,1:0:0:0:
372,226,107648,6,0,L|383:257,2,28.0237503051758,0|0|0,1:0|1:0|1:0,1:0:0:0:
458,58,107835,6,0,L|469:27,2,28.0237503051758,0|0|0,1:0|1:0|1:0,1:0:0:0:
512,323,108023,1,0,1:0:0:0:
448,276,108116,1,0,1:0:0:0:
371,293,108210,1,0,1:0:0:0:
298,311,108304,1,0,1:0:0:0:
252,371,108398,2,0,L|219:364,2,28.0237503051758,0|0|0,1:0|1:0|1:0,1:0:0:0:
343,376,108585,2,0,L|370:383,2,28.0237503051758,0|0|0,1:0|1:0|1:0,1:0:0:0:
68,226,108773,6,0,L|147:203,1,56.0448455810547,0|0,1:0|1:0,1:0:0:0:
240,209,108960,2,0,L|304:189,1,56.0475006103516,0|0,1:0|1:0,1:0:0:0:
445,357,109148,6,0,L|463:362,1,9.3412504196167,0|0,1:0|1:0,1:0:0:0:
369,66,109335,1,0,1:0:0:0:
369,66,109429,1,0,1:0:0:0:
370,145,109523,5,0,1:0:0:0:
295,109,109616,1,0,1:0:0:0:
219,72,109710,6,0,L|236:64,1,9.3412504196167,0|0,1:0|1:0,1:0:0:0:
128,332,109898,6,0,L|110:327,1,9.3412504196167,0|0,1:0|1:0,1:0:0:0:
27,139,110085,2,0,L|91:121,1,56.0475006103516,0|0,1:0|1:0,1:0:0:0:
285,243,110273,2,0,L|303:179,1,56.0475006103516,0|0,1:0|1:0,1:0:0:0:
221,162,110460,2,0,L|203:226,1,56.0475006103516,0|0,1:0|1:0,1:0:0:0:
320,32,110648,6,0,L|303:24,1,9.3412504196167,0|0,1:0|1:0,1:0:0:0:
130,322,110831,2,0,L|66:304,1,56.0475006103516,0|0,1:0|1:0,1:0:0:0:
406,316,111023,1,0,1:0:0:0:
406,316,111116,1,0,1:0:0:0:
408,236,111210,5,0,1:0:0:0:
333,273,111304,1,0,1:0:0:0:
327,356,111398,2,0,L|254:338,1,56.0475006103516,0|0,1:0|1:0,1:0:0:0:
478,279,111585,6,0,L|495:271,1,9.3412504196167,0|0,1:0|1:0,1:0:0:0:
284,100,111773,2,0,L|270:46,1,56.0475006103516,0|0,1:0|1:0,1:0:0:0:
347,12,111960,2,0,L|361:66,1,56.0475006103516,0|0,1:0|1:0,1:0:0:0:
470,366,112147,6,0,L|487:374,1,9.3412504196167,0|0,1:0|1:0,1:0:0:0:
190,90,112335,2,0,L|204:145,1,56.0475006103516,0|0,1:0|1:0,1:0:0:0:
188,384,112523,6,0,L|171:378,1,9.3412504196167,0|0,1:0|1:0,1:0:0:0:
328,201,112710,2,0,L|342:147,1,56.0475006103516,0|0,1:0|1:0,1:0:0:0:
106,340,112897,6,0,L|122:335,1,9.3412504196167,0|0,1:0|1:0,1:0:0:0:
424,161,113085,2,0,L|438:107,1,56.0475006103516,0|0,1:0|1:0,1:0:0:0:
371,329,113273,2,0,L|356:384,1,56.0475006103516,0|0,1:0|1:0,1:0:0:0:
383,41,113460,6,0,L|399:35,1,9.3412504196167,0|0,1:0|1:0,1:0:0:0:
455,351,113648,6,0,L|444:320,2,28.0237503051758,0|0|0,1:0|1:0|1:0,1:0:0:0:
508,281,113835,6,0,L|497:250,2,28.0237503051758,0|0|0,1:0|1:0|1:0,1:0:0:0:
230,157,114022,1,0,1:0:0:0:
231,164,114116,1,0,1:0:0:0:
160,118,114210,1,0,1:0:0:0:
231,77,114304,1,0,1:0:0:0:
293,31,114397,2,0,L|326:39,2,28.0237503051758,0|0|0,1:0|1:0|1:0,1:0:0:0:
187,19,114585,2,0,L|160:12,2,28.0237503051758,0|0|0,1:0|1:0|1:0,1:0:0:0:
382,225,114772,2,0,L|318:244,1,56.0475006103516,0|0,1:0|1:0,1:0:0:0:
66,305,114960,6,0,L|48:311,1,9.3412504196167,0|0,1:0|1:0,1:0:0:0:
169,339,115148,2,0,L|150:275,1,56.0475006103516,0|0,1:0|1:0,1:0:0:0:
61,32,115335,1,0,1:0:0:0:
61,32,115429,1,0,1:0:0:0:
7,91,115522,5,0,1:0:0:0:
88,112,115616,1,0,1:0:0:0:
170,133,115710,6,0,L|163:116,1,9.3412504196167,0|0,1:0|1:0,1:0:0:0:
233,57,115898,2,0,L|254:120,1,56.0475006103516,0|0,1:0|1:0,1:0:0:0:
317,351,116085,6,0,L|323:368,1,9.3412504196167,0|0,1:0|1:0,1:0:0:0:
385,133,116273,2,0,L|404:69,1,56.0475006103516,0|0,1:0|1:0,1:0:0:0:
298,232,116460,6,0,L|292:214,1,9.3412504196167,0|0,1:0|1:0,1:0:0:0:
449,307,116648,2,0,L|470:370,1,56.0475006103516,0|0,1:0|1:0,1:0:0:0:
482,52,116831,2,0,L|462:0,1,56.0475006103516,0|0,1:0|1:0,1:0:0:0:
258,378,117022,5,0,1:0:0:0:
262,369,117116,1,0,1:0:0:0:
219,304,117210,1,0,1:0:0:0:
148,334,117304,1,0,1:0:0:0:
75,370,117398,6,0,L|58:362,1,9.3412504196167,0|0,1:0|1:0,1:0:0:0:
10,233,117585,2,0,L|97:265,1,93.4125061035156,0|0,1:0|1:0,1:0:0:0:
489,316,117772,6,0,L|481:333,1,9.3412504196167,0|0,1:0|1:0,1:0:0:0:
324,379,117960,2,0,L|357:291,1,93.4125061035156,0|0,1:0|1:0,1:0:0:0:
424,13,118148,6,0,L|441:21,1,9.3412504196167,0|0,1:0|1:0,1:0:0:0:
494,178,118335,2,0,L|407:146,1,93.4125061035156,0|0,1:0|1:0,1:0:0:0:
60,3,118522,6,0,L|43:-4,1,9.3412504196167,0|0,1:0|1:0,1:0:0:0:
68,336,118710,6,0,L|51:344,1,9.3412504196167,0|0,1:0|1:0,1:0:0:0:
365,363,118898,6,0,L|382:371,1,9.3412504196167,0|0,1:0|1:0,1:0:0:0:
382,26,119085,6,0,L|399:18,1,9.3412504196167,0|0,1:0|1:0,1:0:0:0:
84,102,119273,1,0,1:0:0:0:
159,287,119366,1,0,1:0:0:0:
320,222,119460,1,0,1:0:0:0:
271,109,119554,1,0,1:0:0:0:
207,172,119648,2,0,L|219:192,1,18.6825008392334,0|0,1:0|1:0,1:0:0:0:
217,188,120023,6,0,L|207:172,1,18.6825008392334,0|0,1:0|1:0,1:0:0:0:
166,96,120398,2,0,L|156:80,1,18.6825008392334,0|0,1:0|1:0,1:0:0:0:
115,0,120773,2,0,L|121:10,1,9.3412504196167,0|0,1:0|1:0,1:0:0:0:
0,60,120960,2,0,L|91:76,1,74.7300033569336,0|0,1:0|1:0,1:0:0:0:
250,106,121148,2,0,L|342:121,1,74.7300033569336,0|0,1:0|1:0,1:0:0:0:
324,118,121335,2,0,L|374:126,1,31.7999992370605,0|0,1:0|1:0,1:0:0:0:
428,140,121523,6,0,L|419:156,1,18.6825008392334,0|0,1:0|1:0,1:0:0:0:
380,234,121898,2,0,L|371:250,1,18.6825008392334,0|0,1:0|1:0,1:0:0:0:
192,366,122273,6,0,L|280:336,1,74.7300033569336,0|0,1:0|1:0,1:0:0:0:
300,272,122460,2,0,L|371:250,1,74.7300033569336,0|0,1:0|1:0,1:0:0:0:
438,368,122636,1,0,1:0:0:0:
355,337,122729,1,0,1:0:0:0:
214,278,122823,1,0,1:0:0:0:
70,227,122917,1,0,1:0:0:0:
96,267,123022,6,0,L|113:260,1,18.6825008392334,0|0,1:0|1:0,1:0:0:0:
205,229,123397,2,0,L|222:222,1,18.6825008392334,0|0,1:0|1:0,1:0:0:0:
302,181,123772,2,0,L|291:186,1,9.3412504196167,0|0,1:0|1:0,1:0:0:0:
319,344,123960,2,0,L|295:255,1,74.7300033569336,0|0,1:0|1:0,1:0:0:0:
226,140,124147,2,0,L|201:50,1,74.7300033569336,0|0,1:0|1:0,1:0:0:0:
206,67,124335,2,0,L|192:18,1,31.7999992370605,0|0,1:0|1:0,1:0:0:0:
273,7,124522,6,0,L|289:15,1,18.6825008392334,0|0,1:0|1:0,1:0:0:0:
358,60,124897,2,0,L|375:68,1,18.6825008392334,0|0,1:0|1:0,1:0:0:0:
428,132,125272,6,0,L|420:195,1,47.7001495361328,0|0,1:0|1:0,1:0:0:0:
343,154,125460,2,0,L|335:210,1,47.7000007629395,0|0,1:0|1:0,1:0:0:0:
492,333,125648,2,0,L|497:285,1,47.7001495361328,0|0,1:0|1:0,1:0:0:0:
250,224,125835,1,0,1:0:0:0:
235,307,125929,1,0,1:0:0:0:
250,214,126023,6,0,L|245:199,1,12.4550008773804,0|0,1:0|1:0,1:0:0:0:
202,29,126210,2,0,L|198:11,1,18.6825008392334,0|0,1:0|1:0,1:0:0:0:
349,66,126397,6,0,L|334:70,1,12.4550008773804,0|0,1:0|1:0,1:0:0:0:
152,119,126585,2,0,L|137:122,1,12.4550008773804,0|0,1:0|1:0,1:0:0:0:
60,145,126773,2,0,L|45:149,1,12.4550008773804,0|0,1:0|1:0,1:0:0:0:
78,47,126960,1,0,1:0:0:0:
244,318,127148,6,0,L|162:293,1,74.7300033569336,0|0,1:0|1:0,1:0:0:0:
60,145,127335,2,0,L|45:149,1,12.4550008773804,0|0,1:0|1:0,1:0:0:0:
20,324,127522,6,0,L|42:331,1,12.4550123214722,0|0,1:0|1:0,1:0:0:0:
60,145,127710,2,0,L|45:149,1,12.4550008773804,0|0,1:0|1:0,1:0:0:0:
111,376,127898,6,0,L|126:380,1,12.4550008773804,0|0,1:0|1:0,1:0:0:0:
60,145,128085,2,0,L|45:149,1,12.4550008773804,0|0,1:0|1:0,1:0:0:0:
173,296,128272,6,0,L|255:271,1,74.7300033569336,0|0,1:0|1:0,1:0:0:0:
338,238,128460,2,0,L|353:234,1,12.4550008773804,0|0,1:0|1:0,1:0:0:0:
472,352,128648,1,0,1:0:0:0:
389,322,128741,1,0,1:0:0:0:
244,275,128835,1,0,1:0:0:0:
100,223,128929,1,0,1:0:0:0:
0,291,129023,6,0,L|24:208,1,74.7300033569336,0|0,1:0|1:0,1:0:0:0:
54,109,129210,2,0,L|59:94,1,12.4550008773804,0|0,1:0|1:0,1:0:0:0:
197,180,129398,1,0,1:0:0:0:
250,101,129585,2,0,L|244:86,1,12.4550008773804,0|0,1:0|1:0,1:0:0:0:
86,13,129773,2,0,L|90:-1,1,12.4550008773804,0|0,1:0|1:0,1:0:0:0:
297,249,129960,5,0,1:0:0:0:
391,218,130054,1,0,1:0:0:0:
304,251,130148,2,0,L|219:276,1,87.1850051879883,0|0,1:0|1:0,1:0:0:0:
128,304,130335,2,0,L|113:309,1,12.4550008773804,0|0,1:0|1:0,1:0:0:0:
109,363,130523,6,0,L|128:304,1,62.2750053405762,0|0,1:0|1:0,1:0:0:0:
37,278,130710,2,0,L|19:338,1,62.2750053405762,0|0,1:0|1:0,1:0:0:0:
109,363,130898,2,0,L|128:304,1,62.2750053405762,0|0,1:0|1:0,1:0:0:0:
158,216,131085,1,0,1:0:0:0:
157,203,131179,1,0,1:0:0:0:
146,124,131273,5,0,1:0:0:0:
144,111,131366,1,0,1:0:0:0:
142,95,131460,1,0,1:0:0:0:
140,82,131554,1,0,1:0:0:0:
121,6,131647,5,0,1:0:0:0:
203,36,131741,1,0,1:0:0:0:
348,83,131835,1,0,1:0:0:0:
493,135,131929,1,0,1:0:0:0:
406,175,132023,6,0,L|434:267,1,63.5999984741211,0|0,1:0|1:0,1:0:0:0:
493,282,132210,2,0,L|489:294,1,12.4550008773804,0|0,1:0|1:0,1:0:0:0:
400,313,132398,2,0,L|403:325,1,12.4550008773804,0|0,1:0|1:0,1:0:0:0:
55,374,132585,6,0,L|59:362,1,12.4550008773804,0|0,1:0|1:0,1:0:0:0:
116,306,132773,2,0,L|120:295,1,12.4550008773804,0|0,1:0|1:0,1:0:0:0:
174,231,132960,2,0,L|177:219,1,12.4550008773804,0|0,1:0|1:0,1:0:0:0:
114,108,133148,1,0,1:0:0:0:
110,99,133241,1,0,1:0:0:0:
186,74,133335,1,0,1:0:0:0:
188,83,133429,1,0,1:0:0:0:
129,24,133523,2,0,L|132:12,1,12.4550008773804,0|0,1:0|1:0,1:0:0:0:
203,325,133710,6,0,L|200:313,1,12.4550008773804,0|0,1:0|1:0,1:0:0:0:
97,215,133898,2,0,L|93:204,1,12.4550008773804,0|0,1:0|1:0,1:0:0:0:
450,36,134085,6,0,L|438:39,1,12.4550008773804,0|0,1:0|1:0,1:0:0:0:
380,107,134272,2,0,L|368:111,1,12.4550008773804,0|0,1:0|1:0,1:0:0:0:
476,119,134460,2,0,L|464:123,1,12.4550008773804,0|0,1:0|1:0,1:0:0:0:
394,229,134647,5,0,1:0:0:0:
311,198,134741,1,0,1:0:0:0:
166,151,134835,1,0,1:0:0:0:
21,100,134929,1,0,1:0:0:0:
109,60,135023,6,0,L|80:-31,1,63.5999984741211,0|0,1:0|1:0,1:0:0:0:
74,170,135210,2,0,L|78:181,1,12.4550008773804,0|0,1:0|1:0,1:0:0:0:
13,217,135398,2,0,L|16:229,1,12.4550008773804,0|0,1:0|1:0,1:0:0:0:
353,4,135585,6,0,L|347:15,1,12.4550008773804,0|0,1:0|1:0,1:0:0:0:
351,95,135773,2,0,L|346:106,1,12.4550008773804,0|0,1:0|1:0,1:0:0:0:
185,82,135960,2,0,L|274:65,1,87.1827087402344,0|0,1:0|1:0,1:0:0:0:
422,41,136148,2,0,L|512:24,1,87.1827087402344,0|0,1:0|1:0,1:0:0:0:
435,247,136335,5,0,1:0:0:0:
435,247,136429,1,0,1:0:0:0:
435,248,136523,2,0,L|437:236,1,12.4550008773804,0|0,1:0|1:0,1:0:0:0:
336,203,136710,6,0,L|344:194,1,12.4550008773804,0|0,1:0|1:0,1:0:0:0:
427,147,136898,2,0,L|436:138,1,12.4550008773804,0|0,1:0|1:0,1:0:0:0:
250,384,137085,6,0,L|238:380,1,12.4550008773804,0|0,1:0|1:0,1:0:0:0:
174,312,137273,2,0,L|162:308,1,12.4550008773804,0|0,1:0|1:0,1:0:0:0:
87,376,137460,2,0,L|99:373,1,12.4550008773804,0|0,1:0|1:0,1:0:0:0:
378,318,137647,5,0,1:0:0:0:
298,280,137741,1,0,1:0:0:0:
158,221,137835,1,0,1:0:0:0:
18,157,137929,1,0,1:0:0:0:
109,125,138023,6,0,L|88:30,1,63.5999984741211,0|0,1:0|1:0,1:0:0:0:
94,56,138210,1,0,1:0:0:0:
94,56,138304,1,0,1:0:0:0:
215,106,138398,5,0,1:0:0:0:
215,106,138491,1,0,1:0:0:0:
215,106,138585,1,0,1:0:0:0:
215,106,138679,1,0,1:0:0:0:
323,150,138773,5,0,1:0:0:0:
323,150,138866,1,0,1:0:0:0:
323,150,138960,1,0,1:0:0:0:
304,44,139054,5,0,1:0:0:0:
304,44,139148,1,0,1:0:0:0:
304,44,139241,1,0,1:0:0:0:
226,207,139335,5,0,1:0:0:0:
226,207,139429,1,0,1:0:0:0:
310,298,139523,5,0,1:0:0:0:
310,298,139616,1,0,1:0:0:0:
310,298,139710,1,0,1:0:0:0:
310,298,139804,1,0,1:0:0:0:
206,334,139898,5,0,1:0:0:0:
206,334,139991,1,0,1:0:0:0:
206,334,140085,1,0,1:0:0:0:
206,334,140179,1,0,1:0:0:0:
393,375,140273,5,0,1:0:0:0:
406,343,140366,1,0,1:0:0:0:
420,316,140460,1,0,1:0:0:0:
476,248,140554,5,0,1:0:0:0:
438,230,140648,1,0,1:0:0:0:
397,209,140741,1,0,1:0:0:0:
362,127,140835,5,0,1:0:0:0:
333,48,140929,1,0,1:0:0:0:
370,121,141023,2,0,L|256:150,3,72.3450012207031,0|0|0|0,1:0|1:0|1:0|1:0,1:0:0:0:
59,125,141398,5,0,1:0:0:0:
71,128,141491,1,0,1:0:0:0:
127,193,141585,5,0,1:0:0:0:
154,99,141679,1,0,1:0:0:0:
128,200,141773,2,0,L|206:217,2,72.3450012207031,0|0|0,1:0|1:0|1:0,1:0:0:0:
296,185,142054,5,0,1:0:0:0:
298,191,142148,1,0,1:0:0:0:
299,199,142241,1,0,1:0:0:0:
349,276,142335,5,0,1:0:0:0:
349,270,142429,1,0,1:0:0:0:
411,361,142523,6,0,L|425:290,3,72.3450012207031,0|0|0|0,1:0|1:0|1:0|1:0,1:0:0:0:
407,122,142898,2,0,L|393:193,3,72.3450012207031,0|0|0|0,1:0|1:0|1:0|1:0,1:0:0:0:
337,73,143273,2,0,L|323:144,3,72.3450012207031,0|0|0|0,1:0|1:0|1:0|1:0,1:0:0:0:
418,44,143648,5,0,1:0:0:0:
418,44,143741,1,0,1:0:0:0:
337,73,143835,1,0,1:0:0:0:
252,104,143929,1,0,1:0:0:0:
100,20,144023,5,0,1:0:0:0:
100,20,144116,1,0,1:0:0:0:
100,20,144210,2,0,L|208:53,1,72.3450012207031,0|0,1:0|1:0,1:0:0:0:
417,124,144398,2,0,L|442:192,1,72.3450012207031,0|0,1:0|1:0,1:0:0:0:
291,384,144585,2,0,L|307:313,1,72.3450012207031,0|0,1:0|1:0,1:0:0:0:
417,124,144773,2,0,L|442:192,1,72.3450012207031,0|0,1:0|1:0,1:0:0:0:
227,279,144960,2,0,L|156:295,1,72.3450012207031,0|0,1:0|1:0,1:0:0:0:
139,210,145148,2,0,L|209:194,1,72.3450012207031,0|0,1:0|1:0,1:0:0:0:
390,339,145335,2,0,L|465:375,1,72.3450012207031,0|0,1:0|1:0,1:0:0:0:
84,377,145522,5,0,1:0:0:0:
84,377,145616,1,0,1:0:0:0:
84,377,145710,2,0,L|59:268,1,72.3450012207031,0|0,1:0|1:0,1:0:0:0:
2,141,145897,2,0,L|73:130,1,72.3450012207031,0|0,1:0|1:0,1:0:0:0:
227,279,146085,2,0,L|156:263,1,72.3450012207031,0|0,1:0|1:0,1:0:0:0:
2,141,146272,6,0,L|73:130,1,72.3450012207031,0|0,1:0|1:0,1:0:0:0:
200,39,146460,2,0,L|271:27,1,72.3450012207031,0|0,1:0|1:0,1:0:0:0:
430,284,146647,6,0,L|447:191,1,72.3451538085938,0|0,1:0|1:0,1:0:0:0:
368,181,146835,2,0,L|353:252,1,72.3450012207031,0|0,1:0|1:0,1:0:0:0:
419,54,147022,5,0,1:0:0:0:
419,54,147116,1,0,1:0:0:0:
419,54,147210,2,0,L|445:163,1,72.3450012207031,0|0,1:0|1:0,1:0:0:0:
511,366,147398,2,0,L|440:382,1,72.3450012207031,0|0,1:0|1:0,1:0:0:0:
283,269,147585,2,0,L|353:252,1,72.3450012207031,0|0,1:0|1:0,1:0:0:0:
512,366,147772,6,0,L|441:383,1,72.3450012207031,0|0,1:0|1:0,1:0:0:0:
283,269,147960,2,0,L|353:252,1,72.3450012207031,0|0,1:0|1:0,1:0:0:0:
154,355,148148,6,0,L|224:339,1,72.3450012207031,0|0,1:0|1:0,1:0:0:0:
421,185,148335,2,0,L|491:169,1,72.3450012207031,0|0,1:0|1:0,1:0:0:0:
191,222,148523,6,0,L|106:200,1,72.3450012207031,0|0,1:0|1:0,1:0:0:0:
101,39,148710,2,0,L|171:57,1,72.3450012207031,0|0,1:0|1:0,1:0:0:0:
191,222,148898,6,0,L|106:200,1,72.3450012207031,0|0,1:0|1:0,1:0:0:0:
101,39,149085,2,0,L|171:57,1,72.3450012207031,0|0,1:0|1:0,1:0:0:0:
257,109,149273,2,0,L|375:143,1,72.3450012207031,0|0,1:0|1:0,1:0:0:0:
83,292,149460,2,0,L|14:312,1,72.3450012207031,0|0,1:0|1:0,1:0:0:0:
314,302,149648,5,0,0:0:0:0:
325,295,149741,1,0,0:0:0:0:
271,242,149835,1,0,0:0:0:0:
250,337,149929,1,0,0:0:0:0:
366,367,150023,5,0,1:0:0:0:
366,367,150116,1,0,1:0:0:0:
366,367,150210,2,0,L|487:393,1,72.3450008115368,0|0,1:0|1:0,1:0:0:0:
259,160,150398,2,0,L|234:92,1,72.3450012207031,0|0,1:0|1:0,1:0:0:0:
489,8,150585,2,0,L|467:123,1,72.3450008115368,0|0,1:0|1:0,1:0:0:0:
334,181,150773,5,0,0:0:0:0:
297,169,150866,1,0,0:0:0:0:
259,160,150960,2,0,L|234:92,1,72.3450012207031,0|0,1:0|1:0,1:0:0:0:
489,8,151148,2,0,L|467:123,1,72.3450008115368,0|0,1:0|1:0,1:0:0:0:
446,171,151335,2,0,L|427:277,1,72.3450008115368,0|0,1:0|1:0,1:0:0:0:
263,328,151522,5,0,1:0:0:0:
263,328,151616,1,0,1:0:0:0:
263,328,151710,2,0,L|238:219,1,72.3450012207031,0|0,1:0|1:0,1:0:0:0:
23,103,151897,2,0,L|94:92,1,72.3450012207031,0|0,1:0|1:0,1:0:0:0:
246,257,152085,2,0,L|175:241,1,72.3450012207031,0|0,1:0|1:0,1:0:0:0:
250,26,152273,6,0,L|321:14,1,72.3450012207031,0|0,1:0|1:0,1:0:0:0:
336,89,152460,2,0,L|265:100,1,72.3450012207031,0|0,1:0|1:0,1:0:0:0:
