osu file format v14

[General]
AudioFilename: audio.mp3
AudioLeadIn: 0
PreviewTime: 96309
Countdown: 0
SampleSet: Soft
StackLeniency: 0.7
Mode: 0
LetterboxInBreaks: 0
WidescreenStoryboard: 0

[Editor]
Bookmarks: 18496,37809,49809,72309,89934,99684,121809,140559,145809,169809,187809,193059
DistanceSpacing: 0.2
BeatDivisor: 4
GridSize: 32
TimelineZoom: 2.5

[Metadata]
Title:me & u
TitleUnicode:me & u
Artist:succducc
ArtistUnicode:succducc
Creator:dorsalplum
Version:Together Forever
Source:
Tags:technical streams jumps jumping streaming tech map hardtech succduc me and u you
BeatmapID:1914256
BeatmapSetID:916621

[Difficulty]
HPDrainRate:4
CircleSize:3.6
OverallDifficulty:8
ApproachRate:9.6
SliderMultiplier:1.8
SliderTickRate:1

[Events]
//Background and Video events
0,0,"illust_59910529_20180208_072001.jpg",0,0
//Break Periods
2,74009,85300
//Storyboard Layer 0 (Background)
//Storyboard Layer 1 (Fail)
//Storyboard Layer 2 (Pass)
//Storyboard Layer 3 (Foreground)
//Storyboard Sound Samples

[TimingPoints]
1809,375,4,2,0,100,1,0
1809,-133.333333333333,4,2,0,100,0,0
10809,-80,4,2,0,100,0,0
12309,-74.0740740740741,4,2,0,100,0,0
13809,-100,4,2,0,100,0,0
19809,-71.4285714285714,4,2,0,100,0,0
25809,-105.263157894737,4,2,0,100,0,0
29746,-86.9565217391306,4,2,0,100,0,0
37059,-28.5714285714286,4,2,0,100,0,0
37246,-27.7777777777778,4,2,0,100,0,0
37434,-27.027027027027,4,2,0,100,0,0
37621,-86.9565217391306,4,2,0,100,0,0
37809,-86.9565217391306,4,2,0,100,0,1
49809,-95.2380952380952,4,2,0,100,0,0
50184,-105.263157894737,4,2,0,100,0,0
58621,-86.9565217391306,4,2,0,100,0,0
60871,-68.9655172413793,4,2,0,100,0,0
61809,-666.666666666667,4,2,0,100,0,0
63965,-95.2380952380952,4,2,0,100,0,0
64809,-666.666666666667,4,2,0,100,0,0
66309,-95.2380952380952,4,2,0,100,0,0
67809,-68.9655172413793,4,2,0,100,0,0
68184,-60.6060606060606,4,2,0,100,0,0
68559,-54.054054054054,4,2,0,100,0,0
68934,-48.780487804878,4,2,0,100,0,0
69309,-44.4444444444445,4,2,0,100,0,0
69684,-40.8163265306122,4,2,0,100,0,0
70059,-95.2380952380952,4,2,0,100,0,0
70809,-40.8163265306122,4,2,0,100,0,0
71184,-37.7358490566038,4,2,0,100,0,0
71559,-35.0877192982456,4,2,0,100,0,0
71934,-32.7868852459016,4,2,0,100,0,0
73059,-95.2380952380952,4,2,0,100,0,0
96309,-54.054054054054,4,2,0,100,0,0
97809,-46.5116279069767,4,2,0,100,0,0
98184,-33.8983050847458,4,2,0,100,0,0
98559,-26.3157894736842,4,2,0,100,0,0
98840,-25,4,2,0,100,0,1
99027,-95.2380952380952,4,2,0,5,0,1
99074,-95.2380952380952,4,2,0,100,0,1
99121,-95.2380952380952,4,2,0,5,0,1
99168,-95.2380952380952,4,2,0,100,0,1
99215,-95.2380952380952,4,2,0,5,0,1
99262,-95.2380952380952,4,2,0,100,0,1
99684,-74.0740740740741,4,2,0,100,0,1
100059,-68.9655172413793,4,2,0,100,0,1
121809,-57.1428571428571,4,2,0,100,0,0
145809,-57.1428571428571,4,2,0,100,0,1
149371,-31.7460317460317,4,2,0,100,0,1
151059,-47.6190476190476,4,2,0,100,0,1
151809,-31.7460317460317,4,2,0,100,0,1
152184,-47.6190476190476,4,2,0,100,0,1
152934,-31.7460317460317,4,2,0,100,0,1
154059,-31.7460317460317,4,2,0,100,0,1
154809,-47.6190476190476,4,2,0,100,0,1
155559,-31.7460317460317,4,2,0,100,0,1
155934,-47.6190476190476,4,2,0,100,0,1
156496,-57.1428571428571,4,2,0,100,0,1
157809,-31.7460317460317,4,2,0,100,0,1
159027,-58.8235294117647,4,2,0,100,0,1
160434,-71.4285714285714,4,2,0,100,0,1
165309,-31.7460317460317,4,2,0,100,0,1
165496,-58.8235294117647,4,2,0,100,0,1
165871,-31.7460317460317,4,2,0,100,0,1
166059,-58.8235294117647,4,2,0,100,0,1
166809,-31.7460317460317,4,2,0,100,0,1
166996,-58.8235294117647,4,2,0,100,0,1
167371,-31.7460317460317,4,2,0,100,0,1
167559,-58.8235294117647,4,2,0,100,0,1
169809,-222.222222222222,4,2,0,15,0,0
172809,-181.818181818182,4,2,0,15,0,0
174309,-153.846153846154,4,2,0,15,0,0
175059,-153.846153846154,4,2,0,15,0,0
175809,-133.333333333334,4,2,0,15,0,0
177684,-95.2380952380956,4,2,0,15,0,0
179934,-117.647058823529,4,2,0,15,0,0
181809,-133.333333333333,4,2,0,15,0,0
187809,-181.818181818181,4,2,0,15,0,0

[Colours]
Combo1 : 255,164,119
Combo2 : 106,172,238
Combo3 : 17,255,219
Combo4 : 217,244,121
Combo5 : 75,75,75

[HitObjects]
391,126,1809,6,0,P|380:163|402:217,1,67.5000025749208
400,220,2184,2,0,L|399:282,2,33.7500012874604
475,31,2559,1,0,0:0:0:0:
310,128,2746,1,0,0:0:0:0:
479,128,2934,2,0,L|542:127,2,33.7500012874604
169,162,3309,5,0,0:0:0:0:
299,48,3496,1,0,0:0:0:0:
344,47,3590,1,0,0:0:0:0:
169,162,3871,1,0,0:0:0:0:
125,162,3965,1,0,0:0:0:0:
80,162,4059,2,0,L|-3:161,1,67.5000025749208
218,210,4434,6,0,P|248:218|292:205,1,67.5000025749208
87,49,4809,1,0,0:0:0:0:
282,210,4996,6,0,L|282:254,2,33.7500012874604
144,335,5371,1,0,0:0:0:0:
242,130,5559,1,0,0:0:0:0:
347,297,5746,1,0,0:0:0:0:
392,296,5840,1,0,0:0:0:0:
434,297,5934,2,0,L|513:296,1,67.5000025749208
180,190,6309,1,0,0:0:0:0:
139,190,6402,1,0,0:0:0:0:
320,105,6590,1,0,0:0:0:0:
362,105,6683,1,0,0:0:0:0:
97,191,6871,5,0,0:0:0:0:
194,340,7059,1,0,0:0:0:0:
14,224,7246,1,0,0:0:0:0:
220,101,7434,2,0,P|269:94|340:103,1,101.250003862381,0|0,3:0|3:0,3:0:0:0:
362,105,7809,1,0,0:0:0:0:
417,166,8184,6,0,L|417:251,1,67.5000025749208
414,327,8559,1,0,0:0:0:0:
304,256,8746,1,0,0:0:0:0:
231,356,8934,1,0,0:0:0:0:
417,234,9121,5,0,0:0:0:0:
210,123,9309,1,0,0:0:0:0:
310,332,9496,1,0,0:0:0:0:
350,100,9683,1,0,0:0:0:0:
185,266,9871,5,0,0:0:0:0:
433,237,10059,1,0,0:0:0:0:
200,115,10247,1,0,0:0:0:0:
313,352,10434,1,0,0:0:0:0:
355,85,10621,5,0,0:0:0:0:
168,269,10809,2,0,P|115:254|174:265,1,225
402,231,11559,6,0,P|450:204|394:228,1,225
255,42,12309,6,0,P|249:70|265:128,1,60.7500002317429
282,335,12496,2,0,P|287:306|271:248,1,60.7500002317429
255,42,12684,2,0,P|260:70|244:128,1,60.7500002317429
227,334,12871,2,0,P|221:305|237:247,1,60.7500002317429
423,170,13059,6,0,P|394:168|345:185,1,60.7500002317429,0|0,0:3|0:3,0:0:0:0:
59,268,13246,2,0,P|86:268|128:250,1,60.7500002317429,0|0,0:3|0:3,0:0:0:0:
423,264,13434,2,0,P|396:270|348:257,1,60.7500002317429,0|0,0:3|0:3,0:0:0:0:
55,184,13621,2,0,P|81:177|119:184,1,60.7500002317429,0|0,0:3|0:3,0:0:0:0:
363,264,13809,6,0,L|363:147,1,90
291,348,14184,1,0,0:0:0:0:
291,348,14277,1,0,0:0:0:0:
291,348,14371,1,0,0:0:0:0:
217,271,14559,6,0,P|170:265|120:276,1,90
291,348,14934,1,0,0:0:0:0:
291,348,15027,1,0,0:0:0:0:
291,348,15121,1,0,0:0:0:0:
364,266,15309,2,0,P|411:260|461:271,1,90
185,181,15684,2,0,L|124:179,2,45
259,123,16059,6,0,P|266:81|247:17,1,90
102,102,16434,1,0,0:0:0:0:
75,137,16527,1,0,0:0:0:0:
65,181,16621,1,0,0:0:0:0:
75,225,16715,1,0,0:0:0:0:
108,261,16809,2,0,P|118:310|108:354,1,90
33,382,17184,1,0,0:0:0:0:
33,382,17277,1,0,0:0:0:0:
33,382,17371,1,0,0:0:0:0:
177,261,17559,6,0,P|222:253|297:274,1,90
424,307,17934,2,0,L|472:350,2,45
374,149,18215,2,0,L|376:71,2,45
265,259,18496,6,0,L|217:302,1,45
374,149,18684,2,0,L|396:74,1,45
424,307,18871,2,0,L|459:360,1,45,0|0,0:3|0:3,0:3:0:0:
281,162,19059,5,0,0:0:0:0:
274,190,19152,1,0,0:0:0:0:
298,214,19246,1,0,0:0:0:0:
315,177,19340,1,0,0:0:0:0:
281,162,19434,5,0,0:0:0:0:
225,142,19527,1,0,0:0:0:0:
158,161,19621,1,0,0:0:0:0:
107,229,19715,1,0,0:0:0:0:
89,358,19809,6,0,B|134:346|134:346|157:319|157:319|213:334|274:297,1,188.999994232178
372,189,20184,6,0,B|428:96|316:99|400:-26,1,188.999994232178
260,304,20559,6,0,B|306:282|306:282|367:322|467:307,1,188.999994232178
372,189,20934,6,0,B|307:209|256:178|256:178|255:136|194:92,1,188.999994232178
372,189,21309,6,0,P|452:223|433:313,1,188.999994232178
225,118,21684,6,0,B|152:90|98:143|98:143|0:140,1,188.999994232178
372,189,22059,6,0,P|394:72|370:2,1,188.999994232178
46,141,22434,6,0,B|72:214|16:270|16:270|35:279|49:342,1,188.999994232178
225,118,22809,5,0,0:0:0:0:
286,239,22996,1,0,0:0:0:0:
290,311,23090,1,0,0:0:0:0:
253,372,23184,1,0,0:0:0:0:
101,174,23371,5,0,0:0:0:0:
225,118,23558,1,0,0:0:0:0:
298,121,23652,1,0,0:0:0:0:
362,156,23746,1,0,0:0:0:0:
364,323,23934,6,0,L|363:235,2,62.9999980773926
455,277,24216,5,0,0:0:0:0:
471,264,24309,1,0,0:0:0:0:
448,257,24403,1,0,0:0:0:0:
268,222,24497,5,0,0:0:0:0:
252,235,24590,1,0,0:0:0:0:
275,242,24684,1,0,0:0:0:0:
393,137,24777,5,0,0:0:0:0:
416,130,24872,1,0,0:0:0:0:
400,117,24965,1,0,0:0:0:0:
364,323,25059,5,0,0:0:0:0:
323,325,25152,1,0,0:0:0:0:
266,151,25246,5,0,0:0:0:0:
222,150,25339,1,0,0:0:0:0:
185,277,25434,5,0,0:0:0:0:
144,279,25527,1,0,0:0:0:0:
89,197,25621,5,0,0:0:0:0:
48,199,25714,1,0,0:0:0:0:
0,285,25809,6,0,L|0:368,1,42.7499988584519
0,285,26184,6,0,L|0:368,1,42.7499988584519
0,285,26559,6,0,L|-5:340,1,42.7499988584519
0,285,26840,6,0,L|0:368,1,42.7499988584519
49,222,27027,5,0,0:0:0:0:
0,156,27121,5,0,0:0:0:0:
53,99,27215,5,0,0:0:0:0:
6,42,27309,6,0,L|6:0,1,42.7499988584519
6,42,27684,6,0,L|6:0,1,42.7499988584519
6,42,28059,6,0,L|6:0,1,42.7499988584519
53,99,28246,5,0,0:0:0:0:
100,144,28340,1,0,0:0:0:0:
149,187,28434,1,0,0:0:0:0:
200,142,28527,5,0,0:0:0:0:
239,88,28621,1,0,0:0:0:0:
273,141,28715,1,0,0:0:0:0:
303,190,28809,6,0,L|337:239,1,42.7499988584519
303,190,29184,6,0,L|337:239,1,42.7499988584519
303,190,29559,6,0,L|337:239,1,42.7499988584519
438,290,29746,2,0,P|442:315|439:341,1,51.7500009870529
303,190,29934,2,0,P|294:168|304:120,1,51.7500009870529
399,27,30121,5,0,0:0:0:0:
399,27,30309,6,0,L|316:25,1,51.7500009870529
93,55,30684,6,0,L|158:70,1,51.7500009870529
399,27,31059,6,0,L|316:25,1,51.7500009870529
93,55,31246,2,0,L|158:70,1,51.7500009870529
340,138,31434,5,0,0:0:0:0:
369,197,31527,1,0,0:0:0:0:
325,258,31621,1,0,0:0:0:0:
260,232,31715,1,0,0:0:0:0:
260,154,31809,6,0,L|227:103,1,51.7500009870529
116,268,31996,1,0,0:0:0:0:
340,138,32184,6,0,L|308:70,1,51.7500009870529
60,134,32371,1,0,0:0:0:0:
416,119,32559,6,0,L|384:51,1,51.7500009870529
162,20,32746,1,0,0:0:0:0:
128,67,32839,1,0,0:0:0:0:
160,116,32933,1,0,0:0:0:0:
217,103,33027,1,0,0:0:0:0:
223,43,33121,1,0,0:0:0:0:
162,20,33214,1,0,0:0:0:0:
128,67,33309,6,0,L|137:136,1,51.7500009870529
443,189,33496,1,0,0:0:0:0:
82,174,33684,6,0,L|91:243,1,51.7500009870529
456,73,33871,1,0,0:0:0:0:
38,291,34059,6,0,L|47:360,1,51.7500009870529
356,17,34246,1,0,0:0:0:0:
382,92,34434,5,0,0:0:0:0:
341,158,34528,5,0,0:0:0:0:
385,208,34621,5,0,0:0:0:0:
354,252,34715,5,0,0:0:0:0:
381,311,34809,6,0,B|358:325|294:335,1,51.7500009870529
38,243,34996,1,0,0:0:0:0:
389,174,35184,6,0,B|366:160|302:150,1,51.7500009870529
38,243,35371,1,0,0:0:0:0:
381,311,35559,6,0,B|358:297|294:287,1,51.7500009870529
38,243,35746,1,0,0:0:0:0:
389,174,35934,6,0,B|366:188|302:198,1,51.7500009870529
38,243,36121,1,0,0:0:0:0:
381,311,36309,6,0,B|358:325|294:335,1,51.7500009870529
223,283,36496,2,0,L|196:196,1,51.7500009870529
160,121,36684,6,0,B|183:107|247:97,1,51.7500009870529
335,81,36871,2,0,L|362:-6,1,51.7500009870529
436,189,37059,6,0,P|373:188|427:200,1,157.500001502037
436,189,37246,6,0,P|377:192|431:204,1,157.500001502037
436,189,37434,6,0,P|385:212|439:196,1,166.499999364853
456,321,37621,2,0,L|374:321,1,51.7500009870529
227,289,37809,5,0,0:0:0:0:
185,216,37902,1,0,0:0:0:0:
160,144,37996,1,0,0:0:0:0:
265,211,38184,5,0,0:0:0:0:
185,216,38277,1,0,0:0:0:0:
107,215,38371,1,0,0:0:0:0:
146,292,38559,5,0,0:0:0:0:
185,216,38652,1,0,0:0:0:0:
231,142,38746,1,0,0:0:0:0:
296,149,38840,1,0,0:0:0:0:
354,161,38934,1,0,0:0:0:0:
406,130,39027,1,0,0:0:0:0:
417,64,39121,1,0,0:0:0:0:
365,34,39215,1,0,0:0:0:0:
300,30,39309,5,0,0:0:0:0:
210,30,39402,1,0,0:0:0:0:
122,30,39496,1,0,0:0:0:0:
122,30,39684,5,0,0:0:0:0:
121,124,39777,1,0,0:0:0:0:
122,216,39871,1,0,0:0:0:0:
122,216,40059,2,0,L|63:169,1,51.7500009870529
322,296,40246,2,0,L|382:373,2,51.7500009870529
306,217,40527,5,0,0:0:0:0:
243,177,40621,1,0,0:0:0:0:
163,184,40715,1,0,0:0:0:0:
120,247,40809,5,0,0:0:0:0:
64,173,40902,1,0,0:0:0:0:
99,89,40996,1,0,0:0:0:0:
113,268,41184,5,0,0:0:0:0:
45,179,41277,1,0,0:0:0:0:
87,78,41371,2,0,L|87:9,1,51.7500009870529
91,284,41559,6,0,L|91:376,2,51.7500009870529
178,129,41840,1,0,0:0:0:0:
178,129,41934,2,0,P|223:114|285:134,1,103.500001974106
320,234,42309,5,0,0:0:0:0:
280,307,42402,1,0,0:0:0:0:
240,234,42496,1,0,0:0:0:0:
325,244,42684,5,0,0:0:0:0:
262,310,42777,1,0,0:0:0:0:
240,222,42871,1,0,0:0:0:0:
329,257,43059,5,0,0:0:0:0:
248,316,43152,1,0,0:0:0:0:
241,216,43246,1,0,0:0:0:0:
186,132,43434,5,0,0:0:0:0:
234,112,43527,1,0,0:0:0:0:
281,122,43621,1,0,0:0:0:0:
319,159,43715,1,0,0:0:0:0:
331,214,43809,1,0,0:0:0:0:
331,214,43902,1,0,0:0:0:0:
331,214,43996,2,0,L|397:232,1,51.7500009870529
241,291,44184,5,0,0:0:0:0:
241,291,44277,1,0,0:0:0:0:
241,291,44371,2,0,L|175:309,1,51.7500009870529
321,350,44559,1,0,0:0:0:0:
321,350,44652,1,0,0:0:0:0:
321,350,44746,2,0,L|387:368,1,51.7500009870529
189,215,44934,2,0,L|107:244,1,51.7500009870529
365,144,45121,2,0,L|438:171,1,51.7500009870529
118,108,45309,5,0,0:0:0:0:
118,108,45402,1,0,0:0:0:0:
118,108,45496,2,0,L|82:30,1,51.7500009870529
287,168,45684,1,0,0:0:0:0:
287,168,45777,1,0,0:0:0:0:
287,168,45871,2,0,L|331:249,1,51.7500009870529
228,58,46059,1,0,0:0:0:0:
228,58,46152,1,0,0:0:0:0:
228,58,46246,2,0,L|312:16,1,51.7500009870529
169,222,46434,1,0,0:0:0:0:
169,222,46527,1,0,0:0:0:0:
169,222,46621,2,0,L|85:271,1,51.7500009870529
330,108,46809,5,0,0:0:0:0:
367,65,46902,1,0,0:0:0:0:
419,53,46996,2,0,P|444:49|483:53,1,51.7500009870529
265,147,47184,5,0,0:0:0:0:
210,163,47277,1,0,0:0:0:0:
160,147,47371,2,0,P|137:136|105:113,1,51.7500009870529
332,186,47559,5,0,0:0:0:0:
363,230,47652,1,0,0:0:0:0:
376,283,47746,2,0,P|377:315|366:348,1,51.7500009870529
142,264,47934,1,0,0:0:0:0:
229,185,48121,5,0,0:0:0:0:
265,147,48215,1,0,0:0:0:0:
298,113,48309,2,0,L|276:36,1,51.7500009870529
98,39,48496,2,0,L|122:106,1,51.7500009870529
312,122,48684,6,0,L|287:34,1,51.7500009870529
85,38,48871,2,0,L|112:113,1,51.7500009870529
320,126,49059,6,0,L|293:32,1,51.7500009870529
75,35,49246,2,0,L|104:116,1,51.7500009870529
333,136,49434,6,0,L|309:44,1,51.7500009870529
61,35,49621,2,0,L|93:125,1,51.7500009870529
345,150,49809,6,0,B|382:217|304:218|371:315,1,141.749995674133
353,286,50184,2,0,P|308:300|244:275,1,85.4999977169037
171,225,50559,1,0,0:0:0:0:
171,225,50746,1,0,0:0:0:0:
262,109,50934,2,0,L|309:143,1,42.7499988584519
114,167,51121,1,0,0:0:0:0:
114,167,51215,2,0,L|56:117,1,42.7499988584519
387,103,51496,6,0,L|344:74,1,42.7499988584519
203,239,51684,2,0,L|276:216,1,42.7499988584519
387,180,51871,1,0,0:0:0:0:
117,263,52059,1,0,0:0:0:0:
409,172,52246,5,0,0:0:0:0:
101,269,52434,1,0,0:0:0:0:
404,169,52622,1,0,0:0:0:0:
80,276,52809,2,0,P|59:221|98:148,1,128.249996575356
125,147,53184,2,0,L|124:79,1,42.7499988584519
125,17,53371,1,0,0:0:0:0:
198,248,53559,5,0,0:0:0:0:
27,99,53746,1,0,0:0:0:0:
229,93,53934,2,0,L|292:95,1,42.7499988584519
50,253,54121,1,0,0:0:0:0:
271,94,54309,5,0,0:0:0:0:
300,94,54402,1,0,0:0:0:0:
50,253,54590,1,0,0:0:0:0:
15,254,54684,1,0,0:0:0:0:
262,186,54871,5,0,0:0:0:0:
33,106,55059,1,0,0:0:0:0:
300,94,55246,2,0,L|355:96,1,42.7499988584519
412,120,55434,5,0,0:0:0:0:
439,191,55527,1,0,0:0:0:0:
413,266,55621,1,0,0:0:0:0:
336,292,55715,1,0,0:0:0:0:
267,263,55809,6,0,L|209:263,1,42.7499988584519
269,214,55996,2,0,L|196:216,1,42.7499988584519
268,164,56184,2,0,L|205:163,1,42.7499988584519
40,267,56371,2,0,L|90:269,1,42.7499988584519
38,319,56559,2,0,L|88:321,1,42.7499988584519
34,367,56746,2,0,L|84:369,1,42.7499988584519
246,173,56934,5,0,3:0:0:0:
246,173,57027,1,0,3:0:0:0:
246,173,57121,2,0,L|266:121,1,42.7499988584519,0|0,3:0|3:0,3:0:0:0:
324,36,57309,1,0,0:0:0:0:
324,36,57402,1,0,0:0:0:0:
324,36,57496,2,0,L|366:41,1,42.7499988584519
456,115,57684,5,0,0:0:0:0:
456,115,57777,1,0,0:0:0:0:
456,115,57871,2,0,L|463:169,1,42.7499988584519
389,230,58059,5,0,0:0:0:0:
389,230,58152,1,0,0:0:0:0:
389,230,58246,2,0,L|396:284,1,42.7499988584519
404,325,58434,1,0,0:0:0:0:
354,361,58527,1,0,0:0:0:0:
298,346,58621,2,0,P|266:344|209:317,1,51.7500009870529
109,201,58809,2,0,P|104:170|113:124,1,51.7500009870529
188,384,58996,2,0,P|173:355|168:292,1,51.7500009870529
181,154,59184,2,0,P|205:134|249:118,1,51.7500009870529
87,358,59371,2,0,P|89:325|115:268,1,51.7500009870529
252,197,59559,2,0,P|281:208|316:238,1,51.7500009870529
339,291,59746,5,0,0:0:0:0:
386,308,59839,1,0,0:0:0:0:
431,288,59933,1,0,0:0:0:0:
474,229,60027,1,0,0:0:0:0:
460,158,60121,1,0,0:0:0:0:
401,131,60215,1,0,0:0:0:0:
326,145,60309,5,0,0:0:0:0:
309,140,60402,1,0,0:0:0:0:
291,135,60496,1,0,0:0:0:0:
474,229,60590,5,0,0:0:0:0:
491,232,60684,1,0,0:0:0:0:
510,237,60777,1,0,0:0:0:0:
289,115,60871,6,0,P|245:112|179:141,1,65.250001991272
187,182,61059,6,0,B|157:190|157:190|84:185,1,65.250001991272
70,132,61246,6,0,B|37:139|37:139|-12:126,1,65.250001991272
289,115,61434,6,0,B|252:121|252:121|193:107,1,65.250001991272
70,132,61621,6,0,P|36:128|-13:141,1,65.250001991272
308,118,61809,6,0,L|308:269,1,148.49999546814
331,289,63965,2,0,L|331:347,4,47.2499985580445
200,169,64434,2,0,L|200:111,1,47.2499985580445
348,295,64621,2,0,L|348:353,1,47.2499985580445
129,201,64809,6,0,P|109:155|135:110,1,101.249996910095
162,93,66309,2,0,L|83:92,3,47.2499985580445
300,186,66684,2,0,L|359:186,1,47.2499985580445
163,69,66871,2,0,L|84:68,1,47.2499985580445
300,186,67059,6,0,L|301:266,1,47.2499985580445
163,69,67246,2,0,L|161:14,1,47.2499985580445
297,69,67434,2,0,L|358:68,1,47.2499985580445
166,182,67621,2,0,L|107:181,1,47.2499985580445
60,254,67809,6,0,P|37:187|67:124,1,130.500003982544
57,133,68184,6,0,P|28:217|59:281,1,148.500001416206
48,269,68559,6,0,P|28:208|48:110,1,166.499999364853
48,109,68934,6,0,P|22:172|47:300,1,184.500002815247
38,284,69309,6,0,P|64:221|51:84,1,202.500007724762
53,89,69684,6,0,P|79:152|73:315,1,220.500002102852
47,331,70059,2,0,L|-9:327,3,47.2499985580445
198,261,70434,1,0,0:0:0:0:
323,196,70621,2,0,P|345:197|368:207,1,47.2499985580445
403,251,70809,6,0,P|429:165|393:26,1,220.500002102852
401,39,71184,6,0,P|435:144|411:294,1,238.500010007859
420,269,71559,6,0,P|454:164|431:1,1,256.500002446175
438,20,71934,6,0,P|472:125|449:288,1,274.500007853508
243,236,72309,1,0,0:0:0:0:
427,339,72496,1,0,0:0:0:0:
427,339,72590,1,0,0:0:0:0:
427,339,72684,1,0,0:0:0:0:
191,322,72871,1,0,0:0:0:0:
375,236,73059,6,0,L|454:235,1,47.2499985580445
129,113,73246,2,0,L|45:113,1,47.2499985580445
405,139,73434,2,0,L|453:139,1,47.2499985580445
83,212,73621,2,0,L|-4:212,1,47.2499985580445
258,87,73809,5,0,0:0:0:0:
396,64,85809,5,0,0:0:0:0:
443,195,85996,1,0,0:0:0:0:
452,241,86089,1,0,0:0:0:0:
444,287,86183,1,0,0:0:0:0:
396,64,86371,5,0,0:0:0:0:
289,153,86558,1,0,0:0:0:0:
259,189,86651,1,0,0:0:0:0:
251,237,86745,1,0,0:0:0:0:
277,280,86840,1,0,0:0:0:0:
322,293,86934,6,0,L|334:361,1,47.2499985580445
162,296,87121,2,0,L|135:381,1,47.2499985580445
110,135,87309,6,0,P|80:116|70:88,3,47.2499985580445
231,121,87684,2,0,P|249:93|253:64,3,47.2499985580445
94,285,88059,1,0,0:0:0:0:
164,79,88246,2,0,L|152:-1,3,47.2499985580445
110,135,88621,5,0,0:0:0:0:
172,276,88809,2,0,P|173:309|162:336,1,47.2499985580445
248,186,88996,2,0,P|249:152|238:125,1,47.2499985580445
292,335,89184,2,0,P|296:359|294:382,1,47.2499985580445
354,104,89371,1,0,0:0:0:0:
404,208,89559,6,0,L|486:208,3,47.2499985580445
245,139,89934,2,0,L|163:139,3,47.2499985580445
354,104,90309,2,0,L|354:22,3,47.2499985580445,0|0|0|0,3:0|3:0|3:0|3:0,3:0:0:0:
290,241,90684,2,0,L|290:323,3,47.2499985580445,0|0|0|0,3:0|3:0|3:0|3:0,3:0:0:0:
353,105,91059,6,0,L|416:94,1,47.2499985580445
155,113,91246,2,0,L|89:94,1,47.2499985580445
399,96,91434,6,0,L|468:51,1,47.2499985580445
109,99,91621,2,0,L|40:58,1,47.2499985580445
256,176,91809,5,0,0:0:0:0:
249,365,92184,1,0,0:0:0:0:
256,145,92559,5,0,0:0:0:0:
249,365,92934,1,0,0:0:0:0:
254,109,93309,5,0,0:0:0:0:
249,365,93684,1,0,0:0:0:0:
255,78,94059,5,0,0:0:0:0:
249,365,94434,1,0,0:0:0:0:
249,365,94621,1,0,0:0:0:0:
252,48,94809,5,0,0:0:0:0:
247,376,95184,1,0,0:0:0:0:
255,21,95559,5,0,0:0:0:0:
247,376,95934,1,0,0:0:0:0:
297,279,96309,6,0,P|341:279|404:331,1,83.2499996824265
248,313,96496,6,0,P|288:336|312:394,1,83.2499996824265
179,305,96684,6,0,P|151:339|100:356,1,83.2499996824265
147,237,96871,6,0,P|110:222|76:165,1,83.2499996824265
180,163,97059,6,0,P|174:124|216:52,1,83.2499996824265
275,132,97246,6,0,P|287:94|354:51,1,83.2499996824265
371,166,97434,5,0,0:0:0:0:
345,129,97527,1,0,0:0:0:0:
456,174,97621,5,0,0:0:0:0:
487,211,97715,1,0,0:0:0:0:
471,286,97809,6,0,P|422:297|361:268,1,96.7500014762879
471,286,98184,6,0,P|406:276|334:308,1,132.750004304409
471,286,98559,6,0,B|451:266|381:222|400:333|277:243,1,170.999995433807
471,286,98840,6,0,B|392:348|393:226|308:294,1,180
216,312,99027,6,0,L|181:328,1,23.6249992790222
157,253,99121,6,0,L|120:260,1,23.6249992790222
129,173,99215,6,0,L|83:170,1,23.6249992790222
162,89,99309,5,0,0:0:0:0:
162,89,99684,6,0,L|159:1,3,60.7500002317429
230,160,100059,6,0,B|242:233|242:233|228:323,1,130.500003982544
56,147,100434,2,0,B|44:74|44:74|58:-16,1,130.500003982544
235,289,100809,6,0,P|139:250|19:250,1,195.750005973816
235,289,101184,6,0,B|294:320|294:320|451:250,1,195.750005973816
47,245,101559,2,0,P|27:217|36:158,1,65.250001991272
235,289,101746,2,0,P|228:334|201:374,1,65.250001991272
23,187,101934,6,0,B|16:95|96:76|96:76|116:2,1,195.750005973816
326,126,102309,6,0,B|376:128|376:128|427:202|407:288,1,195.750005973816
296,30,102684,6,0,P|218:7|94:37,1,195.750005973816
310,309,103059,6,0,B|341:253|300:189|300:189|325:125,1,195.750005973816
165,121,103434,6,0,B|191:185|191:185|150:249|181:305,1,195.750005973816
260,82,103809,6,0,P|279:55|287:24,1,65.250001991272
227,84,103996,6,0,P|207:57|199:26,1,65.250001991272
325,125,104184,6,0,P|344:98|352:67,1,65.250001991272
165,121,104371,6,0,P|145:94|137:63,1,65.250001991272
389,181,104559,6,0,L|491:192,1,65.250001991272
82,239,104746,1,0,0:0:0:0:
352,67,104934,1,0,0:0:0:0:
185,303,105121,6,0,P|177:337|184:389,1,65.250001991272
222,107,105309,2,0,P|222:74|215:42,1,65.250001991272
348,254,105496,6,0,P|382:262|434:255,1,65.250001991272
89,154,105684,2,0,P|54:146|6:156,1,65.250001991272
173,302,105871,6,0,P|163:344|172:408,1,65.250001991272
295,119,106059,2,0,P|304:77|296:13,1,65.250001991272
160,133,106246,2,0,P|150:91|158:27,1,65.250001991272
291,301,106434,2,0,P|301:343|292:407,1,65.250001991272
223,205,106621,5,0,0:0:0:0:
222,221,106715,1,0,0:0:0:0:
242,212,106809,2,0,L|171:212,1,65.250001991272
100,294,106996,2,0,L|113:382,1,65.250001991272
33,202,107184,2,0,L|23:266,1,65.250001991272
98,119,107371,2,0,L|107:183,1,65.250001991272
197,39,107559,6,0,P|167:33|93:53,1,65.250001991272
282,114,107746,2,0,P|252:120|178:100,1,65.250001991272
353,31,107934,2,0,P|323:25|249:45,1,65.250001991272
447,110,108121,6,0,P|417:116|343:96,1,65.250001991272
132,35,108309,2,0,P|102:29|28:49,1,65.250001991272
417,34,108496,6,0,P|385:27|352:30,1,65.250001991272
94,106,108684,2,0,P|61:108|29:102,1,65.250001991272
512,107,108871,6,0,P|482:113|408:93,1,65.250001991272
67,31,109058,2,0,P|37:25|-37:45,1,65.250001991272
0,99,109246,5,0,0:0:0:0:
0,171,109339,1,0,0:0:0:0:
12,241,109433,5,0,0:0:0:0:
46,305,109527,1,0,0:0:0:0:
121,312,109621,1,0,0:0:0:0:
158,247,109715,1,0,0:0:0:0:
126,181,109809,2,0,P|116:150|122:73,2,65.250001991272
295,171,110090,5,0,0:0:0:0:
275,224,110183,1,0,0:0:0:0:
281,286,110277,1,0,0:0:0:0:
330,330,110370,1,0,0:0:0:0:
404,327,110465,1,0,0:0:0:0:
445,246,110559,6,0,P|449:209|428:172,3,65.250001991272
281,286,110934,6,0,L|187:283,1,65.250001991272
104,283,111121,1,0,0:0:0:0:
38,317,111215,1,0,0:0:0:0:
104,348,111309,2,0,L|104:261,1,65.250001991272
169,211,111496,1,0,0:0:0:0:
235,177,111590,1,0,0:0:0:0:
169,141,111684,2,0,L|169:75,1,65.250001991272
203,7,111871,5,0,0:0:0:0:
258,59,111965,1,0,0:0:0:0:
295,12,112059,1,0,0:0:0:0:
324,48,112152,1,0,0:0:0:0:
358,16,112246,1,0,0:0:0:0:
383,36,112340,1,0,0:0:0:0:
407,21,112434,1,0,0:0:0:0:
438,33,112527,1,0,0:0:0:0:
457,20,112621,1,0,0:0:0:0:
480,30,112715,1,0,0:0:0:0:
507,30,112809,6,0,P|514:63|507:125,1,65.250001991272
422,194,112996,5,0,0:0:0:0:
414,208,113090,1,0,0:0:0:0:
402,294,113184,2,0,P|395:330|406:377,1,65.250001991272
319,157,113371,2,0,P|318:118|350:49,1,65.250001991272
372,21,113559,5,0,0:0:0:0:
324,21,113652,1,0,0:0:0:0:
270,21,113746,1,0,0:0:0:0:
218,19,113840,1,0,0:0:0:0:
165,49,113934,5,0,0:0:0:0:
123,82,114027,1,0,0:0:0:0:
113,142,114121,1,0,0:0:0:0:
154,184,114215,1,0,0:0:0:0:
198,213,114309,6,0,P|227:221|277:216,1,65.250001991272
466,163,114496,1,0,0:0:0:0:
198,213,114683,6,0,P|229:204|261:205,1,65.250001991272
465,247,114870,1,0,0:0:0:0:
35,172,115059,5,0,0:0:0:0:
41,108,115152,1,0,0:0:0:0:
88,65,115246,1,0,0:0:0:0:
151,64,115340,1,0,0:0:0:0:
199,107,115434,1,0,0:0:0:0:
258,135,115527,1,0,0:0:0:0:
321,113,115621,1,0,0:0:0:0:
354,54,115715,1,0,0:0:0:0:
303,1,115809,6,0,P|293:36|299:102,1,65.250001991272
271,198,115996,1,0,0:0:0:0:
325,252,116090,1,0,0:0:0:0:
353,204,116184,1,0,0:0:0:0:
410,219,116277,1,0,0:0:0:0:
439,197,116371,1,0,0:0:0:0:
469,220,116465,1,0,0:0:0:0:
499,196,116559,6,0,P|506:239|488:297,1,65.250001991272
420,313,116746,2,0,L|421:408,1,65.250001991272
361,149,116934,1,0,0:0:0:0:
369,123,117027,1,0,0:0:0:0:
362,108,117121,1,0,0:0:0:0:
370,92,117215,1,0,0:0:0:0:
365,66,117309,2,0,L|366:-16,1,65.250001991272
206,96,117496,6,0,P|198:124|205:178,1,65.250001991272
296,289,117684,2,0,P|303:260|297:207,1,65.250001991272
128,226,117871,6,0,P|161:244|230:254,1,65.250001991272,0|0,3:0|3:0,3:0:0:0:
400,177,118059,2,0,P|366:158|297:148,1,65.250001991272,0|0,3:0|3:0,3:0:0:0:
134,115,118246,1,0,0:0:0:0:
90,94,118340,1,0,0:0:0:0:
98,47,118434,1,0,0:0:0:0:
132,75,118527,1,0,0:0:0:0:
134,115,118621,1,0,0:0:0:0:
95,97,118715,1,0,0:0:0:0:
98,47,118809,6,0,P|124:41|178:56,3,65.250001991272
208,118,119184,2,0,P|239:124|271:118,3,65.250001991272
324,44,119559,2,0,P|355:37|387:43,3,65.250001991272
434,121,119934,6,0,P|465:127|497:120,3,65.250001991272
324,44,120309,2,0,P|355:37|387:43,1,65.250001991272
208,118,120496,2,0,P|239:124|271:118,1,65.250001991272
98,47,120684,2,0,P|124:41|178:56,1,65.250001991272
48,119,120871,53,0,0:0:0:0:
22,192,120965,1,0,0:0:0:0:
45,257,121058,1,0,0:0:0:0:
96,271,121152,1,0,0:0:0:0:
141,247,121246,1,0,0:0:0:0:
145,211,121339,1,0,0:0:0:0:
114,191,121434,6,0,P|107:225|152:196,2,65.250001991272
299,177,121809,6,0,P|307:138|262:61,1,78.7500007510185
295,253,122184,6,0,B|287:214|287:214|314:126,1,78.7500007510185
348,307,122559,6,0,P|314:285|292:198,1,78.7500007510185
424,307,122746,5,0,0:0:0:0:
424,307,122840,6,0,P|385:315|308:270,1,78.7500007510185
416,167,123121,1,0,0:0:0:0:
298,176,123309,6,0,B|258:167|258:167|220:174,1,78.7500007510185
220,174,123684,6,0,B|182:181|182:181|142:172,1,78.7500007510185
142,172,124059,6,0,B|104:165|104:165|64:173,2,78.7500007510185
191,265,124340,5,0,0:0:0:0:
202,292,124434,1,0,0:0:0:0:
239,279,124527,1,0,0:0:0:0:
287,214,124621,1,0,0:0:0:0:
277,124,124715,1,0,0:0:0:0:
212,51,124809,6,0,P|182:29|105:-1,1,78.7500007510185
212,51,125184,6,0,P|242:29|319:-1,1,78.7500007510185
279,10,125559,6,0,P|315:16|386:62,2,78.7500007510185
353,33,125840,1,0,0:0:0:0:
353,33,125934,6,0,P|389:27|460:-19,1,78.7500007510185
353,33,126309,6,0,L|353:133,1,78.7500007510185
353,112,126684,6,0,L|352:211,1,78.7500007510185
320,266,127059,5,0,0:0:0:0:
390,264,127152,1,0,0:0:0:0:
330,290,127246,5,0,0:0:0:0:
380,288,127340,1,0,0:0:0:0:
337,313,127434,5,0,0:0:0:0:
370,312,127527,1,0,0:0:0:0:
340,333,127621,5,0,0:0:0:0:
362,334,127715,1,0,0:0:0:0:
354,365,127809,6,0,P|345:320|365:268,2,78.7500007510185
352,288,128184,6,0,P|361:246|344:179,2,78.7500007510185
290,171,128559,6,0,P|318:195|361:211,1,78.7500007510185
358,79,128746,1,0,0:0:0:0:
423,171,128840,2,0,P|395:195|351:211,1,78.7500007510185
352,288,129121,1,0,0:0:0:0:
358,62,129309,5,0,0:0:0:0:
215,33,129402,2,0,P|173:24|88:51,1,78.7500007510185
358,62,129684,5,0,0:0:0:0:
167,101,129777,2,0,P|124:103|48:151,1,78.7500007510185
358,62,130059,5,0,0:0:0:0:
137,27,130152,2,0,P|86:36|29:-9,2,78.7500007510185
358,62,130434,1,0,0:0:0:0:
376,117,130527,1,0,0:0:0:0:
353,164,130621,1,0,0:0:0:0:
368,202,130715,1,0,0:0:0:0:
350,247,130809,6,0,P|319:223|290:161,1,78.7500007510185
243,34,130996,1,0,0:0:0:0:
350,247,131184,6,0,P|381:223|410:161,1,78.7500007510185
457,34,131371,1,0,0:0:0:0:
350,247,131559,6,0,P|342:216|290:161,1,78.7500007510185
243,34,131746,1,0,0:0:0:0:
181,116,131840,2,0,L|121:202,1,78.7500007510185
118,207,132027,1,0,0:0:0:0:
76,284,132309,1,0,0:0:0:0:
80,312,132402,1,0,0:0:0:0:
87,341,132496,2,0,L|-18:362,1,78.7500007510185
244,198,132684,5,0,0:0:0:0:
224,126,132777,1,0,0:0:0:0:
150,116,132871,1,0,0:0:0:0:
112,180,132965,1,0,0:0:0:0:
156,240,133059,1,0,0:0:0:0:
229,222,133152,1,0,0:0:0:0:
264,160,133246,5,0,3:0:0:0:
199,97,133339,1,0,3:0:0:0:
116,131,133433,1,0,3:0:0:0:
115,219,133527,1,0,3:0:0:0:
197,255,133621,1,0,3:0:0:0:
262,194,133714,1,0,3:0:0:0:
261,108,133809,6,0,L|380:127,1,78.7500007510185
456,282,133996,2,0,L|464:179,1,78.7500007510185
262,194,134184,1,0,0:0:0:0:
373,23,134371,6,0,L|416:135,1,78.7500007510185
341,306,134559,2,0,L|341:400,1,78.7500007510185
179,120,134746,5,0,0:0:0:0:
179,120,134934,1,0,0:0:0:0:
93,255,135027,2,0,P|54:248|17:233,1,78.7500007510185
284,179,135215,2,0,P|307:151|337:75,1,78.7500007510185
214,260,135402,5,0,0:0:0:0:
247,343,135496,1,0,0:0:0:0:
165,107,135684,2,0,L|136:2,1,78.7500007510185
247,343,135871,2,0,L|339:306,1,78.7500007510185
412,182,136059,1,0,0:0:0:0:
407,165,136152,1,0,0:0:0:0:
393,149,136246,1,0,0:0:0:0:
371,136,136340,1,0,0:0:0:0:
341,131,136434,2,0,P|309:105|286:53,2,78.7500007510185
480,54,136715,5,0,0:0:0:0:
435,256,136809,2,0,L|412:368,1,78.7500007510185
512,274,136996,2,0,L|492:393,1,78.7500007510185
215,271,137184,1,0,0:0:0:0:
316,145,137371,1,0,0:0:0:0:
215,271,137465,2,0,P|182:288|93:262,1,78.7500007510185
316,145,137652,1,0,0:0:0:0:
436,167,137746,6,0,P|474:178|554:146,2,78.7500007510185
401,90,138027,1,0,0:0:0:0:
326,69,138121,1,0,0:0:0:0:
251,52,138215,1,0,0:0:0:0:
174,32,138309,6,0,L|153:136,1,78.7500007510185
89,346,138496,2,0,L|119:239,1,78.7500007510185
204,203,138684,1,0,0:0:0:0:
238,375,138871,6,0,L|259:271,1,78.7500007510185
326,69,139058,2,0,L|296:176,1,78.7500007510185
282,219,139246,2,0,L|166:196,1,78.7500007510185
124,195,139434,1,0,0:0:0:0:
109,181,139527,1,0,0:0:0:0:
89,197,139621,1,0,0:0:0:0:
77,187,139715,1,0,0:0:0:0:
43,204,139809,6,0,L|44:107,3,78.7500007510185
145,306,140184,2,0,L|144:403,3,78.7500007510185
122,126,140559,2,0,L|25:125,3,78.7500007510185
222,383,140934,2,0,L|143:383,3,78.7500007510185
74,344,141309,5,0,0:0:0:0:
48,302,141402,1,0,0:0:0:0:
63,244,141496,1,0,0:0:0:0:
122,238,141590,1,0,0:0:0:0:
150,290,141684,1,0,0:0:0:0:
206,322,141777,1,0,0:0:0:0:
266,297,141870,1,0,0:0:0:0:
290,241,141964,1,0,0:0:0:0:
261,193,142059,5,0,0:0:0:0:
238,134,142152,1,0,0:0:0:0:
269,80,142245,1,0,0:0:0:0:
329,70,142339,1,0,0:0:0:0:
375,110,142433,1,0,0:0:0:0:
372,172,142527,1,0,0:0:0:0:
399,220,142621,1,0,0:0:0:0:
452,240,142715,1,0,0:0:0:0:
499,205,142809,6,0,P|478:171|414:125,3,78.7500007510185
449,144,143184,6,0,P|414:125|336:116,3,78.7500007510185
193,182,143559,5,0,0:0:0:0:
164,213,143652,1,0,0:0:0:0:
158,259,143746,1,0,0:0:0:0:
173,302,143840,1,0,0:0:0:0:
244,245,143934,5,0,0:0:0:0:
274,215,144027,1,0,0:0:0:0:
280,169,144121,1,0,0:0:0:0:
265,126,144215,1,0,0:0:0:0:
232,80,144309,6,0,P|202:64|135:59,1,78.7500007510185
11,137,144496,2,0,P|41:153|108:158,1,78.7500007510185
244,245,144684,2,0,P|252:288|243:345,1,78.7500007510185
84,160,144871,2,0,P|114:144|181:139,1,78.7500007510185
321,244,145059,2,0,B|280:251|280:251|230:242,1,78.7500007510185
162,240,145246,5,0,0:0:0:0:
101,231,145340,1,0,0:0:0:0:
54,272,145433,1,0,0:0:0:0:
54,332,145527,1,0,0:0:0:0:
95,370,145621,1,0,0:0:0:0:
155,359,145715,1,0,0:0:0:0:
180,313,145809,6,0,P|179:275|147:225,1,78.7500007510185
69,184,145996,1,0,0:0:0:0:
34,188,146090,1,0,0:0:0:0:
4,200,146184,2,0,P|-10:163|-5:109,1,78.7500007510185
147,163,146371,2,0,P|161:200|156:254,1,78.7500007510185
0,170,146559,2,0,P|-3:130|14:79,1,78.7500007510185
170,175,146746,2,0,P|173:214|155:265,1,78.7500007510185
5,123,146934,6,0,P|21:89|107:68,3,78.7500007510185,0|0|0|0,3:0|3:0|3:0|3:0,3:0:0:0:
245,194,147309,5,0,0:0:0:0:
273,160,147402,1,0,0:0:0:0:
233,132,147496,1,0,0:0:0:0:
207,169,147590,1,0,0:0:0:0:
271,178,147684,5,0,0:0:0:0:
250,123,147777,1,0,0:0:0:0:
192,151,147871,1,0,0:0:0:0:
217,205,147965,1,0,0:0:0:0:
271,146,148059,5,0,0:0:0:0:
206,116,148152,1,0,0:0:0:0:
181,188,148246,1,0,0:0:0:0:
246,212,148340,1,0,0:0:0:0:
324,176,148434,5,0,0:0:0:0:
395,204,148527,1,0,0:0:0:0:
423,275,148621,1,0,0:0:0:0:
388,342,148715,1,0,0:0:0:0:
314,360,148809,2,0,P|280:330|276:267,2,78.7500007510185
395,204,149090,5,0,0:0:0:0:
270,299,149184,2,0,P|231:305|192:300,1,78.7500007510185
192,59,149371,6,0,P|218:38|184:56,1,141.750004190683,0|0,3:0|3:0,3:0:0:0:
68,162,149559,6,0,P|47:135|65:173,1,141.750004190683,0|0,3:0|3:0,3:0:0:0:
215,205,149746,6,0,P|228:236|223:193,1,141.750004190683,0|0,3:0|3:0,3:0:0:0:
138,110,149934,5,0,0:0:0:0:
125,67,150027,1,0,0:0:0:0:
104,49,150121,1,0,0:0:0:0:
73,42,150215,1,0,0:0:0:0:
40,45,150309,6,0,B|48:94|48:94|109:216,1,141.750004190683
270,314,150496,2,0,P|267:234|172:168,1,141.750004190683
64,42,150684,6,0,P|115:106|56:213,1,141.750004190683
242,336,150871,2,0,B|215:290|215:290|182:260|182:260|155:173,1,141.750004190683
178,50,151059,6,0,B|215:39|215:39|234:46|234:46|334:26,1,94.499997116089
366,109,151246,2,0,P|411:88|475:104,1,94.499997116089
399,265,151433,5,0,0:0:0:0:
331,282,151527,1,0,0:0:0:0:
249,267,151621,5,0,0:0:0:0:
176,193,151715,1,0,0:0:0:0:
156,109,151809,6,0,P|150:2|149:117,1,425.25001257205
175,192,152184,6,0,L|178:287,1,94.499997116089
256,244,152371,2,0,L|262:390,1,94.499997116089
336,278,152559,2,0,L|342:424,1,94.499997116089
170,99,152746,6,0,P|181:144|173:194,1,94.499997116089
102,152,152934,2,0,P|12:93|112:149,1,425.25001257205
282,116,153309,5,0,0:0:0:0:
301,129,153402,1,0,0:0:0:0:
315,155,153496,1,0,0:0:0:0:
320,180,153590,1,0,0:0:0:0:
259,242,153684,1,0,0:0:0:0:
244,260,153777,1,0,0:0:0:0:
237,288,153871,1,0,0:0:0:0:
239,313,153965,1,0,0:0:0:0:
322,367,154059,6,0,B|259:374|259:374|211:349|211:349|205:361|205:361|210:349|210:349|164:343|164:343|168:332|168:332|164:344|164:344|127:334|61:358,1,283.500008381367,0|0,3:0|3:0,3:0:0:0:
49,253,154434,5,0,0:0:0:0:
67,207,154527,1,0,0:0:0:0:
149,159,154621,5,0,0:0:0:0:
180,168,154715,1,0,0:0:0:0:
272,242,154809,6,0,B|330:155|234:155|296:49,1,188.999994232178
177,76,155090,1,0,0:0:0:0:
177,76,155184,2,0,P|168:122|180:168,1,94.499997116089
372,92,155371,2,0,P|383:47|349:-38,1,94.499997116089
167,177,155559,6,0,P|146:204|164:170,1,141.750004190683,0|0,3:0|3:0,3:0:0:0:
393,92,155746,6,0,P|414:65|396:99,1,141.750004190683,0|0,3:0|3:0,3:0:0:0:
253,232,155934,6,0,P|312:321|337:206,1,283.499991348267,0|0,0:0|0:0,3:0:0:0:
286,107,156309,5,0,0:0:0:0:
286,107,156403,1,0,0:0:0:0:
286,107,156497,2,0,L|232:7,1,78.7500007510185
412,174,156684,1,0,0:0:0:0:
412,174,156778,1,0,0:0:0:0:
412,174,156872,2,0,L|466:274,1,78.7500007510185
241,215,157059,1,0,0:0:0:0:
241,215,157153,1,0,0:0:0:0:
241,215,157247,2,0,L|141:269,1,78.7500007510185
394,106,157434,5,0,0:0:0:0:
392,51,157527,1,0,0:0:0:0:
339,38,157621,1,0,0:0:0:0:
313,86,157715,1,0,0:0:0:0:
353,124,157809,6,0,P|367:205|347:314,1,141.750004190683
339,334,157996,1,0,0:0:0:0:
195,167,158090,2,0,P|174:126|225:151,1,141.750004190683
248,331,158371,1,0,0:0:0:0:
154,330,158559,1,0,0:0:0:0:
61,327,158746,2,0,P|43:262|102:135,2,141.750004190683
154,330,159027,6,0,L|254:332,2,76.5000014591217
57,190,159309,2,0,P|69:155|23:65,1,76.5000014591217
46,15,159496,1,0,0:0:0:0:
213,131,159684,6,0,B|250:92|291:132,1,76.5000014591217
367,253,159871,1,0,0:0:0:0:
213,131,159965,2,0,L|98:133,2,76.5000014591217
362,143,160246,1,0,0:0:0:0:
389,140,160340,1,0,0:0:0:0:
426,135,160434,6,0,P|447:120|477:52,1,62.9999980773926
306,42,160621,6,0,L|221:42,1,62.9999980773926
367,253,160809,1,0,0:0:0:0:
420,251,160902,1,0,0:0:0:0:
468,252,160996,1,0,0:0:0:0:
242,212,161184,2,0,L|127:214,1,62.9999980773926
395,321,161371,1,0,0:0:0:0:
316,108,161559,2,0,P|281:101|241:112,1,62.9999980773926
395,321,161746,1,0,0:0:0:0:
447,168,161934,5,0,0:0:0:0:
472,121,162027,1,0,0:0:0:0:
450,86,162121,1,0,0:0:0:0:
461,61,162215,1,0,0:0:0:0:
450,34,162309,6,0,P|431:26|350:66,1,62.9999980773926
236,210,162496,1,0,0:0:0:0:
120,64,162684,1,0,0:0:0:0:
89,76,162777,1,0,0:0:0:0:
64,110,162871,1,0,0:0:0:0:
236,210,163059,5,0,0:0:0:0:
275,263,163152,1,0,0:0:0:0:
250,324,163246,1,0,0:0:0:0:
198,327,163340,1,0,0:0:0:0:
159,333,163434,1,0,0:0:0:0:
128,328,163527,1,0,0:0:0:0:
97,339,163621,1,0,0:0:0:0:
84,321,163715,1,0,0:0:0:0:
84,321,163809,6,0,L|9:345,1,62.9999980773926
19,341,163996,2,0,L|-2:270,2,62.9999980773926
133,169,164371,6,0,L|58:193,1,62.9999980773926
79,377,164558,1,0,0:0:0:0:
79,377,164652,1,0,0:0:0:0:
79,377,164746,1,0,0:0:0:0:
351,170,164934,2,0,P|347:131|366:75,1,62.9999980773926
442,196,165121,2,0,P|442:234|421:294,1,62.9999980773926
385,31,165309,6,0,B|301:-4|328:73|217:34,1,141.750004190683
75,130,165496,2,0,P|50:156|15:251,2,76.5000014591217
39,27,165871,6,0,B|123:-8|96:69|207:30,1,141.750004190683
288,126,166059,2,0,P|318:159|348:247,2,76.5000014591217
174,39,166434,5,0,0:0:0:0:
163,94,166527,1,0,0:0:0:0:
205,139,166621,1,0,0:0:0:0:
218,79,166715,1,0,0:0:0:0:
174,39,166809,6,0,B|104:23|104:23|-23:62,1,141.750004190683
111,205,166996,2,0,P|110:248|138:285,2,76.5000014591217
37,43,167371,6,0,B|104:24|104:24|235:48,1,141.750004190683
111,205,167559,2,0,P|112:248|83:290,2,76.5000014591217
325,115,167934,6,0,L|331:18,1,76.5000014591217
416,256,168121,2,0,L|426:151,1,76.5000014591217
117,129,168309,6,0,P|130:94|165:57,1,76.5000014591217
344,265,168496,2,0,P|322:296|292:319,1,76.5000014591217
222,38,168684,6,0,P|258:31|308:43,1,76.5000014591217
225,327,168871,2,0,P|187:323|152:308,1,76.5000014591217
355,71,169059,6,0,P|378:99|393:148,1,76.5000014591217
102,260,169246,2,0,P|85:225|81:187,1,76.5000014591217
391,136,169434,6,0,L|516:139,1,76.5000014591217
80,187,169621,2,0,L|-8:187,1,76.5000014591217
260,175,169809,6,0,P|287:266|75:202,1,465.749985786438
80,181,172059,6,0,P|95:124|70:40,1,141.749995674133
65,37,172809,6,0,B|227:151|231:-42|424:84,1,371.250011329651
434,95,174309,6,0,B|449:169|407:229|407:229|432:256|431:290,1,204.749990627289
433,308,175059,6,0,P|357:255|286:342,1,204.749990627289
271,333,175809,6,0,B|250:337|237:325|237:325|265:284|245:256|245:256|218:225|208:191|212:157|213:117|258:90|301:102|328:109|348:132|353:164|352:187|336:224|336:224|329:271|348:299|380:308|413:309|446:268|424:221,1,641.250024461747
430,190,177684,6,0,P|410:111|160:258,1,519.749984138489
164,254,178809,6,0,B|199:285|194:368|122:397|55:374|21:292|84:232|84:232|150:145|-1:137|96:23,1,519.749984138489
94,37,179934,6,0,B|44:42|9:13|9:13|163:-36|352:8,1,420.75000802517
348,29,181059,6,0,P|402:62|346:17,1,267.750005106926
417,12,181809,6,0,B|359:70|411:147|411:147|442:184|479:237|456:304|401:364|312:364|249:289|276:191|276:191|301:93|209:58|209:58|120:105|149:203|149:203|168:293|66:326,1,1046.25003991127
83,301,184809,6,0,B|157:205|279:271|279:271|267:216|204:196|204:196|249:114|153:101|222:13,1,506.250019311906
230,25,186309,6,0,B|150:21|150:21|110:24|77:70|77:70|108:108|142:109|142:109|196:94|243:109|243:109|278:140|294:202|276:255,1,506.250019311906
277,291,187809,6,0,B|192:347|78:291|78:291|-18:300|20:421|129:371|78:291|78:291|92:233|45:198|45:198|16:162|-22:114|-18:41|16:-19|87:-29|139:-17|155:74|155:74|169:-19|237:-23|284:-1|317:30|340:75|328:150|263:230|204:242|152:229,1,1386.00004229736
