osu file format v14

[General]
AudioFilename: siccducc.mp3
AudioLeadIn: 0
PreviewTime: 36023
Countdown: 0
SampleSet: None
StackLeniency: 0.7
Mode: 3
LetterboxInBreaks: 0
SpecialStyle: 0
WidescreenStoryboard: 1

[Editor]
DistanceSpacing: 1.3
BeatDivisor: 4
GridSize: 4
TimelineZoom: 2

[Metadata]
Title:me & u
TitleUnicode:me & u
Artist:succducc
ArtistUnicode:succducc
Creator:Shoegazer
Version:yume
Source:
Tags:me and you future bass wiosna
BeatmapID:1640584
BeatmapSetID:781107

[Difficulty]
HPDrainRate:8
CircleSize:4
OverallDifficulty:8
ApproachRate:5
SliderMultiplier:1.4
SliderTickRate:1

[Events]
//Background and Video events
0,0,"bg.jpg",0,0
//Break Periods
//Storyboard Layer 0 (Background)
//Storyboard Layer 1 (Fail)
//Storyboard Layer 2 (Pass)
//Storyboard Layer 3 (Foreground)
//Storyboard Sound Samples

[TimingPoints]
23,375,4,3,0,35,1,0

[HitObjects]
448,192,23,128,0,304:0:0:0:0:
448,192,398,1,0,0:0:0:0:
64,192,491,1,0,0:0:0:0:
448,192,585,1,0,0:0:0:0:
64,192,679,1,0,0:0:0:0:
448,192,960,128,0,1148:0:0:0:0:
64,192,1148,1,0,0:0:0:0:
448,192,1241,1,0,0:0:0:0:
448,192,1335,128,0,1523:0:0:0:0:
64,192,1523,1,0,0:0:0:0:
448,192,1710,1,0,0:0:0:0:
64,192,1804,1,0,0:0:0:0:
448,192,2085,1,0,0:0:0:0:
64,192,2179,1,0,0:0:0:0:
320,192,2273,128,0,2554:0:0:0:0:
320,192,2648,128,0,2929:0:0:0:0:
192,192,3023,128,0,3210:0:0:0:0:
320,192,3210,1,0,0:0:0:0:
192,192,3304,1,0,0:0:0:0:
192,192,3398,128,0,3773:0:0:0:0:
192,192,3960,128,0,4148:0:0:0:0:
192,192,4335,128,0,4523:0:0:0:0:
320,192,4523,128,0,4710:0:0:0:0:
64,192,4710,1,0,0:0:0:0:
320,192,4804,128,0,4991:0:0:0:0:
64,192,4991,1,0,0:0:0:0:
320,192,5085,128,0,5273:0:0:0:0:
64,192,5273,128,0,5554:0:0:0:0:
64,192,5648,128,0,6023:0:0:0:0:
320,192,6023,128,0,6304:0:0:0:0:
320,192,6398,128,0,6679:0:0:0:0:
192,192,6773,1,0,0:0:0:0:
192,192,7148,1,0,0:0:0:0:
448,192,7523,1,0,0:0:0:0:
192,192,7898,1,0,0:0:0:0:
448,192,8273,128,0,8554:0:0:0:0:
448,192,8648,128,0,8929:0:0:0:0:
448,192,9023,128,0,9585:0:0:0:0:
320,192,9023,128,0,9585:0:0:0:0:
320,192,9773,128,0,10335:0:0:0:0:
64,192,9773,128,0,10335:0:0:0:0:
448,192,10523,128,0,10804:0:0:0:0:
64,192,10523,128,0,10804:0:0:0:0:
448,192,10898,1,0,0:0:0:0:
320,192,10898,128,0,11179:0:0:0:0:
192,192,11085,1,0,0:0:0:0:
448,192,11273,1,0,0:0:0:0:
64,192,11273,128,0,11554:0:0:0:0:
320,192,11460,1,0,0:0:0:0:
192,192,11648,128,0,12023:0:0:0:0:
64,192,11648,1,0,0:0:0:0:
448,192,11835,1,0,0:0:0:0:
448,192,12023,1,0,0:0:0:0:
320,192,12023,1,0,0:0:0:0:
192,192,12116,1,0,0:0:0:0:
448,192,12210,1,0,0:0:0:0:
64,192,12304,1,0,0:0:0:0:
320,192,12398,1,0,0:0:0:0:
448,192,12491,1,0,0:0:0:0:
64,192,12585,1,0,0:0:0:0:
192,192,12679,1,0,0:0:0:0:
448,192,12773,1,0,0:0:0:0:
192,192,12866,1,0,0:0:0:0:
64,192,12960,1,0,0:0:0:0:
448,192,13054,1,0,0:0:0:0:
320,192,13148,1,0,0:0:0:0:
448,192,13241,1,0,0:0:0:0:
64,192,13335,1,0,0:0:0:0:
64,192,13429,1,0,0:0:0:0:
448,192,13523,1,0,0:0:0:0:
64,192,13616,1,0,0:0:0:0:
192,192,13710,1,0,0:0:0:0:
448,192,13804,1,0,0:0:0:0:
320,192,13898,1,0,0:0:0:0:
192,192,13991,1,0,0:0:0:0:
64,192,14085,1,0,0:0:0:0:
448,192,14179,1,0,0:0:0:0:
64,192,14273,1,0,0:0:0:0:
192,192,14366,1,0,0:0:0:0:
320,192,14460,1,0,0:0:0:0:
64,192,14554,1,0,0:0:0:0:
192,192,14648,1,0,0:0:0:0:
448,192,14741,1,0,0:0:0:0:
64,192,14835,1,0,0:0:0:0:
448,192,14929,1,0,0:0:0:0:
192,192,15023,1,0,0:0:0:0:
64,192,15116,1,0,0:0:0:0:
448,192,15210,1,0,0:0:0:0:
192,192,15304,1,0,0:0:0:0:
448,192,15398,1,0,0:0:0:0:
64,192,15491,1,0,0:0:0:0:
320,192,15585,1,0,0:0:0:0:
192,192,15679,1,0,0:0:0:0:
64,192,15773,1,0,0:0:0:0:
448,192,15866,1,0,0:0:0:0:
192,192,15960,1,0,0:0:0:0:
64,192,16054,1,0,0:0:0:0:
320,192,16148,1,0,0:0:0:0:
192,192,16241,1,0,0:0:0:0:
320,192,16335,1,0,0:0:0:0:
320,192,16429,1,0,0:0:0:0:
192,192,16523,1,0,0:0:0:0:
448,192,16616,1,0,0:0:0:0:
64,192,16710,1,0,0:0:0:0:
448,192,16804,1,0,0:0:0:0:
320,192,16898,1,0,0:0:0:0:
192,192,16991,1,0,0:0:0:0:
448,192,17085,1,0,0:0:0:0:
64,192,17179,1,0,0:0:0:0:
192,192,17273,1,0,0:0:0:0:
448,192,17366,1,0,0:0:0:0:
192,192,17460,1,0,0:0:0:0:
64,192,17554,1,0,0:0:0:0:
320,192,17648,1,0,0:0:0:0:
192,192,17741,1,0,0:0:0:0:
64,192,17835,1,0,0:0:0:0:
448,192,17929,1,0,0:0:0:0:
192,192,18023,1,0,0:0:0:0:
64,192,18023,1,0,0:0:0:0:
320,192,18116,1,0,0:0:0:0:
448,192,18210,1,0,0:0:0:0:
192,192,18304,1,0,0:0:0:0:
448,192,18398,1,0,0:0:0:0:
64,192,18398,1,0,0:0:0:0:
320,192,18491,1,0,0:0:0:0:
192,192,18585,1,0,0:0:0:0:
64,192,18679,1,0,0:0:0:0:
448,192,18773,1,0,0:0:0:0:
320,192,18773,1,0,0:0:0:0:
64,192,18866,1,0,0:0:0:0:
192,192,18960,1,0,0:0:0:0:
320,192,19054,1,0,0:0:0:0:
448,192,19148,1,0,0:0:0:0:
64,192,19148,1,0,0:0:0:0:
192,192,19241,1,0,0:0:0:0:
320,192,19335,1,0,0:0:0:0:
448,192,19429,1,0,0:0:0:0:
192,192,19523,1,0,0:0:0:0:
64,192,19523,1,0,0:0:0:0:
448,192,19616,1,0,0:0:0:0:
320,192,19710,1,0,0:0:0:0:
192,192,19804,1,0,0:0:0:0:
448,192,19898,1,0,0:0:0:0:
64,192,19898,1,0,0:0:0:0:
192,192,19991,1,0,0:0:0:0:
320,192,20085,1,0,0:0:0:0:
448,192,20179,1,0,0:0:0:0:
192,192,20273,1,0,0:0:0:0:
64,192,20273,1,0,0:0:0:0:
448,192,20366,1,0,0:0:0:0:
320,192,20460,1,0,0:0:0:0:
192,192,20554,1,0,0:0:0:0:
320,192,20648,1,0,0:0:0:0:
64,192,20648,1,0,0:0:0:0:
448,192,20741,1,0,0:0:0:0:
192,192,20835,1,0,0:0:0:0:
64,192,20929,1,0,0:0:0:0:
448,192,21023,1,0,0:0:0:0:
320,192,21023,1,0,0:0:0:0:
192,192,21116,1,0,0:0:0:0:
320,192,21210,1,0,0:0:0:0:
64,192,21210,1,0,0:0:0:0:
448,192,21304,1,0,0:0:0:0:
192,192,21398,1,0,0:0:0:0:
64,192,21398,1,0,0:0:0:0:
448,192,21491,1,0,0:0:0:0:
320,192,21585,1,0,0:0:0:0:
192,192,21585,1,0,0:0:0:0:
64,192,21679,1,0,0:0:0:0:
448,192,21773,1,0,0:0:0:0:
320,192,21773,1,0,0:0:0:0:
64,192,21866,1,0,0:0:0:0:
448,192,21960,1,0,0:0:0:0:
192,192,21960,1,0,0:0:0:0:
320,192,22054,1,0,0:0:0:0:
192,192,22148,1,0,0:0:0:0:
64,192,22148,1,0,0:0:0:0:
320,192,22241,1,0,0:0:0:0:
448,192,22335,1,0,0:0:0:0:
64,192,22335,1,0,0:0:0:0:
192,192,22429,1,0,0:0:0:0:
448,192,22523,1,0,0:0:0:0:
320,192,22523,1,0,0:0:0:0:
192,192,22616,1,0,0:0:0:0:
64,192,22616,1,0,0:0:0:0:
448,192,22710,1,0,0:0:0:0:
320,192,22710,1,0,0:0:0:0:
192,192,22804,1,0,0:0:0:0:
64,192,22804,1,0,0:0:0:0:
448,192,22898,1,0,0:0:0:0:
320,192,22898,1,0,0:0:0:0:
192,192,22991,1,0,0:0:0:0:
64,192,22991,1,0,0:0:0:0:
448,192,23085,1,0,0:0:0:0:
320,192,23085,1,0,0:0:0:0:
192,192,23179,1,0,0:0:0:0:
64,192,23179,1,0,0:0:0:0:
448,192,23273,1,0,0:0:0:0:
320,192,23273,1,0,0:0:0:0:
448,192,23366,1,0,0:0:0:0:
320,192,23366,1,0,0:0:0:0:
192,192,23460,1,0,0:0:0:0:
64,192,23460,1,0,0:0:0:0:
320,192,23554,1,0,0:0:0:0:
448,192,23648,1,0,0:0:0:0:
64,192,23648,1,0,0:0:0:0:
320,192,23741,1,0,0:0:0:0:
192,192,23741,1,0,0:0:0:0:
448,192,23835,1,0,0:0:0:0:
64,192,23835,1,0,0:0:0:0:
320,192,23929,1,0,0:0:0:0:
192,192,23929,1,0,0:0:0:0:
448,192,24023,1,0,0:0:0:0:
64,192,24023,128,0,24210:0:0:0:0:
448,192,24398,128,0,24585:0:0:0:0:
320,192,24398,1,0,0:0:0:0:
320,192,24773,1,0,0:0:0:0:
192,192,24773,128,0,24960:0:0:0:0:
192,192,25054,1,0,0:0:0:0:
64,192,25054,1,0,0:0:0:0:
448,192,25148,128,0,25241:0:0:0:0:
64,192,25241,1,0,0:0:0:0:
320,192,25335,1,0,0:0:0:0:
192,192,25335,1,0,0:0:0:0:
64,192,25429,1,0,0:0:0:0:
448,192,25523,128,0,25710:0:0:0:0:
192,192,25523,1,0,0:0:0:0:
448,192,25898,128,0,26085:0:0:0:0:
64,192,25898,1,0,0:0:0:0:
192,192,26273,128,0,26460:0:0:0:0:
64,192,26273,1,0,0:0:0:0:
448,192,26554,1,0,0:0:0:0:
320,192,26554,1,0,0:0:0:0:
192,192,26648,1,0,0:0:0:0:
320,192,26741,1,0,0:0:0:0:
448,192,26835,1,0,0:0:0:0:
64,192,26835,1,0,0:0:0:0:
192,192,26929,1,0,0:0:0:0:
320,192,27023,1,0,0:0:0:0:
64,192,27023,128,0,27210:0:0:0:0:
448,192,27398,128,0,27585:0:0:0:0:
320,192,27398,1,0,0:0:0:0:
448,192,27773,1,0,0:0:0:0:
192,192,27773,128,0,27960:0:0:0:0:
320,192,27960,1,0,0:0:0:0:
448,192,28054,1,0,0:0:0:0:
64,192,28054,1,0,0:0:0:0:
320,192,28148,128,0,28335:0:0:0:0:
192,192,28335,1,0,0:0:0:0:
64,192,28335,1,0,0:0:0:0:
448,192,28523,128,0,28710:0:0:0:0:
320,192,28523,1,0,0:0:0:0:
448,192,28898,128,0,29085:0:0:0:0:
192,192,28898,1,0,0:0:0:0:
320,192,29273,1,0,0:0:0:0:
192,192,29273,128,0,29460:0:0:0:0:
448,192,29554,1,0,0:0:0:0:
320,192,29554,1,0,0:0:0:0:
64,192,29648,1,0,0:0:0:0:
192,192,29741,1,0,0:0:0:0:
448,192,29835,1,0,0:0:0:0:
320,192,29835,1,0,0:0:0:0:
320,192,29929,1,0,0:0:0:0:
448,192,30023,1,0,0:0:0:0:
192,192,30023,1,0,0:0:0:0:
64,192,30023,128,0,30116:0:0:0:0:
64,192,30210,1,0,0:0:0:0:
448,192,30398,128,0,30491:0:0:0:0:
320,192,30398,1,0,0:0:0:0:
448,192,30585,1,0,0:0:0:0:
320,192,30773,1,0,0:0:0:0:
192,192,30773,128,0,30866:0:0:0:0:
192,192,30960,1,0,0:0:0:0:
320,192,31054,1,0,0:0:0:0:
64,192,31054,1,0,0:0:0:0:
448,192,31148,128,0,31241:0:0:0:0:
192,192,31335,1,0,0:0:0:0:
64,192,31335,1,0,0:0:0:0:
64,192,31429,1,0,0:0:0:0:
448,192,31523,128,0,31616:0:0:0:0:
320,192,31523,1,0,0:0:0:0:
320,192,31710,1,0,0:0:0:0:
448,192,31898,128,0,31991:0:0:0:0:
192,192,31898,1,0,0:0:0:0:
448,192,32085,1,0,0:0:0:0:
320,192,32273,1,0,0:0:0:0:
192,192,32273,128,0,32366:0:0:0:0:
448,192,32460,1,0,0:0:0:0:
192,192,32554,1,0,0:0:0:0:
64,192,32554,1,0,0:0:0:0:
448,192,32648,1,0,0:0:0:0:
320,192,32741,1,0,0:0:0:0:
192,192,32835,1,0,0:0:0:0:
64,192,32835,1,0,0:0:0:0:
192,192,32929,1,0,0:0:0:0:
448,192,33023,1,0,0:0:0:0:
320,192,33023,1,0,0:0:0:0:
64,192,33023,128,0,33116:0:0:0:0:
64,192,33210,1,0,0:0:0:0:
448,192,33398,128,0,33491:0:0:0:0:
320,192,33398,1,0,0:0:0:0:
448,192,33585,1,0,0:0:0:0:
320,192,33773,1,0,0:0:0:0:
192,192,33773,128,0,33866:0:0:0:0:
192,192,33960,1,0,0:0:0:0:
448,192,34054,1,0,0:0:0:0:
320,192,34054,1,0,0:0:0:0:
64,192,34148,128,0,34335:0:0:0:0:
448,192,34335,1,0,0:0:0:0:
192,192,34335,1,0,0:0:0:0:
192,192,34429,1,0,0:0:0:0:
448,192,34523,128,0,34616:0:0:0:0:
320,192,34523,1,0,0:0:0:0:
64,192,34569,1,0,0:0:0:0:
320,192,34710,1,0,0:0:0:0:
448,192,34898,128,0,34991:0:0:0:0:
192,192,34898,1,0,0:0:0:0:
64,192,34944,1,0,0:0:0:0:
448,192,35085,1,0,0:0:0:0:
320,192,35273,1,0,0:0:0:0:
192,192,35273,128,0,35366:0:0:0:0:
64,192,35319,1,0,0:0:0:0:
320,192,35460,1,0,0:0:0:0:
448,192,35554,1,0,0:0:0:0:
320,192,35648,1,0,0:0:0:0:
192,192,35648,1,0,0:0:0:0:
192,192,35741,1,0,0:0:0:0:
320,192,35835,1,0,0:0:0:0:
64,192,35835,1,0,0:0:0:0:
320,192,35929,1,0,0:0:0:0:
448,192,36023,1,0,0:0:0:0:
192,192,36023,128,0,36116:0:0:0:0:
64,192,36023,1,0,0:0:0:0:
320,192,36210,1,0,0:0:0:0:
192,192,36304,1,0,0:0:0:0:
448,192,36398,1,0,0:0:0:0:
64,192,36398,128,0,36491:0:0:0:0:
320,192,36585,1,0,0:0:0:0:
448,192,36679,1,0,0:0:0:0:
192,192,36773,128,0,36866:0:0:0:0:
64,192,36773,1,0,0:0:0:0:
448,192,36960,1,0,0:0:0:0:
320,192,37054,1,0,0:0:0:0:
192,192,37054,1,0,0:0:0:0:
448,192,37148,128,0,37241:0:0:0:0:
64,192,37148,1,0,0:0:0:0:
320,192,37335,1,0,0:0:0:0:
192,192,37335,1,0,0:0:0:0:
192,192,37429,1,0,0:0:0:0:
448,192,37523,128,0,37616:0:0:0:0:
320,192,37523,1,0,0:0:0:0:
64,192,37710,1,0,0:0:0:0:
320,192,37804,1,0,0:0:0:0:
448,192,37898,1,0,0:0:0:0:
192,192,37898,128,0,37991:0:0:0:0:
320,192,38085,1,0,0:0:0:0:
448,192,38179,1,0,0:0:0:0:
192,192,38273,128,0,38366:0:0:0:0:
64,192,38273,1,0,0:0:0:0:
448,192,38460,1,0,0:0:0:0:
320,192,38554,1,0,0:0:0:0:
192,192,38554,1,0,0:0:0:0:
448,192,38648,128,0,38741:0:0:0:0:
64,192,38648,1,0,0:0:0:0:
320,192,38710,1,0,0:0:0:0:
192,192,38773,1,0,0:0:0:0:
320,192,38835,1,0,0:0:0:0:
64,192,38835,1,0,0:0:0:0:
64,192,38929,1,0,0:0:0:0:
448,192,39023,128,0,39116:0:0:0:0:
320,192,39023,1,0,0:0:0:0:
192,192,39023,1,0,0:0:0:0:
192,192,39210,1,0,0:0:0:0:
320,192,39304,1,0,0:0:0:0:
448,192,39398,128,0,39491:0:0:0:0:
64,192,39398,1,0,0:0:0:0:
320,192,39585,1,0,0:0:0:0:
320,192,39679,1,0,0:0:0:0:
192,192,39773,128,0,39866:0:0:0:0:
64,192,39773,1,0,0:0:0:0:
448,192,39960,1,0,0:0:0:0:
320,192,40054,1,0,0:0:0:0:
192,192,40054,1,0,0:0:0:0:
448,192,40148,1,0,0:0:0:0:
64,192,40148,128,0,40335:0:0:0:0:
320,192,40335,1,0,0:0:0:0:
192,192,40335,1,0,0:0:0:0:
192,192,40429,1,0,0:0:0:0:
448,192,40523,128,0,40616:0:0:0:0:
320,192,40523,1,0,0:0:0:0:
192,192,40710,1,0,0:0:0:0:
320,192,40804,1,0,0:0:0:0:
448,192,40898,128,0,40991:0:0:0:0:
64,192,40898,1,0,0:0:0:0:
320,192,41085,1,0,0:0:0:0:
448,192,41179,1,0,0:0:0:0:
192,192,41273,128,0,41366:0:0:0:0:
64,192,41273,1,0,0:0:0:0:
448,192,41460,1,0,0:0:0:0:
320,192,41554,1,0,0:0:0:0:
192,192,41554,1,0,0:0:0:0:
448,192,41648,128,0,41741:0:0:0:0:
64,192,41648,1,0,0:0:0:0:
192,192,41741,1,0,0:0:0:0:
448,192,41835,1,0,0:0:0:0:
320,192,41835,1,0,0:0:0:0:
192,192,41929,1,0,0:0:0:0:
448,192,42023,1,0,0:0:0:0:
320,192,42023,1,0,0:0:0:0:
64,192,42023,128,0,42116:0:0:0:0:
192,192,42210,1,0,0:0:0:0:
192,192,42304,1,0,0:0:0:0:
448,192,42398,128,0,42491:0:0:0:0:
320,192,42398,1,0,0:0:0:0:
64,192,42585,1,0,0:0:0:0:
320,192,42679,1,0,0:0:0:0:
448,192,42773,1,0,0:0:0:0:
192,192,42773,128,0,42866:0:0:0:0:
320,192,42960,1,0,0:0:0:0:
192,192,43054,1,0,0:0:0:0:
64,192,43054,1,0,0:0:0:0:
448,192,43148,128,0,43241:0:0:0:0:
320,192,43148,1,0,0:0:0:0:
192,192,43335,1,0,0:0:0:0:
64,192,43335,1,0,0:0:0:0:
320,192,43429,1,0,0:0:0:0:
448,192,43523,128,0,43616:0:0:0:0:
64,192,43523,1,0,0:0:0:0:
320,192,43710,1,0,0:0:0:0:
448,192,43804,1,0,0:0:0:0:
192,192,43898,128,0,43991:0:0:0:0:
64,192,43898,1,0,0:0:0:0:
320,192,44085,1,0,0:0:0:0:
64,192,44179,1,0,0:0:0:0:
448,192,44273,1,0,0:0:0:0:
192,192,44273,128,0,44366:0:0:0:0:
320,192,44460,1,0,0:0:0:0:
192,192,44554,1,0,0:0:0:0:
64,192,44554,1,0,0:0:0:0:
448,192,44648,128,0,44741:0:0:0:0:
320,192,44648,1,0,0:0:0:0:
192,192,44741,1,0,0:0:0:0:
320,192,44835,1,0,0:0:0:0:
64,192,44835,1,0,0:0:0:0:
320,192,44929,1,0,0:0:0:0:
448,192,45023,1,0,0:0:0:0:
192,192,45023,1,0,0:0:0:0:
64,192,45023,128,0,45116:0:0:0:0:
320,192,45210,1,0,0:0:0:0:
192,192,45304,1,0,0:0:0:0:
448,192,45398,128,0,45491:0:0:0:0:
320,192,45398,1,0,0:0:0:0:
64,192,45398,1,0,0:0:0:0:
192,192,45585,1,0,0:0:0:0:
320,192,45679,1,0,0:0:0:0:
448,192,45773,1,0,0:0:0:0:
192,192,45773,128,0,45866:0:0:0:0:
64,192,45773,1,0,0:0:0:0:
448,192,45960,1,0,0:0:0:0:
320,192,46054,1,0,0:0:0:0:
448,192,46148,1,0,0:0:0:0:
192,192,46148,128,0,46335:0:0:0:0:
64,192,46148,1,0,0:0:0:0:
320,192,46335,1,0,0:0:0:0:
64,192,46335,1,0,0:0:0:0:
192,192,46429,1,0,0:0:0:0:
448,192,46523,128,0,46616:0:0:0:0:
320,192,46523,1,0,0:0:0:0:
64,192,46523,1,0,0:0:0:0:
192,192,46710,1,0,0:0:0:0:
320,192,46804,1,0,0:0:0:0:
448,192,46898,128,0,46991:0:0:0:0:
192,192,46898,1,0,0:0:0:0:
64,192,46898,1,0,0:0:0:0:
320,192,47085,1,0,0:0:0:0:
64,192,47179,1,0,0:0:0:0:
448,192,47273,1,0,0:0:0:0:
320,192,47273,1,0,0:0:0:0:
192,192,47273,128,0,47366:0:0:0:0:
64,192,47460,1,0,0:0:0:0:
320,192,47554,1,0,0:0:0:0:
192,192,47554,1,0,0:0:0:0:
448,192,47648,128,0,47741:0:0:0:0:
64,192,47648,1,0,0:0:0:0:
192,192,47741,1,0,0:0:0:0:
448,192,47835,1,0,0:0:0:0:
320,192,47835,1,0,0:0:0:0:
64,192,47929,1,0,0:0:0:0:
448,192,48023,128,0,48398:0:0:0:0:
448,192,48585,128,0,48679:0:0:0:0:
448,192,48773,128,0,49054:0:0:0:0:
448,192,49148,128,0,49241:0:0:0:0:
448,192,49335,1,0,0:0:0:0:
64,192,49429,1,0,0:0:0:0:
448,192,49898,128,0,50179:0:0:0:0:
320,192,50273,128,0,50460:0:0:0:0:
320,192,50554,128,0,50741:0:0:0:0:
320,192,50835,128,0,51023:0:0:0:0:
192,192,51023,128,0,51304:0:0:0:0:
192,192,51398,1,0,0:0:0:0:
448,192,51491,1,0,0:0:0:0:
192,192,51585,1,0,0:0:0:0:
448,192,51679,1,0,0:0:0:0:
192,192,51960,1,0,0:0:0:0:
192,192,52054,128,0,52148:0:0:0:0:
192,192,52335,128,0,52523:0:0:0:0:
320,192,52523,128,0,52757:0:0:0:0:
320,192,52898,128,0,52991:0:0:0:0:
320,192,53085,1,0,0:0:0:0:
192,192,53179,1,0,0:0:0:0:
320,192,53460,1,0,0:0:0:0:
192,192,53554,1,0,0:0:0:0:
320,192,53648,1,0,0:0:0:0:
64,192,53750,1,0,0:0:0:0:
448,192,53843,1,0,0:0:0:0:
192,192,53937,1,0,0:0:0:0:
448,192,54023,1,0,0:0:0:0:
64,192,54023,1,0,0:0:0:0:
64,192,54210,1,0,0:0:0:0:
320,192,54398,1,0,0:0:0:0:
448,192,54585,1,0,0:0:0:0:
64,192,54679,1,0,0:0:0:0:
448,192,54773,1,0,0:0:0:0:
320,192,54866,1,0,0:0:0:0:
192,192,54960,1,0,0:0:0:0:
448,192,55148,1,0,0:0:0:0:
64,192,55241,1,0,0:0:0:0:
448,192,55335,1,0,0:0:0:0:
448,192,55429,1,0,0:0:0:0:
192,192,55523,1,0,0:0:0:0:
448,192,55710,1,0,0:0:0:0:
64,192,55804,1,0,0:0:0:0:
448,192,55898,1,0,0:0:0:0:
320,192,55991,1,0,0:0:0:0:
192,192,56085,1,0,0:0:0:0:
320,192,56273,1,0,0:0:0:0:
64,192,56366,1,0,0:0:0:0:
448,192,56460,1,0,0:0:0:0:
64,192,56554,1,0,0:0:0:0:
320,192,56648,1,0,0:0:0:0:
320,192,56741,1,0,0:0:0:0:
64,192,56835,1,0,0:0:0:0:
64,192,56929,1,0,0:0:0:0:
192,192,57023,1,0,0:0:0:0:
448,192,57116,1,0,0:0:0:0:
64,192,57210,1,0,0:0:0:0:
448,192,57304,1,0,0:0:0:0:
192,192,57398,1,0,0:0:0:0:
320,192,57491,1,0,0:0:0:0:
192,192,57585,1,0,0:0:0:0:
192,192,57679,1,0,0:0:0:0:
320,192,57773,1,0,0:0:0:0:
64,192,57866,1,0,0:0:0:0:
448,192,57960,1,0,0:0:0:0:
320,192,58054,1,0,0:0:0:0:
64,192,58148,1,0,0:0:0:0:
448,192,58241,1,0,0:0:0:0:
320,192,58335,1,0,0:0:0:0:
320,192,58429,1,0,0:0:0:0:
64,192,58523,1,0,0:0:0:0:
448,192,58616,1,0,0:0:0:0:
64,192,58710,1,0,0:0:0:0:
448,192,58804,1,0,0:0:0:0:
192,192,58898,128,0,58991:0:0:0:0:
320,192,58991,1,0,0:0:0:0:
192,192,59085,128,0,59179:0:0:0:0:
320,192,59179,1,0,0:0:0:0:
64,192,59273,1,0,0:0:0:0:
192,192,59335,1,0,0:0:0:0:
320,192,59398,1,0,0:0:0:0:
448,192,59460,1,0,0:0:0:0:
64,192,59523,1,0,0:0:0:0:
192,192,59585,1,0,0:0:0:0:
320,192,59648,1,0,0:0:0:0:
448,192,59710,1,0,0:0:0:0:
64,192,59773,1,0,0:0:0:0:
192,192,59835,1,0,0:0:0:0:
320,192,59898,1,0,0:0:0:0:
448,192,59960,1,0,0:0:0:0:
64,192,60023,128,0,62273:0:0:0:0:
192,192,62273,1,0,0:0:0:0:
320,192,62460,1,0,0:0:0:0:
64,192,62554,1,0,0:0:0:0:
448,192,62648,1,0,0:0:0:0:
320,192,62741,1,0,0:0:0:0:
192,192,62835,1,0,0:0:0:0:
320,192,63023,128,0,64523:0:0:0:0:
192,192,64523,1,0,0:0:0:0:
320,192,64710,1,0,0:0:0:0:
64,192,64804,1,0,0:0:0:0:
448,192,64898,1,0,0:0:0:0:
320,192,64991,1,0,0:0:0:0:
192,192,65085,1,0,0:0:0:0:
320,192,65273,1,0,0:0:0:0:
64,192,65366,1,0,0:0:0:0:
448,192,65460,1,0,0:0:0:0:
320,192,65554,1,0,0:0:0:0:
192,192,65648,1,0,0:0:0:0:
320,192,65835,1,0,0:0:0:0:
64,192,65929,1,0,0:0:0:0:
192,192,66023,128,0,66210:0:0:0:0:
320,192,66210,128,0,66398:0:0:0:0:
192,192,66398,128,0,66585:0:0:0:0:
320,192,66585,128,0,66773:0:0:0:0:
64,192,66773,128,0,66960:0:0:0:0:
448,192,66960,128,0,67148:0:0:0:0:
64,192,67148,128,0,67335:0:0:0:0:
448,192,67335,128,0,67523:0:0:0:0:
192,192,67523,128,0,67710:0:0:0:0:
320,192,67710,128,0,67898:0:0:0:0:
192,192,67898,128,0,68085:0:0:0:0:
320,192,68085,128,0,68273:0:0:0:0:
64,192,68273,1,0,0:0:0:0:
448,192,68460,1,0,0:0:0:0:
192,192,68648,1,0,0:0:0:0:
320,192,68835,1,0,0:0:0:0:
64,192,68929,1,0,0:0:0:0:
192,192,69023,128,0,69210:0:0:0:0:
320,192,69210,128,0,69398:0:0:0:0:
192,192,69398,128,0,69585:0:0:0:0:
320,192,69585,128,0,69773:0:0:0:0:
64,192,69773,128,0,69960:0:0:0:0:
448,192,69960,128,0,70148:0:0:0:0:
64,192,70148,128,0,70335:0:0:0:0:
448,192,70335,128,0,70523:0:0:0:0:
64,192,70523,1,0,0:0:0:0:
320,192,70616,1,0,0:0:0:0:
192,192,70710,1,0,0:0:0:0:
448,192,70804,1,0,0:0:0:0:
64,192,70898,1,0,0:0:0:0:
320,192,70991,1,0,0:0:0:0:
448,192,71085,1,0,0:0:0:0:
320,192,71179,1,0,0:0:0:0:
64,192,71273,128,0,72023:0:0:0:0:
448,192,71460,1,0,0:0:0:0:
192,192,71648,1,0,0:0:0:0:
320,192,71835,1,0,0:0:0:0:
448,192,72023,1,0,0:0:0:0:
320,192,72023,1,0,0:0:0:0:
192,192,72210,1,0,0:0:0:0:
192,192,72398,1,0,0:0:0:0:
192,192,72585,1,0,0:0:0:0:
192,192,72773,1,0,0:0:0:0:
192,192,72960,1,0,0:0:0:0:
448,192,73148,1,0,0:0:0:0:
448,192,73335,1,0,0:0:0:0:
448,192,73523,1,0,0:0:0:0:
448,192,73710,1,0,0:0:0:0:
448,192,73898,1,0,0:0:0:0:
448,192,74085,1,0,0:0:0:0:
448,192,74273,1,0,0:0:0:0:
448,192,74460,1,0,0:0:0:0:
448,192,74648,1,0,0:0:0:0:
448,192,74835,1,0,0:0:0:0:
320,192,75023,1,0,0:0:0:0:
320,192,75210,1,0,0:0:0:0:
320,192,75398,1,0,0:0:0:0:
320,192,75585,1,0,0:0:0:0:
320,192,75773,1,0,0:0:0:0:
320,192,75960,1,0,0:0:0:0:
320,192,76148,1,0,0:0:0:0:
320,192,76335,1,0,0:0:0:0:
320,192,76523,1,0,0:0:0:0:
320,192,76710,1,0,0:0:0:0:
320,192,76898,1,0,0:0:0:0:
320,192,77085,1,0,0:0:0:0:
64,192,77273,128,0,78023:0:0:0:0:
448,192,78023,128,0,79148:0:0:0:0:
192,192,78039,1,0,0:0:0:0:
64,192,78226,1,0,0:0:0:0:
192,192,78414,1,0,0:0:0:0:
320,192,78601,1,0,0:0:0:0:
192,192,79148,128,0,80273:0:0:0:0:
320,192,80273,128,0,81023:0:0:0:0:
64,192,80289,1,0,0:0:0:0:
192,192,80476,1,0,0:0:0:0:
448,192,80664,1,0,0:0:0:0:
192,192,80851,1,0,0:0:0:0:
64,192,81023,128,0,81773:0:0:0:0:
448,192,81773,128,0,82523:0:0:0:0:
192,192,82164,1,0,0:0:0:0:
64,192,82351,1,0,0:0:0:0:
320,192,82523,128,0,83273:0:0:0:0:
64,192,82914,1,0,0:0:0:0:
448,192,83101,1,0,0:0:0:0:
192,192,83273,128,0,84023:0:0:0:0:
320,192,83476,1,0,0:0:0:0:
448,192,83664,1,0,0:0:0:0:
64,192,83835,128,0,84023:0:0:0:0:
448,192,84023,128,0,85148:0:0:0:0:
320,192,84023,128,0,84210:0:0:0:0:
192,192,84773,128,0,84960:0:0:0:0:
64,192,84960,128,0,85148:0:0:0:0:
320,192,85148,128,0,86273:0:0:0:0:
192,192,85148,128,0,85335:0:0:0:0:
448,192,85335,128,0,85523:0:0:0:0:
192,192,85710,128,0,85898:0:0:0:0:
64,192,86085,128,0,86273:0:0:0:0:
192,192,86273,128,0,87023:0:0:0:0:
448,192,86648,1,0,0:0:0:0:
64,192,86835,1,0,0:0:0:0:
448,192,87023,128,0,87210:0:0:0:0:
320,192,87023,128,0,88523:0:0:0:0:
64,192,87210,128,0,87398:0:0:0:0:
448,192,87398,128,0,87585:0:0:0:0:
192,192,87585,128,0,87773:0:0:0:0:
64,192,87960,128,0,88148:0:0:0:0:
448,192,88148,1,0,0:0:0:0:
448,192,88523,128,0,90023:0:0:0:0:
192,192,88523,128,0,88710:0:0:0:0:
320,192,88710,128,0,88898:0:0:0:0:
192,192,89085,128,0,89273:0:0:0:0:
64,192,89273,128,0,89460:0:0:0:0:
192,192,89460,1,0,0:0:0:0:
320,192,89648,128,0,90023:0:0:0:0:
192,192,90023,128,0,92273:0:0:0:0:
64,192,90023,1,0,0:0:0:0:
64,192,90398,1,0,0:0:0:0:
64,192,90773,1,0,0:0:0:0:
64,192,91148,1,0,0:0:0:0:
64,192,91523,1,0,0:0:0:0:
64,192,91898,1,0,0:0:0:0:
320,192,92273,128,0,94523:0:0:0:0:
64,192,92273,1,0,0:0:0:0:
64,192,92648,1,0,0:0:0:0:
64,192,92835,1,0,0:0:0:0:
64,192,93023,1,0,0:0:0:0:
64,192,93398,1,0,0:0:0:0:
64,192,93773,1,0,0:0:0:0:
64,192,94148,1,0,0:0:0:0:
192,192,94523,1,0,0:0:0:0:
64,192,94523,1,0,0:0:0:0:
320,192,94585,1,0,0:0:0:0:
448,192,94648,1,0,0:0:0:0:
192,192,94710,128,0,94804:0:0:0:0:
320,192,94804,1,0,0:0:0:0:
192,192,94898,128,0,94991:0:0:0:0:
320,192,94991,1,0,0:0:0:0:
64,192,95085,128,0,95179:0:0:0:0:
448,192,95179,1,0,0:0:0:0:
64,192,95273,128,0,95366:0:0:0:0:
448,192,95366,1,0,0:0:0:0:
320,192,95460,128,0,95554:0:0:0:0:
192,192,95554,1,0,0:0:0:0:
448,192,95648,1,0,0:0:0:0:
320,192,95710,1,0,0:0:0:0:
64,192,95773,1,0,0:0:0:0:
192,192,95835,1,0,0:0:0:0:
448,192,95898,1,0,0:0:0:0:
320,192,95960,1,0,0:0:0:0:
192,192,96023,1,0,0:0:0:0:
64,192,96023,128,0,96210:0:0:0:0:
320,192,96398,1,0,0:0:0:0:
192,192,96398,128,0,96585:0:0:0:0:
448,192,96773,128,0,96960:0:0:0:0:
320,192,96773,1,0,0:0:0:0:
320,192,97054,1,0,0:0:0:0:
64,192,97054,1,0,0:0:0:0:
448,192,97148,1,0,0:0:0:0:
192,192,97148,128,0,97335:0:0:0:0:
448,192,97335,1,0,0:0:0:0:
320,192,97429,1,0,0:0:0:0:
192,192,97523,1,0,0:0:0:0:
64,192,97523,1,0,0:0:0:0:
448,192,97585,1,0,0:0:0:0:
192,192,97648,1,0,0:0:0:0:
320,192,97710,1,0,0:0:0:0:
64,192,97898,128,0,97991:0:0:0:0:
192,192,97991,128,0,98085:0:0:0:0:
320,192,98085,128,0,98179:0:0:0:0:
448,192,98179,128,0,98273:0:0:0:0:
320,192,98273,1,0,0:0:0:0:
192,192,98273,1,0,0:0:0:0:
192,192,98460,1,0,0:0:0:0:
64,192,98554,1,0,0:0:0:0:
320,192,98648,128,0,98835:0:0:0:0:
192,192,98835,1,0,0:0:0:0:
64,192,98835,1,0,0:0:0:0:
192,192,99023,128,0,99398:0:0:0:0:
64,192,99023,128,0,99398:0:0:0:0:
320,192,99398,128,0,99773:0:0:0:0:
448,192,99773,1,0,0:0:0:0:
192,192,99773,1,0,0:0:0:0:
192,192,99960,1,0,0:0:0:0:
64,192,99960,1,0,0:0:0:0:
192,192,100148,128,0,100523:0:0:0:0:
64,192,100148,128,0,100523:0:0:0:0:
448,192,100523,128,0,100710:0:0:0:0:
320,192,100710,1,0,0:0:0:0:
192,192,100710,1,0,0:0:0:0:
448,192,100898,1,0,0:0:0:0:
192,192,101085,1,0,0:0:0:0:
64,192,101085,1,0,0:0:0:0:
320,192,101273,1,0,0:0:0:0:
64,192,101273,128,0,101648:0:0:0:0:
448,192,101648,1,0,0:0:0:0:
320,192,101648,1,0,0:0:0:0:
192,192,101835,128,0,102023:0:0:0:0:
448,192,102023,128,0,102679:0:0:0:0:
320,192,102023,128,0,102679:0:0:0:0:
64,192,102085,1,0,0:0:0:0:
192,192,102273,1,0,0:0:0:0:
64,192,102335,1,0,0:0:0:0:
192,192,102491,1,0,0:0:0:0:
64,192,102554,1,0,0:0:0:0:
192,192,102710,1,0,0:0:0:0:
320,192,102773,1,0,0:0:0:0:
64,192,102773,1,0,0:0:0:0:
448,192,102960,1,0,0:0:0:0:
320,192,102960,1,0,0:0:0:0:
192,192,103148,128,0,104023:0:0:0:0:
64,192,103148,128,0,104023:0:0:0:0:
320,192,103210,1,0,0:0:0:0:
448,192,103398,1,0,0:0:0:0:
320,192,103460,1,0,0:0:0:0:
448,192,103648,1,0,0:0:0:0:
320,192,103710,1,0,0:0:0:0:
448,192,103898,1,0,0:0:0:0:
320,192,103960,1,0,0:0:0:0:
192,192,104085,1,0,0:0:0:0:
64,192,104085,1,0,0:0:0:0:
448,192,104273,128,0,104929:0:0:0:0:
64,192,104273,1,0,0:0:0:0:
192,192,104335,1,0,0:0:0:0:
320,192,104523,1,0,0:0:0:0:
192,192,104585,1,0,0:0:0:0:
320,192,104773,1,0,0:0:0:0:
192,192,104835,1,0,0:0:0:0:
192,192,105023,128,0,105585:0:0:0:0:
64,192,105023,128,0,105585:0:0:0:0:
448,192,105085,1,0,0:0:0:0:
320,192,105273,1,0,0:0:0:0:
448,192,105335,1,0,0:0:0:0:
448,192,105585,1,0,0:0:0:0:
320,192,105585,1,0,0:0:0:0:
192,192,105648,1,0,0:0:0:0:
448,192,105773,1,0,0:0:0:0:
64,192,105773,128,0,106429:0:0:0:0:
320,192,105835,1,0,0:0:0:0:
448,192,106148,1,0,0:0:0:0:
192,192,106210,1,0,0:0:0:0:
448,192,106398,1,0,0:0:0:0:
320,192,106460,1,0,0:0:0:0:
192,192,106523,128,0,106804:0:0:0:0:
64,192,106523,128,0,106804:0:0:0:0:
448,192,106835,1,0,0:0:0:0:
192,192,106898,128,0,107179:0:0:0:0:
64,192,106898,128,0,107179:0:0:0:0:
320,192,107210,1,0,0:0:0:0:
448,192,107273,128,0,107460:0:0:0:0:
192,192,107273,1,0,0:0:0:0:
192,192,107460,128,0,107929:0:0:0:0:
64,192,107460,128,0,107929:0:0:0:0:
320,192,107523,1,0,0:0:0:0:
320,192,107835,1,0,0:0:0:0:
448,192,107898,1,0,0:0:0:0:
192,192,108023,1,0,0:0:0:0:
64,192,108023,1,0,0:0:0:0:
448,192,108116,1,0,0:0:0:0:
64,192,108210,1,0,0:0:0:0:
320,192,108304,1,0,0:0:0:0:
192,192,108398,1,0,0:0:0:0:
320,192,108585,128,0,108648:0:0:0:0:
448,192,108773,1,0,0:0:0:0:
64,192,108773,1,0,0:0:0:0:
320,192,108960,128,0,109023:0:0:0:0:
448,192,109148,1,0,0:0:0:0:
320,192,109148,128,0,109210:0:0:0:0:
320,192,109335,1,0,0:0:0:0:
320,192,109429,1,0,0:0:0:0:
64,192,109523,1,0,0:0:0:0:
448,192,109616,1,0,0:0:0:0:
192,192,109710,1,0,0:0:0:0:
64,192,109710,1,0,0:0:0:0:
320,192,109804,1,0,0:0:0:0:
192,192,109898,128,0,109960:0:0:0:0:
64,192,109898,1,0,0:0:0:0:
192,192,110085,128,0,110148:0:0:0:0:
448,192,110273,1,0,0:0:0:0:
64,192,110273,1,0,0:0:0:0:
192,192,110460,128,0,110523:0:0:0:0:
192,192,110648,128,0,110710:0:0:0:0:
64,192,110648,1,0,0:0:0:0:
192,192,110835,1,0,0:0:0:0:
192,192,110929,1,0,0:0:0:0:
320,192,111023,1,0,0:0:0:0:
64,192,111023,1,0,0:0:0:0:
448,192,111116,1,0,0:0:0:0:
64,192,111210,1,0,0:0:0:0:
320,192,111304,1,0,0:0:0:0:
192,192,111398,1,0,0:0:0:0:
448,192,111585,128,0,111648:0:0:0:0:
320,192,111585,1,0,0:0:0:0:
320,192,111773,1,0,0:0:0:0:
64,192,111773,1,0,0:0:0:0:
448,192,111960,128,0,112023:0:0:0:0:
448,192,112148,128,0,112210:0:0:0:0:
192,192,112148,1,0,0:0:0:0:
320,192,112335,1,0,0:0:0:0:
192,192,112523,128,0,112585:0:0:0:0:
64,192,112523,1,0,0:0:0:0:
448,192,112710,1,0,0:0:0:0:
192,192,112898,128,0,112960:0:0:0:0:
64,192,112898,1,0,0:0:0:0:
448,192,113085,1,0,0:0:0:0:
320,192,113273,1,0,0:0:0:0:
64,192,113273,1,0,0:0:0:0:
448,192,113460,1,0,0:0:0:0:
320,192,113460,128,0,113523:0:0:0:0:
192,192,113648,1,0,0:0:0:0:
448,192,113835,1,0,0:0:0:0:
192,192,114023,1,0,0:0:0:0:
64,192,114023,1,0,0:0:0:0:
448,192,114116,1,0,0:0:0:0:
64,192,114210,1,0,0:0:0:0:
320,192,114304,1,0,0:0:0:0:
192,192,114398,128,0,114460:0:0:0:0:
64,192,114398,1,0,0:0:0:0:
320,192,114585,128,0,114648:0:0:0:0:
448,192,114773,1,0,0:0:0:0:
192,192,114773,1,0,0:0:0:0:
448,192,114960,1,0,0:0:0:0:
320,192,114960,128,0,115023:0:0:0:0:
320,192,115148,128,0,115210:0:0:0:0:
448,192,115335,1,0,0:0:0:0:
320,192,115335,1,0,0:0:0:0:
320,192,115429,1,0,0:0:0:0:
64,192,115523,1,0,0:0:0:0:
448,192,115616,1,0,0:0:0:0:
192,192,115710,1,0,0:0:0:0:
64,192,115710,1,0,0:0:0:0:
320,192,115804,1,0,0:0:0:0:
192,192,115898,128,0,115960:0:0:0:0:
192,192,116085,128,0,116148:0:0:0:0:
64,192,116085,1,0,0:0:0:0:
448,192,116273,1,0,0:0:0:0:
64,192,116273,1,0,0:0:0:0:
192,192,116460,128,0,116523:0:0:0:0:
64,192,116460,1,0,0:0:0:0:
192,192,116648,128,0,116710:0:0:0:0:
192,192,116835,128,0,116898:0:0:0:0:
192,192,117023,1,0,0:0:0:0:
64,192,117023,1,0,0:0:0:0:
448,192,117116,1,0,0:0:0:0:
64,192,117210,1,0,0:0:0:0:
320,192,117304,1,0,0:0:0:0:
192,192,117398,128,0,117460:0:0:0:0:
64,192,117398,1,0,0:0:0:0:
448,192,117585,1,0,0:0:0:0:
192,192,117773,1,0,0:0:0:0:
64,192,117773,128,0,117835:0:0:0:0:
448,192,117960,1,0,0:0:0:0:
448,192,118148,1,0,0:0:0:0:
320,192,118148,1,0,0:0:0:0:
192,192,118335,1,0,0:0:0:0:
192,192,118523,128,0,118585:0:0:0:0:
64,192,118523,1,0,0:0:0:0:
448,192,118710,1,0,0:0:0:0:
320,192,118710,1,0,0:0:0:0:
192,192,118898,128,0,118960:0:0:0:0:
64,192,118898,1,0,0:0:0:0:
448,192,119085,1,0,0:0:0:0:
320,192,119085,1,0,0:0:0:0:
192,192,119273,1,0,0:0:0:0:
64,192,119273,1,0,0:0:0:0:
448,192,119366,1,0,0:0:0:0:
320,192,119366,1,0,0:0:0:0:
192,192,119460,1,0,0:0:0:0:
64,192,119460,1,0,0:0:0:0:
448,192,119554,1,0,0:0:0:0:
320,192,119554,1,0,0:0:0:0:
64,192,119648,128,0,120023:0:0:0:0:
320,192,120023,128,0,120116:0:0:0:0:
192,192,120023,1,0,0:0:0:0:
448,192,120398,128,0,120491:0:0:0:0:
64,192,120398,1,0,0:0:0:0:
192,192,120773,128,0,120866:0:0:0:0:
64,192,120773,1,0,0:0:0:0:
320,192,120960,1,0,0:0:0:0:
192,192,121054,1,0,0:0:0:0:
64,192,121054,1,0,0:0:0:0:
448,192,121148,128,0,121241:0:0:0:0:
320,192,121335,1,0,0:0:0:0:
64,192,121335,1,0,0:0:0:0:
448,192,121523,128,0,121616:0:0:0:0:
64,192,121523,1,0,0:0:0:0:
448,192,121898,128,0,121991:0:0:0:0:
320,192,121898,1,0,0:0:0:0:
448,192,122273,1,0,0:0:0:0:
192,192,122273,128,0,122366:0:0:0:0:
64,192,122460,128,0,122554:0:0:0:0:
320,192,122554,1,0,0:0:0:0:
192,192,122554,1,0,0:0:0:0:
448,192,122648,128,0,122741:0:0:0:0:
64,192,122741,1,0,0:0:0:0:
320,192,122835,1,0,0:0:0:0:
192,192,122835,1,0,0:0:0:0:
64,192,122929,1,0,0:0:0:0:
448,192,123023,1,0,0:0:0:0:
320,192,123023,128,0,123116:0:0:0:0:
448,192,123398,128,0,123491:0:0:0:0:
64,192,123398,1,0,0:0:0:0:
192,192,123773,128,0,123866:0:0:0:0:
64,192,123773,1,0,0:0:0:0:
320,192,123960,1,0,0:0:0:0:
448,192,124054,1,0,0:0:0:0:
192,192,124054,1,0,0:0:0:0:
64,192,124148,128,0,124335:0:0:0:0:
320,192,124335,1,0,0:0:0:0:
192,192,124335,1,0,0:0:0:0:
448,192,124523,128,0,124616:0:0:0:0:
320,192,124523,1,0,0:0:0:0:
448,192,124898,128,0,124991:0:0:0:0:
64,192,124898,1,0,0:0:0:0:
320,192,125273,1,0,0:0:0:0:
192,192,125273,128,0,125366:0:0:0:0:
64,192,125366,1,0,0:0:0:0:
320,192,125460,1,0,0:0:0:0:
192,192,125554,1,0,0:0:0:0:
64,192,125554,1,0,0:0:0:0:
448,192,125648,128,0,125741:0:0:0:0:
192,192,125741,1,0,0:0:0:0:
320,192,125835,1,0,0:0:0:0:
64,192,125835,1,0,0:0:0:0:
320,192,125929,1,0,0:0:0:0:
448,192,126023,1,0,0:0:0:0:
192,192,126023,1,0,0:0:0:0:
64,192,126023,128,0,126210:0:0:0:0:
448,192,126398,128,0,126491:0:0:0:0:
320,192,126398,1,0,0:0:0:0:
64,192,126585,1,0,0:0:0:0:
448,192,126773,1,0,0:0:0:0:
192,192,126773,128,0,126866:0:0:0:0:
320,192,126960,128,0,127054:0:0:0:0:
192,192,127054,1,0,0:0:0:0:
64,192,127054,1,0,0:0:0:0:
448,192,127148,128,0,127335:0:0:0:0:
320,192,127148,1,0,0:0:0:0:
192,192,127335,1,0,0:0:0:0:
64,192,127335,1,0,0:0:0:0:
448,192,127523,128,0,127616:0:0:0:0:
320,192,127523,1,0,0:0:0:0:
64,192,127710,1,0,0:0:0:0:
448,192,127898,128,0,127991:0:0:0:0:
320,192,127898,1,0,0:0:0:0:
64,192,128085,1,0,0:0:0:0:
448,192,128273,1,0,0:0:0:0:
320,192,128273,1,0,0:0:0:0:
192,192,128273,128,0,128460:0:0:0:0:
320,192,128460,1,0,0:0:0:0:
192,192,128554,1,0,0:0:0:0:
64,192,128554,1,0,0:0:0:0:
448,192,128648,128,0,128741:0:0:0:0:
192,192,128741,1,0,0:0:0:0:
320,192,128835,1,0,0:0:0:0:
64,192,128835,1,0,0:0:0:0:
192,192,128929,1,0,0:0:0:0:
448,192,129023,1,0,0:0:0:0:
320,192,129023,128,0,129210:0:0:0:0:
64,192,129023,1,0,0:0:0:0:
192,192,129210,1,0,0:0:0:0:
448,192,129398,128,0,129491:0:0:0:0:
320,192,129398,1,0,0:0:0:0:
64,192,129585,1,0,0:0:0:0:
448,192,129773,1,0,0:0:0:0:
192,192,129773,128,0,129866:0:0:0:0:
64,192,129960,1,0,0:0:0:0:
448,192,130054,1,0,0:0:0:0:
64,192,130054,1,0,0:0:0:0:
192,192,130148,128,0,130335:0:0:0:0:
448,192,130335,1,0,0:0:0:0:
320,192,130335,1,0,0:0:0:0:
64,192,130523,1,0,0:0:0:0:
448,192,130616,1,0,0:0:0:0:
192,192,130710,1,0,0:0:0:0:
448,192,130804,1,0,0:0:0:0:
320,192,130898,1,0,0:0:0:0:
192,192,130991,1,0,0:0:0:0:
320,192,131085,1,0,0:0:0:0:
320,192,131179,1,0,0:0:0:0:
192,192,131273,1,0,0:0:0:0:
448,192,131366,1,0,0:0:0:0:
192,192,131460,1,0,0:0:0:0:
448,192,131554,1,0,0:0:0:0:
320,192,131648,1,0,0:0:0:0:
64,192,131648,1,0,0:0:0:0:
320,192,131741,1,0,0:0:0:0:
448,192,131835,1,0,0:0:0:0:
192,192,131835,1,0,0:0:0:0:
192,192,131929,1,0,0:0:0:0:
448,192,132023,128,0,132210:0:0:0:0:
320,192,132023,1,0,0:0:0:0:
64,192,132023,1,0,0:0:0:0:
320,192,132210,1,0,0:0:0:0:
192,192,132398,1,0,0:0:0:0:
64,192,132398,128,0,132491:0:0:0:0:
64,192,132585,1,0,0:0:0:0:
448,192,132773,1,0,0:0:0:0:
192,192,132773,128,0,132866:0:0:0:0:
192,192,132960,1,0,0:0:0:0:
320,192,133054,1,0,0:0:0:0:
64,192,133054,1,0,0:0:0:0:
448,192,133148,128,0,133241:0:0:0:0:
320,192,133241,1,0,0:0:0:0:
192,192,133335,1,0,0:0:0:0:
64,192,133335,1,0,0:0:0:0:
64,192,133429,1,0,0:0:0:0:
448,192,133523,128,0,133616:0:0:0:0:
192,192,133523,1,0,0:0:0:0:
448,192,133710,1,0,0:0:0:0:
320,192,133898,1,0,0:0:0:0:
192,192,133898,128,0,133991:0:0:0:0:
320,192,134085,1,0,0:0:0:0:
448,192,134273,1,0,0:0:0:0:
192,192,134273,128,0,134366:0:0:0:0:
320,192,134366,1,0,0:0:0:0:
192,192,134460,1,0,0:0:0:0:
448,192,134554,1,0,0:0:0:0:
64,192,134554,1,0,0:0:0:0:
320,192,134648,1,0,0:0:0:0:
320,192,134741,1,0,0:0:0:0:
192,192,134835,1,0,0:0:0:0:
64,192,134835,1,0,0:0:0:0:
192,192,134929,1,0,0:0:0:0:
448,192,135023,1,0,0:0:0:0:
320,192,135023,1,0,0:0:0:0:
64,192,135023,128,0,135210:0:0:0:0:
320,192,135210,1,0,0:0:0:0:
448,192,135398,128,0,135491:0:0:0:0:
192,192,135398,1,0,0:0:0:0:
448,192,135585,1,0,0:0:0:0:
320,192,135773,1,0,0:0:0:0:
192,192,135773,128,0,135866:0:0:0:0:
320,192,135960,128,0,136054:0:0:0:0:
448,192,136054,1,0,0:0:0:0:
64,192,136054,1,0,0:0:0:0:
192,192,136148,128,0,136335:0:0:0:0:
448,192,136335,1,0,0:0:0:0:
64,192,136335,1,0,0:0:0:0:
64,192,136429,1,0,0:0:0:0:
448,192,136523,128,0,136616:0:0:0:0:
320,192,136523,1,0,0:0:0:0:
320,192,136710,1,0,0:0:0:0:
448,192,136898,128,0,136991:0:0:0:0:
192,192,136898,1,0,0:0:0:0:
448,192,137085,1,0,0:0:0:0:
192,192,137273,128,0,137366:0:0:0:0:
64,192,137273,1,0,0:0:0:0:
64,192,137460,1,0,0:0:0:0:
448,192,137554,1,0,0:0:0:0:
320,192,137554,1,0,0:0:0:0:
192,192,137648,1,0,0:0:0:0:
192,192,137741,1,0,0:0:0:0:
320,192,137835,1,0,0:0:0:0:
64,192,137835,1,0,0:0:0:0:
320,192,137929,1,0,0:0:0:0:
448,192,138023,1,0,0:0:0:0:
192,192,138023,1,0,0:0:0:0:
64,192,138023,128,0,138210:0:0:0:0:
320,192,138116,1,0,0:0:0:0:
192,192,138210,1,0,0:0:0:0:
320,192,138304,1,0,0:0:0:0:
448,192,138398,128,0,138491:0:0:0:0:
64,192,138398,1,0,0:0:0:0:
192,192,138491,1,0,0:0:0:0:
448,192,138585,1,0,0:0:0:0:
64,192,138679,1,0,0:0:0:0:
320,192,138773,1,0,0:0:0:0:
192,192,138773,128,0,138866:0:0:0:0:
64,192,138866,1,0,0:0:0:0:
320,192,138960,1,0,0:0:0:0:
192,192,139054,1,0,0:0:0:0:
64,192,139054,1,0,0:0:0:0:
448,192,139148,128,0,139241:0:0:0:0:
192,192,139241,1,0,0:0:0:0:
320,192,139335,1,0,0:0:0:0:
64,192,139335,1,0,0:0:0:0:
192,192,139429,1,0,0:0:0:0:
448,192,139523,128,0,139616:0:0:0:0:
320,192,139523,1,0,0:0:0:0:
64,192,139616,1,0,0:0:0:0:
320,192,139710,1,0,0:0:0:0:
448,192,139804,1,0,0:0:0:0:
192,192,139898,128,0,139991:0:0:0:0:
64,192,139898,1,0,0:0:0:0:
448,192,139991,1,0,0:0:0:0:
320,192,140085,1,0,0:0:0:0:
64,192,140179,1,0,0:0:0:0:
320,192,140273,1,0,0:0:0:0:
192,192,140273,128,0,140366:0:0:0:0:
448,192,140366,1,0,0:0:0:0:
192,192,140460,1,0,0:0:0:0:
320,192,140554,1,0,0:0:0:0:
64,192,140554,1,0,0:0:0:0:
448,192,140648,128,0,140741:0:0:0:0:
192,192,140741,1,0,0:0:0:0:
448,192,140835,1,0,0:0:0:0:
320,192,140835,1,0,0:0:0:0:
64,192,140929,1,0,0:0:0:0:
448,192,141023,1,0,0:0:0:0:
192,192,141023,128,0,141210:0:0:0:0:
320,192,141116,1,0,0:0:0:0:
64,192,141210,1,0,0:0:0:0:
320,192,141304,1,0,0:0:0:0:
448,192,141398,128,0,141491:0:0:0:0:
64,192,141398,1,0,0:0:0:0:
192,192,141491,1,0,0:0:0:0:
320,192,141585,1,0,0:0:0:0:
320,192,141679,1,0,0:0:0:0:
192,192,141773,128,0,141960:0:0:0:0:
64,192,141773,1,0,0:0:0:0:
448,192,141866,1,0,0:0:0:0:
64,192,141960,1,0,0:0:0:0:
448,192,142054,1,0,0:0:0:0:
320,192,142054,1,0,0:0:0:0:
192,192,142148,128,0,142241:0:0:0:0:
320,192,142241,1,0,0:0:0:0:
448,192,142335,1,0,0:0:0:0:
64,192,142335,1,0,0:0:0:0:
192,192,142429,1,0,0:0:0:0:
448,192,142523,128,0,142710:0:0:0:0:
320,192,142616,1,0,0:0:0:0:
192,192,142710,1,0,0:0:0:0:
64,192,142804,1,0,0:0:0:0:
448,192,142898,128,0,142991:0:0:0:0:
320,192,142991,1,0,0:0:0:0:
64,192,143085,1,0,0:0:0:0:
448,192,143179,1,0,0:0:0:0:
192,192,143273,128,0,143366:0:0:0:0:
64,192,143366,1,0,0:0:0:0:
320,192,143460,1,0,0:0:0:0:
192,192,143554,1,0,0:0:0:0:
448,192,143648,128,0,143741:0:0:0:0:
320,192,143741,1,0,0:0:0:0:
192,192,143835,1,0,0:0:0:0:
64,192,143929,1,0,0:0:0:0:
448,192,144023,1,0,0:0:0:0:
320,192,144023,1,0,0:0:0:0:
192,192,144116,1,0,0:0:0:0:
64,192,144210,1,0,0:0:0:0:
320,192,144304,1,0,0:0:0:0:
448,192,144398,1,0,0:0:0:0:
192,192,144398,1,0,0:0:0:0:
320,192,144491,1,0,0:0:0:0:
192,192,144585,1,0,0:0:0:0:
64,192,144679,1,0,0:0:0:0:
448,192,144773,1,0,0:0:0:0:
320,192,144773,1,0,0:0:0:0:
192,192,144866,1,0,0:0:0:0:
64,192,144960,1,0,0:0:0:0:
448,192,145054,1,0,0:0:0:0:
320,192,145054,1,0,0:0:0:0:
192,192,145148,1,0,0:0:0:0:
320,192,145241,1,0,0:0:0:0:
448,192,145335,1,0,0:0:0:0:
192,192,145335,1,0,0:0:0:0:
64,192,145429,1,0,0:0:0:0:
448,192,145523,1,0,0:0:0:0:
320,192,145523,1,0,0:0:0:0:
192,192,145616,1,0,0:0:0:0:
64,192,145710,1,0,0:0:0:0:
320,192,145804,1,0,0:0:0:0:
448,192,145898,1,0,0:0:0:0:
192,192,145898,1,0,0:0:0:0:
320,192,145991,1,0,0:0:0:0:
192,192,146085,1,0,0:0:0:0:
64,192,146179,1,0,0:0:0:0:
448,192,146273,1,0,0:0:0:0:
320,192,146273,1,0,0:0:0:0:
64,192,146366,1,0,0:0:0:0:
192,192,146460,1,0,0:0:0:0:
448,192,146554,1,0,0:0:0:0:
320,192,146554,1,0,0:0:0:0:
192,192,146648,1,0,0:0:0:0:
320,192,146741,1,0,0:0:0:0:
448,192,146835,1,0,0:0:0:0:
64,192,146835,1,0,0:0:0:0:
192,192,146929,1,0,0:0:0:0:
448,192,147023,1,0,0:0:0:0:
320,192,147023,1,0,0:0:0:0:
192,192,147116,1,0,0:0:0:0:
64,192,147210,1,0,0:0:0:0:
448,192,147304,1,0,0:0:0:0:
320,192,147398,1,0,0:0:0:0:
192,192,147398,1,0,0:0:0:0:
448,192,147491,1,0,0:0:0:0:
192,192,147585,1,0,0:0:0:0:
64,192,147679,1,0,0:0:0:0:
448,192,147773,1,0,0:0:0:0:
320,192,147773,1,0,0:0:0:0:
192,192,147866,1,0,0:0:0:0:
64,192,147960,1,0,0:0:0:0:
448,192,148054,1,0,0:0:0:0:
320,192,148054,1,0,0:0:0:0:
192,192,148148,1,0,0:0:0:0:
448,192,148241,1,0,0:0:0:0:
320,192,148335,1,0,0:0:0:0:
192,192,148335,1,0,0:0:0:0:
64,192,148429,1,0,0:0:0:0:
448,192,148523,1,0,0:0:0:0:
320,192,148523,1,0,0:0:0:0:
64,192,148616,1,0,0:0:0:0:
192,192,148710,1,0,0:0:0:0:
320,192,148804,1,0,0:0:0:0:
448,192,148898,1,0,0:0:0:0:
192,192,148898,1,0,0:0:0:0:
320,192,148991,1,0,0:0:0:0:
64,192,149085,1,0,0:0:0:0:
192,192,149179,1,0,0:0:0:0:
448,192,149273,1,0,0:0:0:0:
320,192,149273,1,0,0:0:0:0:
192,192,149366,1,0,0:0:0:0:
64,192,149460,1,0,0:0:0:0:
448,192,149554,1,0,0:0:0:0:
320,192,149554,1,0,0:0:0:0:
192,192,149648,1,0,0:0:0:0:
192,192,149741,1,0,0:0:0:0:
320,192,149835,1,0,0:0:0:0:
64,192,149835,1,0,0:0:0:0:
64,192,149929,1,0,0:0:0:0:
448,192,150023,128,0,150210:0:0:0:0:
320,192,150023,1,0,0:0:0:0:
192,192,150116,1,0,0:0:0:0:
64,192,150210,1,0,0:0:0:0:
320,192,150304,1,0,0:0:0:0:
448,192,150398,1,0,0:0:0:0:
192,192,150398,1,0,0:0:0:0:
320,192,150491,1,0,0:0:0:0:
192,192,150585,1,0,0:0:0:0:
64,192,150679,1,0,0:0:0:0:
448,192,150773,1,0,0:0:0:0:
320,192,150773,1,0,0:0:0:0:
192,192,150866,1,0,0:0:0:0:
64,192,150960,1,0,0:0:0:0:
448,192,151054,1,0,0:0:0:0:
320,192,151054,1,0,0:0:0:0:
192,192,151148,128,0,151241:0:0:0:0:
320,192,151241,1,0,0:0:0:0:
448,192,151335,1,0,0:0:0:0:
192,192,151335,1,0,0:0:0:0:
64,192,151429,1,0,0:0:0:0:
448,192,151523,1,0,0:0:0:0:
320,192,151523,1,0,0:0:0:0:
192,192,151616,1,0,0:0:0:0:
64,192,151710,1,0,0:0:0:0:
320,192,151804,1,0,0:0:0:0:
448,192,151898,1,0,0:0:0:0:
192,192,151898,1,0,0:0:0:0:
320,192,151991,1,0,0:0:0:0:
192,192,152085,1,0,0:0:0:0:
64,192,152179,1,0,0:0:0:0:
448,192,152273,128,0,152460:0:0:0:0:
320,192,152273,1,0,0:0:0:0:
64,192,152366,1,0,0:0:0:0:
192,192,152460,1,0,0:0:0:0:
448,192,152554,1,0,0:0:0:0:
320,192,152554,1,0,0:0:0:0:
192,192,152648,1,0,0:0:0:0:
192,192,152741,1,0,0:0:0:0:
448,192,152835,1,0,0:0:0:0:
64,192,152835,1,0,0:0:0:0:
64,192,152929,1,0,0:0:0:0:
448,192,153023,128,0,153210:0:0:0:0:
320,192,153023,1,0,0:0:0:0:
192,192,153116,1,0,0:0:0:0:
64,192,153210,1,0,0:0:0:0:
320,192,153304,1,0,0:0:0:0:
448,192,153398,1,0,0:0:0:0:
192,192,153398,1,0,0:0:0:0:
320,192,153491,1,0,0:0:0:0:
192,192,153585,1,0,0:0:0:0:
64,192,153679,1,0,0:0:0:0:
448,192,153773,1,0,0:0:0:0:
320,192,153773,1,0,0:0:0:0:
64,192,153866,1,0,0:0:0:0:
192,192,153960,1,0,0:0:0:0:
448,192,154054,1,0,0:0:0:0:
320,192,154054,1,0,0:0:0:0:
192,192,154148,128,0,154335:0:0:0:0:
320,192,154241,1,0,0:0:0:0:
448,192,154335,1,0,0:0:0:0:
64,192,154335,1,0,0:0:0:0:
192,192,154429,1,0,0:0:0:0:
320,192,154523,1,0,0:0:0:0:
64,192,154616,1,0,0:0:0:0:
192,192,154710,1,0,0:0:0:0:
320,192,154804,1,0,0:0:0:0:
448,192,154898,1,0,0:0:0:0:
64,192,154991,1,0,0:0:0:0:
192,192,155085,1,0,0:0:0:0:
320,192,155179,1,0,0:0:0:0:
448,192,155273,1,0,0:0:0:0:
192,192,155366,1,0,0:0:0:0:
320,192,155460,1,0,0:0:0:0:
192,192,155554,1,0,0:0:0:0:
448,192,155648,128,0,155835:0:0:0:0:
64,192,155741,1,0,0:0:0:0:
192,192,155929,1,0,0:0:0:0:
448,192,156023,1,0,0:0:0:0:
320,192,156023,1,0,0:0:0:0:
192,192,156116,1,0,0:0:0:0:
64,192,156210,1,0,0:0:0:0:
320,192,156304,1,0,0:0:0:0:
448,192,156398,1,0,0:0:0:0:
64,192,156398,1,0,0:0:0:0:
320,192,156491,1,0,0:0:0:0:
192,192,156585,1,0,0:0:0:0:
64,192,156679,1,0,0:0:0:0:
448,192,156773,1,0,0:0:0:0:
320,192,156773,1,0,0:0:0:0:
192,192,156866,1,0,0:0:0:0:
64,192,156960,1,0,0:0:0:0:
448,192,157054,1,0,0:0:0:0:
320,192,157054,1,0,0:0:0:0:
64,192,157148,1,0,0:0:0:0:
320,192,157241,1,0,0:0:0:0:
448,192,157335,1,0,0:0:0:0:
192,192,157335,1,0,0:0:0:0:
192,192,157429,1,0,0:0:0:0:
448,192,157523,1,0,0:0:0:0:
320,192,157523,1,0,0:0:0:0:
192,192,157616,1,0,0:0:0:0:
64,192,157710,1,0,0:0:0:0:
320,192,157804,1,0,0:0:0:0:
448,192,157898,1,0,0:0:0:0:
64,192,157898,1,0,0:0:0:0:
320,192,157991,1,0,0:0:0:0:
192,192,158085,1,0,0:0:0:0:
64,192,158179,1,0,0:0:0:0:
448,192,158273,1,0,0:0:0:0:
320,192,158273,1,0,0:0:0:0:
192,192,158366,1,0,0:0:0:0:
64,192,158460,1,0,0:0:0:0:
448,192,158554,1,0,0:0:0:0:
320,192,158554,1,0,0:0:0:0:
192,192,158648,128,0,158741:0:0:0:0:
64,192,158648,1,0,0:0:0:0:
320,192,158741,1,0,0:0:0:0:
448,192,158835,1,0,0:0:0:0:
192,192,158835,128,0,158929:0:0:0:0:
64,192,158929,1,0,0:0:0:0:
448,192,159023,128,0,159210:0:0:0:0:
320,192,159023,1,0,0:0:0:0:
64,192,159116,1,0,0:0:0:0:
192,192,159210,1,0,0:0:0:0:
448,192,159304,1,0,0:0:0:0:
320,192,159398,1,0,0:0:0:0:
192,192,159398,1,0,0:0:0:0:
448,192,159491,1,0,0:0:0:0:
64,192,159585,1,0,0:0:0:0:
192,192,159679,1,0,0:0:0:0:
448,192,159773,1,0,0:0:0:0:
320,192,159773,1,0,0:0:0:0:
64,192,159866,1,0,0:0:0:0:
192,192,159960,1,0,0:0:0:0:
448,192,160054,1,0,0:0:0:0:
320,192,160054,1,0,0:0:0:0:
64,192,160148,128,0,160335:0:0:0:0:
320,192,160241,1,0,0:0:0:0:
448,192,160335,1,0,0:0:0:0:
192,192,160335,1,0,0:0:0:0:
192,192,160429,1,0,0:0:0:0:
448,192,160523,1,0,0:0:0:0:
320,192,160523,1,0,0:0:0:0:
64,192,160616,1,0,0:0:0:0:
192,192,160710,1,0,0:0:0:0:
320,192,160804,1,0,0:0:0:0:
448,192,160898,1,0,0:0:0:0:
64,192,160898,1,0,0:0:0:0:
192,192,160991,1,0,0:0:0:0:
64,192,161085,1,0,0:0:0:0:
192,192,161179,1,0,0:0:0:0:
448,192,161273,1,0,0:0:0:0:
320,192,161273,1,0,0:0:0:0:
64,192,161366,1,0,0:0:0:0:
192,192,161460,1,0,0:0:0:0:
448,192,161554,1,0,0:0:0:0:
320,192,161554,1,0,0:0:0:0:
64,192,161648,1,0,0:0:0:0:
64,192,161741,1,0,0:0:0:0:
320,192,161835,1,0,0:0:0:0:
192,192,161835,1,0,0:0:0:0:
192,192,161929,1,0,0:0:0:0:
448,192,162023,128,0,162210:0:0:0:0:
320,192,162023,1,0,0:0:0:0:
192,192,162116,1,0,0:0:0:0:
64,192,162210,1,0,0:0:0:0:
320,192,162304,1,0,0:0:0:0:
448,192,162398,1,0,0:0:0:0:
192,192,162398,1,0,0:0:0:0:
320,192,162491,1,0,0:0:0:0:
64,192,162585,1,0,0:0:0:0:
192,192,162679,1,0,0:0:0:0:
448,192,162773,1,0,0:0:0:0:
320,192,162773,1,0,0:0:0:0:
192,192,162866,1,0,0:0:0:0:
64,192,162960,1,0,0:0:0:0:
448,192,163054,1,0,0:0:0:0:
320,192,163054,1,0,0:0:0:0:
64,192,163148,128,0,163335:0:0:0:0:
320,192,163241,1,0,0:0:0:0:
448,192,163335,1,0,0:0:0:0:
192,192,163335,1,0,0:0:0:0:
192,192,163429,1,0,0:0:0:0:
448,192,163523,1,0,0:0:0:0:
320,192,163523,1,0,0:0:0:0:
192,192,163616,1,0,0:0:0:0:
64,192,163710,1,0,0:0:0:0:
320,192,163804,1,0,0:0:0:0:
448,192,163898,1,0,0:0:0:0:
192,192,163898,1,0,0:0:0:0:
320,192,163991,1,0,0:0:0:0:
64,192,164085,1,0,0:0:0:0:
192,192,164179,1,0,0:0:0:0:
448,192,164273,1,0,0:0:0:0:
320,192,164273,1,0,0:0:0:0:
192,192,164366,1,0,0:0:0:0:
64,192,164460,1,0,0:0:0:0:
448,192,164554,1,0,0:0:0:0:
320,192,164554,1,0,0:0:0:0:
192,192,164648,1,0,0:0:0:0:
192,192,164741,1,0,0:0:0:0:
320,192,164835,1,0,0:0:0:0:
64,192,164835,1,0,0:0:0:0:
64,192,164929,1,0,0:0:0:0:
448,192,165023,128,0,165210:0:0:0:0:
320,192,165023,1,0,0:0:0:0:
192,192,165116,1,0,0:0:0:0:
64,192,165210,1,0,0:0:0:0:
320,192,165304,1,0,0:0:0:0:
448,192,165398,1,0,0:0:0:0:
64,192,165398,1,0,0:0:0:0:
320,192,165491,1,0,0:0:0:0:
192,192,165585,128,0,165773:0:0:0:0:
64,192,165679,1,0,0:0:0:0:
448,192,165773,1,0,0:0:0:0:
320,192,165773,1,0,0:0:0:0:
192,192,165866,1,0,0:0:0:0:
64,192,165960,1,0,0:0:0:0:
448,192,166054,1,0,0:0:0:0:
320,192,166054,1,0,0:0:0:0:
64,192,166148,128,0,166335:0:0:0:0:
320,192,166241,1,0,0:0:0:0:
448,192,166335,1,0,0:0:0:0:
192,192,166335,1,0,0:0:0:0:
192,192,166429,1,0,0:0:0:0:
64,192,166523,1,0,0:0:0:0:
192,192,166616,1,0,0:0:0:0:
448,192,166710,1,0,0:0:0:0:
320,192,166804,1,0,0:0:0:0:
64,192,166898,1,0,0:0:0:0:
192,192,166991,1,0,0:0:0:0:
448,192,167085,1,0,0:0:0:0:
320,192,167179,1,0,0:0:0:0:
64,192,167273,128,0,167460:0:0:0:0:
192,192,167366,1,0,0:0:0:0:
448,192,167460,1,0,0:0:0:0:
320,192,167554,1,0,0:0:0:0:
64,192,167648,1,0,0:0:0:0:
448,192,167741,1,0,0:0:0:0:
320,192,167835,1,0,0:0:0:0:
192,192,167835,1,0,0:0:0:0:
64,192,167929,1,0,0:0:0:0:
448,192,168023,1,0,0:0:0:0:
320,192,168023,1,0,0:0:0:0:
