osu file format v14

[General]
AudioFilename: audio.mp3
AudioLeadIn: 0
PreviewTime: 109809
Countdown: 0
SampleSet: Soft
StackLeniency: 0.7
Mode: 3
LetterboxInBreaks: 0
SpecialStyle: 0
WidescreenStoryboard: 1

[Editor]
Bookmarks: 1809,25809,49809,61809,73809,97809,109809,121809,145809,169809
DistanceSpacing: 0.3
BeatDivisor: 4
GridSize: 16
TimelineZoom: 1.4

[Metadata]
Title:me & u
TitleUnicode:me & u
Artist:succducc
ArtistUnicode:succducc
Creator:NightNarumi
Version:Normal
Source:
Tags:cassie me and you
BeatmapID:1697110
BeatmapSetID:808720

[Difficulty]
HPDrainRate:7.5
CircleSize:4
OverallDifficulty:7
ApproachRate:5
SliderMultiplier:1.4
SliderTickRate:1

[Events]
//Background and Video events
0,0,"Image.png",0,0
//Break Periods
//Storyboard Layer 0 (Background)
//Storyboard Layer 1 (Fail)
//Storyboard Layer 2 (Pass)
//Storyboard Layer 3 (Foreground)
//Storyboard Layer 4 (Overlay)
//Storyboard Sound Samples

[TimingPoints]
1809,375,4,2,0,20,1,0
109809,-100,4,2,0,20,0,1
121809,-100,4,2,0,20,0,0
145809,-100,4,2,0,20,0,1
169809,-100,4,2,0,20,0,0

[HitObjects]
448,192,1809,128,0,2184:0:0:0:0:
64,192,2184,1,0,0:0:0:0:
320,192,2371,1,0,0:0:0:0:
192,192,2559,1,0,0:0:0:0:
448,192,2746,128,0,2934:0:0:0:0:
320,192,2934,1,0,0:0:0:0:
64,192,3121,128,0,3309:0:0:0:0:
448,192,3309,1,0,0:0:0:0:
192,192,3496,128,0,3684:0:0:0:0:
320,192,3684,1,0,0:0:0:0:
64,192,3871,1,0,0:0:0:0:
320,192,4059,128,0,4434:0:0:0:0:
192,192,4246,1,0,0:0:0:0:
448,192,4434,128,0,4809:0:0:0:0:
192,192,4809,128,0,5184:0:0:0:0:
64,192,5184,128,0,5559:0:0:0:0:
448,192,5559,1,0,0:0:0:0:
192,192,5746,128,0,5934:0:0:0:0:
64,192,5934,1,0,0:0:0:0:
320,192,6121,128,0,6309:0:0:0:0:
448,192,6309,128,0,6590:0:0:0:0:
64,192,6590,128,0,6871:0:0:0:0:
448,192,6871,128,0,7059:0:0:0:0:
192,192,7059,128,0,7434:0:0:0:0:
320,192,7246,1,0,0:0:0:0:
448,192,7434,128,0,7809:0:0:0:0:
320,192,7809,128,0,8184:0:0:0:0:
192,192,7809,1,0,0:0:0:0:
64,192,8184,1,0,0:0:0:0:
448,192,8184,128,0,8371:0:0:0:0:
64,192,8559,1,0,0:0:0:0:
64,192,8934,1,0,0:0:0:0:
448,192,9309,1,0,0:0:0:0:
64,192,9684,1,0,0:0:0:0:
320,192,10059,128,0,10434:0:0:0:0:
64,192,10059,1,0,0:0:0:0:
448,192,10434,128,0,10809:0:0:0:0:
64,192,10434,1,0,0:0:0:0:
64,192,10809,128,0,11559:0:0:0:0:
448,192,11559,128,0,12309:0:0:0:0:
192,192,12309,128,0,12684:0:0:0:0:
320,192,12684,128,0,13059:0:0:0:0:
64,192,13059,128,0,13434:0:0:0:0:
448,192,13434,128,0,13809:0:0:0:0:
192,192,13809,128,0,14184:0:0:0:0:
320,192,14184,1,0,0:0:0:0:
448,192,14371,1,0,0:0:0:0:
64,192,14559,1,0,0:0:0:0:
192,192,14746,1,0,0:0:0:0:
64,192,14934,1,0,0:0:0:0:
320,192,15121,128,0,15309:0:0:0:0:
448,192,15309,1,0,0:0:0:0:
192,192,15496,1,0,0:0:0:0:
64,192,15684,128,0,16059:0:0:0:0:
448,192,15871,1,0,0:0:0:0:
192,192,16059,128,0,16434:0:0:0:0:
320,192,16246,1,0,0:0:0:0:
448,192,16434,128,0,16809:0:0:0:0:
64,192,16809,128,0,17184:0:0:0:0:
192,192,17184,1,0,0:0:0:0:
320,192,17371,1,0,0:0:0:0:
64,192,17559,1,0,0:0:0:0:
448,192,17746,1,0,0:0:0:0:
192,192,17934,1,0,0:0:0:0:
320,192,18121,128,0,18309:0:0:0:0:
64,192,18309,128,0,18684:0:0:0:0:
448,192,18496,1,0,0:0:0:0:
192,192,18684,128,0,19059:0:0:0:0:
320,192,18871,1,0,0:0:0:0:
448,192,19059,128,0,19434:0:0:0:0:
64,192,19246,1,0,0:0:0:0:
320,192,19434,128,0,19809:0:0:0:0:
64,192,19809,1,0,0:0:0:0:
448,192,20184,1,0,0:0:0:0:
192,192,20184,1,0,0:0:0:0:
320,192,20559,1,0,0:0:0:0:
192,192,20934,1,0,0:0:0:0:
64,192,20934,1,0,0:0:0:0:
448,192,21309,1,0,0:0:0:0:
192,192,21684,1,0,0:0:0:0:
320,192,21684,1,0,0:0:0:0:
64,192,22059,1,0,0:0:0:0:
448,192,22434,1,0,0:0:0:0:
320,192,22434,1,0,0:0:0:0:
64,192,22809,1,0,0:0:0:0:
448,192,22996,1,0,0:0:0:0:
64,192,23184,1,0,0:0:0:0:
448,192,23371,1,0,0:0:0:0:
192,192,23559,1,0,0:0:0:0:
320,192,23746,1,0,0:0:0:0:
192,192,23934,1,0,0:0:0:0:
320,192,24121,1,0,0:0:0:0:
448,192,24309,1,0,0:0:0:0:
320,192,24402,1,0,0:0:0:0:
192,192,24496,1,0,0:0:0:0:
64,192,24590,1,0,0:0:0:0:
448,192,24684,1,0,0:0:0:0:
320,192,24777,1,0,0:0:0:0:
192,192,24871,1,0,0:0:0:0:
448,192,24965,1,0,0:0:0:0:
64,192,25059,1,0,0:0:0:0:
192,192,25152,1,0,0:0:0:0:
320,192,25246,1,0,0:0:0:0:
448,192,25340,1,0,0:0:0:0:
64,192,25434,1,0,0:0:0:0:
192,192,25527,1,0,0:0:0:0:
320,192,25621,1,0,0:0:0:0:
64,192,25715,1,0,0:0:0:0:
192,192,25809,1,0,0:0:0:0:
64,192,26184,1,0,0:0:0:0:
448,192,26559,1,0,0:0:0:0:
448,192,26840,1,0,0:0:0:0:
192,192,27027,1,0,0:0:0:0:
320,192,27121,1,0,0:0:0:0:
448,192,27215,1,0,0:0:0:0:
64,192,27309,1,0,0:0:0:0:
320,192,27684,1,0,0:0:0:0:
192,192,28059,1,0,0:0:0:0:
192,192,28340,1,0,0:0:0:0:
448,192,28434,1,0,0:0:0:0:
320,192,28527,1,0,0:0:0:0:
192,192,28621,1,0,0:0:0:0:
64,192,28715,1,0,0:0:0:0:
448,192,28809,1,0,0:0:0:0:
320,192,29184,1,0,0:0:0:0:
64,192,29559,128,0,29746:0:0:0:0:
448,192,29746,1,0,0:0:0:0:
192,192,29840,1,0,0:0:0:0:
320,192,29934,128,0,30121:0:0:0:0:
64,192,30121,1,0,0:0:0:0:
192,192,30309,1,0,0:0:0:0:
448,192,30684,1,0,0:0:0:0:
64,192,31059,1,0,0:0:0:0:
64,192,31340,1,0,0:0:0:0:
192,192,31434,1,0,0:0:0:0:
448,192,31527,1,0,0:0:0:0:
320,192,31621,1,0,0:0:0:0:
192,192,31715,1,0,0:0:0:0:
64,192,31809,1,0,0:0:0:0:
320,192,31996,1,0,0:0:0:0:
64,192,32184,1,0,0:0:0:0:
320,192,32371,1,0,0:0:0:0:
448,192,32559,1,0,0:0:0:0:
192,192,32840,1,0,0:0:0:0:
448,192,32934,1,0,0:0:0:0:
192,192,33121,1,0,0:0:0:0:
320,192,33215,1,0,0:0:0:0:
448,192,33309,1,0,0:0:0:0:
64,192,33496,1,0,0:0:0:0:
448,192,33684,1,0,0:0:0:0:
64,192,33871,1,0,0:0:0:0:
192,192,34059,1,0,0:0:0:0:
320,192,34246,1,0,0:0:0:0:
192,192,34434,1,0,0:0:0:0:
448,192,34527,1,0,0:0:0:0:
64,192,34621,1,0,0:0:0:0:
192,192,34715,1,0,0:0:0:0:
320,192,34809,128,0,34996:0:0:0:0:
64,192,34996,1,0,0:0:0:0:
320,192,35184,128,0,35371:0:0:0:0:
64,192,35371,1,0,0:0:0:0:
192,192,35559,128,0,35746:0:0:0:0:
448,192,35746,1,0,0:0:0:0:
192,192,35934,128,0,36121:0:0:0:0:
448,192,36121,1,0,0:0:0:0:
320,192,36215,1,0,0:0:0:0:
64,192,36309,128,0,36496:0:0:0:0:
448,192,36496,1,0,0:0:0:0:
64,192,36684,128,0,36871:0:0:0:0:
448,192,36871,1,0,0:0:0:0:
320,192,37059,128,0,37246:0:0:0:0:
64,192,37246,1,0,0:0:0:0:
320,192,37434,128,0,37621:0:0:0:0:
448,192,37527,1,0,0:0:0:0:
64,192,37621,1,0,0:0:0:0:
192,192,37715,1,0,0:0:0:0:
448,192,37809,1,0,0:0:0:0:
320,192,37996,1,0,0:0:0:0:
192,192,38090,1,0,0:0:0:0:
64,192,38184,1,0,0:0:0:0:
320,192,38371,1,0,0:0:0:0:
192,192,38465,1,0,0:0:0:0:
64,192,38559,1,0,0:0:0:0:
320,192,38746,1,0,0:0:0:0:
192,192,38840,1,0,0:0:0:0:
448,192,38934,128,0,39121:0:0:0:0:
320,192,39121,128,0,39309:0:0:0:0:
64,192,39309,1,0,0:0:0:0:
192,192,39496,1,0,0:0:0:0:
320,192,39590,1,0,0:0:0:0:
448,192,39684,1,0,0:0:0:0:
192,192,39871,1,0,0:0:0:0:
320,192,39965,1,0,0:0:0:0:
448,192,40059,1,0,0:0:0:0:
192,192,40246,1,0,0:0:0:0:
320,192,40340,1,0,0:0:0:0:
64,192,40434,128,0,40621:0:0:0:0:
192,192,40621,128,0,40809:0:0:0:0:
64,192,40809,1,0,0:0:0:0:
320,192,40996,1,0,0:0:0:0:
448,192,41090,1,0,0:0:0:0:
192,192,41184,1,0,0:0:0:0:
320,192,41371,1,0,0:0:0:0:
448,192,41465,1,0,0:0:0:0:
192,192,41559,1,0,0:0:0:0:
320,192,41746,1,0,0:0:0:0:
448,192,41840,1,0,0:0:0:0:
64,192,41934,128,0,42121:0:0:0:0:
320,192,42121,128,0,42309:0:0:0:0:
448,192,42309,1,0,0:0:0:0:
192,192,42496,1,0,0:0:0:0:
64,192,42590,1,0,0:0:0:0:
320,192,42684,1,0,0:0:0:0:
192,192,42871,1,0,0:0:0:0:
64,192,42965,1,0,0:0:0:0:
320,192,43059,1,0,0:0:0:0:
192,192,43246,1,0,0:0:0:0:
64,192,43340,1,0,0:0:0:0:
448,192,43434,1,0,0:0:0:0:
448,192,43621,1,0,0:0:0:0:
448,192,43809,1,0,0:0:0:0:
64,192,43996,1,0,0:0:0:0:
448,192,44090,1,0,0:0:0:0:
192,192,44184,1,0,0:0:0:0:
64,192,44371,1,0,0:0:0:0:
448,192,44465,1,0,0:0:0:0:
192,192,44559,1,0,0:0:0:0:
64,192,44746,1,0,0:0:0:0:
448,192,44840,1,0,0:0:0:0:
320,192,44934,128,0,45121:0:0:0:0:
192,192,45121,128,0,45309:0:0:0:0:
64,192,45309,1,0,0:0:0:0:
448,192,45496,1,0,0:0:0:0:
64,192,45590,1,0,0:0:0:0:
320,192,45684,1,0,0:0:0:0:
448,192,45871,1,0,0:0:0:0:
64,192,45965,1,0,0:0:0:0:
320,192,46059,1,0,0:0:0:0:
64,192,46246,1,0,0:0:0:0:
320,192,46340,1,0,0:0:0:0:
192,192,46434,128,0,46621:0:0:0:0:
448,192,46621,128,0,46809:0:0:0:0:
320,192,46996,1,0,0:0:0:0:
192,192,47090,1,0,0:0:0:0:
320,192,47184,1,0,0:0:0:0:
64,192,47371,1,0,0:0:0:0:
448,192,47465,1,0,0:0:0:0:
64,192,47559,1,0,0:0:0:0:
320,192,47746,1,0,0:0:0:0:
192,192,47840,1,0,0:0:0:0:
320,192,47934,128,0,48121:0:0:0:0:
448,192,48121,128,0,48309:0:0:0:0:
192,192,48309,1,0,0:0:0:0:
64,192,48496,1,0,0:0:0:0:
448,192,48590,1,0,0:0:0:0:
64,192,48684,1,0,0:0:0:0:
320,192,48871,1,0,0:0:0:0:
192,192,48965,1,0,0:0:0:0:
320,192,49059,1,0,0:0:0:0:
64,192,49246,1,0,0:0:0:0:
448,192,49340,1,0,0:0:0:0:
64,192,49434,128,0,49621:0:0:0:0:
320,192,49621,128,0,49809:0:0:0:0:
192,192,49809,128,0,50184:0:0:0:0:
448,192,50184,1,0,0:0:0:0:
64,192,50371,128,0,50559:0:0:0:0:
192,192,50559,1,0,0:0:0:0:
448,192,50746,1,0,0:0:0:0:
320,192,50934,128,0,51121:0:0:0:0:
448,192,51121,128,0,51496:0:0:0:0:
64,192,51496,1,0,0:0:0:0:
192,192,51684,128,0,52059:0:0:0:0:
320,192,51871,1,0,0:0:0:0:
448,192,52059,128,0,52340:0:0:0:0:
192,192,52340,128,0,52621:0:0:0:0:
448,192,52621,128,0,52809:0:0:0:0:
64,192,52809,128,0,53184:0:0:0:0:
192,192,53184,1,0,0:0:0:0:
448,192,53371,1,0,0:0:0:0:
64,192,53559,1,0,0:0:0:0:
320,192,53746,128,0,53934:0:0:0:0:
192,192,53934,1,0,0:0:0:0:
64,192,54121,128,0,54309:0:0:0:0:
320,192,54309,128,0,54496:0:0:0:0:
448,192,54496,1,0,0:0:0:0:
64,192,54684,128,0,54871:0:0:0:0:
192,192,54871,1,0,0:0:0:0:
320,192,55059,1,0,0:0:0:0:
192,192,55246,128,0,55434:0:0:0:0:
448,192,55434,128,0,55809:0:0:0:0:
320,192,55621,1,0,0:0:0:0:
64,192,55809,1,0,0:0:0:0:
192,192,55996,1,0,0:0:0:0:
64,192,56184,1,0,0:0:0:0:
192,192,56371,1,0,0:0:0:0:
448,192,56559,1,0,0:0:0:0:
320,192,56746,1,0,0:0:0:0:
448,192,56934,1,0,0:0:0:0:
320,192,57121,1,0,0:0:0:0:
64,192,57215,1,0,0:0:0:0:
192,192,57309,1,0,0:0:0:0:
320,192,57496,1,0,0:0:0:0:
192,192,57684,1,0,0:0:0:0:
320,192,57871,1,0,0:0:0:0:
64,192,58059,1,0,0:0:0:0:
448,192,58246,1,0,0:0:0:0:
64,192,58434,1,0,0:0:0:0:
448,192,58621,1,0,0:0:0:0:
320,192,58715,1,0,0:0:0:0:
64,192,58809,128,0,58996:0:0:0:0:
192,192,58996,1,0,0:0:0:0:
448,192,59184,128,0,59371:0:0:0:0:
320,192,59371,1,0,0:0:0:0:
64,192,59559,128,0,59746:0:0:0:0:
448,192,59840,128,0,60027:0:0:0:0:
192,192,60121,128,0,60309:0:0:0:0:
64,192,60309,128,0,60590:0:0:0:0:
448,192,60496,1,0,0:0:0:0:
320,192,60684,1,0,0:0:0:0:
192,192,60871,1,0,0:0:0:0:
448,192,60965,1,0,0:0:0:0:
64,192,61059,128,0,61809:0:0:0:0:
320,192,61434,1,0,0:0:0:0:
320,192,61809,128,0,62371:0:0:0:0:
192,192,62371,1,0,0:0:0:0:
448,192,62559,1,0,0:0:0:0:
64,192,62746,1,0,0:0:0:0:
320,192,62934,1,0,0:0:0:0:
192,192,63121,128,0,63496:0:0:0:0:
320,192,63496,1,0,0:0:0:0:
64,192,63684,1,0,0:0:0:0:
448,192,63871,1,0,0:0:0:0:
192,192,64059,1,0,0:0:0:0:
320,192,64246,1,0,0:0:0:0:
64,192,64434,128,0,64809:0:0:0:0:
448,192,64809,128,0,65371:0:0:0:0:
192,192,65371,1,0,0:0:0:0:
64,192,65559,1,0,0:0:0:0:
448,192,65746,1,0,0:0:0:0:
320,192,65934,1,0,0:0:0:0:
192,192,66121,128,0,66496:0:0:0:0:
448,192,66496,1,0,0:0:0:0:
64,192,66684,1,0,0:0:0:0:
192,192,66871,1,0,0:0:0:0:
320,192,67059,1,0,0:0:0:0:
64,192,67246,1,0,0:0:0:0:
448,192,67434,128,0,67809:0:0:0:0:
320,192,67809,128,0,68371:0:0:0:0:
192,192,68371,1,0,0:0:0:0:
64,192,68559,1,0,0:0:0:0:
320,192,68746,1,0,0:0:0:0:
192,192,68934,1,0,0:0:0:0:
448,192,69121,128,0,69496:0:0:0:0:
64,192,69496,1,0,0:0:0:0:
192,192,69684,1,0,0:0:0:0:
64,192,69871,1,0,0:0:0:0:
448,192,70059,1,0,0:0:0:0:
192,192,70246,1,0,0:0:0:0:
320,192,70434,128,0,70809:0:0:0:0:
64,192,70809,1,0,0:0:0:0:
192,192,70996,1,0,0:0:0:0:
448,192,71184,1,0,0:0:0:0:
320,192,71371,1,0,0:0:0:0:
64,192,71559,1,0,0:0:0:0:
192,192,71746,1,0,0:0:0:0:
320,192,71934,128,0,72684:0:0:0:0:
448,192,72684,128,0,73059:0:0:0:0:
320,192,73059,1,0,0:0:0:0:
448,192,73246,1,0,0:0:0:0:
320,192,73434,1,0,0:0:0:0:
192,192,73621,1,0,0:0:0:0:
64,192,73809,1,0,0:0:0:0:
448,192,73996,1,0,0:0:0:0:
320,192,74184,1,0,0:0:0:0:
448,192,74371,1,0,0:0:0:0:
320,192,74559,1,0,0:0:0:0:
448,192,74746,1,0,0:0:0:0:
192,192,74934,1,0,0:0:0:0:
64,192,75121,1,0,0:0:0:0:
320,192,75309,1,0,0:0:0:0:
64,192,75496,1,0,0:0:0:0:
320,192,75684,1,0,0:0:0:0:
64,192,75871,1,0,0:0:0:0:
320,192,76059,1,0,0:0:0:0:
64,192,76246,1,0,0:0:0:0:
320,192,76434,1,0,0:0:0:0:
64,192,76621,1,0,0:0:0:0:
448,192,76809,1,0,0:0:0:0:
192,192,76996,1,0,0:0:0:0:
448,192,77184,1,0,0:0:0:0:
192,192,77371,1,0,0:0:0:0:
448,192,77559,1,0,0:0:0:0:
192,192,77746,1,0,0:0:0:0:
448,192,77934,1,0,0:0:0:0:
192,192,78121,1,0,0:0:0:0:
448,192,78309,1,0,0:0:0:0:
192,192,78496,1,0,0:0:0:0:
448,192,78684,1,0,0:0:0:0:
192,192,78871,1,0,0:0:0:0:
64,192,79059,1,0,0:0:0:0:
448,192,79246,1,0,0:0:0:0:
64,192,79434,1,0,0:0:0:0:
448,192,79621,1,0,0:0:0:0:
320,192,79809,128,0,79996:0:0:0:0:
192,192,79996,128,0,80184:0:0:0:0:
320,192,80184,128,0,80371:0:0:0:0:
64,192,80371,128,0,80559:0:0:0:0:
192,192,80559,1,0,0:0:0:0:
320,192,80746,1,0,0:0:0:0:
448,192,80934,1,0,0:0:0:0:
192,192,81121,1,0,0:0:0:0:
320,192,81309,1,0,0:0:0:0:
64,192,81496,1,0,0:0:0:0:
448,192,81684,1,0,0:0:0:0:
320,192,81871,1,0,0:0:0:0:
64,192,82059,128,0,82246:0:0:0:0:
192,192,82246,128,0,82434:0:0:0:0:
448,192,82434,128,0,82621:0:0:0:0:
320,192,82621,128,0,82809:0:0:0:0:
448,192,82809,1,0,0:0:0:0:
64,192,82996,1,0,0:0:0:0:
320,192,83184,128,0,83371:0:0:0:0:
192,192,83371,1,0,0:0:0:0:
448,192,83559,1,0,0:0:0:0:
64,192,83746,1,0,0:0:0:0:
448,192,83934,128,0,84121:0:0:0:0:
320,192,84121,128,0,84309:0:0:0:0:
448,192,84309,128,0,84496:0:0:0:0:
192,192,84496,1,0,0:0:0:0:
64,192,84684,128,0,84871:0:0:0:0:
192,192,84871,128,0,85059:0:0:0:0:
320,192,85059,128,0,85246:0:0:0:0:
64,192,85246,128,0,85434:0:0:0:0:
192,192,85434,128,0,85621:0:0:0:0:
64,192,85621,128,0,85809:0:0:0:0:
320,192,85809,128,0,86934:0:0:0:0:
64,192,86184,1,0,0:0:0:0:
192,192,86934,128,0,88059:0:0:0:0:
64,192,86934,1,0,0:0:0:0:
448,192,87684,1,0,0:0:0:0:
320,192,88059,128,0,88809:0:0:0:0:
64,192,88246,1,0,0:0:0:0:
192,192,88434,1,0,0:0:0:0:
64,192,88809,128,0,90309:0:0:0:0:
192,192,89184,1,0,0:0:0:0:
320,192,89371,1,0,0:0:0:0:
192,192,89559,1,0,0:0:0:0:
320,192,89934,1,0,0:0:0:0:
448,192,90121,1,0,0:0:0:0:
192,192,90309,128,0,91809:0:0:0:0:
448,192,90684,1,0,0:0:0:0:
320,192,91059,1,0,0:0:0:0:
448,192,91246,1,0,0:0:0:0:
320,192,91434,1,0,0:0:0:0:
448,192,91809,128,0,94059:0:0:0:0:
64,192,91809,1,0,0:0:0:0:
64,192,92184,1,0,0:0:0:0:
64,192,92559,1,0,0:0:0:0:
64,192,92934,1,0,0:0:0:0:
192,192,93309,1,0,0:0:0:0:
192,192,93684,1,0,0:0:0:0:
64,192,94059,128,0,96309:0:0:0:0:
192,192,94059,1,0,0:0:0:0:
448,192,94434,1,0,0:0:0:0:
192,192,94621,1,0,0:0:0:0:
320,192,94809,1,0,0:0:0:0:
320,192,95184,1,0,0:0:0:0:
320,192,95559,1,0,0:0:0:0:
320,192,95934,1,0,0:0:0:0:
320,192,96309,128,0,96496:0:0:0:0:
192,192,96496,1,0,0:0:0:0:
64,192,96684,1,0,0:0:0:0:
448,192,96871,1,0,0:0:0:0:
64,192,97059,1,0,0:0:0:0:
192,192,97152,1,0,0:0:0:0:
320,192,97246,1,0,0:0:0:0:
448,192,97340,1,0,0:0:0:0:
192,192,97434,1,0,0:0:0:0:
64,192,97527,1,0,0:0:0:0:
448,192,97621,1,0,0:0:0:0:
320,192,97715,1,0,0:0:0:0:
192,192,97809,1,0,0:0:0:0:
64,192,98184,1,0,0:0:0:0:
192,192,98559,1,0,0:0:0:0:
192,192,98840,1,0,0:0:0:0:
64,192,98934,1,0,0:0:0:0:
448,192,99027,1,0,0:0:0:0:
320,192,99121,1,0,0:0:0:0:
192,192,99215,1,0,0:0:0:0:
448,192,99309,128,0,99496:0:0:0:0:
320,192,99496,1,0,0:0:0:0:
64,192,99684,1,0,0:0:0:0:
192,192,99777,1,0,0:0:0:0:
320,192,99871,1,0,0:0:0:0:
448,192,99965,1,0,0:0:0:0:
64,192,100059,1,0,0:0:0:0:
192,192,100059,1,0,0:0:0:0:
448,192,100434,128,0,100621:0:0:0:0:
320,192,100621,1,0,0:0:0:0:
64,192,100809,128,0,101184:0:0:0:0:
448,192,101184,128,0,101559:0:0:0:0:
320,192,101559,128,0,101746:0:0:0:0:
64,192,101559,1,0,0:0:0:0:
192,192,101746,1,0,0:0:0:0:
448,192,101934,128,0,102309:0:0:0:0:
320,192,102309,128,0,102684:0:0:0:0:
192,192,102496,1,0,0:0:0:0:
64,192,102684,128,0,102871:0:0:0:0:
192,192,102871,1,0,0:0:0:0:
448,192,103059,128,0,103434:0:0:0:0:
320,192,103059,1,0,0:0:0:0:
192,192,103434,128,0,103809:0:0:0:0:
64,192,103809,128,0,104746:0:0:0:0:
448,192,104559,1,0,0:0:0:0:
192,192,104746,1,0,0:0:0:0:
64,192,104934,128,0,105871:0:0:0:0:
448,192,105121,1,0,0:0:0:0:
192,192,105871,1,0,0:0:0:0:
320,192,106059,128,0,106809:0:0:0:0:
448,192,106059,1,0,0:0:0:0:
64,192,106809,128,0,107371:0:0:0:0:
320,192,107371,1,0,0:0:0:0:
448,192,107559,128,0,108309:0:0:0:0:
192,192,107559,1,0,0:0:0:0:
320,192,108309,1,0,0:0:0:0:
64,192,108309,128,0,108684:0:0:0:0:
192,192,108684,128,0,109059:0:0:0:0:
448,192,108684,1,0,0:0:0:0:
320,192,109059,1,0,0:0:0:0:
64,192,109246,128,0,109809:0:0:0:0:
448,192,109246,1,0,0:0:0:0:
448,192,109809,1,0,0:0:0:0:
192,192,109902,1,0,0:0:0:0:
320,192,109996,1,0,0:0:0:0:
448,192,110090,1,0,0:0:0:0:
64,192,110184,1,0,0:0:0:0:
320,192,110371,1,0,0:0:0:0:
64,192,110559,1,0,0:0:0:0:
192,192,110559,1,0,0:0:0:0:
320,192,110746,1,0,0:0:0:0:
448,192,110934,128,0,111121:0:0:0:0:
320,192,111121,1,0,0:0:0:0:
64,192,111215,1,0,0:0:0:0:
192,192,111309,1,0,0:0:0:0:
448,192,111402,1,0,0:0:0:0:
320,192,111496,1,0,0:0:0:0:
192,192,111590,1,0,0:0:0:0:
448,192,111684,1,0,0:0:0:0:
64,192,111871,1,0,0:0:0:0:
448,192,112059,1,0,0:0:0:0:
320,192,112059,1,0,0:0:0:0:
64,192,112246,1,0,0:0:0:0:
320,192,112434,128,0,112621:0:0:0:0:
192,192,112621,1,0,0:0:0:0:
64,192,112715,1,0,0:0:0:0:
448,192,112809,1,0,0:0:0:0:
192,192,112902,1,0,0:0:0:0:
320,192,112996,1,0,0:0:0:0:
64,192,113090,1,0,0:0:0:0:
192,192,113184,1,0,0:0:0:0:
64,192,113371,1,0,0:0:0:0:
320,192,113559,1,0,0:0:0:0:
448,192,113559,1,0,0:0:0:0:
192,192,113746,1,0,0:0:0:0:
192,192,113934,1,0,0:0:0:0:
448,192,114121,1,0,0:0:0:0:
320,192,114309,1,0,0:0:0:0:
192,192,114496,1,0,0:0:0:0:
320,192,114684,1,0,0:0:0:0:
192,192,114871,1,0,0:0:0:0:
192,192,115059,1,0,0:0:0:0:
64,192,115059,1,0,0:0:0:0:
448,192,115246,1,0,0:0:0:0:
320,192,115434,1,0,0:0:0:0:
192,192,115621,1,0,0:0:0:0:
192,192,115809,1,0,0:0:0:0:
320,192,115902,1,0,0:0:0:0:
64,192,115996,1,0,0:0:0:0:
448,192,116090,1,0,0:0:0:0:
320,192,116184,1,0,0:0:0:0:
192,192,116371,1,0,0:0:0:0:
448,192,116559,1,0,0:0:0:0:
320,192,116559,1,0,0:0:0:0:
192,192,116746,1,0,0:0:0:0:
448,192,116934,1,0,0:0:0:0:
192,192,117121,1,0,0:0:0:0:
448,192,117215,1,0,0:0:0:0:
64,192,117309,1,0,0:0:0:0:
192,192,117402,1,0,0:0:0:0:
448,192,117496,1,0,0:0:0:0:
64,192,117590,1,0,0:0:0:0:
320,192,117684,1,0,0:0:0:0:
448,192,117871,1,0,0:0:0:0:
192,192,118059,1,0,0:0:0:0:
64,192,118059,1,0,0:0:0:0:
320,192,118246,1,0,0:0:0:0:
192,192,118434,1,0,0:0:0:0:
320,192,118621,1,0,0:0:0:0:
64,192,118715,1,0,0:0:0:0:
448,192,118809,1,0,0:0:0:0:
320,192,118902,1,0,0:0:0:0:
64,192,118996,1,0,0:0:0:0:
192,192,119090,1,0,0:0:0:0:
320,192,119184,1,0,0:0:0:0:
192,192,119371,1,0,0:0:0:0:
448,192,119559,1,0,0:0:0:0:
320,192,119746,1,0,0:0:0:0:
64,192,119934,1,0,0:0:0:0:
320,192,120121,1,0,0:0:0:0:
448,192,120309,1,0,0:0:0:0:
320,192,120496,1,0,0:0:0:0:
448,192,120684,1,0,0:0:0:0:
320,192,120871,1,0,0:0:0:0:
448,192,121059,1,0,0:0:0:0:
320,192,121152,1,0,0:0:0:0:
64,192,121246,1,0,0:0:0:0:
192,192,121340,1,0,0:0:0:0:
448,192,121434,128,0,121621:0:0:0:0:
64,192,121434,1,0,0:0:0:0:
320,192,121621,1,0,0:0:0:0:
192,192,121809,1,0,0:0:0:0:
448,192,122184,1,0,0:0:0:0:
64,192,122559,1,0,0:0:0:0:
192,192,122746,1,0,0:0:0:0:
64,192,122840,128,0,123121:0:0:0:0:
192,192,123121,1,0,0:0:0:0:
64,192,123309,1,0,0:0:0:0:
64,192,123684,1,0,0:0:0:0:
320,192,124059,128,0,124246:0:0:0:0:
448,192,124246,1,0,0:0:0:0:
192,192,124340,1,0,0:0:0:0:
64,192,124434,1,0,0:0:0:0:
320,192,124527,1,0,0:0:0:0:
192,192,124621,1,0,0:0:0:0:
448,192,124715,1,0,0:0:0:0:
320,192,124809,1,0,0:0:0:0:
192,192,125184,1,0,0:0:0:0:
320,192,125559,1,0,0:0:0:0:
448,192,125746,1,0,0:0:0:0:
320,192,125840,1,0,0:0:0:0:
64,192,125934,1,0,0:0:0:0:
448,192,126121,1,0,0:0:0:0:
192,192,126309,1,0,0:0:0:0:
192,192,126684,1,0,0:0:0:0:
448,192,127059,1,0,0:0:0:0:
64,192,127152,1,0,0:0:0:0:
320,192,127246,1,0,0:0:0:0:
192,192,127340,1,0,0:0:0:0:
448,192,127434,1,0,0:0:0:0:
320,192,127527,1,0,0:0:0:0:
64,192,127621,1,0,0:0:0:0:
192,192,127715,1,0,0:0:0:0:
64,192,127809,1,0,0:0:0:0:
448,192,127809,1,0,0:0:0:0:
320,192,127996,1,0,0:0:0:0:
64,192,128184,1,0,0:0:0:0:
320,192,128371,1,0,0:0:0:0:
64,192,128559,1,0,0:0:0:0:
448,192,128746,1,0,0:0:0:0:
448,192,128934,1,0,0:0:0:0:
320,192,128934,1,0,0:0:0:0:
64,192,129121,1,0,0:0:0:0:
320,192,129309,1,0,0:0:0:0:
192,192,129496,1,0,0:0:0:0:
320,192,129684,1,0,0:0:0:0:
192,192,129871,1,0,0:0:0:0:
448,192,130059,1,0,0:0:0:0:
64,192,130059,1,0,0:0:0:0:
192,192,130246,1,0,0:0:0:0:
448,192,130340,1,0,0:0:0:0:
64,192,130434,1,0,0:0:0:0:
192,192,130527,1,0,0:0:0:0:
320,192,130621,1,0,0:0:0:0:
448,192,130715,1,0,0:0:0:0:
64,192,130809,128,0,130996:0:0:0:0:
192,192,130809,1,0,0:0:0:0:
320,192,130996,1,0,0:0:0:0:
192,192,131184,128,0,131371:0:0:0:0:
320,192,131371,1,0,0:0:0:0:
64,192,131559,128,0,131746:0:0:0:0:
320,192,131746,1,0,0:0:0:0:
448,192,131840,1,0,0:0:0:0:
320,192,131934,1,0,0:0:0:0:
192,192,131934,128,0,132121:0:0:0:0:
64,192,132121,128,0,132309:0:0:0:0:
320,192,132309,128,0,132496:0:0:0:0:
448,192,132496,1,0,0:0:0:0:
192,192,132684,128,0,132871:0:0:0:0:
320,192,132871,1,0,0:0:0:0:
448,192,132965,1,0,0:0:0:0:
64,192,133059,1,0,0:0:0:0:
320,192,133152,1,0,0:0:0:0:
192,192,133246,1,0,0:0:0:0:
64,192,133340,1,0,0:0:0:0:
448,192,133434,1,0,0:0:0:0:
320,192,133527,1,0,0:0:0:0:
64,192,133621,1,0,0:0:0:0:
192,192,133715,1,0,0:0:0:0:
448,192,133809,1,0,0:0:0:0:
64,192,133809,1,0,0:0:0:0:
320,192,133996,1,0,0:0:0:0:
448,192,134184,1,0,0:0:0:0:
320,192,134371,1,0,0:0:0:0:
64,192,134559,1,0,0:0:0:0:
192,192,134746,1,0,0:0:0:0:
64,192,134934,1,0,0:0:0:0:
192,192,135121,1,0,0:0:0:0:
320,192,135215,1,0,0:0:0:0:
448,192,135309,1,0,0:0:0:0:
192,192,135496,1,0,0:0:0:0:
448,192,135684,1,0,0:0:0:0:
192,192,135871,1,0,0:0:0:0:
320,192,136059,1,0,0:0:0:0:
64,192,136246,1,0,0:0:0:0:
192,192,136340,1,0,0:0:0:0:
320,192,136434,1,0,0:0:0:0:
64,192,136527,1,0,0:0:0:0:
448,192,136621,1,0,0:0:0:0:
192,192,136715,1,0,0:0:0:0:
320,192,136809,1,0,0:0:0:0:
448,192,136809,1,0,0:0:0:0:
64,192,136996,1,0,0:0:0:0:
448,192,137184,1,0,0:0:0:0:
64,192,137371,1,0,0:0:0:0:
192,192,137559,1,0,0:0:0:0:
320,192,137746,1,0,0:0:0:0:
320,192,137934,1,0,0:0:0:0:
64,192,137934,1,0,0:0:0:0:
448,192,138121,1,0,0:0:0:0:
64,192,138309,1,0,0:0:0:0:
320,192,138496,1,0,0:0:0:0:
64,192,138684,1,0,0:0:0:0:
320,192,138871,1,0,0:0:0:0:
448,192,139059,1,0,0:0:0:0:
192,192,139246,1,0,0:0:0:0:
448,192,139434,1,0,0:0:0:0:
320,192,139527,1,0,0:0:0:0:
192,192,139621,1,0,0:0:0:0:
64,192,139715,1,0,0:0:0:0:
320,192,139809,1,0,0:0:0:0:
448,192,139809,1,0,0:0:0:0:
64,192,139996,1,0,0:0:0:0:
320,192,140184,1,0,0:0:0:0:
64,192,140371,1,0,0:0:0:0:
320,192,140559,1,0,0:0:0:0:
64,192,140746,1,0,0:0:0:0:
192,192,140840,1,0,0:0:0:0:
448,192,140934,1,0,0:0:0:0:
64,192,141121,1,0,0:0:0:0:
448,192,141309,1,0,0:0:0:0:
192,192,141496,1,0,0:0:0:0:
448,192,141684,1,0,0:0:0:0:
192,192,141871,1,0,0:0:0:0:
448,192,142059,1,0,0:0:0:0:
320,192,142152,1,0,0:0:0:0:
64,192,142246,1,0,0:0:0:0:
448,192,142340,1,0,0:0:0:0:
192,192,142434,1,0,0:0:0:0:
320,192,142527,1,0,0:0:0:0:
64,192,142621,1,0,0:0:0:0:
192,192,142715,1,0,0:0:0:0:
448,192,142809,1,0,0:0:0:0:
64,192,142809,1,0,0:0:0:0:
320,192,142996,1,0,0:0:0:0:
448,192,143184,1,0,0:0:0:0:
320,192,143371,1,0,0:0:0:0:
448,192,143465,1,0,0:0:0:0:
64,192,143559,1,0,0:0:0:0:
320,192,143559,1,0,0:0:0:0:
192,192,143746,1,0,0:0:0:0:
64,192,143934,1,0,0:0:0:0:
192,192,144121,1,0,0:0:0:0:
448,192,144309,128,0,144496:0:0:0:0:
320,192,144496,1,0,0:0:0:0:
64,192,144684,128,0,144871:0:0:0:0:
192,192,144871,1,0,0:0:0:0:
320,192,145059,128,0,145246:0:0:0:0:
448,192,145246,1,0,0:0:0:0:
192,192,145434,128,0,145621:0:0:0:0:
64,192,145621,1,0,0:0:0:0:
448,192,145809,1,0,0:0:0:0:
320,192,145809,1,0,0:0:0:0:
64,192,145996,1,0,0:0:0:0:
448,192,146184,1,0,0:0:0:0:
320,192,146371,1,0,0:0:0:0:
64,192,146559,1,0,0:0:0:0:
192,192,146746,1,0,0:0:0:0:
448,192,146934,1,0,0:0:0:0:
320,192,147121,1,0,0:0:0:0:
448,192,147309,1,0,0:0:0:0:
192,192,147309,1,0,0:0:0:0:
64,192,147496,1,0,0:0:0:0:
320,192,147684,1,0,0:0:0:0:
448,192,147871,1,0,0:0:0:0:
192,192,148059,1,0,0:0:0:0:
64,192,148246,1,0,0:0:0:0:
320,192,148434,1,0,0:0:0:0:
448,192,148621,1,0,0:0:0:0:
320,192,148809,128,0,148996:0:0:0:0:
448,192,148809,1,0,0:0:0:0:
64,192,148996,1,0,0:0:0:0:
192,192,149184,128,0,149371:0:0:0:0:
64,192,149371,1,0,0:0:0:0:
448,192,149559,128,0,149746:0:0:0:0:
192,192,149746,1,0,0:0:0:0:
64,192,149934,1,0,0:0:0:0:
448,192,150121,1,0,0:0:0:0:
320,192,150309,128,0,150496:0:0:0:0:
192,192,150496,1,0,0:0:0:0:
448,192,150684,128,0,150871:0:0:0:0:
192,192,150871,1,0,0:0:0:0:
64,192,151059,128,0,151246:0:0:0:0:
448,192,151246,1,0,0:0:0:0:
192,192,151434,1,0,0:0:0:0:
192,192,151621,1,0,0:0:0:0:
320,192,151809,1,0,0:0:0:0:
448,192,151809,1,0,0:0:0:0:
64,192,151996,1,0,0:0:0:0:
448,192,152184,1,0,0:0:0:0:
192,192,152371,1,0,0:0:0:0:
64,192,152559,1,0,0:0:0:0:
320,192,152746,1,0,0:0:0:0:
448,192,152934,1,0,0:0:0:0:
64,192,153121,1,0,0:0:0:0:
320,192,153309,1,0,0:0:0:0:
192,192,153309,1,0,0:0:0:0:
64,192,153496,1,0,0:0:0:0:
448,192,153684,1,0,0:0:0:0:
192,192,153871,1,0,0:0:0:0:
64,192,154059,1,0,0:0:0:0:
192,192,154246,1,0,0:0:0:0:
448,192,154434,1,0,0:0:0:0:
320,192,154621,1,0,0:0:0:0:
64,192,154809,128,0,154996:0:0:0:0:
448,192,154809,1,0,0:0:0:0:
192,192,154996,1,0,0:0:0:0:
320,192,155184,128,0,155371:0:0:0:0:
192,192,155371,1,0,0:0:0:0:
448,192,155559,128,0,155746:0:0:0:0:
320,192,155746,1,0,0:0:0:0:
192,192,155934,128,0,156121:0:0:0:0:
64,192,156121,1,0,0:0:0:0:
320,192,156309,1,0,0:0:0:0:
192,192,156496,1,0,0:0:0:0:
64,192,156684,1,0,0:0:0:0:
448,192,156871,1,0,0:0:0:0:
320,192,157059,1,0,0:0:0:0:
64,192,157152,1,0,0:0:0:0:
448,192,157246,1,0,0:0:0:0:
192,192,157340,1,0,0:0:0:0:
320,192,157434,1,0,0:0:0:0:
448,192,157527,1,0,0:0:0:0:
192,192,157621,1,0,0:0:0:0:
64,192,157715,1,0,0:0:0:0:
320,192,157809,1,0,0:0:0:0:
448,192,157809,1,0,0:0:0:0:
192,192,157996,1,0,0:0:0:0:
448,192,158184,1,0,0:0:0:0:
320,192,158371,1,0,0:0:0:0:
64,192,158559,1,0,0:0:0:0:
192,192,158652,1,0,0:0:0:0:
320,192,158746,1,0,0:0:0:0:
448,192,158934,1,0,0:0:0:0:
192,192,159121,1,0,0:0:0:0:
448,192,159309,1,0,0:0:0:0:
64,192,159309,1,0,0:0:0:0:
192,192,159496,1,0,0:0:0:0:
320,192,159684,1,0,0:0:0:0:
448,192,159871,1,0,0:0:0:0:
320,192,160059,1,0,0:0:0:0:
320,192,160246,1,0,0:0:0:0:
192,192,160434,1,0,0:0:0:0:
192,192,160621,1,0,0:0:0:0:
320,192,160809,1,0,0:0:0:0:
192,192,160902,1,0,0:0:0:0:
64,192,160996,1,0,0:0:0:0:
320,192,161184,1,0,0:0:0:0:
192,192,161277,1,0,0:0:0:0:
64,192,161371,1,0,0:0:0:0:
320,192,161559,1,0,0:0:0:0:
192,192,161652,1,0,0:0:0:0:
64,192,161746,1,0,0:0:0:0:
320,192,161934,1,0,0:0:0:0:
448,192,162121,1,0,0:0:0:0:
448,192,162309,1,0,0:0:0:0:
64,192,162309,1,0,0:0:0:0:
192,192,162496,1,0,0:0:0:0:
448,192,162684,1,0,0:0:0:0:
192,192,162871,1,0,0:0:0:0:
64,192,163059,1,0,0:0:0:0:
448,192,163246,1,0,0:0:0:0:
448,192,163434,1,0,0:0:0:0:
192,192,163527,1,0,0:0:0:0:
320,192,163621,1,0,0:0:0:0:
64,192,163715,1,0,0:0:0:0:
448,192,163809,1,0,0:0:0:0:
192,192,163809,1,0,0:0:0:0:
320,192,163996,1,0,0:0:0:0:
192,192,164184,1,0,0:0:0:0:
448,192,164371,1,0,0:0:0:0:
64,192,164559,1,0,0:0:0:0:
192,192,164746,1,0,0:0:0:0:
448,192,164934,1,0,0:0:0:0:
320,192,165027,1,0,0:0:0:0:
192,192,165121,1,0,0:0:0:0:
448,192,165309,1,0,0:0:0:0:
320,192,165309,1,0,0:0:0:0:
64,192,165496,1,0,0:0:0:0:
320,192,165684,1,0,0:0:0:0:
192,192,165871,1,0,0:0:0:0:
320,192,166059,1,0,0:0:0:0:
448,192,166246,1,0,0:0:0:0:
320,192,166434,1,0,0:0:0:0:
64,192,166527,1,0,0:0:0:0:
192,192,166621,1,0,0:0:0:0:
320,192,166715,1,0,0:0:0:0:
448,192,166809,1,0,0:0:0:0:
64,192,166809,1,0,0:0:0:0:
192,192,166996,1,0,0:0:0:0:
448,192,167184,1,0,0:0:0:0:
64,192,167371,1,0,0:0:0:0:
320,192,167559,1,0,0:0:0:0:
64,192,167746,1,0,0:0:0:0:
64,192,167934,1,0,0:0:0:0:
192,192,168121,1,0,0:0:0:0:
448,192,168309,1,0,0:0:0:0:
64,192,168496,1,0,0:0:0:0:
448,192,168684,1,0,0:0:0:0:
192,192,168871,1,0,0:0:0:0:
64,192,169059,1,0,0:0:0:0:
320,192,169246,1,0,0:0:0:0:
320,192,169434,1,0,0:0:0:0:
192,192,169621,1,0,0:0:0:0:
192,192,169809,128,0,170371:0:0:0:0:
448,192,170371,128,0,170559:0:0:0:0:
64,192,170559,128,0,170746:0:0:0:0:
192,192,170746,128,0,170934:0:0:0:0:
64,192,170934,128,0,171121:0:0:0:0:
320,192,171121,128,0,171496:0:0:0:0:
448,192,171496,128,0,171684:0:0:0:0:
64,192,171684,128,0,171871:0:0:0:0:
192,192,171871,128,0,172059:0:0:0:0:
448,192,172059,128,0,172246:0:0:0:0:
64,192,172246,128,0,172434:0:0:0:0:
320,192,172434,128,0,172809:0:0:0:0:
64,192,172809,128,0,173371:0:0:0:0:
320,192,173371,128,0,173559:0:0:0:0:
192,192,173559,128,0,173746:0:0:0:0:
448,192,173746,128,0,173934:0:0:0:0:
64,192,173934,128,0,174121:0:0:0:0:
320,192,174121,128,0,174496:0:0:0:0:
448,192,174496,128,0,174684:0:0:0:0:
64,192,174684,128,0,174871:0:0:0:0:
192,192,174871,128,0,175059:0:0:0:0:
448,192,175059,128,0,175246:0:0:0:0:
320,192,175246,128,0,175434:0:0:0:0:
448,192,175434,128,0,175809:0:0:0:0:
192,192,175809,128,0,176371:0:0:0:0:
320,192,176371,128,0,176559:0:0:0:0:
64,192,176559,128,0,176746:0:0:0:0:
448,192,176746,128,0,176934:0:0:0:0:
192,192,176934,128,0,177121:0:0:0:0:
320,192,177121,128,0,177496:0:0:0:0:
448,192,177496,128,0,177684:0:0:0:0:
64,192,177684,128,0,177871:0:0:0:0:
320,192,177871,128,0,178059:0:0:0:0:
448,192,178059,128,0,178246:0:0:0:0:
64,192,178246,128,0,178434:0:0:0:0:
192,192,178434,128,0,178809:0:0:0:0:
448,192,178809,128,0,179371:0:0:0:0:
64,192,179371,128,0,179559:0:0:0:0:
192,192,179559,128,0,179746:0:0:0:0:
320,192,179746,128,0,180309:0:0:0:0:
192,192,180871,128,0,181059:0:0:0:0:
448,192,181059,128,0,181246:0:0:0:0:
320,192,181246,128,0,181434:0:0:0:0:
192,192,181434,128,0,181621:0:0:0:0:
64,192,181621,128,0,181809:0:0:0:0:
320,192,181809,128,0,182371:0:0:0:0:
448,192,182371,128,0,182559:0:0:0:0:
64,192,182559,128,0,182746:0:0:0:0:
320,192,182746,128,0,182934:0:0:0:0:
64,192,182934,128,0,183121:0:0:0:0:
192,192,183121,128,0,183496:0:0:0:0:
320,192,183496,128,0,183684:0:0:0:0:
64,192,183684,128,0,183871:0:0:0:0:
320,192,183871,128,0,184059:0:0:0:0:
448,192,184059,128,0,184246:0:0:0:0:
192,192,184246,128,0,184434:0:0:0:0:
448,192,184434,128,0,184809:0:0:0:0:
64,192,184809,128,0,185371:0:0:0:0:
320,192,185371,128,0,185559:0:0:0:0:
192,192,185559,128,0,185746:0:0:0:0:
448,192,185746,128,0,185934:0:0:0:0:
64,192,185934,128,0,186121:0:0:0:0:
320,192,186121,128,0,186496:0:0:0:0:
448,192,186496,128,0,186684:0:0:0:0:
64,192,186684,128,0,186871:0:0:0:0:
192,192,186871,128,0,187059:0:0:0:0:
448,192,187059,128,0,187246:0:0:0:0:
320,192,187246,128,0,187434:0:0:0:0:
448,192,187434,128,0,187809:0:0:0:0:
64,192,187809,128,0,188043:0:0:0:0:
320,192,188043,128,0,190434:0:0:0:0:
64,192,190809,128,0,191043:0:0:0:0:
448,192,191043,128,0,193434:0:0:0:0:
