osu file format v14

[General]
AudioFilename: audio.mp3
AudioLeadIn: 0
PreviewTime: 109809
Countdown: 0
SampleSet: Soft
StackLeniency: 0.7
Mode: 3
LetterboxInBreaks: 0
SpecialStyle: 0
WidescreenStoryboard: 1

[Editor]
Bookmarks: 1809,25809,49809,61809,73809,97809,109809,121809,145809,169809
DistanceSpacing: 0.3
BeatDivisor: 4
GridSize: 16
TimelineZoom: 1.5

[Metadata]
Title:me & u
TitleUnicode:me & u
Artist:succducc
ArtistUnicode:succducc
Creator:NightNarumi
Version:Easy
Source:
Tags:cassie me and you
BeatmapID:1697106
BeatmapSetID:808720

[Difficulty]
HPDrainRate:7
CircleSize:4
OverallDifficulty:6.5
ApproachRate:5
SliderMultiplier:1.4
SliderTickRate:1

[Events]
//Background and Video events
0,0,"Image.png",0,0
//Break Periods
//Storyboard Layer 0 (Background)
//Storyboard Layer 1 (Fail)
//Storyboard Layer 2 (Pass)
//Storyboard Layer 3 (Foreground)
//Storyboard Layer 4 (Overlay)
//Storyboard Sound Samples

[TimingPoints]
1809,375,4,2,0,20,1,0
109809,-100,4,2,0,20,0,1
121809,-100,4,2,0,20,0,0
145809,-100,4,2,0,20,0,1
169809,-100,4,2,0,20,0,0

[HitObjects]
448,192,1809,5,0,0:0:0:0:
192,192,2184,1,0,0:0:0:0:
64,192,2559,1,0,0:0:0:0:
320,192,2934,1,0,0:0:0:0:
448,192,3309,1,0,0:0:0:0:
192,192,3684,1,0,0:0:0:0:
64,192,4059,1,0,0:0:0:0:
448,192,4434,1,0,0:0:0:0:
320,192,4809,1,0,0:0:0:0:
64,192,5184,1,0,0:0:0:0:
192,192,5559,1,0,0:0:0:0:
64,192,5934,1,0,0:0:0:0:
320,192,6309,1,0,0:0:0:0:
448,192,6684,1,0,0:0:0:0:
192,192,7059,1,0,0:0:0:0:
64,192,7434,1,0,0:0:0:0:
320,192,7809,1,0,0:0:0:0:
64,192,8184,1,0,0:0:0:0:
64,192,8559,1,0,0:0:0:0:
64,192,8934,1,0,0:0:0:0:
448,192,9309,1,0,0:0:0:0:
192,192,9684,1,0,0:0:0:0:
192,192,10059,1,0,0:0:0:0:
192,192,10434,1,0,0:0:0:0:
448,192,10809,128,0,11559:0:0:0:0:
192,192,11559,128,0,12309:0:0:0:0:
64,192,12309,1,0,0:0:0:0:
448,192,12684,1,0,0:0:0:0:
64,192,13059,1,0,0:0:0:0:
448,192,13434,1,0,0:0:0:0:
64,192,13809,1,0,0:0:0:0:
320,192,14184,1,0,0:0:0:0:
192,192,14559,1,0,0:0:0:0:
448,192,14934,1,0,0:0:0:0:
64,192,15309,1,0,0:0:0:0:
320,192,15684,1,0,0:0:0:0:
448,192,16059,1,0,0:0:0:0:
320,192,16434,1,0,0:0:0:0:
64,192,16809,1,0,0:0:0:0:
448,192,17184,1,0,0:0:0:0:
192,192,17559,1,0,0:0:0:0:
320,192,17934,1,0,0:0:0:0:
64,192,18309,1,0,0:0:0:0:
448,192,18684,1,0,0:0:0:0:
192,192,19059,1,0,0:0:0:0:
320,192,19434,1,0,0:0:0:0:
192,192,19809,1,0,0:0:0:0:
448,192,20184,1,0,0:0:0:0:
192,192,20559,1,0,0:0:0:0:
448,192,20934,1,0,0:0:0:0:
64,192,21309,1,0,0:0:0:0:
320,192,21684,1,0,0:0:0:0:
64,192,22059,1,0,0:0:0:0:
320,192,22434,1,0,0:0:0:0:
448,192,22809,1,0,0:0:0:0:
320,192,22996,1,0,0:0:0:0:
192,192,23184,1,0,0:0:0:0:
64,192,23371,1,0,0:0:0:0:
448,192,23559,1,0,0:0:0:0:
64,192,23746,1,0,0:0:0:0:
192,192,23934,1,0,0:0:0:0:
320,192,24121,1,0,0:0:0:0:
448,192,24309,128,0,25059:0:0:0:0:
64,192,25059,128,0,25809:0:0:0:0:
192,192,25809,1,0,0:0:0:0:
448,192,26184,1,0,0:0:0:0:
64,192,26559,1,0,0:0:0:0:
192,192,26840,1,0,0:0:0:0:
320,192,27121,1,0,0:0:0:0:
192,192,27309,1,0,0:0:0:0:
320,192,27684,1,0,0:0:0:0:
64,192,28059,1,0,0:0:0:0:
192,192,28340,1,0,0:0:0:0:
448,192,28621,1,0,0:0:0:0:
320,192,28809,1,0,0:0:0:0:
64,192,29184,1,0,0:0:0:0:
192,192,29559,1,0,0:0:0:0:
192,192,29840,1,0,0:0:0:0:
320,192,30121,1,0,0:0:0:0:
448,192,30309,1,0,0:0:0:0:
192,192,30684,1,0,0:0:0:0:
448,192,31059,1,0,0:0:0:0:
192,192,31340,1,0,0:0:0:0:
64,192,31621,1,0,0:0:0:0:
192,192,31809,1,0,0:0:0:0:
320,192,32184,1,0,0:0:0:0:
64,192,32559,1,0,0:0:0:0:
192,192,32840,1,0,0:0:0:0:
448,192,33121,1,0,0:0:0:0:
320,192,33309,1,0,0:0:0:0:
192,192,33684,1,0,0:0:0:0:
448,192,34059,1,0,0:0:0:0:
192,192,34340,1,0,0:0:0:0:
320,192,34621,1,0,0:0:0:0:
448,192,34809,1,0,0:0:0:0:
64,192,35184,1,0,0:0:0:0:
448,192,35559,1,0,0:0:0:0:
448,192,35840,1,0,0:0:0:0:
320,192,36121,1,0,0:0:0:0:
64,192,36309,1,0,0:0:0:0:
320,192,36684,1,0,0:0:0:0:
192,192,37059,1,0,0:0:0:0:
192,192,37434,128,0,37809:0:0:0:0:
448,192,37809,1,0,0:0:0:0:
64,192,38184,1,0,0:0:0:0:
320,192,38559,1,0,0:0:0:0:
192,192,38934,1,0,0:0:0:0:
448,192,39309,1,0,0:0:0:0:
320,192,39684,1,0,0:0:0:0:
448,192,40059,1,0,0:0:0:0:
320,192,40434,1,0,0:0:0:0:
192,192,40621,1,0,0:0:0:0:
64,192,40809,1,0,0:0:0:0:
448,192,41184,1,0,0:0:0:0:
64,192,41559,1,0,0:0:0:0:
448,192,41934,1,0,0:0:0:0:
192,192,42309,1,0,0:0:0:0:
320,192,42684,1,0,0:0:0:0:
192,192,43059,1,0,0:0:0:0:
320,192,43434,1,0,0:0:0:0:
192,192,43621,1,0,0:0:0:0:
64,192,43809,1,0,0:0:0:0:
320,192,44184,1,0,0:0:0:0:
192,192,44559,1,0,0:0:0:0:
64,192,44934,1,0,0:0:0:0:
448,192,45309,1,0,0:0:0:0:
192,192,45684,1,0,0:0:0:0:
320,192,46059,1,0,0:0:0:0:
448,192,46434,1,0,0:0:0:0:
320,192,46621,1,0,0:0:0:0:
192,192,46809,1,0,0:0:0:0:
192,192,47184,1,0,0:0:0:0:
448,192,47559,1,0,0:0:0:0:
448,192,47934,1,0,0:0:0:0:
64,192,48309,1,0,0:0:0:0:
64,192,48684,1,0,0:0:0:0:
320,192,49059,1,0,0:0:0:0:
320,192,49434,1,0,0:0:0:0:
448,192,49809,128,0,50184:0:0:0:0:
192,192,50371,1,0,0:0:0:0:
64,192,50559,128,0,50934:0:0:0:0:
320,192,50934,1,0,0:0:0:0:
448,192,51121,128,0,51309:0:0:0:0:
192,192,51684,128,0,52059:0:0:0:0:
448,192,52059,128,0,52434:0:0:0:0:
320,192,52434,128,0,52809:0:0:0:0:
64,192,52809,128,0,53184:0:0:0:0:
320,192,53184,1,0,0:0:0:0:
192,192,53371,1,0,0:0:0:0:
448,192,53746,1,0,0:0:0:0:
320,192,53934,1,0,0:0:0:0:
192,192,54121,1,0,0:0:0:0:
64,192,54309,128,0,54684:0:0:0:0:
320,192,54684,1,0,0:0:0:0:
448,192,54871,128,0,55059:0:0:0:0:
192,192,55246,1,0,0:0:0:0:
320,192,55434,128,0,55809:0:0:0:0:
64,192,55809,1,0,0:0:0:0:
320,192,56184,1,0,0:0:0:0:
448,192,56559,1,0,0:0:0:0:
192,192,56934,1,0,0:0:0:0:
320,192,57309,1,0,0:0:0:0:
64,192,57684,1,0,0:0:0:0:
448,192,58059,1,0,0:0:0:0:
192,192,58434,1,0,0:0:0:0:
64,192,58809,1,0,0:0:0:0:
192,192,58996,1,0,0:0:0:0:
320,192,59184,1,0,0:0:0:0:
448,192,59371,1,0,0:0:0:0:
64,192,59559,1,0,0:0:0:0:
320,192,59746,1,0,0:0:0:0:
192,192,59934,1,0,0:0:0:0:
448,192,60121,1,0,0:0:0:0:
64,192,60309,1,0,0:0:0:0:
320,192,60496,1,0,0:0:0:0:
64,192,60684,1,0,0:0:0:0:
320,192,60871,1,0,0:0:0:0:
192,192,61059,1,0,0:0:0:0:
448,192,61246,1,0,0:0:0:0:
192,192,61434,1,0,0:0:0:0:
448,192,61621,1,0,0:0:0:0:
64,192,61809,128,0,64059:0:0:0:0:
320,192,64059,128,0,64809:0:0:0:0:
448,192,64809,128,0,66309:0:0:0:0:
192,192,66309,128,0,67809:0:0:0:0:
448,192,67809,128,0,70059:0:0:0:0:
320,192,70059,128,0,70809:0:0:0:0:
64,192,70809,128,0,71934:0:0:0:0:
192,192,71934,128,0,73059:0:0:0:0:
64,192,73059,128,0,73809:0:0:0:0:
448,192,73809,128,0,74934:0:0:0:0:
320,192,74934,128,0,76809:0:0:0:0:
64,192,76809,128,0,79059:0:0:0:0:
192,192,79059,128,0,79809:0:0:0:0:
448,192,79809,1,0,0:0:0:0:
64,192,79996,1,0,0:0:0:0:
448,192,80184,1,0,0:0:0:0:
64,192,80371,1,0,0:0:0:0:
192,192,80559,128,0,80934:0:0:0:0:
448,192,80934,128,0,82059:0:0:0:0:
64,192,82059,1,0,0:0:0:0:
192,192,82246,1,0,0:0:0:0:
448,192,82434,1,0,0:0:0:0:
320,192,82621,1,0,0:0:0:0:
64,192,82809,128,0,83184:0:0:0:0:
448,192,83184,1,0,0:0:0:0:
320,192,83559,128,0,83934:0:0:0:0:
192,192,83934,1,0,0:0:0:0:
64,192,84121,1,0,0:0:0:0:
448,192,84309,128,0,84684:0:0:0:0:
192,192,84684,1,0,0:0:0:0:
320,192,84871,1,0,0:0:0:0:
64,192,85059,1,0,0:0:0:0:
448,192,85246,1,0,0:0:0:0:
320,192,85434,1,0,0:0:0:0:
192,192,85621,1,0,0:0:0:0:
64,192,85809,128,0,86934:0:0:0:0:
320,192,86934,128,0,88059:0:0:0:0:
64,192,88059,128,0,88809:0:0:0:0:
448,192,88809,128,0,90309:0:0:0:0:
320,192,90309,128,0,91809:0:0:0:0:
448,192,91809,1,0,0:0:0:0:
64,192,92184,1,0,0:0:0:0:
320,192,92559,1,0,0:0:0:0:
192,192,92934,1,0,0:0:0:0:
448,192,93309,1,0,0:0:0:0:
320,192,93684,1,0,0:0:0:0:
192,192,94059,1,0,0:0:0:0:
64,192,94434,1,0,0:0:0:0:
192,192,94621,1,0,0:0:0:0:
320,192,94809,1,0,0:0:0:0:
192,192,95184,1,0,0:0:0:0:
64,192,95559,1,0,0:0:0:0:
448,192,95934,1,0,0:0:0:0:
64,192,96309,128,0,97059:0:0:0:0:
448,192,97059,128,0,97809:0:0:0:0:
192,192,97809,1,0,0:0:0:0:
192,192,98184,1,0,0:0:0:0:
448,192,98559,1,0,0:0:0:0:
448,192,98840,1,0,0:0:0:0:
320,192,99121,1,0,0:0:0:0:
64,192,99309,128,0,99684:0:0:0:0:
448,192,99684,128,0,100059:0:0:0:0:
192,192,100059,1,0,0:0:0:0:
320,192,100621,1,0,0:0:0:0:
64,192,100809,128,0,101184:0:0:0:0:
192,192,101184,128,0,101559:0:0:0:0:
448,192,101559,1,0,0:0:0:0:
320,192,101746,1,0,0:0:0:0:
192,192,101934,128,0,102309:0:0:0:0:
448,192,102309,128,0,102684:0:0:0:0:
64,192,102684,128,0,103059:0:0:0:0:
320,192,103059,128,0,103434:0:0:0:0:
64,192,103434,1,0,0:0:0:0:
64,192,103809,1,0,0:0:0:0:
320,192,104184,1,0,0:0:0:0:
448,192,104559,1,0,0:0:0:0:
192,192,104746,1,0,0:0:0:0:
64,192,104934,1,0,0:0:0:0:
448,192,105121,1,0,0:0:0:0:
320,192,105309,1,0,0:0:0:0:
192,192,105684,1,0,0:0:0:0:
64,192,105871,1,0,0:0:0:0:
448,192,106059,1,0,0:0:0:0:
320,192,106434,1,0,0:0:0:0:
192,192,106809,1,0,0:0:0:0:
448,192,107184,1,0,0:0:0:0:
192,192,107371,1,0,0:0:0:0:
320,192,107559,1,0,0:0:0:0:
192,192,107934,1,0,0:0:0:0:
64,192,108309,1,0,0:0:0:0:
64,192,108684,1,0,0:0:0:0:
448,192,109059,1,0,0:0:0:0:
320,192,109246,1,0,0:0:0:0:
192,192,109434,128,0,109809:0:0:0:0:
320,192,109809,1,0,0:0:0:0:
64,192,110184,1,0,0:0:0:0:
448,192,110559,1,0,0:0:0:0:
64,192,110934,1,0,0:0:0:0:
320,192,111309,1,0,0:0:0:0:
64,192,111496,1,0,0:0:0:0:
192,192,111684,1,0,0:0:0:0:
448,192,112059,1,0,0:0:0:0:
64,192,112434,1,0,0:0:0:0:
64,192,112809,1,0,0:0:0:0:
320,192,113184,1,0,0:0:0:0:
192,192,113371,1,0,0:0:0:0:
448,192,113559,1,0,0:0:0:0:
64,192,113934,1,0,0:0:0:0:
192,192,114309,1,0,0:0:0:0:
64,192,114684,1,0,0:0:0:0:
448,192,115059,1,0,0:0:0:0:
320,192,115246,1,0,0:0:0:0:
192,192,115434,1,0,0:0:0:0:
192,192,115809,1,0,0:0:0:0:
320,192,116184,1,0,0:0:0:0:
448,192,116559,1,0,0:0:0:0:
320,192,116746,1,0,0:0:0:0:
64,192,117121,1,0,0:0:0:0:
448,192,117496,1,0,0:0:0:0:
192,192,117871,1,0,0:0:0:0:
320,192,118059,1,0,0:0:0:0:
64,192,118246,1,0,0:0:0:0:
320,192,118434,1,0,0:0:0:0:
320,192,118809,1,0,0:0:0:0:
448,192,119184,1,0,0:0:0:0:
448,192,119559,1,0,0:0:0:0:
64,192,119934,1,0,0:0:0:0:
64,192,120309,1,0,0:0:0:0:
320,192,120496,1,0,0:0:0:0:
64,192,120684,1,0,0:0:0:0:
320,192,120871,1,0,0:0:0:0:
448,192,121059,128,0,121434:0:0:0:0:
192,192,121434,1,0,0:0:0:0:
64,192,121809,1,0,0:0:0:0:
320,192,122184,1,0,0:0:0:0:
448,192,122559,1,0,0:0:0:0:
192,192,122840,1,0,0:0:0:0:
192,192,123121,1,0,0:0:0:0:
320,192,123309,1,0,0:0:0:0:
64,192,123684,1,0,0:0:0:0:
320,192,124059,1,0,0:0:0:0:
320,192,124340,1,0,0:0:0:0:
64,192,124621,1,0,0:0:0:0:
448,192,124809,1,0,0:0:0:0:
192,192,125184,1,0,0:0:0:0:
320,192,125559,1,0,0:0:0:0:
320,192,125840,1,0,0:0:0:0:
64,192,126121,1,0,0:0:0:0:
192,192,126309,1,0,0:0:0:0:
448,192,126684,1,0,0:0:0:0:
64,192,127059,1,0,0:0:0:0:
64,192,127340,1,0,0:0:0:0:
448,192,127621,1,0,0:0:0:0:
192,192,127809,1,0,0:0:0:0:
64,192,128184,1,0,0:0:0:0:
320,192,128559,1,0,0:0:0:0:
448,192,128840,1,0,0:0:0:0:
448,192,129121,1,0,0:0:0:0:
192,192,129309,1,0,0:0:0:0:
64,192,129684,1,0,0:0:0:0:
192,192,130059,1,0,0:0:0:0:
192,192,130340,1,0,0:0:0:0:
448,192,130621,1,0,0:0:0:0:
320,192,130809,1,0,0:0:0:0:
64,192,131184,1,0,0:0:0:0:
192,192,131559,1,0,0:0:0:0:
448,192,131840,1,0,0:0:0:0:
448,192,132121,1,0,0:0:0:0:
320,192,132309,1,0,0:0:0:0:
64,192,132684,1,0,0:0:0:0:
192,192,133059,1,0,0:0:0:0:
448,192,133434,128,0,133809:0:0:0:0:
320,192,133809,1,0,0:0:0:0:
192,192,134184,1,0,0:0:0:0:
320,192,134559,1,0,0:0:0:0:
448,192,134934,1,0,0:0:0:0:
192,192,135121,1,0,0:0:0:0:
64,192,135309,1,0,0:0:0:0:
320,192,135684,1,0,0:0:0:0:
192,192,136059,1,0,0:0:0:0:
64,192,136434,1,0,0:0:0:0:
320,192,136621,1,0,0:0:0:0:
192,192,136809,1,0,0:0:0:0:
320,192,137184,1,0,0:0:0:0:
192,192,137559,1,0,0:0:0:0:
448,192,137746,1,0,0:0:0:0:
64,192,137934,1,0,0:0:0:0:
192,192,138121,1,0,0:0:0:0:
320,192,138309,1,0,0:0:0:0:
192,192,138684,1,0,0:0:0:0:
320,192,139059,1,0,0:0:0:0:
448,192,139434,1,0,0:0:0:0:
64,192,139621,1,0,0:0:0:0:
448,192,139809,1,0,0:0:0:0:
64,192,140184,1,0,0:0:0:0:
192,192,140559,1,0,0:0:0:0:
448,192,140934,1,0,0:0:0:0:
192,192,141309,1,0,0:0:0:0:
320,192,141684,1,0,0:0:0:0:
64,192,142059,1,0,0:0:0:0:
448,192,142246,1,0,0:0:0:0:
64,192,142434,1,0,0:0:0:0:
448,192,142621,1,0,0:0:0:0:
64,192,142809,1,0,0:0:0:0:
448,192,143184,1,0,0:0:0:0:
64,192,143371,1,0,0:0:0:0:
320,192,143559,1,0,0:0:0:0:
192,192,143934,1,0,0:0:0:0:
64,192,144121,1,0,0:0:0:0:
448,192,144309,1,0,0:0:0:0:
64,192,144684,1,0,0:0:0:0:
320,192,144871,1,0,0:0:0:0:
192,192,145059,1,0,0:0:0:0:
320,192,145434,1,0,0:0:0:0:
64,192,145809,1,0,0:0:0:0:
64,192,146184,1,0,0:0:0:0:
64,192,146559,1,0,0:0:0:0:
64,192,146934,1,0,0:0:0:0:
320,192,147309,1,0,0:0:0:0:
320,192,147684,1,0,0:0:0:0:
320,192,148059,1,0,0:0:0:0:
320,192,148434,1,0,0:0:0:0:
64,192,148621,1,0,0:0:0:0:
448,192,148809,1,0,0:0:0:0:
448,192,149184,1,0,0:0:0:0:
448,192,149559,1,0,0:0:0:0:
448,192,149934,1,0,0:0:0:0:
192,192,150309,1,0,0:0:0:0:
192,192,150684,1,0,0:0:0:0:
192,192,151059,1,0,0:0:0:0:
192,192,151434,1,0,0:0:0:0:
448,192,151621,1,0,0:0:0:0:
64,192,151809,1,0,0:0:0:0:
64,192,152184,1,0,0:0:0:0:
64,192,152559,1,0,0:0:0:0:
64,192,152934,1,0,0:0:0:0:
448,192,153309,1,0,0:0:0:0:
448,192,153684,1,0,0:0:0:0:
448,192,154059,1,0,0:0:0:0:
448,192,154434,1,0,0:0:0:0:
64,192,154621,1,0,0:0:0:0:
320,192,154809,1,0,0:0:0:0:
320,192,155184,1,0,0:0:0:0:
320,192,155559,1,0,0:0:0:0:
320,192,155934,1,0,0:0:0:0:
192,192,156309,1,0,0:0:0:0:
192,192,156684,1,0,0:0:0:0:
448,192,157059,1,0,0:0:0:0:
192,192,157434,1,0,0:0:0:0:
64,192,157809,1,0,0:0:0:0:
320,192,158184,1,0,0:0:0:0:
64,192,158559,1,0,0:0:0:0:
320,192,158934,1,0,0:0:0:0:
448,192,159309,1,0,0:0:0:0:
192,192,159684,1,0,0:0:0:0:
448,192,160059,1,0,0:0:0:0:
192,192,160434,1,0,0:0:0:0:
320,192,160621,1,0,0:0:0:0:
64,192,160809,1,0,0:0:0:0:
448,192,161184,1,0,0:0:0:0:
64,192,161559,1,0,0:0:0:0:
448,192,161934,1,0,0:0:0:0:
320,192,162309,1,0,0:0:0:0:
192,192,162684,1,0,0:0:0:0:
320,192,163059,1,0,0:0:0:0:
192,192,163434,1,0,0:0:0:0:
64,192,163621,1,0,0:0:0:0:
448,192,163809,1,0,0:0:0:0:
192,192,164184,1,0,0:0:0:0:
448,192,164559,1,0,0:0:0:0:
192,192,164934,1,0,0:0:0:0:
64,192,165309,1,0,0:0:0:0:
320,192,165684,1,0,0:0:0:0:
64,192,166059,1,0,0:0:0:0:
320,192,166434,1,0,0:0:0:0:
64,192,166621,1,0,0:0:0:0:
192,192,166809,1,0,0:0:0:0:
320,192,167184,1,0,0:0:0:0:
192,192,167559,1,0,0:0:0:0:
320,192,167934,1,0,0:0:0:0:
448,192,168309,1,0,0:0:0:0:
64,192,168684,1,0,0:0:0:0:
448,192,169059,1,0,0:0:0:0:
64,192,169434,1,0,0:0:0:0:
320,192,169809,128,0,172059:0:0:0:0:
448,192,172059,128,0,172809:0:0:0:0:
192,192,172809,128,0,174309:0:0:0:0:
64,192,174309,128,0,175059:0:0:0:0:
448,192,175059,128,0,175809:0:0:0:0:
64,192,175809,128,0,177684:0:0:0:0:
192,192,177684,128,0,178809:0:0:0:0:
320,192,178809,128,0,179934:0:0:0:0:
448,192,179934,128,0,181059:0:0:0:0:
192,192,181059,128,0,181809:0:0:0:0:
64,192,181809,128,0,184809:0:0:0:0:
320,192,184809,128,0,186309:0:0:0:0:
192,192,186309,128,0,187809:0:0:0:0:
448,192,187809,128,0,190809:0:0:0:0:
64,192,190809,128,0,193434:0:0:0:0:
