osu file format v14

[General]
AudioFilename: audio.mp3
AudioLeadIn: 0
PreviewTime: 72093
Countdown: 0
SampleSet: Normal
StackLeniency: 0.2
Mode: 0
LetterboxInBreaks: 0
WidescreenStoryboard: 1

[Editor]
DistanceSpacing: 0.7
BeatDivisor: 2
GridSize: 4
TimelineZoom: 2

[Metadata]
Title:me & u
TitleUnicode:me & u
Artist:succducc
ArtistUnicode:succducc
Creator:Meii
Version:Normal
Source:succducc
Tags:succducc drop kawaii insane future
BeatmapID:1689676
BeatmapSetID:725216

[Difficulty]
HPDrainRate:3
CircleSize:3
OverallDifficulty:3
ApproachRate:5
SliderMultiplier:1.1
SliderTickRate:1

[Events]
//Background and Video events
0,0,"61940406_p0.jpg",0,0
//Break Periods
2,48293,52893
2,72293,82893
//Storyboard Layer 0 (Background)
//Storyboard Layer 1 (Fail)
//Storyboard Layer 2 (Pass)
//Storyboard Layer 3 (Foreground)
//Storyboard Sound Samples

[TimingPoints]
9093,375,4,1,0,100,1,0
36093,-100,4,1,0,100,0,1
48093,-100,4,1,0,100,0,0

[HitObjects]
120,292,9093,6,0,P|93:176|167:102,1,220
330,107,10593,2,0,P|394:190|364:291,2,220
253,99,12468,1,0,0:0:0:0:
209,162,12843,1,0,0:0:0:0:
194,237,13218,1,0,0:0:0:0:
248,297,13593,2,0,B|297:309|310:264|351:261,1,110
421,284,14343,5,0,0:0:0:0:
472,226,14718,1,0,0:0:0:0:
449,152,15093,2,0,L|516:57,2,110
380,116,16218,1,0,0:0:0:0:
330,55,16593,1,0,0:0:0:0:
253,50,16968,1,0,0:0:0:0:
176,60,17343,2,0,L|40:9,2,110
167,136,18468,6,0,L|266:202,1,110
304,134,19218,2,0,L|395:72,1,110
454,122,19968,2,0,L|469:234,1,110
417,288,20718,1,0,0:0:0:0:
341,304,21093,2,0,L|241:337,1,55
292,282,21468,2,0,L|237:274,1,55
259,242,21843,2,0,L|212:210,1,55
256,192,22405,12,0,23717,0:0:0:0:
342,135,24093,6,0,P|321:192|256:212,1,110
213,172,24843,2,0,P|166:198|150:249,1,110
166,284,25405,1,0,0:0:0:0:
199,303,25593,2,0,P|249:321|298:301,1,110
332,231,26343,2,0,P|400:219|436:255,1,110
418,278,26905,1,0,0:0:0:0:
414,316,27093,2,0,P|468:310|498:263,1,110
491,190,27843,6,0,P|470:133|405:113,1,110
351,102,28593,2,0,P|304:75|288:24,2,110
324,174,29718,1,0,0:0:0:0:
248,159,30093,2,0,L|168:83,1,110
95,58,30843,1,0,0:0:0:0:
66,129,31218,2,0,L|97:243,1,110
95,312,31968,6,0,P|144:334|199:333,1,110
234,319,32530,1,0,0:0:0:0:
265,297,32718,2,0,P|319:288|373:295,1,110
436,250,33468,2,0,P|446:196|439:142,1,110
398,74,34218,1,0,0:0:0:0:
322,57,34593,2,0,P|261:38|187:35,1,110
144,63,35343,2,0,P|136:121|149:180,1,110
218,195,36093,6,0,P|146:255|93:267,1,110
56,274,36843,2,0,P|80:322|122:357,1,110
196,381,37593,1,0,0:0:0:0:
275,354,37968,2,0,P|351:314|387:255,1,110
397,226,38718,1,0,0:0:0:0:
324,201,39093,2,0,P|322:141|361:84,1,110
383,91,39655,1,0,0:0:0:0:
411,65,39843,2,0,P|362:40|308:42,1,110
232,54,40593,5,0,0:0:0:0:
263,124,40968,1,0,0:0:0:0:
233,194,41343,2,0,B|182:246|134:233,1,110
107,207,41905,1,0,0:0:0:0:
74,227,42093,2,0,P|74:303|134:337,1,110
171,333,42843,2,0,P|229:328|304:269,1,110
252,229,43593,2,0,P|307:204|388:226,1,110
353,285,44343,6,0,P|412:308|460:259,1,110
479,263,44905,1,0,0:0:0:0:
490,226,45093,2,0,P|487:171|443:116,1,110
393,82,45843,1,0,0:0:0:0:
334,131,46218,2,0,P|281:168|213:169,1,110
162,151,46968,1,0,0:0:0:0:
91,119,47343,2,0,P|139:63|207:53,1,110
247,64,48093,1,0,0:0:0:0:
485,125,54093,6,0,P|430:79|370:72,1,110
323,40,54843,2,0,P|270:55|231:94,1,110
218,168,55593,2,0,P|192:212|127:243,1,110
82,290,56343,2,0,P|133:318|183:314,1,110
256,192,57093,12,0,59530,0:0:0:0:
249,63,60093,6,0,B|140:-25|33:104|228:308,2,385
263,63,63093,2,0,B|372:-25|479:104|284:308,2,385
202,110,66093,6,0,P|88:259|273:294,1,440
403,230,68343,2,0,P|444:132|335:50,1,220
128,56,70218,2,0,P|98:152|227:283,2,275
171,60,84093,6,0,B|226:209|386:167|425:250,2,330
71,177,87093,2,0,P|107:277|212:312,1,220
268,171,88593,2,0,P|368:206|404:306,1,220
258,256,90093,6,0,L|146:177,1,110
168,192,90843,2,0,L|264:122,1,110
256,127,91593,2,0,L|142:68,1,110
221,32,92343,1,0,0:0:0:0:
