osu file format v14

[General]
AudioFilename: audio.mp3
AudioLeadIn: 0
PreviewTime: 109714
Countdown: 0
SampleSet: Soft
StackLeniency: 0.3
Mode: 0
LetterboxInBreaks: 0
WidescreenStoryboard: 0

[Editor]
DistanceSpacing: 3.5
BeatDivisor: 8
GridSize: 32
TimelineZoom: 2.5

[Metadata]
Title:me & u
TitleUnicode:me & u
Artist:succducc
ArtistUnicode:succducc
Creator:Manu028
Version:3 metri sopra al cielo
Source:
Tags:
BeatmapID:1551006
BeatmapSetID:734644

[Difficulty]
HPDrainRate:5
CircleSize:4
OverallDifficulty:8.5
ApproachRate:9.2
SliderMultiplier:2
SliderTickRate:1

[Events]
//Background and Video events
0,0,"dragon-ball-z-cell-wallpaper-3.jpg",0,0
//Break Periods
2,74008,79238
//Storyboard Layer 0 (Background)
//Storyboard Layer 1 (Fail)
//Storyboard Layer 2 (Pass)
//Storyboard Layer 3 (Foreground)
//Storyboard Sound Samples

[TimingPoints]
1808,375,4,2,1,60,1,0
1808,-100,4,2,1,40,0,0
4058,-66.6666666666667,4,2,1,40,0,0
5183,-133.333333333333,4,2,1,40,0,0
6120,-100,4,2,1,40,0,0
8183,-200,4,2,1,40,0,0
9308,-100,4,2,1,40,0,0
9683,-200,4,2,1,40,0,0
10808,-100,4,2,1,60,0,0
13808,-83.3333333333333,4,2,1,60,0,0
19808,-400,4,2,1,60,0,0
21308,-100,4,2,1,60,0,0
25808,-66.6666666666667,4,2,1,60,0,1
34245,-100,4,2,1,60,0,1
34995,-200,4,2,1,60,0,1
35183,-100,4,2,1,60,0,1
35370,-200,4,2,1,60,0,1
35558,-100,4,2,1,60,0,1
35933,-50,4,2,1,60,0,1
36308,-66.6666666666667,4,2,1,60,0,1
37058,-55.5555555555556,4,2,1,60,0,1
37808,-100,4,2,1,60,0,1
38745,-66.6666666666667,4,2,1,60,0,1
39495,-100,4,2,1,60,0,1
40245,-66.6666666666667,4,2,1,60,0,1
43995,-55.5555555555556,4,2,1,60,0,1
44745,-66.6666666666667,4,2,1,60,0,1
49808,-400,4,2,1,60,0,0
53370,-250,4,2,1,60,0,0
55808,-66.6666666666667,4,2,1,60,0,0
61808,-166.666666666667,4,2,1,60,0,0
67433,-100,4,2,1,60,0,0
72683,-80,4,2,1,60,0,0
72870,-66.6666666666667,4,2,1,60,0,0
73058,-57.1428571428571,4,2,1,60,0,0
73433,-50,4,2,1,60,0,0
79808,-100,4,2,1,60,0,0
80370,-133.333333333333,4,2,1,60,0,0
81683,-58.8235294117647,4,2,1,60,0,0
82058,-100,4,2,1,60,0,0
82808,-200,4,2,1,60,0,0
83933,-100,4,2,1,60,0,0
84308,-200,4,2,1,60,0,0
85808,-100,4,2,1,60,0,0
97808,-66.6666666666667,4,2,1,60,0,0
100808,-133.333333333333,4,2,1,60,0,1
104558,-100,4,2,1,60,0,1
105120,-133.333333333333,4,2,1,60,0,1
109808,-66.6666666666667,4,2,1,60,0,1
114308,-133.333333333333,4,2,1,60,0,1
115433,-100,4,2,1,60,0,1
115808,-66.6666666666667,4,2,1,60,0,1
120401,-66.6666666666667,4,2,1,5,0,1
120495,-66.6666666666667,4,2,1,60,0,1
120589,-66.6666666666667,4,2,1,5,0,1
120683,-66.6666666666667,4,2,1,60,0,1
120776,-66.6666666666667,4,2,1,5,0,1
120870,-66.6666666666667,4,2,1,60,0,1
120964,-66.6666666666667,4,2,1,5,0,1
121058,-66.6666666666667,4,2,1,60,0,1
121433,-66.6666666666667,4,2,1,60,0,0
122558,-200,4,2,1,60,0,0
123308,-66.6666666666667,4,2,1,60,0,0
124058,-200,4,2,1,60,0,0
124808,-66.6666666666667,4,2,1,60,0,0
127808,-200,4,2,1,60,0,0
129308,-66.6666666666667,4,2,1,60,0,0
129495,-200,4,2,1,60,0,0
129683,-66.6666666666667,4,2,1,60,0,0
129870,-200,4,2,1,60,0,0
130433,-66.6666666666667,4,2,1,60,0,0
144308,-200,4,2,1,60,0,0
145808,-66.6666666666667,4,2,1,60,0,0
150308,-200,4,2,1,60,0,0
151808,-66.6666666666667,4,2,1,60,0,0
155558,-200,4,2,1,60,0,0
155933,-66.6666666666667,4,2,1,60,0,0
157245,-200,4,2,1,60,0,0
160433,-66.6666666666667,4,2,1,60,0,0
160808,-200,4,2,1,60,0,0
166808,-66.6666666666667,4,2,1,60,0,0

[HitObjects]
38,134,1808,6,0,B|12:226|70:211|48:318,1,150
62,284,2183,1,0,0:0:0:0:
71,287,2276,1,0,0:0:0:0:
80,291,2370,1,0,0:0:0:0:
89,294,2464,2,0,P|166:308|207:242,1,150
330,138,2933,5,0,0:0:0:0:
330,138,3026,1,0,0:0:0:0:
330,138,3120,2,0,L|321:260,1,100
494,360,3495,2,0,L|485:238,1,100
342,48,3870,5,0,0:0:0:0:
342,48,3964,1,0,0:0:0:0:
342,48,4058,2,0,P|270:72|239:139,1,150
318,287,4433,2,0,L|329:137,1,150
418,56,4808,5,0,0:0:0:0:
409,191,4995,1,0,0:0:0:0:
409,191,5089,1,0,0:0:0:0:
409,191,5183,2,0,L|397:340,1,150
225,285,5745,2,0,L|231:210,1,75.0000028610231
74,59,6120,2,0,P|73:93|78:125,1,50
101,226,6308,6,0,P|160:162|175:85,2,150
11,299,7058,2,0,B|42:340|42:340|109:329,1,100
232,185,7433,2,0,L|224:293,1,100
200,368,7808,6,0,P|259:366|291:332,1,100
285,22,8183,2,0,L|290:81,1,50
373,37,8558,2,0,L|378:96,1,50
461,52,8933,2,0,L|466:111,1,50
414,259,9308,6,0,P|464:227|474:182,1,100
197,7,9683,2,0,L|202:66,1,50
285,22,10058,2,0,L|290:81,1,50
373,37,10433,2,0,L|378:96,1,50
159,164,10808,6,0,P|132:93|83:217,1,300,0|0,3:0|0:0,0:0:0:0:
167,329,11558,2,0,B|167:337|143:357|143:357|107:360|81:291|146:249|146:249|217:243|243:190,1,300,0|0,3:0|0:0,0:0:0:0:
283,82,12308,6,0,P|266:20|222:-1,1,100,0|0,3:0|0:0,0:0:0:0:
356,116,12683,2,0,P|401:70|450:74,1,100,0|0,3:0|0:0,0:0:0:0:
191,82,13058,6,0,P|128:65|88:93,1,100,0|0,3:0|0:0,0:0:0:0:
433,158,13433,2,0,P|494:175|516:219,1,100,0|0,3:0|0:0,0:0:0:0:
294,374,13808,6,0,P|267:316|287:260,1,119.999996337891,0|0,3:0|0:0,0:0:0:0:
137,131,14183,2,0,L|150:265,1,119.999996337891
159,369,14558,1,0,0:0:0:0:
51,320,14746,1,0,0:0:0:0:
148,250,14933,1,0,0:0:0:0:
245,180,15120,2,0,P|205:62|88:33,1,239.999992675781
334,182,15683,6,0,B|354:218|354:218|354:326,1,119.999996337891
427,174,16058,2,0,B|407:138|407:138|407:30,1,119.999996337891
503,232,16433,1,0,0:0:0:0:
501,243,16526,1,0,0:0:0:0:
499,254,16620,1,0,0:0:0:0:
497,265,16714,1,0,0:0:0:0:
512,378,16808,6,0,P|499:289|445:370,1,239.999992675781
334,182,17370,1,0,0:0:0:0:
324,277,17558,1,0,0:0:0:0:
322,291,17651,1,0,0:0:0:0:
321,306,17745,1,0,0:0:0:0:
319,321,17839,1,0,0:0:0:0:
318,336,17933,1,0,0:0:0:0:
133,267,18120,5,0,0:0:0:0:
133,267,18214,1,0,0:0:0:0:
133,267,18308,2,0,B|125:304|137:331|137:331|168:331|195:310,1,119.999996337891
9,247,18683,2,0,P|1:316|24:394,1,119.999996337891
219,218,19058,2,0,P|191:154|132:98,1,119.999996337891
58,29,19433,2,0,P|44:83|63:147,1,119.999996337891
147,293,19808,6,0,L|141:257,1,25,0|0,3:0|0:0,0:0:0:0:
223,242,20183,2,0,L|217:206,1,25,8|0,3:2|0:0,0:0:0:0:
299,191,20558,2,0,L|293:155,1,25,0|0,3:0|0:0,0:0:0:0:
375,140,20933,2,0,L|369:104,1,25,8|0,3:2|0:0,0:0:0:0:
446,64,21308,6,0,L|462:162,1,100,0|0,3:0|0:0,0:0:0:0:
370,115,21683,2,0,L|386:213,1,100,8|0,3:2|0:0,0:0:0:0:
294,166,22058,2,0,L|310:264,1,100,0|0,3:0|0:0,0:0:0:0:
218,217,22433,2,0,L|234:315,1,100,8|0,3:2|0:0,0:0:0:0:
142,268,22808,5,0,3:0:0:0:
218,217,22995,1,0,3:0:0:0:
136,177,23183,1,0,3:0:0:0:
60,228,23370,1,0,3:0:0:0:
66,319,23558,1,0,3:0:0:0:
147,359,23745,1,0,3:0:0:0:
228,319,23933,1,0,3:0:0:0:
309,359,24120,1,0,3:0:0:0:
417,341,24308,5,0,3:0:0:0:
424,308,24401,1,0,3:0:0:0:
423,275,24495,1,0,3:0:0:0:
413,243,24589,1,0,3:0:0:0:
278,146,24683,5,0,3:0:0:0:
261,174,24776,1,0,3:0:0:0:
254,206,24870,1,0,3:0:0:0:
255,240,24964,1,0,3:0:0:0:
387,152,25058,5,0,3:0:0:0:
383,114,25151,1,0,3:0:0:0:
367,81,25245,1,0,3:0:0:0:
341,54,25339,1,0,3:0:0:0:
307,39,25433,1,0,3:0:0:0:
270,35,25526,1,0,3:0:0:0:
234,45,25620,1,0,3:0:0:0:
203,67,25714,1,0,3:0:0:0:
182,97,25808,6,0,L|148:259,1,150.000005722046,0|0,3:0|0:0,0:0:0:0:
430,249,26183,2,0,P|476:203|470:93,1,150.000005722046,0|0,3:0|0:0,0:0:0:0:
379,155,26558,2,0,P|322:99|342:191,2,225.000008583069,0|0|0,3:0|3:0|3:0,0:0:0:0:
332,320,27308,6,0,B|296:343|273:340|273:340|248:329|248:329|201:346|144:333,1,150.000005722046,0|0,3:0|0:0,0:0:0:0:
6,247,27683,2,0,P|68:185|73:247,1,150.000005722046,0|0,3:0|0:0,0:0:0:0:
68,359,28058,2,0,P|85:322|92:276,1,75.0000028610231,0|0,3:0|0:0,0:0:0:0:
155,25,28245,2,0,L|164:108,1,75.0000028610231,0|0,0:0|3:0,0:0:0:0:
189,226,28433,1,0,0:0:0:0:
261,244,28526,1,0,0:0:0:0:
333,229,28620,1,0,3:0:0:0:
393,184,28714,1,0,0:0:0:0:
427,118,28808,6,0,P|335:102|259:133,1,150.000005722046,0|0,3:0|0:0,0:0:0:0:
332,320,29183,2,0,P|404:337|476:320,1,150.000005722046,0|0,3:0|0:0,0:0:0:0:
163,99,29558,2,0,L|172:182,1,75.0000028610231,0|0,3:0|0:0,0:0:0:0:
69,334,29745,5,0,0:0:0:0:
69,334,29839,1,0,3:0:0:0:
69,334,29933,2,0,L|78:260,1,75.0000028610231,0|0,3:0|0:0,0:0:0:0:
291,43,30120,2,0,L|282:117,1,75.0000028610231,0|0,3:0|0:0,0:0:0:0:
4,115,30308,6,0,B|16:70|16:70|105:15,1,150.000005722046,0|0,3:0|0:0,0:0:0:0:
307,210,30683,2,0,B|262:222|262:222|169:172,1,150.000005722046,0|0,3:0|0:0,0:0:0:0:
92,125,31058,5,0,3:0:0:0:
258,294,31245,1,0,0:0:0:0:
246,107,31433,1,0,0:0:0:0:
248,144,31526,1,0,0:0:0:0:
251,181,31620,1,0,3:0:0:0:
253,219,31714,1,0,0:0:0:0:
258,294,31808,5,0,3:0:0:0:
369,250,31995,1,0,0:0:0:0:
249,317,32183,5,0,3:0:0:0:
360,273,32370,1,0,0:0:0:0:
240,340,32558,5,0,3:0:0:0:
351,296,32745,1,0,0:0:0:0:
462,252,32933,1,0,0:0:0:0:
351,296,33120,1,0,3:0:0:0:
354,310,33214,1,0,0:0:0:0:
357,324,33308,5,0,3:0:0:0:
313,213,33495,1,0,0:0:0:0:
367,285,33683,5,0,3:0:0:0:
323,174,33870,1,0,0:0:0:0:
377,246,34058,5,0,3:0:0:0:
333,135,34245,2,0,L|316:87,1,50,0|0,0:0|3:0,0:0:0:0:
202,13,34433,1,0,0:0:0:0:
153,20,34526,1,0,0:0:0:0:
112,49,34620,1,0,3:0:0:0:
90,93,34714,1,0,0:0:0:0:
90,142,34808,6,0,L|151:126,1,50,0|0,3:0|0:0,0:0:0:0:
333,135,34995,2,0,L|308:141,1,25
129,231,35183,2,0,L|190:215,1,50,0|0,3:0|0:0,0:0:0:0:
372,224,35370,2,0,L|347:230,1,25
168,320,35558,2,0,L|229:304,1,50,0|0,3:0|0:0,0:0:0:0:
435,306,35745,2,0,L|374:322,1,50,0|0,0:0|3:0,0:0:0:0:
0,363,35933,2,0,P|6:293|34:373,1,200,0|0,0:0|3:0,0:0:0:0:
63,355,36214,1,0,0:0:0:0:
63,355,36308,6,0,P|87:308|97:253,1,75.0000028610231,0|0,3:0|0:0,0:0:0:0:
101,91,36495,6,0,P|145:118|182:161,1,75.0000028610231
0,258,36683,6,0,P|44:230|81:187,1,75.0000028610231,0|0,3:0|0:0,0:0:0:0:
190,109,36870,6,0,P|214:155|224:210,1,75.0000028610231
202,340,37058,6,0,L|215:231,1,89.9999972534181,0|0,3:0|0:0,0:0:0:0:
331,175,37245,6,0,L|318:284,1,89.9999972534181
309,353,37433,1,0,0:0:0:0:
326,350,37526,1,0,0:0:0:0:
343,347,37620,1,0,0:0:0:0:
360,344,37714,1,0,0:0:0:0:
456,368,37808,5,0,0:0:0:0:
474,171,37995,5,0,0:0:0:0:
481,220,38088,1,0,0:0:0:0:
489,269,38182,1,0,0:0:0:0:
390,118,38370,5,0,0:0:0:0:
397,167,38463,1,0,0:0:0:0:
405,216,38557,1,0,0:0:0:0:
306,65,38745,6,0,P|271:121|255:70,1,150,0|0,3:0|3:0,3:0:0:0:
247,86,39026,1,0,3:0:0:0:
241,100,39120,1,0,3:0:0:0:
235,114,39214,1,0,3:0:0:0:
229,128,39308,1,0,3:0:0:0:
113,87,39495,5,0,0:0:0:0:
120,136,39588,1,0,0:0:0:0:
128,185,39682,1,0,0:0:0:0:
214,30,39870,5,0,0:0:0:0:
221,79,39963,1,0,0:0:0:0:
229,128,40057,1,0,0:0:0:0:
12,144,40245,6,0,P|2:217|72:266,1,150.000005722046,0|0,3:0|3:0,3:0:0:0:
50,278,40526,1,0,3:0:0:0:
46,292,40620,1,0,3:0:0:0:
42,306,40714,1,0,3:0:0:0:
38,320,40808,1,0,3:0:0:0:
173,331,40995,5,0,0:0:0:0:
244,338,41088,1,0,0:0:0:0:
292,284,41182,1,0,0:0:0:0:
456,240,41370,5,0,0:0:0:0:
397,197,41463,1,0,0:0:0:0:
329,220,41557,1,0,0:0:0:0:
456,240,41745,6,0,P|506:152|480:61,1,150.000005722046,0|0,3:0|3:0,3:0:0:0:
480,109,42026,1,0,3:0:0:0:
457,112,42120,1,0,3:0:0:0:
434,115,42214,1,0,3:0:0:0:
411,118,42308,1,0,3:0:0:0:
111,21,42495,5,0,0:0:0:0:
138,86,42588,1,0,0:0:0:0:
209,101,42682,1,0,0:0:0:0:
329,220,42870,5,0,0:0:0:0:
337,147,42963,1,0,0:0:0:0:
283,100,43057,1,0,0:0:0:0:
44,207,43245,6,0,P|133:217|188:184,1,150.000005722046,0|0,3:0|3:0,3:0:0:0:
189,167,43526,1,0,3:0:0:0:
195,145,43620,1,0,3:0:0:0:
202,123,43714,1,0,3:0:0:0:
209,101,43808,1,0,3:0:0:0:
343,169,43995,5,0,0:0:0:0:
299,240,44088,1,0,0:0:0:0:
358,299,44182,1,0,0:0:0:0:
441,289,44370,5,0,0:0:0:0:
485,218,44463,1,0,0:0:0:0:
426,158,44557,1,0,0:0:0:0:
183,188,44745,6,0,L|149:349,1,150.000005722046,0|0,3:0|3:0,3:0:0:0:
177,318,45026,1,0,3:0:0:0:
202,301,45120,1,0,3:0:0:0:
227,284,45214,1,0,3:0:0:0:
252,267,45308,1,0,3:0:0:0:
85,68,45495,5,0,0:0:0:0:
41,139,45588,1,0,0:0:0:0:
100,198,45682,1,0,0:0:0:0:
183,188,45870,5,0,0:0:0:0:
227,117,45963,1,0,0:0:0:0:
168,57,46057,1,0,0:0:0:0:
426,158,46245,6,0,L|460:-3,1,150.000005722046,0|0,3:0|3:0,3:0:0:0:
432,28,46526,1,0,3:0:0:0:
407,45,46620,1,0,3:0:0:0:
382,62,46714,1,0,3:0:0:0:
357,79,46808,1,0,3:0:0:0:
197,225,46995,5,0,0:0:0:0:
252,267,47088,1,0,0:0:0:0:
321,245,47182,1,0,0:0:0:0:
485,288,47370,5,0,0:0:0:0:
455,221,47463,1,0,0:0:0:0:
385,207,47557,1,0,0:0:0:0:
252,267,47745,2,0,P|245:173|159:170,1,150.000005722046,0|0,3:0|3:0,3:0:0:0:
197,225,48026,5,0,3:0:0:0:
177,236,48120,1,0,3:0:0:0:
157,247,48214,1,0,3:0:0:0:
138,259,48308,1,0,3:0:0:0:
453,66,48495,5,0,0:0:0:0:
512,126,48588,1,0,0:0:0:0:
468,197,48682,1,0,0:0:0:0:
385,207,48870,5,0,0:0:0:0:
326,148,48963,1,0,0:0:0:0:
370,77,49057,1,0,0:0:0:0:
385,207,49245,2,0,B|366:234|388:278|388:278|367:313|381:353,1,150.000005722046,0|0,3:0|3:0,3:0:0:0:
415,287,49526,1,0,3:0:0:0:
443,297,49620,1,0,3:0:0:0:
470,308,49714,1,0,3:0:0:0:
497,319,49808,6,0,P|510:285|512:271,1,50
305,274,50370,5,0,0:0:0:0:
183,207,50558,1,0,0:0:0:0:
152,139,50745,1,0,0:0:0:0:
195,78,50933,1,0,0:0:0:0:
108,199,51120,1,0,0:0:0:0:
108,199,51214,2,0,L|99:238,1,37.5
313,310,51683,5,0,0:0:0:0:
306,283,51870,1,0,0:0:0:0:
195,78,52058,2,0,P|221:75|243:79,2,37.5
99,235,52808,5,0,0:0:0:0:
357,163,53183,5,0,0:0:0:0:
357,163,53276,1,0,0:0:0:0:
357,163,53370,2,0,L|351:143,1,20
313,310,53745,5,0,0:0:0:0:
313,310,53839,1,0,0:0:0:0:
313,310,53933,1,0,0:0:0:0:
358,250,54120,1,0,0:0:0:0:
284,242,54308,1,0,0:0:0:0:
495,164,54683,5,0,0:0:0:0:
494,176,54777,1,0,0:0:0:0:
493,188,54871,1,0,0:0:0:0:
338,80,55058,1,0,0:0:0:0:
313,310,55245,5,0,0:0:0:0:
283,317,55339,1,0,0:0:0:0:
252,324,55433,1,0,0:0:0:0:
221,331,55526,1,0,0:0:0:0:
190,338,55620,1,0,0:0:0:0:
159,345,55714,1,0,0:0:0:0:
128,352,55808,6,0,P|103:315|97:250,1,75.0000028610231
216,121,55995,2,0,P|219:165|191:224,1,75.0000028610231
46,144,56183,5,0,0:0:0:0:
46,144,56276,1,0,0:0:0:0:
46,144,56370,1,0,0:0:0:0:
46,144,56464,1,0,0:0:0:0:
46,144,56558,2,0,L|65:60,1,75.0000028610231
338,80,56745,5,0,0:0:0:0:
338,80,56838,1,0,0:0:0:0:
338,80,56933,2,0,P|352:129|344:177,1,75.0000028610231
423,308,57120,2,0,L|441:147,1,150.000005722046
266,132,57495,5,0,0:0:0:0:
266,132,57589,1,0,0:0:0:0:
266,132,57683,2,0,P|272:185|296:224,1,75.0000028610231
439,158,57870,2,0,L|448:77,1,75.0000028610231
268,31,58058,2,0,P|214:43|183:66,1,75.0000028610231
389,212,58245,2,0,P|429:174|444:138,1,75.0000028610231
266,132,58433,2,0,L|259:362,1,225.000008583069
120,369,58808,5,0,0:0:0:0:
120,369,58901,1,0,0:0:0:0:
120,369,58995,2,0,P|123:324|146:288,1,75.0000028610231
458,191,59183,2,0,P|417:210|374:208,1,75.0000028610231
165,100,59370,1,0,0:0:0:0:
165,100,59464,1,0,0:0:0:0:
165,100,59558,2,0,P|241:29|361:83,2,225.000008583069
266,132,60214,1,0,0:0:0:0:
266,132,60308,6,0,L|262:247,1,75.0000028610231
432,377,60495,2,0,L|428:262,1,75.0000028610231
179,191,60683,6,0,P|184:237|220:286,1,75.0000028610231
512,217,60870,5,0,0:0:0:0:
512,217,60964,1,0,0:0:0:0:
512,217,61058,2,0,P|471:147|329:164,2,225.000008583069
203,357,61808,6,0,B|141:385|89:345|89:277|138:243|138:243|128:219|81:194|50:211|19:250|19:250|28:172|-14:137|7:80|57:78|82:51|82:51|119:91|77:134,1,659.999979858399
175,155,64058,1,0,0:0:0:0:
306,111,64245,1,0,0:0:0:0:
320,116,64339,1,0,0:0:0:0:
334,121,64433,1,0,0:0:0:0:
347,126,64526,1,0,0:0:0:0:
361,131,64620,1,0,0:0:0:0:
495,174,64808,6,0,B|479:149|489:103|489:103|449:165|437:223|472:291|480:313|480:313|461:297|434:281|406:288|379:295|364:317,1,419.999987182618
279,364,66308,5,0,0:0:0:0:
282,349,66401,1,0,0:0:0:0:
285,334,66495,1,0,0:0:0:0:
288,320,66589,1,0,0:0:0:0:
292,305,66683,1,0,0:0:0:0:
162,96,66870,5,0,0:0:0:0:
165,111,66963,1,0,0:0:0:0:
168,126,67057,1,0,0:0:0:0:
171,140,67151,1,0,0:0:0:0:
175,155,67245,1,0,0:0:0:0:
297,179,67433,2,0,P|252:135|170:159,1,150
228,200,67808,6,0,P|264:124|365:195,1,200
292,305,68370,5,0,0:0:0:0:
388,285,68558,1,0,0:0:0:0:
456,214,68745,1,0,0:0:0:0:
472,117,68933,1,0,0:0:0:0:
430,28,69120,2,0,P|383:77|473:116,1,200
456,214,69683,2,0,L|483:332,1,100
388,285,70058,1,0,0:0:0:0:
292,305,70245,5,0,0:0:0:0:
282,287,70339,1,0,0:0:0:0:
272,269,70433,2,0,P|265:296|252:318,1,50
175,381,70620,2,0,P|156:350|152:311,1,50
96,169,70808,5,0,0:0:0:0:
184,119,70995,1,0,0:0:0:0:
74,175,71183,1,0,0:0:0:0:
184,219,71370,1,0,0:0:0:0:
52,181,71558,1,0,0:0:0:0:
272,69,71745,1,0,0:0:0:0:
30,187,71933,1,0,0:0:0:0:
272,269,72120,1,0,0:0:0:0:
8,193,72308,5,0,0:0:0:0:
12,173,72401,1,0,0:0:0:0:
16,153,72495,2,0,P|25:122|55:78,1,50
272,69,72683,6,0,P|299:87|318:110,1,62.5
190,293,72870,2,0,P|182:247|185:211,1,75.0000028610231
405,61,73058,6,0,P|414:110|405:161,1,87.500000834465
87,217,73245,2,0,P|103:170|137:130,1,87.500000834465
465,232,73433,2,0,P|409:244|354:235,1,100
272,69,73620,2,0,L|282:180,1,100
296,366,73808,1,0,0:0:0:0:
136,341,79808,6,0,P|141:317|141:281,1,50
116,149,79995,2,0,P|103:165|96:196,1,50
301,312,80183,2,0,P|283:293|262:279,1,50,0|0,0:0|0:3,0:0:0:0:
194,219,80370,2,0,P|208:165|104:40,2,225.000008583069
300,311,81683,6,0,P|306:244|405:313,1,170.000003242493
416,384,82058,2,0,P|418:351|411:323,1,50
489,318,82245,2,0,P|474:288|454:267,1,50
333,11,82433,2,0,P|331:44|338:72,1,50
260,77,82620,2,0,P|274:106|294:127,1,50
383,122,82808,6,0,P|360:186|200:173,1,250
117,73,83933,6,0,P|123:92|123:122,1,50
27,147,84120,2,0,P|31:166|46:193,1,50
48,384,84308,2,0,P|95:324|121:191,1,200
276,50,85808,5,0,0:0:0:0:
278,59,85901,1,0,0:0:0:0:
280,68,85995,1,0,0:0:0:0:
282,77,86089,1,0,0:0:0:0:
284,86,86183,2,0,P|280:134|257:182,1,100
333,265,86558,5,0,0:0:0:0:
380,200,86745,1,0,0:0:0:0:
459,208,86933,1,0,0:0:0:0:
333,265,87120,6,0,L|322:382,1,100
260,274,87495,2,0,L|249:391,1,100
187,283,87870,2,0,L|176:400,1,100
48,76,88245,5,0,0:0:0:0:
133,128,88433,1,0,0:0:0:0:
128,142,88526,1,0,0:0:0:0:
123,156,88620,1,0,0:0:0:0:
118,170,88714,1,0,0:0:0:0:
114,184,88808,5,0,0:0:0:0:
209,211,88995,1,0,0:0:0:0:
424,84,89183,5,0,0:0:0:0:
281,124,89370,2,0,P|356:160|421:62,1,200
210,72,89933,2,0,P|197:101|193:157,1,50
395,248,90120,2,0,P|419:235|446:193,1,50
281,124,90308,5,0,0:0:0:0:
318,155,90401,1,0,0:0:0:0:
367,157,90495,1,0,0:0:0:0:
408,129,90589,1,0,0:0:0:0:
423,83,90683,1,0,0:0:0:0:
349,87,90870,5,0,0:0:0:0:
302,261,91058,1,0,0:0:0:0:
193,118,91245,1,0,0:0:0:0:
293,311,91433,1,0,0:0:0:0:
202,68,91620,1,0,0:0:0:0:
70,242,91808,6,0,P|44:287|-14:311,1,100,0|0,3:0|0:0,0:0:0:0:
127,176,92183,2,0,P|152:221|144:283,1,100,8|0,3:2|0:0,0:0:0:0:
283,93,92558,6,0,P|309:48|367:24,1,100,0|0,3:0|0:0,0:0:0:0:
226,159,92933,2,0,P|200:113|208:51,1,100,8|0,3:2|0:0,0:0:0:0:
365,107,93308,6,0,L|381:217,1,100,0|0,3:0|0:0,0:0:0:0:
316,359,93683,2,0,L|300:249,1,100,8|0,3:2|0:0,0:0:0:0:
484,197,94058,6,0,L|468:307,1,100,0|0,3:0|0:0,0:0:0:0:
316,359,94433,5,0,3:0:0:0:
232,235,94620,1,0,3:0:0:0:
297,100,94808,6,0,P|350:105|395:77,1,100,0|0,3:0|0:0,0:0:0:0:
215,207,95183,2,0,P|165:204|126:175,1,100,8|0,3:2|0:0,0:0:0:0:
481,106,95558,6,0,P|486:56|464:12,1,100,0|0,3:0|0:0,0:0:0:0:
176,40,95933,2,0,P|170:89|192:133,1,100,8|0,3:2|0:0,0:0:0:0:
432,320,96308,6,0,L|376:314,1,50
212,313,96495,2,0,L|268:307,1,50
452,334,96683,2,0,L|396:328,1,50
192,327,96870,2,0,L|248:321,1,50
472,348,97058,2,0,L|416:342,1,50
172,341,97245,2,0,L|228:335,1,50
472,348,97433,5,0,0:0:0:0:
477,298,97526,1,0,0:0:0:0:
482,248,97620,1,0,0:0:0:0:
488,198,97714,1,0,0:0:0:0:
493,149,97808,6,0,B|454:122|424:133|424:133|415:121|415:121|370:118|326:90,1,150.000005722046,0|0,3:0|0:0,0:0:0:0:
119,14,98183,2,0,P|69:93|68:195,1,150.000005722046,0|0,3:0|0:0,0:0:0:0:
221,335,98558,2,0,P|249:248|169:128,2,225.000008583069,0|0|0,3:0|3:0|3:0,3:0:0:0:
61,147,99308,6,0,L|75:206,2,50.0000019073487,0|0|0,0:0|0:0|0:0,0:0:0:0:
80,224,99495,1,0,0:0:0:0:
221,335,99683,1,0,0:0:0:0:
245,284,99776,1,0,0:0:0:0:
247,228,99870,1,0,0:0:0:0:
226,176,99964,1,0,0:0:0:0:
186,137,100058,6,0,P|168:180|306:155,1,300.000011444092,8|0,3:2|0:0,0:0:0:0:
389,44,100620,2,0,P|419:71|433:113,1,75.0000028610231
493,329,100808,6,0,B|532:276|520:231|520:231|486:246|379:233|404:385,1,300.000011444092,0|8,3:0|0:2,0:0:0:0:
241,185,101745,1,0,3:0:0:0:
237,54,101933,2,0,P|154:44|90:107,1,150.000005722046,0|0,3:0|0:0,0:0:0:0:
50,247,102495,1,8,3:2:0:0:
246,259,102683,2,0,L|238:157,1,75.0000028610231,0|0,3:0|0:0,0:0:0:0:
347,111,103058,2,0,L|341:185,1,75.0000028610231,8|0,3:2|0:0,0:0:0:0:
138,334,103433,2,0,L|143:259,1,75.0000028610231,0|0,3:0|0:0,0:0:0:0:
181,114,103808,5,0,0:0:0:0:
138,334,103995,2,0,L|140:296,1,37.5000014305115,0|0,3:0|0:0,0:0:0:0:
238,307,104183,2,0,L|221:273,1,37.5000014305115,0|0,3:0|0:0,0:0:0:0:
311,233,104370,2,0,L|279:212,1,37.5000014305115,0|0,3:0|0:0,0:0:0:0:
55,98,104558,2,0,L|45:211,1,100,8|0,3:2|0:0,0:0:0:0:
37,296,104933,1,0,0:0:0:0:
285,22,105120,6,0,L|282:60,1,37.5000014305115,8|0,3:2|0:0,0:0:0:0:
385,48,105308,2,0,L|364:79,1,37.5000014305115,0|0,3:0|0:0,0:0:0:0:
459,122,105495,2,0,L|425:139,1,37.5000014305115,0|0,3:0|0:0,0:0:0:0:
486,223,105683,2,0,L|448:221,1,37.5000014305115,0|0,3:0|0:0,0:0:0:0:
458,323,105870,2,0,L|426:302,1,37.5000014305115,0|0,3:0|0:0,0:0:0:0:
221,273,106058,6,0,L|226:222,1,37.5000014305115,8|0,3:2|0:0,0:0:0:0:
311,217,106245,2,0,L|306:166,1,37.5000014305115,0|0,3:0|0:0,0:0:0:0:
134,203,106433,6,0,L|139:152,1,37.5000014305115,0|0,3:0|0:0,0:0:0:0:
224,147,106620,2,0,L|219:96,1,37.5000014305115,0|0,3:0|0:0,0:0:0:0:
212,33,106808,1,0,0:0:0:0:
137,165,106995,6,0,L|134:203,1,37.5000014305115,8|0,3:2|0:0,0:0:0:0:
62,257,107183,2,0,L|59:295,1,37.5000014305115,0|0,3:0|0:0,0:0:0:0:
212,33,107370,1,0,0:0:0:0:
230,184,107558,6,0,L|226:221,1,37.5000014305115,8|0,3:2|0:0,0:0:0:0:
155,276,107746,2,0,L|151:313,1,37.5000014305115,0|0,3:0|0:0,0:0:0:0:
305,92,107933,2,0,L|301:129,1,37.5000014305115,0|0,3:0|0:0,0:0:0:0:
230,184,108121,2,0,L|226:221,1,37.5000014305115,0|0,3:0|0:0,0:0:0:0:
215,332,108308,6,0,P|283:321|348:244,2,150.000005722046,0|0|8,3:0|3:0|3:2,3:0:0:0:
425,217,109245,2,0,L|447:373,1,150.000005722046,0|0,3:0|3:0,3:0:0:0:
408,129,109808,5,0,0:0:0:0:
383,59,109901,1,0,0:0:0:0:
324,14,109995,1,0,0:0:0:0:
250,10,110089,1,0,0:0:0:0:
187,48,110183,6,0,P|207:95|244:120,1,75.0000028610231,0|0,3:0|0:0,0:0:0:0:
323,305,110370,2,0,P|408:265|425:203,2,150.000005722046,0|8|0,3:0|3:2|3:0,3:0:0:0:
192,299,110933,2,0,P|151:292|113:268,1,75.0000028610231,0|0,3:0|0:0,0:0:0:0:
208,155,111120,5,0,0:0:0:0:
200,176,111214,1,0,0:0:0:0:
192,197,111308,1,0,0:0:0:0:
103,178,111401,1,0,0:0:0:0:
34,236,111495,1,0,0:0:0:0:
37,326,111589,1,0,0:0:0:0:
111,379,111683,6,0,P|152:386|197:376,1,75.0000028610231,0|0,3:0|0:0,0:0:0:0:
257,69,111870,6,0,P|289:103|274:216,2,150.000005722046,0|8|0,3:0|3:2|3:0,3:0:0:0:
56,40,112433,2,0,P|63:73|104:112,1,75.0000028610231,0|0,3:0|0:0,0:0:0:0:
453,199,112620,5,0,0:0:0:0:
456,176,112714,1,0,0:0:0:0:
459,153,112808,1,0,0:0:0:0:
373,178,112901,1,0,0:0:0:0:
354,266,112995,1,0,0:0:0:0:
421,325,113089,1,0,0:0:0:0:
505,295,113183,6,0,P|477:266|445:251,1,75.0000028610231,0|0,3:0|0:0,0:0:0:0:
223,291,113370,2,0,P|218:326|220:371,1,75.0000028610231,0|0,3:0|0:0,0:0:0:0:
301,203,113558,2,0,P|306:168|304:123,1,75.0000028610231,8|0,3:2|0:0,0:0:0:0:
189,310,113745,2,0,P|183:347|185:384,1,75.0000028610231,0|0,3:0|0:0,0:0:0:0:
335,184,113933,2,0,P|340:146|338:109,1,75.0000028610231,0|0,3:0|0:0,0:0:0:0:
129,147,114120,2,0,P|175:162|212:162,1,75.0000028610231,0|0,3:0|0:0,0:0:0:0:
471,7,114308,6,0,L|420:21,1,37.5000014305115,0|0,3:0|0:0,0:0:0:0:
193,81,114495,2,0,L|244:67,1,37.5000014305115,0|0,3:0|0:0,0:0:0:0:
493,39,114683,6,0,L|440:39,1,37.5000014305115,0|0,3:0|0:0,0:0:0:0:
171,49,114870,2,0,L|223:48,1,37.5000014305115,0|0,3:0|0:0,0:0:0:0:
505,75,115058,6,0,L|453:61,1,37.5000014305115,8|0,3:2|0:0,0:0:0:0:
158,12,115245,2,0,L|209:25,1,37.5000014305115,0|0,3:0|0:0,0:0:0:0:
335,184,115433,2,0,L|372:292,1,100,0|0,3:0|3:0,3:0:0:0:
294,351,115808,5,0,0:0:0:0:
202,358,115901,1,0,0:0:0:0:
131,300,115995,1,0,0:0:0:0:
120,209,116089,1,0,0:0:0:0:
174,135,116183,6,0,L|259:123,1,75.0000028610231,0|0,3:0|0:0,0:0:0:0:
131,300,116370,2,0,L|46:287,1,75.0000028610231,0|0,3:0|0:0,0:0:0:0:
213,101,116558,2,0,L|293:133,1,75.0000028610231,8|0,3:2|0:0,0:0:0:0:
82,320,116745,2,0,L|22:273,1,75.0000028610231,0|0,3:0|0:0,0:0:0:0:
263,91,116933,2,0,L|315:158,1,75.0000028610231,0|0,3:0|0:0,0:0:0:0:
394,246,117120,5,0,0:0:0:0:
414,254,117214,1,0,0:0:0:0:
434,263,117308,1,0,0:0:0:0:
472,178,117401,1,0,0:0:0:0:
455,88,117495,1,0,0:0:0:0:
390,22,117589,1,0,0:0:0:0:
300,5,117683,6,0,L|330:86,1,75.0000028610231,0|0,3:0|0:0,0:0:0:0:
407,333,117870,2,0,L|433:262,1,75.0000028610231,0|0,3:0|0:0,0:0:0:0:
247,123,118058,2,0,P|276:153|329:167,1,75.0000028610231,8|0,3:2|0:0,0:0:0:0:
460,4,118245,2,0,P|422:5|389:21,1,75.0000028610231,0|0,3:0|0:0,0:0:0:0:
139,82,118433,2,0,P|127:122|141:175,1,75.0000028610231,0|0,3:0|0:0,0:0:0:0:
195,370,118620,2,0,P|206:329|192:276,1,75.0000028610231,0|0,3:0|0:0,0:0:0:0:
1,272,118808,5,0,0:0:0:0:
22,267,118901,1,0,0:0:0:0:
44,262,118995,1,0,0:0:0:0:
66,257,119089,1,0,0:0:0:0:
85,367,119183,6,0,P|126:318|71:248,1,150.000005722046,0|0,3:0|3:0,3:0:0:0:
0,36,119558,2,0,L|18:197,1,150.000005722046,0|0,3:0|3:0,3:0:0:0:
201,297,119933,2,0,B|199:262|181:229|181:229|186:217|186:217|168:168|193:115,1,150.000005722046,0|0,3:0|3:0,3:0:0:0:
298,19,120308,6,0,L|289:105,1,75.0000028610231,0|0,3:0|0:0,0:0:0:0:
427,311,120495,2,0,L|434:236,1,75.0000028610231,0|0,3:0|0:0,0:0:0:0:
290,93,120683,2,0,L|281:179,1,75.0000028610231,0|0,3:0|0:0,0:0:0:0:
419,384,120870,2,0,L|426:309,1,75.0000028610231,0|0,3:0|0:0,0:0:0:0:
298,19,121058,1,0,3:0:0:0:
298,19,121151,1,0,3:0:0:0:
298,19,121245,1,0,3:0:0:0:
298,19,121339,1,0,3:0:0:0:
298,19,121433,6,0,L|280:191,1,150.000005722046,0|0,3:0|3:0,3:0:0:0:
96,355,121808,6,0,P|152:279|180:210,1,150.000005722046,0|0,3:0|0:0,0:0:0:0:
105,92,122183,2,0,B|63:82|35:60|35:60|46:93|39:148,1,150.000005722046,0|0,3:0|0:0,0:0:0:0:
288,350,122558,2,0,L|292:322,1,25,0|0,3:0|0:0,0:0:0:0:
308,201,122745,1,0,0:0:0:0:
174,228,122933,1,0,0:0:0:0:
442,174,123120,1,0,3:0:0:0:
442,174,123308,6,0,L|466:335,1,150.000005722046,0|0,3:0|0:0,0:0:0:0:
121,316,123683,2,0,P|78:240|97:155,1,150.000005722046,0|0,3:0|0:0,0:0:0:0:
442,174,124058,2,0,L|444:149,1,25,0|0,3:0|0:0,0:0:0:0:
359,132,124245,2,0,L|361:107,1,25,0|0,0:0|3:0,0:0:0:0:
278,65,124433,1,0,0:0:0:0:
264,143,124526,1,0,0:0:0:0:
250,222,124620,1,0,3:0:0:0:
236,301,124714,1,0,0:0:0:0:
222,380,124808,6,0,P|274:373|313:277,1,150.000005722046,0|0,3:0|0:0,0:0:0:0:
128,37,125183,2,0,L|80:191,1,150.000005722046,0|0,3:0|0:0,0:0:0:0:
401,242,125558,2,0,P|364:209|331:198,1,75.0000028610231,0|0,3:0|0:0,0:0:0:0:
436,324,125745,1,0,0:0:0:0:
436,324,125839,1,0,3:0:0:0:
436,324,125933,2,0,P|457:231|457:160,1,150.000005722046,0|0,0:0|3:0,0:0:0:0:
131,361,126308,6,0,P|164:298|235:300,1,150.000005722046,0|0,3:0|0:0,0:0:0:0:
458,176,126683,2,0,P|454:251|436:324,1,150.000005722046,0|0,3:0|0:0,0:0:0:0:
15,333,127058,5,0,3:0:0:0:
20,311,127151,1,0,0:0:0:0:
25,289,127245,1,0,0:0:0:0:
30,267,127339,1,0,3:0:0:0:
35,245,127433,5,0,0:0:0:0:
103,269,127526,1,0,0:0:0:0:
168,236,127620,1,0,3:0:0:0:
188,165,127714,1,0,0:0:0:0:
151,103,127808,6,0,L|123:82,1,25,0|0,3:0|0:0,0:0:0:0:
146,83,127995,2,0,L|117:61,1,25
286,215,128183,6,0,L|305:230,1,25,0|0,3:0|0:0,0:0:0:0:
291,235,128370,2,0,L|319:256,1,25
65,174,128558,6,0,L|100:178,1,25,0|0,3:0|0:0,0:0:0:0:
334,110,128745,2,0,L|298:114,1,25,0|0,0:0|3:0,0:0:0:0:
43,189,128933,2,0,L|78:193,1,25
383,178,129120,5,0,3:0:0:0:
383,178,129214,1,0,0:0:0:0:
383,178,129308,2,0,P|416:120|412:65,1,75.0000028610231,0|0,3:0|0:0,0:0:0:0:
457,237,129495,2,0,L|462:269,1,25
383,178,129683,2,0,P|350:236|354:291,1,75.0000028610231,0|0,3:0|0:0,0:0:0:0:
309,119,129870,2,0,L|304:87,1,25
93,9,130058,1,0,3:0:0:0:
90,16,130245,1,0,0:0:0:0:
0,107,130433,5,0,0:0:0:0:
18,38,130526,1,0,0:0:0:0:
87,23,130620,1,0,3:0:0:0:
133,77,130714,1,0,0:0:0:0:
105,143,130808,5,0,3:0:0:0:
167,306,130995,1,0,0:0:0:0:
133,77,131183,5,0,3:0:0:0:
139,372,131370,1,0,0:0:0:0:
205,70,131558,5,0,3:0:0:0:
67,379,131745,1,0,0:0:0:0:
67,379,131839,1,0,3:0:0:0:
67,379,131933,2,0,P|123:300|199:332,1,150.000005722046,0|0,0:0|3:0,0:0:0:0:
287,355,132308,5,0,0:0:0:0:
323,359,132401,1,0,0:0:0:0:
359,350,132495,1,0,0:0:0:0:
392,332,132589,1,0,0:0:0:0:
415,303,132683,1,0,0:0:0:0:
430,269,132776,1,0,0:0:0:0:
431,231,132870,1,0,0:0:0:0:
420,195,132964,1,0,0:0:0:0:
397,165,133058,5,0,0:0:0:0:
385,174,133151,1,0,0:0:0:0:
373,183,133245,1,0,0:0:0:0:
361,192,133339,1,0,0:0:0:0:
349,202,133433,1,0,0:0:0:0:
337,211,133526,1,0,0:0:0:0:
325,220,133620,1,0,0:0:0:0:
313,229,133714,1,0,0:0:0:0:
257,291,133808,6,0,P|228:225|266:159,1,150.000005722046,0|0,3:0|0:0,0:0:0:0:
427,93,134183,1,0,3:0:0:0:
182,147,134370,6,0,P|224:89|300:88,1,150.000005722046,0|0,0:0|3:0,0:0:0:0:
434,185,134745,1,0,0:0:0:0:
199,5,134933,1,0,0:0:0:0:
161,299,135120,1,0,3:0:0:0:
161,299,135214,1,0,0:0:0:0:
161,299,135308,6,0,P|114:336|8:292,1,150.000005722046,0|0,3:0|0:0,0:0:0:0:
175,155,135683,1,0,3:0:0:0:
77,172,135870,6,0,L|84:247,1,75.0000028610231
245,228,136058,5,0,3:0:0:0:
300,226,136151,1,0,0:0:0:0:
348,198,136245,1,0,0:0:0:0:
373,149,136339,1,0,3:0:0:0:
371,93,136433,1,0,0:0:0:0:
316,95,136526,1,0,0:0:0:0:
268,123,136620,1,0,3:0:0:0:
243,172,136714,1,0,0:0:0:0:
245,228,136808,6,0,P|268:301|363:308,1,150.000005722046,0|0,3:0|0:0,0:0:0:0:
448,109,137183,1,0,3:0:0:0:
387,380,137370,6,0,P|416:309|348:242,1,150.000005722046,0|0,0:0|3:0,0:0:0:0:
175,155,137745,1,0,0:0:0:0:
332,320,137933,1,0,0:0:0:0:
111,374,138120,1,0,3:0:0:0:
111,374,138214,1,0,0:0:0:0:
111,374,138308,6,0,P|63:315|119:206,1,150.000005722046,0|0,3:0|0:0,0:0:0:0:
216,44,138683,1,0,3:0:0:0:
0,194,138870,6,0,P|66:156|164:231,1,150.000005722046,0|0,0:0|3:0,0:0:0:0:
306,351,139245,1,0,0:0:0:0:
216,44,139433,1,0,0:0:0:0:
289,54,139526,1,0,0:0:0:0:
349,98,139620,1,0,3:0:0:0:
381,165,139714,1,0,0:0:0:0:
377,239,139808,5,8,0:2:0:0:
335,224,139901,1,0,0:0:0:0:
310,185,139995,1,0,0:0:0:0:
312,139,140089,1,0,0:0:0:0:
341,105,140183,1,0,0:0:0:0:
383,92,140276,1,0,0:0:0:0:
425,107,140370,1,8,0:2:0:0:
451,143,140464,1,0,0:0:0:0:
451,188,140558,1,0,0:0:0:0:
426,225,140651,1,0,0:0:0:0:
394,257,140745,1,0,0:0:0:0:
379,299,140839,1,0,0:0:0:0:
384,343,140933,5,8,0:2:0:0:
356,307,141026,1,0,0:0:0:0:
314,288,141120,1,0,0:0:0:0:
268,291,141214,1,0,0:0:0:0:
229,314,141308,5,8,0:2:0:0:
198,346,141401,1,0,0:0:0:0:
157,366,141495,1,0,0:0:0:0:
111,367,141589,1,0,0:0:0:0:
68,350,141683,1,0,0:0:0:0:
36,318,141776,1,0,0:0:0:0:
18,276,141870,1,8,0:2:0:0:
19,230,141964,1,0,0:0:0:0:
37,189,142058,5,0,0:0:0:0:
59,192,142151,1,0,0:0:0:0:
81,195,142245,1,0,0:0:0:0:
103,198,142339,1,0,0:0:0:0:
125,201,142433,1,8,0:2:0:0:
147,204,142526,1,0,0:0:0:0:
169,207,142620,1,0,0:0:0:0:
191,210,142714,1,0,0:0:0:0:
177,145,142808,5,8,0:2:0:0:
134,175,142901,1,0,0:0:0:0:
126,227,142995,1,0,0:0:0:0:
157,269,143089,1,0,0:0:0:0:
209,274,143183,1,0,0:0:0:0:
250,242,143276,1,0,0:0:0:0:
255,189,143370,5,8,0:2:0:0:
239,115,143463,1,8,0:2:0:0:
223,42,143557,5,8,0:2:0:0:
275,50,143651,1,0,0:0:0:0:
308,90,143745,1,0,0:0:0:0:
309,142,143839,1,0,0:0:0:0:
274,181,143933,1,0,0:0:0:0:
222,187,144026,1,0,0:0:0:0:
178,156,144120,1,8,0:2:0:0:
167,136,144214,1,8,0:2:0:0:
156,116,144308,6,0,L|144:89,1,25,0|0,2:0|0:0,0:0:0:0:
136,114,144495,2,0,L|124:87,1,25,0|0,2:0|0:0,0:0:0:0:
116,112,144683,2,0,L|104:85,1,25,0|0,2:0|0:0,0:0:0:0:
96,110,144870,2,0,L|84:83,1,25,0|0,2:0|0:0,0:0:0:0:
76,108,145058,2,0,L|64:81,1,25,0|0,2:0|0:0,0:0:0:0:
56,106,145245,2,0,L|44:79,1,25,0|0,2:0|0:0,0:0:0:0:
36,104,145433,5,0,0:0:0:0:
32,153,145526,1,0,0:0:0:0:
28,203,145620,1,0,0:0:0:0:
24,253,145714,1,0,0:0:0:0:
20,303,145808,6,0,P|63:324|111:319,1,75.0000028610231
252,144,145995,1,0,0:0:0:0:
252,144,146089,1,0,0:0:0:0:
252,144,146183,2,0,L|263:266,1,75.0000028610231
364,92,146370,2,0,P|303:33|191:36,2,150.000005722046
362,114,146839,1,0,0:0:0:0:
361,136,146933,2,0,L|350:258,1,75.0000028610231
462,349,147120,2,0,L|455:274,1,75.0000028610231
252,144,147308,6,0,L|263:266,1,75.0000028610231
462,349,147495,1,0,0:0:0:0:
462,349,147589,1,0,0:0:0:0:
462,349,147683,2,0,L|455:274,1,75.0000028610231
354,210,147870,2,0,P|404:155|476:138,2,150.000005722046
350,232,148339,1,0,0:0:0:0:
346,254,148433,2,0,L|339:329,1,75.0000028610231
173,329,148620,2,0,L|166:254,1,75.0000028610231
455,274,148808,6,0,L|462:349,1,75.0000028610231
258,218,148995,1,0,0:0:0:0:
258,218,149089,1,0,0:0:0:0:
258,218,149183,2,0,B|261:168|261:168|321:75,2,150.000005722046
94,375,149745,2,0,P|75:304|13:266,2,150.000005722046
40,50,150308,5,0,0:0:0:0:
95,172,150495,1,0,0:0:0:0:
228,185,150683,1,0,0:0:0:0:
305,76,150870,1,0,0:0:0:0:
228,185,151058,5,0,0:0:0:0:
283,306,151245,1,0,0:0:0:0:
415,318,151433,5,0,0:0:0:0:
396,240,151526,1,0,0:0:0:0:
415,162,151620,1,0,0:0:0:0:
396,84,151714,1,0,0:0:0:0:
415,6,151808,6,0,P|450:24|474:75,1,75.0000028610231
216,259,151995,1,0,0:0:0:0:
216,259,152089,1,0,0:0:0:0:
216,259,152183,2,0,L|229:173,1,75.0000028610231
407,165,152370,1,0,0:0:0:0:
407,165,152464,1,0,0:0:0:0:
407,165,152558,2,0,L|395:239,1,75.0000028610231
137,177,152745,2,0,P|182:102|261:100,2,150.000005722046
157,247,153214,1,0,0:0:0:0:
230,265,153308,6,0,P|270:274|311:268,1,75.0000028610231
308,128,153495,1,0,0:0:0:0:
308,128,153589,1,0,0:0:0:0:
308,128,153683,2,0,P|312:72|273:20,1,75.0000028610231
51,154,153870,2,0,L|32:315,2,150.000005722046
56,148,154339,1,0,0:0:0:0:
61,143,154433,5,0,0:0:0:0:
140,160,154526,1,0,0:0:0:0:
220,178,154620,1,0,0:0:0:0:
300,196,154714,1,0,0:0:0:0:
380,214,154808,6,0,P|359:257|296:280,1,75.0000028610231
160,51,154995,1,0,0:0:0:0:
160,51,155089,1,0,0:0:0:0:
160,51,155183,2,0,L|263:74,1,75.0000028610231
453,230,155370,2,0,L|379:213,1,75.0000028610231
140,160,155558,2,0,L|136:195,1,25
208,253,155745,2,0,L|204:288,1,25
160,51,155933,2,0,P|74:68|30:132,1,150.000005722046
37,232,156308,5,0,0:0:0:0:
38,239,156401,1,0,0:0:0:0:
39,246,156495,1,0,0:0:0:0:
40,253,156589,1,0,0:0:0:0:
41,260,156683,1,0,0:0:0:0:
42,267,156776,1,0,0:0:0:0:
43,274,156870,1,0,0:0:0:0:
44,281,156964,1,0,0:0:0:0:
45,288,157058,5,0,0:0:0:0:
119,297,157151,1,0,0:0:0:0:
193,307,157245,2,0,L|200:277,1,25
50,263,157433,2,0,L|44:287,1,25
342,327,157620,2,0,L|348:296,1,25
491,143,157808,1,0,0:0:0:0:
441,287,157995,6,0,L|449:310,1,25
346,302,158183,2,0,L|341:326,1,25
256,267,158370,2,0,L|239:285,1,25
180,96,158558,6,0,L|155:91,1,25
195,192,158746,2,0,L|171:200,1,25
256,267,158933,2,0,L|239:285,1,25
155,91,159120,1,0,0:0:0:0:
155,91,159214,1,0,0:0:0:0:
155,91,159308,6,0,L|149:49,1,25
195,192,159495,2,0,L|201:150,1,25
154,291,159683,2,0,L|151:267,1,25
155,91,159870,6,0,L|149:49,1,25
195,192,160057,2,0,L|201:150,1,25
154,291,160245,2,0,L|151:267,1,25
233,99,160433,6,0,P|258:74|340:51,1,75.0000028610231
109,183,160620,2,0,P|84:208|2:231,1,75.0000028610231
316,152,160808,5,0,0:0:0:0:
26,133,160995,6,0,L|29:99,1,25
109,183,161183,2,0,L|112:149,1,25
186,132,161370,2,0,L|189:108,1,25
103,82,161558,6,0,L|106:58,1,25
109,183,161745,2,0,L|112:149,1,25
114,283,161933,2,0,L|117:249,1,25
186,132,162120,1,0,0:0:0:0:
186,132,162214,1,0,0:0:0:0:
186,132,162308,6,0,L|189:108,1,25
278,112,162495,2,0,L|268:89,1,25
347,48,162683,2,0,L|327:33,1,25
370,157,162870,6,0,L|360:134,1,25
439,93,163057,2,0,L|419:78,1,25
467,3,163245,2,0,L|443:0,1,25
225,26,163433,5,0,0:0:0:0:
189,91,163526,1,0,0:0:0:0:
178,165,163620,1,0,0:0:0:0:
193,238,163714,1,0,0:0:0:0:
233,301,163808,5,0,0:0:0:0:
238,303,163901,1,0,0:0:0:0:
242,304,163995,1,0,0:0:0:0:
246,305,164089,1,0,0:0:0:0:
250,305,164183,6,0,L|261:266,1,25
335,238,164370,2,0,L|346:199,1,25
165,372,164558,6,0,L|176:333,1,25
250,305,164745,2,0,L|261:266,1,25
335,238,164933,2,0,L|346:199,1,25
424,80,165120,5,0,0:0:0:0:
424,80,165214,1,0,0:0:0:0:
424,80,165308,2,0,L|463:70,1,25
488,146,165495,2,0,L|527:136,1,25
341,213,165683,6,0,L|316:219,1,25
402,281,165870,2,0,L|389:302,1,25
493,285,166058,2,0,L|499:309,1,25
346,122,166245,2,0,L|324:109,1,25
173,19,166433,5,0,0:0:0:0:
145,101,166526,1,0,0:0:0:0:
173,182,166620,1,0,0:0:0:0:
145,263,166714,1,0,0:0:0:0:
173,344,166808,6,0,P|230:280|217:217,1,150.000005722046
53,10,167183,2,0,L|70:168,1,150.000005722046
362,291,167558,2,0,L|345:141,1,150.000005722046
156,32,167933,2,0,L|173:190,1,150.000005722046
447,142,168308,6,0,P|415:65|356:42,1,150.000005722046
145,55,168683,2,0,L|162:205,1,150.000005722046
362,291,169058,2,0,L|345:141,1,150.000005722046
245,98,169433,2,0,L|262:248,1,150.000005722046
463,291,169808,5,0,0:0:0:0:
