osu file format v14

[General]
AudioFilename: audio.mp3
AudioLeadIn: 0
PreviewTime: 49809
Countdown: 0
SampleSet: Normal
StackLeniency: 0.2
Mode: 1
LetterboxInBreaks: 0
WidescreenStoryboard: 0

[Editor]
Bookmarks: 13809,25809,37809,49809,61809,73809,85809,97809,109809,121809,133809,145809,157809,169809
DistanceSpacing: 0.3
BeatDivisor: 4
GridSize: 32
TimelineZoom: 3.699998

[Metadata]
Title:me & u
TitleUnicode:me & u
Artist:succducc
ArtistUnicode:succducc
Creator:Jaye
Version:Nov 29
Source:
Tags:November-Series
BeatmapID:1694716
BeatmapSetID:807512

[Difficulty]
HPDrainRate:5
CircleSize:2
OverallDifficulty:6
ApproachRate:10
SliderMultiplier:1.4
SliderTickRate:1

[Events]
//Background and Video events
0,0,"_4. me & u.jpg",0,-100
//Break Periods
//Storyboard Layer 0 (Background)
//Storyboard Layer 1 (Fail)
//Storyboard Layer 2 (Pass)
//Storyboard Layer 3 (Foreground)
//Storyboard Sound Samples

[TimingPoints]
1809,375,4,1,0,100,1,0
4715,-117.647058823529,4,1,0,100,0,0
7715,-100,4,1,0,100,0,0
19715,-83.3333333333333,4,1,0,100,0,0
24215,-71.4285714285714,4,1,0,100,0,0
26090,-200,4,1,0,100,0,0
33168,-161.290322580645,4,1,0,100,0,0
33262,-200,4,1,0,100,0,0
34293,-161.290322580645,4,1,0,100,0,0
34387,-200,4,1,0,100,0,0
36027,-161.290322580645,4,1,0,100,0,0
36168,-200,4,1,0,100,0,0
36355,-161.290322580645,4,1,0,100,0,0
36449,-200,4,1,0,100,0,0
36730,-161.290322580645,4,1,0,100,0,0
36824,-200,4,1,0,100,0,0
37480,-161.290322580645,4,1,0,100,0,0
37574,-200,4,1,0,100,0,0
37668,-161.290322580645,4,1,0,100,0,0
37762,-100,4,1,0,100,0,0
41980,-105.263157894737,4,1,0,100,0,0
42027,-111.111111111111,4,1,0,100,0,0
42074,-117.647058823529,4,1,0,100,0,0
42168,-100,4,1,0,100,0,0
47980,-105.263157894737,4,1,0,100,0,0
48027,-111.111111111111,4,1,0,100,0,0
48074,-117.647058823529,4,1,0,100,0,0
48168,-100,4,1,0,100,0,0
52012,-105.263157894737,4,1,0,100,0,0
52199,-107.52688172043,4,1,0,100,0,0
52293,-108.695652173913,4,1,0,100,0,0
52480,-111.111111111111,4,1,0,100,0,0
52574,-112.359550561798,4,1,0,100,0,0
52762,-114.942528735632,4,1,0,100,0,0
63215,-250,4,1,0,100,0,0
67902,-222.222222222222,4,1,0,100,0,0
68090,-200,4,1,0,100,0,0
68277,-181.818181818182,4,1,0,100,0,0
68465,-166.666666666667,4,1,0,100,0,0
68652,-153.846153846154,4,1,0,100,0,0
68840,-142.857142857143,4,1,0,100,0,0
69027,-133.333333333333,4,1,0,100,0,0
69215,-125,4,1,0,100,0,0
69402,-117.647058823529,4,1,0,100,0,0
69590,-111.111111111111,4,1,0,100,0,0
69777,-105.263157894737,4,1,0,100,0,0
69965,-100,4,1,0,100,0,0
73996,-100,4,1,0,100,0,0
74090,-95.2380952380952,4,1,0,100,0,0
74184,-90.9090909090909,4,1,0,100,0,0
74277,-86.9565217391304,4,1,0,100,0,0
74371,-83.3333333333333,4,1,0,100,0,0
74465,-80,4,1,0,100,0,0
74652,-100,4,1,0,100,0,0
74746,-95.2380952380952,4,1,0,100,0,0
74934,-100,4,1,0,100,0,0
75027,-95.2380952380952,4,1,0,100,0,0
75121,-90.9090909090909,4,1,0,100,0,0
75215,-86.9565217391304,4,1,0,100,0,0
75309,-83.3333333333333,4,1,0,100,0,0
75496,-100,4,1,0,100,0,0
75590,-95.2380952380952,4,1,0,100,0,0
75684,-90.9090909090909,4,1,0,100,0,0
75777,-86.9565217391304,4,1,0,100,0,0
75871,-83.3333333333333,4,1,0,100,0,0
75965,-80,4,1,0,100,0,0
76152,-100,4,1,0,100,0,0
76246,-95.2380952380952,4,1,0,100,0,0
76340,-90.9090909090909,4,1,0,100,0,0
76434,-86.9565217391304,4,1,0,100,0,0
76527,-83.3333333333333,4,1,0,100,0,0
76621,-80,4,1,0,100,0,0
76715,-76.9230769230769,4,1,0,100,0,0
76809,-74.0740740740741,4,1,0,100,0,0
76996,-100,4,1,0,100,0,0
77090,-95.2380952380952,4,1,0,100,0,0
77184,-90.9090909090909,4,1,0,100,0,0
77371,-100,4,1,0,100,0,0
77465,-95.2380952380952,4,1,0,100,0,0
77559,-90.9090909090909,4,1,0,100,0,0
77652,-86.9565217391304,4,1,0,100,0,0
77746,-83.3333333333333,4,1,0,100,0,0
77840,-80,4,1,0,100,0,0
77934,-76.9230769230769,4,1,0,100,0,0
78121,-100,4,1,0,100,0,0
101465,-25,4,1,0,100,0,0
101652,-100,4,1,0,100,0,0
102402,-25,4,1,0,100,0,0
102590,-100,4,1,0,100,0,0
102965,-25,4,1,0,100,0,0
103152,-100,4,1,0,100,0,0
104465,-25,4,1,0,100,0,0
104652,-100,4,1,0,100,0,0
105027,-25,4,1,0,100,0,0
105215,-100,4,1,0,100,0,0
105965,-25,4,1,0,100,0,0
106152,-100,4,1,0,100,0,0
107465,-25,4,1,0,100,0,0
107652,-100,4,1,0,100,0,0
108965,-25,4,1,0,100,0,0
109152,-100,4,1,0,100,0,0
109809,-100,4,1,0,100,0,1
118715,-101.010101010101,4,1,0,100,0,1
118809,-102.040816326531,4,1,0,100,0,1
118902,-103.092783505155,4,1,0,100,0,1
118996,-104.166666666667,4,1,0,100,0,1
119090,-105.263157894737,4,1,0,100,0,1
119184,-106.382978723404,4,1,0,100,0,1
119277,-107.52688172043,4,1,0,100,0,1
119371,-108.695652173913,4,1,0,100,0,1
119465,-109.89010989011,4,1,0,100,0,1
119559,-111.111111111111,4,1,0,100,0,1
119652,-112.359550561798,4,1,0,100,0,1
119746,-113.636363636364,4,1,0,100,0,1
119840,-114.942528735632,4,1,0,100,0,1
119934,-116.279069767442,4,1,0,100,0,1
120027,-117.647058823529,4,1,0,100,0,1
120121,-119.047619047619,4,1,0,100,0,1
120215,-120.481927710843,4,1,0,100,0,1
120309,-121.951219512195,4,1,0,100,0,1
120402,-123.456790123457,4,1,0,100,0,1
120496,-125,4,1,0,100,0,1
120590,-126.582278481013,4,1,0,100,0,1
120684,-128.205128205128,4,1,0,100,0,1
120777,-129.87012987013,4,1,0,100,0,1
120871,-131.578947368421,4,1,0,100,0,1
120965,-133.333333333333,4,1,0,100,0,1
121059,-135.135135135135,4,1,0,100,0,1
121340,-50,4,1,0,100,0,1
121715,-200,4,1,0,100,0,1
121809,-200,4,1,0,100,0,0
135168,-161.290322580645,4,1,0,100,0,0
135262,-200,4,1,0,100,0,0
136293,-161.290322580645,4,1,0,100,0,0
136387,-200,4,1,0,100,0,0
137980,-161.290322580645,4,1,0,100,0,0
138168,-200,4,1,0,100,0,0
138730,-161.290322580645,4,1,0,100,0,0
138824,-200,4,1,0,100,0,0
144449,-153.846153846154,4,1,0,100,0,0
144824,-125,4,1,0,100,0,0
145199,-111.111111111111,4,1,0,100,0,0
145387,-100,4,1,0,100,0,0
160340,-50,4,1,0,100,0,0
160715,-100,4,1,0,100,0,0
171965,-107.52688172043,4,1,0,93,0,0
172715,-116.279069767442,4,1,0,86,0,0
174215,-126.582278481013,4,1,0,79,0,0
174965,-133.333333333333,4,1,0,75,0,0
175715,-140.845070422535,4,1,0,71,0,0
177215,-166.666666666667,4,1,0,60,0,0
178715,-181.818181818182,4,1,0,55,0,0
179840,-200,4,1,0,50,0,0
180215,-222.222222222222,4,1,0,42,0,0
181715,-238.095238095238,4,1,0,100,0,0
183215,-256.410256410256,4,1,0,39,0,0
186215,-277.777777777778,4,1,0,36,0,0
187715,-303.030303030303,4,1,0,33,0,0
190715,-400,4,1,0,25,0,0
192965,-500,4,1,0,20,0,0

[HitObjects]
256,192,1809,5,8,0:0:0:0:
256,192,2184,1,0,0:0:0:0:
256,192,2277,1,8,0:0:0:0:
256,192,2371,1,0,0:0:0:0:
256,192,2559,1,8,0:0:0:0:
256,192,2746,1,8,0:0:0:0:
256,192,2934,1,0,0:0:0:0:
256,192,3027,1,0,0:0:0:0:
256,192,3121,1,8,0:0:0:0:
256,192,3309,1,0,0:0:0:0:
256,192,3496,1,8,0:0:0:0:
256,192,3684,1,0,0:0:0:0:
256,192,3871,1,0,0:0:0:0:
256,192,4059,1,8,0:0:0:0:
256,192,4152,1,0,0:0:0:0:
256,192,4246,1,8,0:0:0:0:
256,192,4340,1,8,0:0:0:0:
256,192,4434,1,0,0:0:0:0:
256,192,4809,1,0,0:0:0:0:
256,192,4996,1,8,0:0:0:0:
256,192,5090,1,0,0:0:0:0:
256,192,5184,1,0,0:0:0:0:
256,192,5371,1,8,0:0:0:0:
256,192,5559,1,0,0:0:0:0:
256,192,5746,1,8,0:0:0:0:
256,192,5934,1,8,0:0:0:0:
256,192,6121,1,0,0:0:0:0:
256,192,6309,1,8,0:0:0:0:
256,192,6402,1,0,0:0:0:0:
256,192,6590,1,8,0:0:0:0:
256,192,6684,1,8,0:0:0:0:
256,192,6871,1,0,0:0:0:0:
256,192,6965,1,8,0:0:0:0:
256,192,7059,1,0,0:0:0:0:
256,192,7246,1,0,0:0:0:0:
256,192,7434,1,8,0:0:0:0:
256,192,7809,1,0,0:0:0:0:
256,192,8090,1,8,0:0:0:0:
256,192,8184,1,0,0:0:0:0:
256,192,8371,1,0,0:0:0:0:
256,192,8559,1,8,0:0:0:0:
256,192,8652,1,0,0:0:0:0:
256,192,8840,1,0,0:0:0:0:
256,192,8934,1,8,0:0:0:0:
256,192,9121,1,8,0:0:0:0:
256,192,9215,1,0,0:0:0:0:
256,192,9309,1,8,0:0:0:0:
256,192,9496,1,8,0:0:0:0:
256,192,9684,1,0,0:0:0:0:
256,192,9871,1,0,0:0:0:0:
256,192,10059,1,8,0:0:0:0:
256,192,10152,1,8,0:0:0:0:
256,192,10246,1,8,0:0:0:0:
256,192,10340,1,0,0:0:0:0:
256,192,10434,1,8,0:0:0:0:
256,192,10809,1,4,0:0:0:0:
256,192,11559,1,4,0:0:0:0:
256,192,12309,1,4,0:0:0:0:
256,192,12684,1,4,0:0:0:0:
256,192,13059,1,4,0:0:0:0:
256,192,13434,1,4,0:0:0:0:
256,192,13809,1,4,0:0:0:0:
256,192,13996,1,8,0:0:0:0:
256,192,14090,1,0,0:0:0:0:
256,192,14184,1,8,0:0:0:0:
256,192,14371,1,0,0:0:0:0:
256,192,14465,1,8,0:0:0:0:
256,192,14559,1,8,0:0:0:0:
256,192,14652,1,0,0:0:0:0:
256,192,14746,1,8,0:0:0:0:
256,192,14934,1,8,0:0:0:0:
256,192,15121,1,8,0:0:0:0:
256,192,15215,1,8,0:0:0:0:
256,192,15309,1,0,0:0:0:0:
256,192,15496,1,0,0:0:0:0:
256,192,15684,1,8,0:0:0:0:
256,192,15871,1,8,0:0:0:0:
256,192,15965,1,0,0:0:0:0:
256,192,16059,1,8,0:0:0:0:
256,192,16246,1,0,0:0:0:0:
256,192,16434,1,8,0:0:0:0:
256,192,16527,1,8,0:0:0:0:
256,192,16621,1,8,0:0:0:0:
256,192,16715,1,8,0:0:0:0:
256,192,16809,1,0,0:0:0:0:
256,192,16996,1,0,0:0:0:0:
256,192,17090,1,8,0:0:0:0:
256,192,17184,1,8,0:0:0:0:
256,192,17371,1,8,0:0:0:0:
256,192,17559,1,0,0:0:0:0:
256,192,17746,1,8,0:0:0:0:
256,192,17840,1,0,0:0:0:0:
256,192,17934,1,8,0:0:0:0:
256,192,18027,1,8,0:0:0:0:
256,192,18121,1,0,0:0:0:0:
256,192,18215,1,0,0:0:0:0:
256,192,18309,1,8,0:0:0:0:
256,192,18496,1,8,0:0:0:0:
256,192,18684,1,0,0:0:0:0:
256,192,18871,1,0,0:0:0:0:
256,192,19059,1,8,0:0:0:0:
256,192,19152,1,8,0:0:0:0:
256,192,19246,1,0,0:0:0:0:
256,192,19434,1,8,0:0:0:0:
256,192,19527,1,8,0:0:0:0:
256,192,19621,1,8,0:0:0:0:
256,192,19809,1,4,0:0:0:0:
256,192,19996,1,0,0:0:0:0:
256,192,20184,1,8,0:0:0:0:
256,192,20371,1,8,0:0:0:0:
256,192,20465,1,0,0:0:0:0:
256,192,20559,1,0,0:0:0:0:
256,192,20746,1,8,0:0:0:0:
256,192,20934,1,0,0:0:0:0:
256,192,21121,1,8,0:0:0:0:
256,192,21215,1,8,0:0:0:0:
256,192,21309,1,0,0:0:0:0:
256,192,21496,1,0,0:0:0:0:
256,192,21590,1,0,0:0:0:0:
256,192,21684,1,8,0:0:0:0:
256,192,21871,1,8,0:0:0:0:
256,192,22059,1,0,0:0:0:0:
256,192,22152,1,0,0:0:0:0:
256,192,22246,1,8,0:0:0:0:
256,192,22340,1,0,0:0:0:0:
256,192,22434,1,8,0:0:0:0:
256,192,22527,1,8,0:0:0:0:
256,192,22621,1,8,0:0:0:0:
256,192,22715,1,0,0:0:0:0:
256,192,22809,1,8,0:0:0:0:
256,192,22996,1,0,0:0:0:0:
256,192,23090,1,8,0:0:0:0:
256,192,23184,1,0,0:0:0:0:
256,192,23371,1,8,0:0:0:0:
256,192,23465,1,8,0:0:0:0:
256,192,23559,1,0,0:0:0:0:
256,192,23746,1,0,0:0:0:0:
256,192,23840,1,0,0:0:0:0:
256,192,23934,1,8,0:0:0:0:
256,192,24027,1,0,0:0:0:0:
256,192,24121,1,8,0:0:0:0:
256,192,24309,1,8,0:0:0:0:
256,192,24402,1,8,0:0:0:0:
256,192,24496,1,0,0:0:0:0:
256,192,24590,1,0,0:0:0:0:
256,192,24684,1,8,0:0:0:0:
256,192,24777,1,8,0:0:0:0:
256,192,24871,1,0,0:0:0:0:
256,192,24965,1,0,0:0:0:0:
256,192,25059,1,8,0:0:0:0:
256,192,25152,1,8,0:0:0:0:
256,192,25246,1,8,0:0:0:0:
256,192,25340,1,0,0:0:0:0:
256,192,25434,1,8,0:0:0:0:
256,192,25527,1,8,0:0:0:0:
256,192,25621,1,0,0:0:0:0:
256,192,25715,1,8,0:0:0:0:
256,192,25809,1,0,0:0:0:0:
256,192,26184,1,8,0:0:0:0:
256,192,26559,1,0,0:0:0:0:
256,192,26840,1,0,0:0:0:0:
256,192,26934,1,8,0:0:0:0:
256,192,27121,1,0,0:0:0:0:
256,192,27215,1,8,0:0:0:0:
256,192,27309,1,8,0:0:0:0:
256,192,27684,1,8,0:0:0:0:
256,192,28059,1,0,0:0:0:0:
256,192,28340,1,0,0:0:0:0:
256,192,28434,1,8,0:0:0:0:
256,192,28527,1,0,0:0:0:0:
256,192,28621,1,8,0:0:0:0:
256,192,28715,1,8,0:0:0:0:
256,192,28809,1,8,0:0:0:0:
256,192,29184,1,8,0:0:0:0:
256,192,29559,1,0,0:0:0:0:
256,192,29746,1,8,0:0:0:0:
256,192,29840,1,0,0:0:0:0:
256,192,29934,1,8,0:0:0:0:
256,192,29996,1,8,0:0:0:0:
256,192,30059,1,0,0:0:0:0:
256,192,30121,1,0,0:0:0:0:
256,192,30309,1,8,0:0:0:0:
256,192,30684,1,8,0:0:0:0:
256,192,31059,1,0,0:0:0:0:
256,192,31340,1,0,0:0:0:0:
256,192,31434,1,8,0:0:0:0:
256,192,31621,1,8,0:0:0:0:
256,192,31715,1,0,0:0:0:0:
256,192,31809,1,8,0:0:0:0:
256,192,31996,1,8,0:0:0:0:
256,192,32184,1,8,0:0:0:0:
256,192,32371,1,8,0:0:0:0:
256,192,32559,1,8,0:0:0:0:
256,192,32746,1,8,0:0:0:0:
256,192,32934,1,8,0:0:0:0:
256,192,33121,1,8,0:0:0:0:
256,192,33215,1,0,0:0:0:0:
256,192,33309,1,8,0:0:0:0:
256,192,33496,1,8,0:0:0:0:
256,192,33684,1,8,0:0:0:0:
256,192,33871,1,8,0:0:0:0:
256,192,34059,1,8,0:0:0:0:
256,192,34246,1,8,0:0:0:0:
256,192,34340,1,0,0:0:0:0:
256,192,34434,1,8,0:0:0:0:
256,192,34621,1,8,0:0:0:0:
256,192,34715,1,8,0:0:0:0:
256,192,34809,1,8,0:0:0:0:
256,192,34996,1,8,0:0:0:0:
256,192,35183,1,8,0:0:0:0:
256,192,35371,1,8,0:0:0:0:
256,192,35558,1,8,0:0:0:0:
256,192,35746,1,8,0:0:0:0:
256,192,35933,1,8,0:0:0:0:
256,192,35996,1,8,0:0:0:0:
256,192,36059,1,0,0:0:0:0:
256,192,36121,1,0,0:0:0:0:
256,192,36215,1,8,0:0:0:0:
256,192,36308,1,8,0:0:0:0:
256,192,36402,1,0,0:0:0:0:
256,192,36496,1,8,0:0:0:0:
256,192,36683,1,8,0:0:0:0:
256,192,36777,1,0,0:0:0:0:
256,192,36871,1,8,0:0:0:0:
256,192,37058,1,8,0:0:0:0:
256,192,37246,1,8,0:0:0:0:
256,192,37433,1,8,0:0:0:0:
256,192,37527,1,0,0:0:0:0:
256,192,37621,1,8,0:0:0:0:
256,192,37715,1,0,0:0:0:0:
256,192,37808,1,8,0:0:0:0:
256,192,37996,1,0,0:0:0:0:
256,192,38090,1,0,0:0:0:0:
256,192,38184,1,8,0:0:0:0:
256,192,38371,1,0,0:0:0:0:
256,192,38559,1,8,0:0:0:0:
256,192,38652,1,8,0:0:0:0:
256,192,38746,1,8,0:0:0:0:
256,192,38840,1,0,0:0:0:0:
256,192,38934,1,8,0:0:0:0:
256,192,39121,1,0,0:0:0:0:
256,192,39215,1,0,0:0:0:0:
256,192,39309,1,8,0:0:0:0:
256,192,39496,1,8,0:0:0:0:
256,192,39590,1,8,0:0:0:0:
256,192,39684,1,8,0:0:0:0:
256,192,39871,1,0,0:0:0:0:
256,192,39965,1,8,0:0:0:0:
256,192,40059,1,0,0:0:0:0:
256,192,40246,1,8,0:0:0:0:
256,192,40434,1,8,0:0:0:0:
256,192,40527,1,0,0:0:0:0:
256,192,40621,1,8,0:0:0:0:
256,192,40715,1,8,0:0:0:0:
256,192,40809,1,8,0:0:0:0:
256,192,40996,1,0,0:0:0:0:
256,192,41090,1,8,0:0:0:0:
256,192,41184,1,8,0:0:0:0:
256,192,41371,1,0,0:0:0:0:
256,192,41465,1,0,0:0:0:0:
256,192,41559,1,8,0:0:0:0:
256,192,41746,1,8,0:0:0:0:
256,192,41840,1,0,0:0:0:0:
256,192,41934,1,8,0:0:0:0:
256,192,41996,1,8,0:0:0:0:
256,192,42059,1,0,0:0:0:0:
256,192,42121,1,0,0:0:0:0:
256,192,42215,1,8,0:0:0:0:
256,192,42309,1,8,0:0:0:0:
256,192,42496,1,0,0:0:0:0:
256,192,42590,1,8,0:0:0:0:
256,192,42684,1,8,0:0:0:0:
256,192,42871,1,0,0:0:0:0:
256,192,42965,1,8,0:0:0:0:
256,192,43059,1,0,0:0:0:0:
256,192,43152,1,0,0:0:0:0:
256,192,43246,1,8,0:0:0:0:
256,192,43434,1,8,0:0:0:0:
256,192,43621,1,8,0:0:0:0:
256,192,43715,1,0,0:0:0:0:
256,192,43809,1,8,0:0:0:0:
256,192,43996,1,8,0:0:0:0:
256,192,44090,1,0,0:0:0:0:
256,192,44184,1,8,0:0:0:0:
256,192,44277,1,8,0:0:0:0:
256,192,44371,1,8,0:0:0:0:
256,192,44465,1,0,0:0:0:0:
256,192,44559,1,8,0:0:0:0:
256,192,44746,1,8,0:0:0:0:
256,192,44934,1,8,0:0:0:0:
256,192,45027,1,0,0:0:0:0:
256,192,45121,1,8,0:0:0:0:
256,192,45215,1,0,0:0:0:0:
256,192,45309,1,8,0:0:0:0:
256,192,45402,1,8,0:0:0:0:
256,192,45496,1,0,0:0:0:0:
256,192,45684,1,8,0:0:0:0:
256,192,45777,1,0,0:0:0:0:
256,192,45871,1,8,0:0:0:0:
256,192,45965,1,8,0:0:0:0:
256,192,46059,1,8,0:0:0:0:
256,192,46246,1,0,0:0:0:0:
256,192,46340,1,0,0:0:0:0:
256,192,46434,1,8,0:0:0:0:
256,192,46621,1,0,0:0:0:0:
256,192,46715,1,8,0:0:0:0:
256,192,46809,1,8,0:0:0:0:
256,192,46996,1,8,0:0:0:0:
256,192,47090,1,0,0:0:0:0:
256,192,47183,1,8,0:0:0:0:
256,192,47277,1,8,0:0:0:0:
256,192,47371,1,8,0:0:0:0:
256,192,47465,1,0,0:0:0:0:
256,192,47558,1,8,0:0:0:0:
256,192,47746,1,8,0:0:0:0:
256,192,47933,1,8,0:0:0:0:
256,192,47996,1,8,0:0:0:0:
256,192,48059,1,0,0:0:0:0:
256,192,48121,1,0,0:0:0:0:
256,192,48215,1,8,0:0:0:0:
256,192,48308,1,8,0:0:0:0:
256,192,48402,1,0,0:0:0:0:
256,192,48496,1,8,0:0:0:0:
256,192,48683,1,8,0:0:0:0:
256,192,48777,1,0,0:0:0:0:
256,192,48871,1,8,0:0:0:0:
256,192,49058,1,0,0:0:0:0:
256,192,49246,1,8,0:0:0:0:
256,192,49340,1,0,0:0:0:0:
256,192,49433,1,8,0:0:0:0:
256,192,49527,1,8,0:0:0:0:
256,192,49621,1,0,0:0:0:0:
256,192,49715,1,0,0:0:0:0:
256,192,49808,1,8,0:0:0:0:
256,192,50184,1,8,0:0:0:0:
256,192,50371,1,0,0:0:0:0:
256,192,50559,1,8,0:0:0:0:
256,192,50746,1,0,0:0:0:0:
256,192,50934,1,0,0:0:0:0:
256,192,51121,1,8,0:0:0:0:
256,192,51215,1,0,0:0:0:0:
256,192,51496,1,8,0:0:0:0:
256,192,51684,1,0,0:0:0:0:
256,192,51871,1,0,0:0:0:0:
256,192,52059,1,8,0:0:0:0:
256,192,52246,1,0,0:0:0:0:
256,192,52340,1,0,0:0:0:0:
256,192,52527,1,0,0:0:0:0:
256,192,52621,1,8,0:0:0:0:
256,192,52809,1,0,0:0:0:0:
256,192,53184,1,8,0:0:0:0:
256,192,53277,1,0,0:0:0:0:
256,192,53371,1,8,0:0:0:0:
256,192,53465,1,8,0:0:0:0:
256,192,53559,1,0,0:0:0:0:
256,192,53746,1,8,0:0:0:0:
256,192,53840,1,0,0:0:0:0:
256,192,53934,1,0,0:0:0:0:
256,192,54121,1,0,0:0:0:0:
256,192,54309,1,8,0:0:0:0:
256,192,54496,1,8,0:0:0:0:
256,192,54684,1,0,0:0:0:0:
256,192,54871,1,0,0:0:0:0:
256,192,54965,1,0,0:0:0:0:
256,192,55059,1,8,0:0:0:0:
256,192,55246,1,0,0:0:0:0:
256,192,55340,1,8,0:0:0:0:
256,192,55434,1,8,0:0:0:0:
256,192,55621,1,8,0:0:0:0:
256,192,55809,1,4,0:0:0:0:
256,192,55996,1,8,0:0:0:0:
256,192,56184,1,8,0:0:0:0:
256,192,56371,1,8,0:0:0:0:
256,192,56465,1,8,0:0:0:0:
256,192,56559,1,0,0:0:0:0:
256,192,56746,1,0,0:0:0:0:
256,192,56934,1,8,0:0:0:0:
256,192,57027,1,0,0:0:0:0:
256,192,57121,1,8,0:0:0:0:
256,192,57215,1,8,0:0:0:0:
256,192,57309,1,0,0:0:0:0:
256,192,57496,1,0,0:0:0:0:
256,192,57684,1,8,0:0:0:0:
256,192,57777,1,0,0:0:0:0:
256,192,57871,1,0,0:0:0:0:
256,192,57965,1,8,0:0:0:0:
256,192,58059,1,8,0:0:0:0:
256,192,58246,1,0,0:0:0:0:
256,192,58434,1,8,0:0:0:0:
256,192,58527,1,0,0:0:0:0:
256,192,58621,1,8,0:0:0:0:
256,192,58715,1,0,0:0:0:0:
256,192,58809,1,8,0:0:0:0:
256,192,58996,1,0,0:0:0:0:
256,192,59090,1,0,0:0:0:0:
256,192,59184,1,8,0:0:0:0:
256,192,59371,1,8,0:0:0:0:
256,192,59465,1,8,0:0:0:0:
256,192,59559,1,0,0:0:0:0:
256,192,59652,1,8,0:0:0:0:
256,192,59746,1,8,0:0:0:0:
256,192,59840,1,0,0:0:0:0:
256,192,59934,1,8,0:0:0:0:
256,192,60121,1,0,0:0:0:0:
256,192,60215,1,0,0:0:0:0:
256,192,60309,1,8,0:0:0:0:
256,192,60402,1,0,0:0:0:0:
256,192,60496,1,8,0:0:0:0:
256,192,60684,1,0,0:0:0:0:
256,192,60871,1,8,0:0:0:0:
256,192,60965,1,8,0:0:0:0:
256,192,61059,1,0,0:0:0:0:
256,192,61246,1,0,0:0:0:0:
256,192,61434,1,8,0:0:0:0:
256,192,61621,1,0,0:0:0:0:
256,192,61809,1,0,0:0:0:0:
256,192,64059,1,8,0:0:0:0:
256,192,64246,1,8,0:0:0:0:
256,192,64340,1,0,0:0:0:0:
256,192,64434,1,8,0:0:0:0:
256,192,64527,1,8,0:0:0:0:
256,192,64621,1,0,0:0:0:0:
256,192,64809,1,0,0:0:0:0:
256,192,66309,1,8,0:0:0:0:
256,192,66496,1,8,0:0:0:0:
256,192,66590,1,0,0:0:0:0:
256,192,66684,1,8,0:0:0:0:
256,192,66871,1,0,0:0:0:0:
256,192,67059,1,8,0:0:0:0:
256,192,67152,1,8,0:0:0:0:
256,192,67246,1,0,0:0:0:0:
256,192,67434,1,0,0:0:0:0:
256,192,67527,1,8,0:0:0:0:
256,192,67621,1,0,0:0:0:0:
256,192,67809,1,0,0:0:0:0:
256,192,67996,1,8,0:0:0:0:
256,192,68184,1,0,0:0:0:0:
256,192,68371,1,8,0:0:0:0:
256,192,68559,1,0,0:0:0:0:
256,192,68746,1,8,0:0:0:0:
256,192,68934,1,0,0:0:0:0:
256,192,69121,1,8,0:0:0:0:
256,192,69309,1,0,0:0:0:0:
256,192,69496,1,8,0:0:0:0:
256,192,69684,1,0,0:0:0:0:
256,192,69871,1,8,0:0:0:0:
256,192,70059,1,0,0:0:0:0:
256,192,70152,1,0,0:0:0:0:
256,192,70246,1,8,0:0:0:0:
256,192,70434,1,0,0:0:0:0:
256,192,70621,1,8,0:0:0:0:
256,192,70715,1,0,0:0:0:0:
256,192,70809,1,8,0:0:0:0:
256,192,70996,1,8,0:0:0:0:
256,192,71184,1,8,0:0:0:0:
256,192,71371,1,0,0:0:0:0:
256,192,71559,1,0,0:0:0:0:
256,192,71746,1,8,0:0:0:0:
256,192,71934,1,0,0:0:0:0:
256,192,72309,1,8,0:0:0:0:
256,192,72402,1,0,0:0:0:0:
256,192,72496,1,0,0:0:0:0:
256,192,72590,1,8,0:0:0:0:
256,192,72684,1,8,0:0:0:0:
256,192,72871,1,8,0:0:0:0:
256,192,73059,1,8,0:0:0:0:
256,192,73246,1,0,0:0:0:0:
256,192,73434,1,8,0:0:0:0:
256,192,73527,1,0,0:0:0:0:
256,192,73621,1,8,0:0:0:0:
256,192,73715,1,8,0:0:0:0:
256,192,73809,1,4,0:0:0:0:
256,192,73996,1,0,0:0:0:0:
256,192,74090,1,0,0:0:0:0:
256,192,74184,1,0,0:0:0:0:
256,192,74277,1,8,0:0:0:0:
256,192,74371,1,8,0:0:0:0:
256,192,74465,1,0,0:0:0:0:
256,192,74652,1,0,0:0:0:0:
256,192,74746,1,8,0:0:0:0:
256,192,74934,1,0,0:0:0:0:
256,192,75027,1,8,0:0:0:0:
256,192,75121,1,8,0:0:0:0:
256,192,75215,1,0,0:0:0:0:
256,192,75309,1,0,0:0:0:0:
256,192,75496,1,8,0:0:0:0:
256,192,75590,1,8,0:0:0:0:
256,192,75684,1,0,0:0:0:0:
256,192,75777,1,0,0:0:0:0:
256,192,75871,1,8,0:0:0:0:
256,192,75965,1,8,0:0:0:0:
256,192,76152,1,8,0:0:0:0:
256,192,76246,1,0,0:0:0:0:
256,192,76340,1,0,0:0:0:0:
256,192,76434,1,8,0:0:0:0:
256,192,76527,1,0,0:0:0:0:
256,192,76621,1,8,0:0:0:0:
256,192,76715,1,8,0:0:0:0:
256,192,76809,1,0,0:0:0:0:
256,192,76996,1,0,0:0:0:0:
256,192,77090,1,8,0:0:0:0:
256,192,77184,1,8,0:0:0:0:
256,192,77371,1,0,0:0:0:0:
256,192,77465,1,0,0:0:0:0:
256,192,77559,1,8,0:0:0:0:
256,192,77652,1,0,0:0:0:0:
256,192,77746,1,0,0:0:0:0:
256,192,77840,1,8,0:0:0:0:
256,192,77934,1,8,0:0:0:0:
256,192,78121,1,0,0:0:0:0:
256,192,78215,1,0,0:0:0:0:
256,192,78309,1,8,0:0:0:0:
256,192,78496,1,0,0:0:0:0:
256,192,78590,1,0,0:0:0:0:
256,192,78684,1,8,0:0:0:0:
256,192,78871,1,0,0:0:0:0:
256,192,79059,1,8,0:0:0:0:
256,192,79152,1,8,0:0:0:0:
256,192,79246,1,0,0:0:0:0:
256,192,79340,1,8,0:0:0:0:
256,192,79527,1,0,0:0:0:0:
256,192,79621,1,8,0:0:0:0:
256,192,79809,1,8,0:0:0:0:
256,192,79996,1,0,0:0:0:0:
256,192,80184,1,8,0:0:0:0:
256,192,80371,1,0,0:0:0:0:
256,192,80746,1,8,0:0:0:0:
256,192,80840,1,0,0:0:0:0:
256,192,80934,1,8,0:0:0:0:
256,192,81121,1,0,0:0:0:0:
256,192,81309,1,8,0:0:0:0:
256,192,81496,1,0,0:0:0:0:
256,192,81590,1,8,0:0:0:0:
256,192,81684,1,8,0:0:0:0:
256,192,82059,1,8,0:0:0:0:
256,192,82246,1,0,0:0:0:0:
256,192,82434,1,8,0:0:0:0:
256,192,82621,1,8,0:0:0:0:
256,192,82809,1,0,0:0:0:0:
256,192,82996,1,0,0:0:0:0:
256,192,83090,1,0,0:0:0:0:
256,192,83184,1,8,0:0:0:0:
256,192,83465,1,0,0:0:0:0:
256,192,83559,1,8,0:0:0:0:
256,192,83652,1,8,0:0:0:0:
256,192,83746,1,0,0:0:0:0:
256,192,83934,1,8,0:0:0:0:
256,192,84121,1,0,0:0:0:0:
256,192,84215,1,0,0:0:0:0:
256,192,84309,1,8,0:0:0:0:
256,192,84402,1,0,0:0:0:0:
256,192,84496,1,8,0:0:0:0:
256,192,84684,1,8,0:0:0:0:
256,192,84871,1,0,0:0:0:0:
256,192,85059,1,0,0:0:0:0:
256,192,85152,1,8,0:0:0:0:
256,192,85246,1,0,0:0:0:0:
256,192,85340,1,0,0:0:0:0:
256,192,85434,1,8,0:0:0:0:
256,192,85621,1,0,0:0:0:0:
256,192,85715,1,0,0:0:0:0:
256,192,85809,1,8,0:0:0:0:
256,192,85902,1,0,0:0:0:0:
256,192,85996,1,8,0:0:0:0:
256,192,86184,1,0,0:0:0:0:
256,192,86277,1,8,0:0:0:0:
256,192,86371,1,8,0:0:0:0:
256,192,86465,1,0,0:0:0:0:
256,192,86652,1,8,0:0:0:0:
256,192,86746,1,0,0:0:0:0:
256,192,86934,1,8,0:0:0:0:
256,192,87027,1,8,0:0:0:0:
256,192,87121,1,8,0:0:0:0:
256,192,87215,1,0,0:0:0:0:
256,192,87309,1,8,0:0:0:0:
256,192,87496,1,0,0:0:0:0:
256,192,87590,1,8,0:0:0:0:
256,192,87684,1,8,0:0:0:0:
256,192,87871,1,0,0:0:0:0:
256,192,88059,1,8,0:0:0:0:
256,192,88152,1,0,0:0:0:0:
256,192,88246,1,0,0:0:0:0:
256,192,88340,1,8,0:0:0:0:
256,192,88434,1,0,0:0:0:0:
256,192,88527,1,8,0:0:0:0:
256,192,88621,1,8,0:0:0:0:
256,192,88715,1,0,0:0:0:0:
256,192,88809,1,8,0:0:0:0:
256,192,88996,1,8,0:0:0:0:
256,192,89184,1,0,0:0:0:0:
256,192,89277,1,0,0:0:0:0:
256,192,89371,1,8,0:0:0:0:
256,192,89465,1,8,0:0:0:0:
256,192,89559,1,8,0:0:0:0:
256,192,89652,1,8,0:0:0:0:
256,192,89746,1,0,0:0:0:0:
256,192,89934,1,8,0:0:0:0:
256,192,90121,1,0,0:0:0:0:
256,192,90309,1,8,0:0:0:0:
256,192,90402,1,8,0:0:0:0:
256,192,90496,1,0,0:0:0:0:
256,192,90590,1,8,0:0:0:0:
256,192,90684,1,0,0:0:0:0:
256,192,90777,1,0,0:0:0:0:
256,192,90871,1,8,0:0:0:0:
256,192,91059,1,0,0:0:0:0:
256,192,91152,1,8,0:0:0:0:
256,192,91246,1,0,0:0:0:0:
256,192,91434,1,8,0:0:0:0:
256,192,91621,1,0,0:0:0:0:
256,192,91715,1,0,0:0:0:0:
256,192,91809,1,8,0:0:0:0:
256,192,92184,1,8,0:0:0:0:
256,192,92559,1,8,0:0:0:0:
256,192,92934,1,8,0:0:0:0:
256,192,93309,1,8,0:0:0:0:
256,192,93684,1,8,0:0:0:0:
256,192,94059,1,8,0:0:0:0:
256,192,94434,1,8,0:0:0:0:
256,192,94621,1,8,0:0:0:0:
256,192,94809,1,8,0:0:0:0:
256,192,95184,1,8,0:0:0:0:
256,192,95559,1,8,0:0:0:0:
256,192,95934,1,8,0:0:0:0:
256,192,96309,1,8,0:0:0:0:
256,192,96371,1,0,0:0:0:0:
256,192,96434,1,0,0:0:0:0:
256,192,96496,1,0,0:0:0:0:
256,192,97059,1,0,0:0:0:0:
256,192,97152,1,8,0:0:0:0:
256,192,97246,1,0,0:0:0:0:
256,192,97340,1,8,0:0:0:0:
256,192,97434,1,0,0:0:0:0:
256,192,97527,1,8,0:0:0:0:
256,192,97621,1,0,0:0:0:0:
256,192,97715,1,0,0:0:0:0:
256,192,97809,1,12,0:0:0:0:
256,192,98184,1,0,0:0:0:0:
256,192,98559,1,8,0:0:0:0:
256,192,98840,1,0,0:0:0:0:
256,192,98934,1,8,0:0:0:0:
256,192,99121,1,8,0:0:0:0:
256,192,99215,1,0,0:0:0:0:
256,192,99309,1,8,0:0:0:0:
256,192,99371,1,8,0:0:0:0:
256,192,99434,1,0,0:0:0:0:
256,192,99496,1,0,0:0:0:0:
256,192,99684,1,8,0:0:0:0:
256,192,99777,1,0,0:0:0:0:
256,192,99871,1,8,0:0:0:0:
256,192,99965,1,0,0:0:0:0:
256,192,100059,1,12,0:0:0:0:
256,192,100246,1,8,0:0:0:0:
256,192,100434,1,8,0:0:0:0:
256,192,100496,1,0,0:0:0:0:
256,192,100559,1,0,0:0:0:0:
256,192,100621,1,0,0:0:0:0:
256,192,100809,1,0,0:0:0:0:
256,192,101184,1,0,0:0:0:0:
256,192,101559,1,12,0:0:0:0:
256,192,101746,1,0,0:0:0:0:
256,192,101934,1,0,0:0:0:0:
256,192,102309,1,0,0:0:0:0:
256,192,102496,1,12,0:0:0:0:
256,192,102684,1,0,0:0:0:0:
256,192,102871,1,0,0:0:0:0:
256,192,103059,1,12,0:0:0:0:
256,192,103434,1,0,0:0:0:0:
256,192,103621,1,8,0:0:0:0:
256,192,103809,1,0,0:0:0:0:
256,192,103996,1,8,0:0:0:0:
256,192,104184,1,8,0:0:0:0:
256,192,104371,1,8,0:0:0:0:
256,192,104559,1,12,0:0:0:0:
256,192,104746,1,0,0:0:0:0:
256,192,104934,1,0,0:0:0:0:
256,192,105121,1,12,0:0:0:0:
256,192,105309,1,0,0:0:0:0:
256,192,105496,1,0,0:0:0:0:
256,192,105684,1,0,0:0:0:0:
256,192,105871,1,0,0:0:0:0:
256,192,106059,1,12,0:0:0:0:
256,192,106246,1,8,0:0:0:0:
256,192,106434,1,8,0:0:0:0:
256,192,106621,1,8,0:0:0:0:
256,192,106809,1,0,0:0:0:0:
256,192,106996,1,8,0:0:0:0:
256,192,107184,1,8,0:0:0:0:
256,192,107371,1,0,0:0:0:0:
256,192,107559,1,12,0:0:0:0:
256,192,107746,1,8,0:0:0:0:
256,192,107934,1,8,0:0:0:0:
256,192,108121,1,0,0:0:0:0:
256,192,108215,1,8,0:0:0:0:
256,192,108309,1,0,0:0:0:0:
256,192,108684,1,0,0:0:0:0:
256,192,108871,1,8,0:0:0:0:
256,192,109059,1,12,0:0:0:0:
256,192,109246,1,0,0:0:0:0:
256,192,109434,1,0,0:0:0:0:
256,192,109621,1,8,0:0:0:0:
256,192,109809,1,8,0:0:0:0:
256,192,109902,1,0,0:0:0:0:
256,192,109996,1,0,0:0:0:0:
256,192,110090,1,8,0:0:0:0:
256,192,110184,1,8,0:0:0:0:
256,192,110371,1,8,0:0:0:0:
256,192,110559,1,12,0:0:0:0:
256,192,110746,1,8,0:0:0:0:
256,192,110934,1,8,0:0:0:0:
256,192,111121,1,8,0:0:0:0:
256,192,111215,1,8,0:0:0:0:
256,192,111309,1,8,0:0:0:0:
256,192,111402,1,0,0:0:0:0:
256,192,111496,1,0,0:0:0:0:
256,192,111590,1,8,0:0:0:0:
256,192,111684,1,0,0:0:0:0:
256,192,111871,1,8,0:0:0:0:
256,192,112059,1,12,0:0:0:0:
256,192,112246,1,8,0:0:0:0:
256,192,112434,1,8,0:0:0:0:
256,192,112621,1,8,0:0:0:0:
256,192,112715,1,8,0:0:0:0:
256,192,112809,1,8,0:0:0:0:
256,192,112902,1,0,0:0:0:0:
256,192,112996,1,0,0:0:0:0:
256,192,113090,1,8,0:0:0:0:
256,192,113184,1,0,0:0:0:0:
256,192,113371,1,0,0:0:0:0:
256,192,113559,1,12,0:0:0:0:
256,192,113746,1,0,0:0:0:0:
256,192,113934,1,0,0:0:0:0:
256,192,114121,1,8,0:0:0:0:
256,192,114309,1,8,0:0:0:0:
256,192,114496,1,0,0:0:0:0:
256,192,114684,1,8,0:0:0:0:
256,192,114871,1,0,0:0:0:0:
256,192,115059,1,12,0:0:0:0:
256,192,115246,1,8,0:0:0:0:
256,192,115434,1,0,0:0:0:0:
256,192,115621,1,0,0:0:0:0:
256,192,115809,1,8,0:0:0:0:
256,192,115902,1,0,0:0:0:0:
256,192,115996,1,0,0:0:0:0:
256,192,116090,1,8,0:0:0:0:
256,192,116184,1,8,0:0:0:0:
256,192,116371,1,8,0:0:0:0:
256,192,116559,1,12,0:0:0:0:
256,192,116746,1,8,0:0:0:0:
256,192,116934,1,8,0:0:0:0:
256,192,117121,1,8,0:0:0:0:
256,192,117215,1,8,0:0:0:0:
256,192,117309,1,8,0:0:0:0:
256,192,117402,1,0,0:0:0:0:
256,192,117496,1,0,0:0:0:0:
256,192,117590,1,8,0:0:0:0:
256,192,117684,1,0,0:0:0:0:
256,192,117871,1,0,0:0:0:0:
256,192,118059,1,12,0:0:0:0:
256,192,118246,1,8,0:0:0:0:
256,192,118434,1,8,0:0:0:0:
256,192,118621,1,8,0:0:0:0:
256,192,118715,1,0,0:0:0:0:
256,192,118809,1,0,0:0:0:0:
256,192,118902,1,8,0:0:0:0:
256,192,118996,1,8,0:0:0:0:
256,192,119090,1,0,0:0:0:0:
256,192,119184,1,0,0:0:0:0:
256,192,119277,1,8,0:0:0:0:
256,192,119371,1,8,0:0:0:0:
256,192,119465,1,0,0:0:0:0:
256,192,119559,1,0,0:0:0:0:
256,192,119652,1,0,0:0:0:0:
256,192,119746,1,8,0:0:0:0:
256,192,119840,1,8,0:0:0:0:
256,192,119934,1,0,0:0:0:0:
256,192,120027,1,0,0:0:0:0:
256,192,120121,1,8,0:0:0:0:
256,192,120215,1,8,0:0:0:0:
256,192,120309,1,0,0:0:0:0:
256,192,120402,1,0,0:0:0:0:
256,192,120496,1,0,0:0:0:0:
256,192,120590,1,8,0:0:0:0:
256,192,120684,1,8,0:0:0:0:
256,192,120777,1,0,0:0:0:0:
256,192,120871,1,0,0:0:0:0:
256,192,120965,1,8,0:0:0:0:
256,192,121059,1,8,0:0:0:0:
256,192,121121,1,0,0:0:0:0:
256,192,121184,1,0,0:0:0:0:
256,192,121246,1,0,0:0:0:0:
256,192,121434,12,0,121621,0:0:0:0:
256,192,121809,5,0,0:0:0:0:
256,192,122184,1,8,0:0:0:0:
256,192,122559,1,0,0:0:0:0:
256,192,122840,1,0,0:0:0:0:
256,192,122934,1,8,0:0:0:0:
256,192,123121,1,0,0:0:0:0:
256,192,123309,1,8,0:0:0:0:
256,192,123684,1,8,0:0:0:0:
256,192,124059,1,8,0:0:0:0:
256,192,124246,1,0,0:0:0:0:
256,192,124434,1,8,0:0:0:0:
256,192,124527,1,0,0:0:0:0:
256,192,124621,1,0,0:0:0:0:
256,192,124715,1,8,0:0:0:0:
256,192,124809,1,0,0:0:0:0:
256,192,125184,1,8,0:0:0:0:
256,192,125559,1,0,0:0:0:0:
256,192,125746,1,8,0:0:0:0:
256,192,125840,1,8,0:0:0:0:
256,192,125934,1,0,0:0:0:0:
256,192,126121,1,0,0:0:0:0:
256,192,126309,1,8,0:0:0:0:
256,192,126684,1,8,0:0:0:0:
256,192,127059,1,8,0:0:0:0:
256,192,127152,1,8,0:0:0:0:
256,192,127246,1,0,0:0:0:0:
256,192,127340,1,8,0:0:0:0:
256,192,127434,1,8,0:0:0:0:
256,192,127527,1,0,0:0:0:0:
256,192,127621,1,0,0:0:0:0:
256,192,127715,1,8,0:0:0:0:
256,192,127809,1,0,0:0:0:0:
256,192,127996,1,0,0:0:0:0:
256,192,128184,1,8,0:0:0:0:
256,192,128371,1,8,0:0:0:0:
256,192,128559,1,0,0:0:0:0:
256,192,128746,1,8,0:0:0:0:
256,192,128840,1,0,0:0:0:0:
256,192,128934,1,8,0:0:0:0:
256,192,129121,1,0,0:0:0:0:
256,192,129309,1,8,0:0:0:0:
256,192,129496,1,0,0:0:0:0:
256,192,129684,1,8,0:0:0:0:
256,192,129871,1,0,0:0:0:0:
256,192,130059,1,8,0:0:0:0:
256,192,130152,1,8,0:0:0:0:
256,192,130246,1,0,0:0:0:0:
256,192,130434,1,0,0:0:0:0:
256,192,130527,1,8,0:0:0:0:
256,192,130621,1,0,0:0:0:0:
256,192,130715,1,8,0:0:0:0:
256,192,130809,1,0,0:0:0:0:
256,192,130996,1,0,0:0:0:0:
256,192,131184,1,8,0:0:0:0:
256,192,131371,1,0,0:0:0:0:
256,192,131559,1,0,0:0:0:0:
256,192,131746,1,8,0:0:0:0:
256,192,131840,1,0,0:0:0:0:
256,192,131934,1,8,0:0:0:0:
256,192,132121,1,0,0:0:0:0:
256,192,132309,1,8,0:0:0:0:
256,192,132402,1,0,0:0:0:0:
256,192,132496,1,0,0:0:0:0:
256,192,132590,1,0,0:0:0:0:
256,192,132684,1,8,0:0:0:0:
256,192,132871,1,0,0:0:0:0:
256,192,132965,1,8,0:0:0:0:
256,192,133059,1,8,0:0:0:0:
256,192,133152,1,8,0:0:0:0:
256,192,133246,1,0,0:0:0:0:
256,192,133340,1,8,0:0:0:0:
256,192,133434,1,8,0:0:0:0:
256,192,133527,1,0,0:0:0:0:
256,192,133621,1,0,0:0:0:0:
256,192,133715,1,8,0:0:0:0:
256,192,133809,1,0,0:0:0:0:
256,192,133996,1,8,0:0:0:0:
256,192,134184,1,8,0:0:0:0:
256,192,134371,1,8,0:0:0:0:
256,192,134559,1,8,0:0:0:0:
256,192,134746,1,8,0:0:0:0:
256,192,134934,1,8,0:0:0:0:
256,192,135121,1,8,0:0:0:0:
256,192,135215,1,0,0:0:0:0:
256,192,135309,1,8,0:0:0:0:
256,192,135496,1,8,0:0:0:0:
256,192,135684,1,8,0:0:0:0:
256,192,135871,1,8,0:0:0:0:
256,192,136059,1,8,0:0:0:0:
256,192,136246,1,8,0:0:0:0:
256,192,136340,1,0,0:0:0:0:
256,192,136434,1,8,0:0:0:0:
256,192,136621,1,8,0:0:0:0:
256,192,136715,1,8,0:0:0:0:
256,192,136809,1,8,0:0:0:0:
256,192,136996,1,8,0:0:0:0:
256,192,137183,1,8,0:0:0:0:
256,192,137371,1,8,0:0:0:0:
256,192,137558,1,8,0:0:0:0:
256,192,137746,1,8,0:0:0:0:
256,192,137933,1,8,0:0:0:0:
256,192,138027,1,0,0:0:0:0:
256,192,138121,1,0,0:0:0:0:
256,192,138215,1,8,0:0:0:0:
256,192,138308,1,8,0:0:0:0:
256,192,138496,1,8,0:0:0:0:
256,192,138683,1,8,0:0:0:0:
256,192,138777,1,0,0:0:0:0:
256,192,138871,1,8,0:0:0:0:
256,192,139058,1,8,0:0:0:0:
256,192,139246,1,8,0:0:0:0:
256,192,139433,1,8,0:0:0:0:
256,192,139527,1,0,0:0:0:0:
256,192,139621,1,8,0:0:0:0:
256,192,139715,1,0,0:0:0:0:
256,192,139808,1,8,0:0:0:0:
256,192,139902,1,8,0:0:0:0:
256,192,139996,1,0,0:0:0:0:
256,192,140090,1,0,0:0:0:0:
256,192,140184,1,8,0:0:0:0:
256,192,140277,1,8,0:0:0:0:
256,192,140371,1,0,0:0:0:0:
256,192,140465,1,0,0:0:0:0:
256,192,140559,1,8,0:0:0:0:
256,192,140652,1,8,0:0:0:0:
256,192,140746,1,8,0:0:0:0:
256,192,140840,1,0,0:0:0:0:
256,192,140934,1,8,0:0:0:0:
256,192,141027,1,0,0:0:0:0:
256,192,141121,1,0,0:0:0:0:
256,192,141215,1,0,0:0:0:0:
256,192,141309,1,8,0:0:0:0:
256,192,141402,1,0,0:0:0:0:
256,192,141496,1,8,0:0:0:0:
256,192,141590,1,8,0:0:0:0:
256,192,141684,1,8,0:0:0:0:
256,192,141777,1,0,0:0:0:0:
256,192,141871,1,0,0:0:0:0:
256,192,141965,1,8,0:0:0:0:
256,192,142059,1,0,0:0:0:0:
256,192,142152,1,8,0:0:0:0:
256,192,142246,1,8,0:0:0:0:
256,192,142340,1,0,0:0:0:0:
256,192,142434,1,8,0:0:0:0:
256,192,142527,1,0,0:0:0:0:
256,192,142621,1,8,0:0:0:0:
256,192,142715,1,8,0:0:0:0:
256,192,142809,1,8,0:0:0:0:
256,192,142902,1,8,0:0:0:0:
256,192,142996,1,0,0:0:0:0:
256,192,143090,1,8,0:0:0:0:
256,192,143184,1,8,0:0:0:0:
256,192,143277,1,0,0:0:0:0:
256,192,143371,1,0,0:0:0:0:
256,192,143465,1,8,0:0:0:0:
256,192,143559,1,8,0:0:0:0:
256,192,143652,1,8,0:0:0:0:
256,192,143746,1,8,0:0:0:0:
256,192,143840,1,0,0:0:0:0:
256,192,143934,1,8,0:0:0:0:
256,192,144027,1,0,0:0:0:0:
256,192,144121,1,0,0:0:0:0:
256,192,144215,1,8,0:0:0:0:
256,192,144309,1,8,0:0:0:0:
256,192,144496,1,0,0:0:0:0:
256,192,144590,1,0,0:0:0:0:
256,192,144684,1,8,0:0:0:0:
256,192,144871,1,0,0:0:0:0:
256,192,144965,1,8,0:0:0:0:
256,192,145059,1,8,0:0:0:0:
256,192,145246,1,0,0:0:0:0:
256,192,145434,1,8,0:0:0:0:
256,192,145527,1,8,0:0:0:0:
256,192,145621,1,0,0:0:0:0:
256,192,145715,1,0,0:0:0:0:
256,192,145809,1,8,0:0:0:0:
256,192,145996,1,0,0:0:0:0:
256,192,146184,1,8,0:0:0:0:
256,192,146277,1,8,0:0:0:0:
256,192,146371,1,8,0:0:0:0:
256,192,146465,1,0,0:0:0:0:
256,192,146559,1,8,0:0:0:0:
256,192,146746,1,8,0:0:0:0:
256,192,146934,1,8,0:0:0:0:
256,192,147027,1,0,0:0:0:0:
256,192,147121,1,8,0:0:0:0:
256,192,147309,1,8,0:0:0:0:
256,192,147402,1,8,0:0:0:0:
256,192,147496,1,0,0:0:0:0:
256,192,147684,1,8,0:0:0:0:
256,192,147871,1,0,0:0:0:0:
256,192,147965,1,8,0:0:0:0:
256,192,148059,1,8,0:0:0:0:
256,192,148246,1,0,0:0:0:0:
256,192,148340,1,8,0:0:0:0:
256,192,148434,1,8,0:0:0:0:
256,192,148621,1,0,0:0:0:0:
256,192,148715,1,8,0:0:0:0:
256,192,148809,1,0,0:0:0:0:
256,192,148996,1,8,0:0:0:0:
256,192,149090,1,0,0:0:0:0:
256,192,149183,1,8,0:0:0:0:
256,192,149371,1,0,0:0:0:0:
256,192,149558,1,8,0:0:0:0:
256,192,149746,1,8,0:0:0:0:
256,192,149934,1,0,0:0:0:0:
256,192,150121,1,0,0:0:0:0:
256,192,150215,1,8,0:0:0:0:
256,192,150308,1,8,0:0:0:0:
256,192,150402,1,0,0:0:0:0:
256,192,150496,1,8,0:0:0:0:
256,192,150683,1,8,0:0:0:0:
256,192,150777,1,0,0:0:0:0:
256,192,150871,1,8,0:0:0:0:
256,192,151058,1,0,0:0:0:0:
256,192,151246,1,8,0:0:0:0:
256,192,151340,1,0,0:0:0:0:
256,192,151433,1,8,0:0:0:0:
256,192,151527,1,8,0:0:0:0:
256,192,151621,1,0,0:0:0:0:
256,192,151715,1,0,0:0:0:0:
256,192,151808,1,8,0:0:0:0:
256,192,151996,1,0,0:0:0:0:
256,192,152184,1,8,0:0:0:0:
256,192,152372,1,8,0:0:0:0:
256,192,152559,1,8,0:0:0:0:
256,192,152652,1,0,0:0:0:0:
256,192,152747,1,8,0:0:0:0:
256,192,152840,1,0,0:0:0:0:
256,192,152934,1,8,0:0:0:0:
256,192,153122,1,8,0:0:0:0:
256,192,153309,1,8,0:0:0:0:
256,192,153403,1,8,0:0:0:0:
256,192,153497,1,0,0:0:0:0:
256,192,153684,1,8,0:0:0:0:
256,192,153872,1,8,0:0:0:0:
256,192,154059,1,0,0:0:0:0:
256,192,154247,1,8,0:0:0:0:
256,192,154434,1,8,0:0:0:0:
256,192,154528,1,8,0:0:0:0:
256,192,154622,1,0,0:0:0:0:
256,192,154809,1,0,0:0:0:0:
256,192,154903,1,8,0:0:0:0:
256,192,154997,1,0,0:0:0:0:
256,192,155184,1,8,0:0:0:0:
256,192,155371,1,0,0:0:0:0:
256,192,155559,1,8,0:0:0:0:
256,192,155746,1,0,0:0:0:0:
256,192,155934,1,0,0:0:0:0:
256,192,156121,1,8,0:0:0:0:
256,192,156215,1,0,0:0:0:0:
256,192,156309,1,8,0:0:0:0:
256,192,156403,1,8,0:0:0:0:
256,192,156496,1,0,0:0:0:0:
256,192,156590,1,0,0:0:0:0:
256,192,156684,1,8,0:0:0:0:
256,192,156871,1,0,0:0:0:0:
256,192,157059,1,0,0:0:0:0:
256,192,157246,1,8,0:0:0:0:
256,192,157434,1,8,0:0:0:0:
256,192,157621,1,0,0:0:0:0:
256,192,157715,1,0,0:0:0:0:
256,192,157809,1,8,0:0:0:0:
256,192,157996,1,8,0:0:0:0:
256,192,158184,1,0,0:0:0:0:
256,192,158278,1,0,0:0:0:0:
256,192,158372,1,8,0:0:0:0:
256,192,158559,1,0,0:0:0:0:
256,192,158747,1,8,0:0:0:0:
256,192,158840,1,8,0:0:0:0:
256,192,158934,1,0,0:0:0:0:
256,192,159028,1,8,0:0:0:0:
256,192,159122,1,0,0:0:0:0:
256,192,159309,1,0,0:0:0:0:
256,192,159403,1,0,0:0:0:0:
256,192,159497,1,8,0:0:0:0:
256,192,159684,1,8,0:0:0:0:
256,192,159778,1,0,0:0:0:0:
256,192,159872,1,8,0:0:0:0:
256,192,159965,1,0,0:0:0:0:
256,192,160059,1,8,0:0:0:0:
256,192,160152,1,8,0:0:0:0:
256,192,160246,1,8,0:0:0:0:
256,192,160434,1,12,0:0:0:0:
256,192,160622,1,12,0:0:0:0:
256,192,160809,1,8,0:0:0:0:
256,192,160903,1,8,0:0:0:0:
256,192,160997,1,0,0:0:0:0:
256,192,161184,1,0,0:0:0:0:
256,192,161278,1,8,0:0:0:0:
256,192,161372,1,0,0:0:0:0:
256,192,161559,1,0,0:0:0:0:
256,192,161652,1,8,0:0:0:0:
256,192,161746,1,0,0:0:0:0:
256,192,161933,1,8,0:0:0:0:
256,192,162027,1,0,0:0:0:0:
256,192,162121,1,8,0:0:0:0:
256,192,162215,1,8,0:0:0:0:
256,192,162308,1,8,0:0:0:0:
256,192,162496,1,0,0:0:0:0:
256,192,162684,1,8,0:0:0:0:
256,192,162778,1,8,0:0:0:0:
256,192,162872,1,0,0:0:0:0:
256,192,163059,1,0,0:0:0:0:
256,192,163153,1,8,0:0:0:0:
256,192,163246,1,8,0:0:0:0:
256,192,163340,1,0,0:0:0:0:
256,192,163434,1,8,0:0:0:0:
256,192,163621,1,0,0:0:0:0:
256,192,163809,1,8,0:0:0:0:
256,192,163903,1,0,0:0:0:0:
256,192,163997,1,0,0:0:0:0:
256,192,164184,1,8,0:0:0:0:
256,192,164372,1,8,0:0:0:0:
256,192,164465,1,8,0:0:0:0:
256,192,164559,1,8,0:0:0:0:
256,192,164653,1,0,0:0:0:0:
256,192,164747,1,8,0:0:0:0:
256,192,164934,1,8,0:0:0:0:
256,192,165122,1,8,0:0:0:0:
256,192,165215,1,0,0:0:0:0:
256,192,165309,1,8,0:0:0:0:
256,192,165403,1,8,0:0:0:0:
256,192,165497,1,0,0:0:0:0:
256,192,165590,1,8,0:0:0:0:
256,192,165684,1,0,0:0:0:0:
256,192,165872,1,8,0:0:0:0:
256,192,165965,1,0,0:0:0:0:
256,192,166059,1,0,0:0:0:0:
256,192,166153,1,8,0:0:0:0:
256,192,166247,1,0,0:0:0:0:
256,192,166434,1,0,0:0:0:0:
256,192,166528,1,8,0:0:0:0:
256,192,166622,1,0,0:0:0:0:
256,192,166809,1,8,0:0:0:0:
256,192,166903,1,8,0:0:0:0:
256,192,166997,1,0,0:0:0:0:
256,192,167184,1,8,0:0:0:0:
256,192,167371,1,0,0:0:0:0:
256,192,167465,1,0,0:0:0:0:
256,192,167559,1,8,0:0:0:0:
256,192,167653,1,8,0:0:0:0:
256,192,167746,1,0,0:0:0:0:
256,192,167934,1,0,0:0:0:0:
256,192,168121,1,8,0:0:0:0:
256,192,168215,1,0,0:0:0:0:
256,192,168309,1,8,0:0:0:0:
256,192,168496,1,0,0:0:0:0:
256,192,168684,1,8,0:0:0:0:
256,192,168871,1,0,0:0:0:0:
256,192,168965,1,0,0:0:0:0:
256,192,169059,1,8,0:0:0:0:
256,192,169246,1,0,0:0:0:0:
256,192,169434,1,8,0:0:0:0:
256,192,169528,1,0,0:0:0:0:
256,192,169621,1,8,0:0:0:0:
256,192,169715,1,8,0:0:0:0:
256,192,169809,1,0,0:0:0:0:
256,192,172059,1,8,0:0:0:0:
256,192,172809,1,0,0:0:0:0:
256,192,174309,1,0,0:0:0:0:
256,192,175059,1,8,0:0:0:0:
256,192,175809,1,0,0:0:0:0:
256,192,177684,1,0,0:0:0:0:
256,192,178809,1,8,0:0:0:0:
256,192,179934,1,8,0:0:0:0:
256,192,181059,1,8,0:0:0:0:
256,192,181809,1,0,0:0:0:0:
256,192,184809,1,8,0:0:0:0:
256,192,186309,1,0,0:0:0:0:
256,192,187809,1,0,0:0:0:0:
256,192,187934,1,0,0:0:0:0:
256,192,187996,1,8,0:0:0:0:
256,192,190809,1,0,0:0:0:0:
256,192,190871,1,0,0:0:0:0:
256,192,190934,1,8,0:0:0:0:
256,192,190996,1,8,0:0:0:0:
256,192,193059,12,0,193246,0:0:0:0:
