osu file format v14

[General]
AudioFilename: audio.mp3
AudioLeadIn: 0
PreviewTime: 108030
Countdown: 0
SampleSet: None
StackLeniency: 0.2
Mode: 1
LetterboxInBreaks: 0
WidescreenStoryboard: 0

[Editor]
Bookmarks: 24030,48030,72030,96030,120030,144030,168030
DistanceSpacing: 1
BeatDivisor: 4
GridSize: 32
TimelineZoom: 2.44

[Metadata]
Title:me & u
TitleUnicode:me & u
Artist:succducc
ArtistUnicode:succducc
Creator:Genjuro
Version:Inner Oni
Source:
Tags:electronic english future bass cassie and you
BeatmapID:2542872
BeatmapSetID:1222538

[Difficulty]
HPDrainRate:6
CircleSize:2
OverallDifficulty:6
ApproachRate:10
SliderMultiplier:1.4
SliderTickRate:1

[Events]
//Background and Video events
0,0,"bg.jpg",0,-107
//Break Periods
2,72230,77580
//Storyboard Layer 0 (Background)
//Storyboard Layer 1 (Fail)
//Storyboard Layer 2 (Pass)
//Storyboard Layer 3 (Foreground)
//Storyboard Layer 4 (Overlay)
//Storyboard Sound Samples

[TimingPoints]
30,375,4,1,0,50,1,0
8983,-100,4,1,0,75,0,0
12076,-100,4,1,0,50,0,0
17983,-100,4,1,0,75,0,0
23983,-100,4,1,0,50,0,0
29983,-100,4,1,0,75,0,0
47983,-100,4,1,0,50,0,0
56983,-100,4,1,0,75,0,0
59983,-100,4,1,0,50,0,0
83983,-100,4,1,0,75,0,0
95045,-100,4,1,0,50,0,0
97483,-100,4,1,0,75,0,0
98983,-100,4,1,0,100,0,0
108030,-100,4,1,0,100,0,1
119655,-100,4,1,0,100,0,0
119983,-100,4,1,0,50,0,0
131983,-100,4,1,0,75,0,0
167983,-100,4,1,0,25,0,0

[HitObjects]
256,192,30,5,0,0:0:0:0:
256,192,405,1,8,0:0:0:0:
256,192,498,1,8,0:0:0:0:
256,192,592,1,8,0:0:0:0:
256,192,686,1,0,0:0:0:0:
256,192,967,1,8,0:0:0:0:
256,192,1155,1,0,0:0:0:0:
256,192,1248,1,0,0:0:0:0:
256,192,1342,1,8,0:0:0:0:
256,192,1530,1,0,0:0:0:0:
256,192,1717,1,8,0:0:0:0:
256,192,1811,1,0,0:0:0:0:
256,192,2092,1,8,0:0:0:0:
256,192,2186,1,0,0:0:0:0:
256,192,2280,1,8,0:0:0:0:
256,192,2655,1,8,0:0:0:0:
256,192,3030,1,0,0:0:0:0:
256,192,3217,1,8,0:0:0:0:
256,192,3311,1,8,0:0:0:0:
256,192,3405,1,0,0:0:0:0:
256,192,3967,1,8,0:0:0:0:
256,192,4342,1,0,0:0:0:0:
256,192,4530,1,8,0:0:0:0:
256,192,4717,1,0,0:0:0:0:
256,192,4811,1,8,0:0:0:0:
256,192,4998,1,0,0:0:0:0:
256,192,5092,1,8,0:0:0:0:
256,192,5280,1,0,0:0:0:0:
256,192,5655,1,0,0:0:0:0:
256,192,6030,1,8,0:0:0:0:
256,192,6405,1,8,0:0:0:0:
256,192,8280,1,0,0:0:0:0:
256,192,9030,1,12,0:0:0:0:
256,192,9780,1,12,0:0:0:0:
256,192,10530,1,12,0:0:0:0:
256,192,10905,1,0,0:0:0:0:
256,192,11280,1,12,0:0:0:0:
256,192,11655,1,0,0:0:0:0:
256,192,12030,1,12,0:0:0:0:
256,192,12217,1,0,0:0:0:0:
256,192,12311,1,0,0:0:0:0:
256,192,12405,1,8,0:0:0:0:
256,192,12592,1,0,0:0:0:0:
256,192,12686,1,0,0:0:0:0:
256,192,12780,1,0,0:0:0:0:
256,192,12873,1,0,0:0:0:0:
256,192,12967,1,0,0:0:0:0:
256,192,13155,1,8,0:0:0:0:
256,192,13342,1,0,0:0:0:0:
256,192,13530,1,0,0:0:0:0:
256,192,13623,1,0,0:0:0:0:
256,192,13717,1,0,0:0:0:0:
256,192,13811,1,0,0:0:0:0:
256,192,13905,1,8,0:0:0:0:
256,192,14092,1,0,0:0:0:0:
256,192,14186,1,0,0:0:0:0:
256,192,14280,1,0,0:0:0:0:
256,192,14467,1,8,0:0:0:0:
256,192,14655,1,0,0:0:0:0:
256,192,15030,1,0,0:0:0:0:
256,192,15405,1,0,0:0:0:0:
256,192,15592,1,8,0:0:0:0:
256,192,15780,1,0,0:0:0:0:
256,192,15873,1,0,0:0:0:0:
256,192,15967,1,0,0:0:0:0:
256,192,16061,1,0,0:0:0:0:
256,192,16155,1,8,0:0:0:0:
256,192,16342,1,8,0:0:0:0:
256,192,16530,1,0,0:0:0:0:
256,192,16623,1,0,0:0:0:0:
256,192,16717,1,0,0:0:0:0:
256,192,16905,1,8,0:0:0:0:
256,192,17092,1,0,0:0:0:0:
256,192,17186,1,0,0:0:0:0:
256,192,17280,1,0,0:0:0:0:
256,192,17373,1,0,0:0:0:0:
256,192,17467,1,0,0:0:0:0:
256,192,17655,1,8,0:0:0:0:
256,192,18030,1,0,0:0:0:0:
256,192,18405,1,8,0:0:0:0:
256,192,18592,1,8,0:0:0:0:
256,192,18780,1,0,0:0:0:0:
256,192,19155,1,8,0:0:0:0:
256,192,19530,1,0,0:0:0:0:
256,192,19717,1,0,0:0:0:0:
256,192,19905,1,8,0:0:0:0:
256,192,20092,1,8,0:0:0:0:
256,192,20280,1,0,0:0:0:0:
256,192,20655,1,8,0:0:0:0:
256,192,21030,1,0,0:0:0:0:
256,192,21217,1,8,0:0:0:0:
256,192,21405,1,0,0:0:0:0:
256,192,21592,1,0,0:0:0:0:
256,192,21780,1,8,0:0:0:0:
256,192,21967,1,0,0:0:0:0:
256,192,22155,1,8,0:0:0:0:
256,192,22342,1,8,0:0:0:0:
256,192,22530,1,0,0:0:0:0:
256,192,22623,1,8,0:0:0:0:
256,192,22717,1,0,0:0:0:0:
256,192,22811,1,0,0:0:0:0:
256,192,22905,1,8,0:0:0:0:
256,192,22998,1,0,0:0:0:0:
256,192,23092,1,8,0:0:0:0:
256,192,23186,1,8,0:0:0:0:
256,192,23280,1,0,0:0:0:0:
256,192,23373,1,0,0:0:0:0:
256,192,23467,1,0,0:0:0:0:
256,192,23561,1,0,0:0:0:0:
256,192,23655,1,8,0:0:0:0:
256,192,23748,1,8,0:0:0:0:
256,192,23842,1,8,0:0:0:0:
256,192,23936,1,8,0:0:0:0:
256,192,24030,1,0,0:0:0:0:
256,192,24405,1,0,0:0:0:0:
256,192,24780,1,0,0:0:0:0:
256,192,25061,1,0,0:0:0:0:
256,192,25342,1,0,0:0:0:0:
256,192,25530,1,0,0:0:0:0:
256,192,25905,1,0,0:0:0:0:
256,192,26280,1,0,0:0:0:0:
256,192,26561,1,0,0:0:0:0:
256,192,26842,1,8,0:0:0:0:
256,192,26936,1,0,0:0:0:0:
256,192,27030,1,8,0:0:0:0:
256,192,27405,1,0,0:0:0:0:
256,192,27780,1,0,0:0:0:0:
256,192,28061,1,0,0:0:0:0:
256,192,28342,1,0,0:0:0:0:
256,192,28530,1,0,0:0:0:0:
256,192,28905,1,0,0:0:0:0:
256,192,29280,1,0,0:0:0:0:
256,192,29561,1,0,0:0:0:0:
256,192,29842,1,8,0:0:0:0:
256,192,29936,1,8,0:0:0:0:
256,192,30030,1,0,0:0:0:0:
256,192,30217,1,8,0:0:0:0:
256,192,30405,1,0,0:0:0:0:
256,192,30592,1,8,0:0:0:0:
256,192,30780,1,0,0:0:0:0:
256,192,30967,1,8,0:0:0:0:
256,192,31155,1,0,0:0:0:0:
256,192,31342,1,8,0:0:0:0:
256,192,31436,1,8,0:0:0:0:
256,192,31530,1,0,0:0:0:0:
256,192,31717,1,8,0:0:0:0:
256,192,31905,1,0,0:0:0:0:
256,192,32092,1,8,0:0:0:0:
256,192,32280,1,0,0:0:0:0:
256,192,32467,1,8,0:0:0:0:
256,192,32655,1,8,0:0:0:0:
256,192,32748,1,8,0:0:0:0:
256,192,32842,1,8,0:0:0:0:
256,192,32936,1,8,0:0:0:0:
256,192,33030,1,0,0:0:0:0:
256,192,33217,1,8,0:0:0:0:
256,192,33592,1,8,0:0:0:0:
256,192,33967,1,8,0:0:0:0:
256,192,34530,1,0,0:0:0:0:
256,192,34717,1,8,0:0:0:0:
256,192,34905,1,0,0:0:0:0:
256,192,35092,1,8,0:0:0:0:
256,192,35280,1,0,0:0:0:0:
256,192,35467,1,8,0:0:0:0:
256,192,35655,1,0,0:0:0:0:
256,192,35748,1,0,0:0:0:0:
256,192,35842,1,0,0:0:0:0:
256,192,35936,1,0,0:0:0:0:
256,192,36030,1,8,0:0:0:0:
256,192,36217,1,8,0:0:0:0:
256,192,36311,1,0,0:0:0:0:
256,192,36405,1,0,0:0:0:0:
256,192,36592,1,8,0:0:0:0:
256,192,36686,1,0,0:0:0:0:
256,192,36780,1,0,0:0:0:0:
256,192,36967,1,8,0:0:0:0:
256,192,37155,1,0,0:0:0:0:
256,192,37248,1,8,0:0:0:0:
256,192,37342,1,0,0:0:0:0:
256,192,37530,1,8,0:0:0:0:
256,192,37717,1,8,0:0:0:0:
256,192,37811,1,0,0:0:0:0:
256,192,37905,1,0,0:0:0:0:
256,192,38092,1,8,0:0:0:0:
256,192,38186,1,0,0:0:0:0:
256,192,38280,1,0,0:0:0:0:
256,192,38467,1,8,0:0:0:0:
256,192,38655,1,0,0:0:0:0:
256,192,38748,1,8,0:0:0:0:
256,192,38842,1,0,0:0:0:0:
256,192,38936,1,0,0:0:0:0:
256,192,39030,1,8,0:0:0:0:
256,192,39217,1,0,0:0:0:0:
256,192,39311,1,0,0:0:0:0:
256,192,39405,1,8,0:0:0:0:
256,192,39592,1,0,0:0:0:0:
256,192,39686,1,0,0:0:0:0:
256,192,39780,1,8,0:0:0:0:
256,192,39967,1,0,0:0:0:0:
256,192,40155,1,8,0:0:0:0:
256,192,40248,1,8,0:0:0:0:
256,192,40342,1,0,0:0:0:0:
256,192,40530,1,8,0:0:0:0:
256,192,40717,1,0,0:0:0:0:
256,192,40811,1,0,0:0:0:0:
256,192,40905,1,8,0:0:0:0:
256,192,41092,1,0,0:0:0:0:
256,192,41186,1,0,0:0:0:0:
256,192,41280,1,8,0:0:0:0:
256,192,41467,1,0,0:0:0:0:
256,192,41655,1,8,0:0:0:0:
256,192,41748,1,0,0:0:0:0:
256,192,41842,1,8,0:0:0:0:
256,192,41936,1,0,0:0:0:0:
256,192,42030,1,8,0:0:0:0:
256,192,42217,1,8,0:0:0:0:
256,192,42311,1,8,0:0:0:0:
256,192,42405,1,0,0:0:0:0:
256,192,42592,1,8,0:0:0:0:
256,192,42686,1,8,0:0:0:0:
256,192,42780,1,0,0:0:0:0:
256,192,42967,1,8,0:0:0:0:
256,192,43155,1,0,0:0:0:0:
256,192,43248,1,8,0:0:0:0:
256,192,43342,1,0,0:0:0:0:
256,192,43530,1,8,0:0:0:0:
256,192,43717,1,8,0:0:0:0:
256,192,43811,1,8,0:0:0:0:
256,192,43905,1,0,0:0:0:0:
256,192,44092,1,8,0:0:0:0:
256,192,44186,1,8,0:0:0:0:
256,192,44280,1,0,0:0:0:0:
256,192,44467,1,8,0:0:0:0:
256,192,44655,1,0,0:0:0:0:
256,192,44748,1,8,0:0:0:0:
256,192,44842,1,8,0:0:0:0:
256,192,44936,1,0,0:0:0:0:
256,192,45030,1,8,0:0:0:0:
256,192,45217,1,0,0:0:0:0:
256,192,45311,1,0,0:0:0:0:
256,192,45405,1,8,0:0:0:0:
256,192,45592,1,0,0:0:0:0:
256,192,45780,1,8,0:0:0:0:
256,192,45873,1,0,0:0:0:0:
256,192,45967,1,0,0:0:0:0:
256,192,46061,1,0,0:0:0:0:
256,192,46155,1,8,0:0:0:0:
256,192,46342,1,0,0:0:0:0:
256,192,46530,1,8,0:0:0:0:
256,192,46717,1,0,0:0:0:0:
256,192,46811,1,0,0:0:0:0:
256,192,46905,1,8,0:0:0:0:
256,192,47092,1,0,0:0:0:0:
256,192,47280,1,8,0:0:0:0:
256,192,47373,1,8,0:0:0:0:
256,192,47467,1,0,0:0:0:0:
256,192,47561,1,0,0:0:0:0:
256,192,47655,1,8,0:0:0:0:
256,192,47842,1,8,0:0:0:0:
256,192,48030,1,0,0:0:0:0:
256,192,48592,1,8,0:0:0:0:
256,192,48780,1,0,0:0:0:0:
256,192,49155,1,8,0:0:0:0:
256,192,49342,1,0,0:0:0:0:
256,192,49436,1,0,0:0:0:0:
256,192,49905,1,8,0:0:0:0:
256,192,50280,1,0,0:0:0:0:
256,192,50561,1,8,0:0:0:0:
256,192,50842,1,8,0:0:0:0:
256,192,51030,1,0,0:0:0:0:
256,192,51405,1,8,0:0:0:0:
256,192,51498,1,8,0:0:0:0:
256,192,51592,1,8,0:0:0:0:
256,192,51686,1,0,0:0:0:0:
256,192,51967,1,8,0:0:0:0:
256,192,52061,1,0,0:0:0:0:
256,192,52342,1,0,0:0:0:0:
256,192,52530,1,8,0:0:0:0:
256,192,52905,1,8,0:0:0:0:
256,192,53092,1,0,0:0:0:0:
256,192,53186,1,8,0:0:0:0:
256,192,53467,1,8,0:0:0:0:
256,192,53561,1,8,0:0:0:0:
256,192,53655,1,0,0:0:0:0:
256,192,53842,1,8,0:0:0:0:
256,192,54030,1,0,0:0:0:0:
256,192,54123,1,0,0:0:0:0:
256,192,54217,1,0,0:0:0:0:
256,192,54405,1,8,0:0:0:0:
256,192,54592,1,0,0:0:0:0:
256,192,54686,1,0,0:0:0:0:
256,192,54780,1,0,0:0:0:0:
256,192,54873,1,0,0:0:0:0:
256,192,54967,1,8,0:0:0:0:
256,192,55155,1,0,0:0:0:0:
256,192,55248,1,0,0:0:0:0:
256,192,55342,1,0,0:0:0:0:
256,192,55530,1,8,0:0:0:0:
256,192,55717,1,0,0:0:0:0:
256,192,55811,1,0,0:0:0:0:
256,192,55905,1,0,0:0:0:0:
256,192,55998,1,0,0:0:0:0:
256,192,56092,1,8,0:0:0:0:
256,192,56280,1,0,0:0:0:0:
256,192,56373,1,0,0:0:0:0:
256,192,56467,1,0,0:0:0:0:
256,192,56655,1,8,0:0:0:0:
256,192,57030,1,0,0:0:0:0:
256,192,57123,1,0,0:0:0:0:
256,192,57217,1,0,0:0:0:0:
256,192,57311,1,0,0:0:0:0:
256,192,57405,1,8,0:0:0:0:
256,192,57498,1,8,0:0:0:0:
256,192,57592,1,8,0:0:0:0:
256,192,57686,1,8,0:0:0:0:
256,192,57780,1,0,0:0:0:0:
256,192,57873,1,0,0:0:0:0:
256,192,57967,1,8,0:0:0:0:
256,192,58061,1,0,0:0:0:0:
256,192,58155,1,8,0:0:0:0:
256,192,58248,1,8,0:0:0:0:
256,192,58342,1,0,0:0:0:0:
256,192,58436,1,8,0:0:0:0:
256,192,58530,1,0,0:0:0:0:
256,192,58717,1,8,0:0:0:0:
256,192,58811,1,8,0:0:0:0:
256,192,58905,1,0,0:0:0:0:
256,192,59092,1,8,0:0:0:0:
256,192,59280,2,0,L|256:128,6,35
256,192,60030,1,0,0:0:0:0:
256,192,62280,1,8,0:0:0:0:
256,192,62467,1,0,0:0:0:0:
256,192,62561,1,0,0:0:0:0:
256,192,62655,1,0,0:0:0:0:
256,192,62748,1,0,0:0:0:0:
256,192,62842,1,8,0:0:0:0:
256,192,63030,1,0,0:0:0:0:
256,192,64530,1,8,0:0:0:0:
256,192,64717,1,0,0:0:0:0:
256,192,64811,1,0,0:0:0:0:
256,192,64905,1,0,0:0:0:0:
256,192,64998,1,0,0:0:0:0:
256,192,65092,1,8,0:0:0:0:
256,192,65280,1,0,0:0:0:0:
256,192,65373,1,0,0:0:0:0:
256,192,65467,1,0,0:0:0:0:
256,192,65655,1,8,0:0:0:0:
256,192,65842,1,8,0:0:0:0:
256,192,66030,1,0,0:0:0:0:
256,192,68280,1,0,0:0:0:0:
256,192,68373,1,0,0:0:0:0:
256,192,68467,1,0,0:0:0:0:
256,192,68655,1,8,0:0:0:0:
256,192,68842,1,8,0:0:0:0:
256,192,68936,1,8,0:0:0:0:
256,192,69030,1,0,0:0:0:0:
256,192,70155,1,8,0:0:0:0:
256,192,70530,1,0,0:0:0:0:
256,192,70623,1,0,0:0:0:0:
256,192,70717,1,8,0:0:0:0:
256,192,70811,1,8,0:0:0:0:
256,192,70905,1,0,0:0:0:0:
256,192,71092,1,0,0:0:0:0:
256,192,71280,1,8,0:0:0:0:
256,192,71467,1,0,0:0:0:0:
256,192,71561,1,0,0:0:0:0:
256,192,71655,1,0,0:0:0:0:
256,192,71842,1,8,0:0:0:0:
256,192,72030,1,4,0:0:0:0:
256,192,78030,5,0,0:0:0:0:
256,192,78217,1,8,0:0:0:0:
256,192,78405,1,8,0:0:0:0:
256,192,78592,1,0,0:0:0:0:
256,192,80280,1,8,0:0:0:0:
256,192,80467,1,0,0:0:0:0:
256,192,80655,1,0,0:0:0:0:
256,192,80842,1,8,0:0:0:0:
256,192,82155,1,8,0:0:0:0:
256,192,82342,1,8,0:0:0:0:
256,192,82905,1,0,0:0:0:0:
256,192,83092,1,8,0:0:0:0:
256,192,83655,1,8,0:0:0:0:
256,192,84030,1,0,0:0:0:0:
256,192,84123,1,0,0:0:0:0:
256,192,84217,1,0,0:0:0:0:
256,192,84405,1,8,0:0:0:0:
256,192,84592,1,0,0:0:0:0:
256,192,84686,1,0,0:0:0:0:
256,192,84780,1,0,0:0:0:0:
256,192,84873,1,0,0:0:0:0:
256,192,84967,1,0,0:0:0:0:
256,192,85155,1,8,0:0:0:0:
256,192,85342,1,0,0:0:0:0:
256,192,85530,1,0,0:0:0:0:
256,192,85623,1,0,0:0:0:0:
256,192,85717,1,0,0:0:0:0:
256,192,85811,1,0,0:0:0:0:
256,192,85905,1,8,0:0:0:0:
256,192,86092,1,0,0:0:0:0:
256,192,86186,1,0,0:0:0:0:
256,192,86280,1,0,0:0:0:0:
256,192,86467,1,8,0:0:0:0:
256,192,86655,1,0,0:0:0:0:
256,192,87030,1,0,0:0:0:0:
256,192,87405,1,0,0:0:0:0:
256,192,87592,1,8,0:0:0:0:
256,192,87780,1,0,0:0:0:0:
256,192,87873,1,0,0:0:0:0:
256,192,87967,1,0,0:0:0:0:
256,192,88061,1,0,0:0:0:0:
256,192,88155,1,8,0:0:0:0:
256,192,88342,1,8,0:0:0:0:
256,192,88530,1,0,0:0:0:0:
256,192,88623,1,0,0:0:0:0:
256,192,88717,1,0,0:0:0:0:
256,192,88905,1,8,0:0:0:0:
256,192,89092,1,0,0:0:0:0:
256,192,89280,1,0,0:0:0:0:
256,192,89373,1,0,0:0:0:0:
256,192,89467,1,8,0:0:0:0:
256,192,89655,1,0,0:0:0:0:
256,192,90030,1,8,0:0:0:0:
256,192,90405,1,8,0:0:0:0:
256,192,90780,1,8,0:0:0:0:
256,192,91155,1,8,0:0:0:0:
256,192,91530,1,8,0:0:0:0:
256,192,91905,1,8,0:0:0:0:
256,192,92280,1,8,0:0:0:0:
256,192,92655,1,8,0:0:0:0:
256,192,92842,1,8,0:0:0:0:
256,192,93030,1,8,0:0:0:0:
256,192,93405,1,8,0:0:0:0:
256,192,93780,1,8,0:0:0:0:
256,192,94155,1,8,0:0:0:0:
256,192,94530,1,0,0:0:0:0:
256,192,95092,1,8,0:0:0:0:
256,192,95373,1,0,0:0:0:0:
256,192,95467,1,0,0:0:0:0:
256,192,95655,1,8,0:0:0:0:
256,192,95842,1,8,0:0:0:0:
256,192,95936,1,8,0:0:0:0:
256,192,96030,1,0,0:0:0:0:
256,192,96405,1,0,0:0:0:0:
256,192,96780,1,0,0:0:0:0:
256,192,97061,1,0,0:0:0:0:
256,192,97342,1,0,0:0:0:0:
256,192,97530,1,8,0:0:0:0:
256,192,97623,1,0,0:0:0:0:
256,192,97717,1,8,0:0:0:0:
256,192,97905,1,0,0:0:0:0:
256,192,97998,1,0,0:0:0:0:
256,192,98092,1,0,0:0:0:0:
256,192,98186,1,0,0:0:0:0:
256,192,98280,1,8,0:0:0:0:
256,192,98842,1,0,0:0:0:0:
256,192,99030,1,0,0:0:0:0:
256,192,99780,1,8,0:0:0:0:
256,192,99967,1,0,0:0:0:0:
256,192,100155,1,0,0:0:0:0:
256,192,100717,1,8,0:0:0:0:
256,192,101092,1,0,0:0:0:0:
256,192,101280,1,8,0:0:0:0:
256,192,101655,1,0,0:0:0:0:
256,192,102030,1,0,0:0:0:0:
256,192,102217,1,8,0:0:0:0:
256,192,102405,1,8,0:0:0:0:
256,192,102592,1,0,0:0:0:0:
256,192,102780,1,8,0:0:0:0:
256,192,102967,1,0,0:0:0:0:
256,192,103155,1,0,0:0:0:0:
256,192,103342,1,8,0:0:0:0:
256,192,103530,1,0,0:0:0:0:
256,192,103717,1,8,0:0:0:0:
256,192,103905,1,8,0:0:0:0:
256,192,104092,1,0,0:0:0:0:
256,192,104280,1,8,0:0:0:0:
256,192,104655,1,8,0:0:0:0:
256,192,105030,1,0,0:0:0:0:
256,192,105217,1,8,0:0:0:0:
256,192,105405,1,8,0:0:0:0:
256,192,105592,1,0,0:0:0:0:
256,192,105780,1,8,0:0:0:0:
256,192,105967,1,0,0:0:0:0:
256,192,106155,1,8,0:0:0:0:
256,192,106342,1,8,0:0:0:0:
256,192,106530,1,0,0:0:0:0:
256,192,106717,1,8,0:0:0:0:
256,192,106905,1,0,0:0:0:0:
256,192,107092,1,0,0:0:0:0:
256,192,107280,1,8,0:0:0:0:
256,192,107467,1,0,0:0:0:0:
256,192,108030,1,0,0:0:0:0:
256,192,108123,1,8,0:0:0:0:
256,192,108217,1,0,0:0:0:0:
256,192,108311,1,0,0:0:0:0:
256,192,108405,1,8,0:0:0:0:
256,192,108592,1,0,0:0:0:0:
256,192,108780,1,8,0:0:0:0:
256,192,108873,1,0,0:0:0:0:
256,192,108967,1,8,0:0:0:0:
256,192,109155,1,0,0:0:0:0:
256,192,109342,1,8,0:0:0:0:
256,192,109436,1,8,0:0:0:0:
256,192,109530,1,0,0:0:0:0:
256,192,109623,1,8,0:0:0:0:
256,192,109717,1,0,0:0:0:0:
256,192,109905,1,0,0:0:0:0:
256,192,110092,1,8,0:0:0:0:
256,192,110186,1,0,0:0:0:0:
256,192,110280,1,8,0:0:0:0:
256,192,110467,1,8,0:0:0:0:
256,192,110655,1,0,0:0:0:0:
256,192,110842,1,8,0:0:0:0:
256,192,110936,1,8,0:0:0:0:
256,192,111030,1,0,0:0:0:0:
256,192,111123,1,8,0:0:0:0:
256,192,111217,1,0,0:0:0:0:
256,192,111311,1,0,0:0:0:0:
256,192,111405,1,8,0:0:0:0:
256,192,111592,1,0,0:0:0:0:
256,192,111780,1,8,0:0:0:0:
256,192,111873,1,0,0:0:0:0:
256,192,111967,1,8,0:0:0:0:
256,192,112155,1,0,0:0:0:0:
256,192,112342,1,8,0:0:0:0:
256,192,112436,1,8,0:0:0:0:
256,192,112530,1,0,0:0:0:0:
256,192,112717,1,8,0:0:0:0:
256,192,112811,1,8,0:0:0:0:
256,192,112905,1,0,0:0:0:0:
256,192,113092,1,0,0:0:0:0:
256,192,113186,1,0,0:0:0:0:
256,192,113280,1,8,0:0:0:0:
256,192,113467,1,0,0:0:0:0:
256,192,113655,1,8,0:0:0:0:
256,192,113842,1,8,0:0:0:0:
256,192,114030,1,0,0:0:0:0:
256,192,114123,1,8,0:0:0:0:
256,192,114217,1,8,0:0:0:0:
256,192,114311,1,8,0:0:0:0:
256,192,114405,1,0,0:0:0:0:
256,192,114592,1,8,0:0:0:0:
256,192,114686,1,0,0:0:0:0:
256,192,114780,1,8,0:0:0:0:
256,192,114967,1,0,0:0:0:0:
256,192,115061,1,0,0:0:0:0:
256,192,115155,1,8,0:0:0:0:
256,192,115342,1,0,0:0:0:0:
256,192,115530,1,8,0:0:0:0:
256,192,115623,1,8,0:0:0:0:
256,192,115717,1,0,0:0:0:0:
256,192,115811,1,0,0:0:0:0:
256,192,115905,1,8,0:0:0:0:
256,192,116092,1,0,0:0:0:0:
256,192,116280,1,8,0:0:0:0:
256,192,116373,1,8,0:0:0:0:
256,192,116467,1,0,0:0:0:0:
256,192,116655,1,8,0:0:0:0:
256,192,116842,1,8,0:0:0:0:
256,192,117030,1,0,0:0:0:0:
256,192,117123,1,0,0:0:0:0:
256,192,117217,1,8,0:0:0:0:
256,192,117311,1,8,0:0:0:0:
256,192,117405,1,0,0:0:0:0:
256,192,117592,1,8,0:0:0:0:
256,192,117780,1,0,0:0:0:0:
256,192,117873,1,0,0:0:0:0:
256,192,117967,1,8,0:0:0:0:
256,192,118155,1,0,0:0:0:0:
256,192,118342,1,8,0:0:0:0:
256,192,118436,1,8,0:0:0:0:
256,192,118530,1,0,0:0:0:0:
256,192,118717,1,0,0:0:0:0:
256,192,118905,1,0,0:0:0:0:
256,192,119092,1,0,0:0:0:0:
256,192,119280,1,0,0:0:0:0:
256,192,119373,1,0,0:0:0:0:
256,192,119467,1,0,0:0:0:0:
256,192,119561,1,0,0:0:0:0:
256,192,119655,1,8,0:0:0:0:
256,192,120030,1,0,0:0:0:0:
256,192,120405,1,0,0:0:0:0:
256,192,120780,1,0,0:0:0:0:
256,192,121061,1,0,0:0:0:0:
256,192,121342,1,0,0:0:0:0:
256,192,121530,1,0,0:0:0:0:
256,192,121905,1,0,0:0:0:0:
256,192,122280,1,0,0:0:0:0:
256,192,122561,1,0,0:0:0:0:
256,192,122842,1,0,0:0:0:0:
256,192,123030,1,0,0:0:0:0:
256,192,123405,1,0,0:0:0:0:
256,192,123780,1,0,0:0:0:0:
256,192,124061,1,0,0:0:0:0:
256,192,124342,1,0,0:0:0:0:
256,192,124530,1,0,0:0:0:0:
256,192,124905,1,0,0:0:0:0:
256,192,125280,1,0,0:0:0:0:
256,192,125561,1,0,0:0:0:0:
256,192,125842,1,8,0:0:0:0:
256,192,125936,1,0,0:0:0:0:
256,192,126030,1,8,0:0:0:0:
256,192,126405,1,0,0:0:0:0:
256,192,126780,1,0,0:0:0:0:
256,192,126967,1,8,0:0:0:0:
256,192,127061,1,0,0:0:0:0:
256,192,127155,1,8,0:0:0:0:
256,192,127342,1,0,0:0:0:0:
256,192,127530,1,0,0:0:0:0:
256,192,127905,1,0,0:0:0:0:
256,192,128280,1,8,0:0:0:0:
256,192,128561,1,0,0:0:0:0:
256,192,128655,1,8,0:0:0:0:
256,192,128748,1,8,0:0:0:0:
256,192,128842,1,8,0:0:0:0:
256,192,128936,1,8,0:0:0:0:
256,192,129030,1,0,0:0:0:0:
256,192,129217,1,8,0:0:0:0:
256,192,129592,1,8,0:0:0:0:
256,192,129967,1,8,0:0:0:0:
256,192,130530,1,0,0:0:0:0:
256,192,130717,1,8,0:0:0:0:
256,192,130905,1,0,0:0:0:0:
256,192,131092,1,8,0:0:0:0:
256,192,131186,1,0,0:0:0:0:
256,192,131280,1,0,0:0:0:0:
256,192,131373,1,0,0:0:0:0:
256,192,131467,1,8,0:0:0:0:
256,192,131655,1,0,0:0:0:0:
256,192,131748,1,0,0:0:0:0:
256,192,131842,1,8,0:0:0:0:
256,192,131936,1,8,0:0:0:0:
256,192,132030,1,0,0:0:0:0:
256,192,132217,1,8,0:0:0:0:
256,192,132405,1,0,0:0:0:0:
256,192,132592,1,8,0:0:0:0:
256,192,132780,1,0,0:0:0:0:
256,192,132967,1,8,0:0:0:0:
256,192,133155,1,0,0:0:0:0:
256,192,133342,1,8,0:0:0:0:
256,192,133436,1,8,0:0:0:0:
256,192,133530,1,0,0:0:0:0:
256,192,133717,1,8,0:0:0:0:
256,192,133905,1,0,0:0:0:0:
256,192,134092,1,8,0:0:0:0:
256,192,134280,1,0,0:0:0:0:
256,192,134467,1,8,0:0:0:0:
256,192,134655,1,0,0:0:0:0:
256,192,134842,1,8,0:0:0:0:
256,192,134936,1,8,0:0:0:0:
256,192,135030,1,0,0:0:0:0:
256,192,135217,1,8,0:0:0:0:
256,192,135592,1,8,0:0:0:0:
256,192,135967,1,8,0:0:0:0:
256,192,136717,1,8,0:0:0:0:
256,192,137092,1,8,0:0:0:0:
256,192,137467,1,8,0:0:0:0:
256,192,137655,1,0,0:0:0:0:
256,192,137748,1,0,0:0:0:0:
256,192,137842,1,0,0:0:0:0:
256,192,138030,1,8,0:0:0:0:
256,192,138123,1,0,0:0:0:0:
256,192,138217,1,0,0:0:0:0:
256,192,138311,1,0,0:0:0:0:
256,192,138405,1,8,0:0:0:0:
256,192,138498,1,8,0:0:0:0:
256,192,138592,1,0,0:0:0:0:
256,192,138686,1,0,0:0:0:0:
256,192,138780,1,8,0:0:0:0:
256,192,138873,1,0,0:0:0:0:
256,192,138967,1,8,0:0:0:0:
256,192,139061,1,0,0:0:0:0:
256,192,139155,1,8,0:0:0:0:
256,192,139248,1,8,0:0:0:0:
256,192,139342,1,0,0:0:0:0:
256,192,139436,1,0,0:0:0:0:
256,192,139530,1,8,0:0:0:0:
256,192,139623,1,0,0:0:0:0:
256,192,139717,1,0,0:0:0:0:
256,192,139811,1,0,0:0:0:0:
256,192,139905,1,8,0:0:0:0:
256,192,139998,1,8,0:0:0:0:
256,192,140092,1,0,0:0:0:0:
256,192,140186,1,0,0:0:0:0:
256,192,140280,1,8,0:0:0:0:
256,192,140373,1,8,0:0:0:0:
256,192,140467,1,8,0:0:0:0:
256,192,140561,1,8,0:0:0:0:
256,192,140655,1,0,0:0:0:0:
256,192,140748,1,0,0:0:0:0:
256,192,140842,1,0,0:0:0:0:
256,192,140936,1,0,0:0:0:0:
256,192,141030,1,8,0:0:0:0:
256,192,141217,1,0,0:0:0:0:
256,192,141405,1,8,0:0:0:0:
256,192,141498,1,8,0:0:0:0:
256,192,141592,1,0,0:0:0:0:
256,192,141686,1,0,0:0:0:0:
256,192,141780,1,8,0:0:0:0:
256,192,141967,1,0,0:0:0:0:
256,192,142155,1,8,0:0:0:0:
256,192,142248,1,8,0:0:0:0:
256,192,142342,1,0,0:0:0:0:
256,192,142530,1,8,0:0:0:0:
256,192,142905,1,0,0:0:0:0:
256,192,143280,1,0,0:0:0:0:
256,192,143655,1,0,0:0:0:0:
256,192,144030,1,8,0:0:0:0:
256,192,144123,1,8,0:0:0:0:
256,192,144217,1,0,0:0:0:0:
256,192,144311,1,0,0:0:0:0:
256,192,144405,1,8,0:0:0:0:
256,192,144498,1,0,0:0:0:0:
256,192,144592,1,0,0:0:0:0:
256,192,144686,1,0,0:0:0:0:
256,192,144780,1,8,0:0:0:0:
256,192,144873,1,0,0:0:0:0:
256,192,144967,1,0,0:0:0:0:
256,192,145061,1,8,0:0:0:0:
256,192,145155,1,0,0:0:0:0:
256,192,145248,1,0,0:0:0:0:
256,192,145342,1,8,0:0:0:0:
256,192,145436,1,0,0:0:0:0:
256,192,145530,1,8,0:0:0:0:
256,192,145623,1,0,0:0:0:0:
256,192,145717,1,0,0:0:0:0:
256,192,145811,1,0,0:0:0:0:
256,192,145905,1,8,0:0:0:0:
256,192,145998,1,8,0:0:0:0:
256,192,146092,1,0,0:0:0:0:
256,192,146186,1,0,0:0:0:0:
256,192,146280,1,8,0:0:0:0:
256,192,146373,1,8,0:0:0:0:
256,192,146467,1,8,0:0:0:0:
256,192,146561,1,0,0:0:0:0:
256,192,146655,1,0,0:0:0:0:
256,192,146748,1,0,0:0:0:0:
256,192,146842,1,8,0:0:0:0:
256,192,147030,1,0,0:0:0:0:
256,192,147123,1,8,0:0:0:0:
256,192,147217,1,8,0:0:0:0:
256,192,147311,1,8,0:0:0:0:
256,192,147405,1,0,0:0:0:0:
256,192,147498,1,0,0:0:0:0:
256,192,147592,1,8,0:0:0:0:
256,192,147686,1,8,0:0:0:0:
256,192,147780,1,0,0:0:0:0:
256,192,147873,1,0,0:0:0:0:
256,192,147967,1,0,0:0:0:0:
256,192,148061,1,8,0:0:0:0:
256,192,148155,1,8,0:0:0:0:
256,192,148248,1,8,0:0:0:0:
256,192,148342,1,0,0:0:0:0:
256,192,148436,1,8,0:0:0:0:
256,192,148530,1,0,0:0:0:0:
256,192,148623,1,0,0:0:0:0:
256,192,148717,1,8,0:0:0:0:
256,192,148811,1,8,0:0:0:0:
256,192,148905,1,0,0:0:0:0:
256,192,148998,1,8,0:0:0:0:
256,192,149092,1,8,0:0:0:0:
256,192,149186,1,8,0:0:0:0:
256,192,149280,1,0,0:0:0:0:
256,192,149373,1,8,0:0:0:0:
256,192,149467,1,8,0:0:0:0:
256,192,149561,1,0,0:0:0:0:
256,192,149655,1,8,0:0:0:0:
256,192,149748,1,8,0:0:0:0:
256,192,149842,1,0,0:0:0:0:
256,192,150030,1,8,0:0:0:0:
256,192,150123,1,8,0:0:0:0:
256,192,150217,1,0,0:0:0:0:
256,192,150311,1,0,0:0:0:0:
256,192,150405,1,8,0:0:0:0:
256,192,150498,1,0,0:0:0:0:
256,192,150592,1,0,0:0:0:0:
256,192,150686,1,0,0:0:0:0:
256,192,150780,1,8,0:0:0:0:
256,192,150873,1,0,0:0:0:0:
256,192,150967,1,0,0:0:0:0:
256,192,151061,1,8,0:0:0:0:
256,192,151155,1,0,0:0:0:0:
256,192,151248,1,0,0:0:0:0:
256,192,151342,1,8,0:0:0:0:
256,192,151436,1,0,0:0:0:0:
256,192,151530,1,8,0:0:0:0:
256,192,151623,1,0,0:0:0:0:
256,192,151717,1,0,0:0:0:0:
256,192,151811,1,0,0:0:0:0:
256,192,151905,1,8,0:0:0:0:
256,192,151998,1,8,0:0:0:0:
256,192,152092,1,0,0:0:0:0:
256,192,152186,1,0,0:0:0:0:
256,192,152280,1,8,0:0:0:0:
256,192,152373,1,8,0:0:0:0:
256,192,152467,1,8,0:0:0:0:
256,192,152561,1,0,0:0:0:0:
256,192,152655,1,0,0:0:0:0:
256,192,152748,1,0,0:0:0:0:
256,192,152842,1,8,0:0:0:0:
256,192,153030,1,0,0:0:0:0:
256,192,153123,1,8,0:0:0:0:
256,192,153217,1,8,0:0:0:0:
256,192,153311,1,8,0:0:0:0:
256,192,153405,1,0,0:0:0:0:
256,192,153498,1,0,0:0:0:0:
256,192,153592,1,8,0:0:0:0:
256,192,153686,1,8,0:0:0:0:
256,192,153780,1,0,0:0:0:0:
256,192,153873,1,0,0:0:0:0:
256,192,153967,1,0,0:0:0:0:
256,192,154061,1,8,0:0:0:0:
256,192,154155,1,8,0:0:0:0:
256,192,154248,1,8,0:0:0:0:
256,192,154342,1,0,0:0:0:0:
256,192,154436,1,8,0:0:0:0:
256,192,154530,1,0,0:0:0:0:
256,192,154717,1,8,0:0:0:0:
256,192,154905,1,0,0:0:0:0:
256,192,155092,1,8,0:0:0:0:
256,192,155280,1,0,0:0:0:0:
256,192,155373,1,0,0:0:0:0:
256,192,155467,1,0,0:0:0:0:
256,192,155561,1,0,0:0:0:0:
256,192,155655,1,8,0:0:0:0:
256,192,155842,1,0,0:0:0:0:
256,192,156030,1,8,0:0:0:0:
256,192,156123,1,8,0:0:0:0:
256,192,156217,1,0,0:0:0:0:
256,192,156311,1,0,0:0:0:0:
256,192,156405,1,8,0:0:0:0:
256,192,156498,1,0,0:0:0:0:
256,192,156592,1,0,0:0:0:0:
256,192,156686,1,0,0:0:0:0:
256,192,156780,1,8,0:0:0:0:
256,192,156873,1,0,0:0:0:0:
256,192,156967,1,0,0:0:0:0:
256,192,157061,1,8,0:0:0:0:
256,192,157155,1,0,0:0:0:0:
256,192,157248,1,0,0:0:0:0:
256,192,157342,1,8,0:0:0:0:
256,192,157436,1,0,0:0:0:0:
256,192,157530,1,8,0:0:0:0:
256,192,157623,1,0,0:0:0:0:
256,192,157717,1,0,0:0:0:0:
256,192,157811,1,0,0:0:0:0:
256,192,157905,1,8,0:0:0:0:
256,192,157998,1,8,0:0:0:0:
256,192,158092,1,0,0:0:0:0:
256,192,158186,1,0,0:0:0:0:
256,192,158280,1,8,0:0:0:0:
256,192,158373,1,8,0:0:0:0:
256,192,158467,1,8,0:0:0:0:
256,192,158561,1,0,0:0:0:0:
256,192,158655,1,0,0:0:0:0:
256,192,158748,1,0,0:0:0:0:
256,192,158842,1,8,0:0:0:0:
256,192,158936,1,8,0:0:0:0:
256,192,159030,1,0,0:0:0:0:
256,192,159123,1,8,0:0:0:0:
256,192,159217,1,8,0:0:0:0:
256,192,159311,1,8,0:0:0:0:
256,192,159405,1,0,0:0:0:0:
256,192,159498,1,0,0:0:0:0:
256,192,159592,1,8,0:0:0:0:
256,192,159686,1,8,0:0:0:0:
256,192,159780,1,0,0:0:0:0:
256,192,159873,1,0,0:0:0:0:
256,192,159967,1,0,0:0:0:0:
256,192,160061,1,8,0:0:0:0:
256,192,160155,1,8,0:0:0:0:
256,192,160248,1,8,0:0:0:0:
256,192,160342,1,0,0:0:0:0:
256,192,160436,1,8,0:0:0:0:
256,192,160530,1,0,0:0:0:0:
256,192,160623,1,0,0:0:0:0:
256,192,160717,1,8,0:0:0:0:
256,192,160811,1,8,0:0:0:0:
256,192,160905,1,0,0:0:0:0:
256,192,160998,1,8,0:0:0:0:
256,192,161092,1,8,0:0:0:0:
256,192,161186,1,8,0:0:0:0:
256,192,161280,1,0,0:0:0:0:
256,192,161373,1,8,0:0:0:0:
256,192,161467,1,8,0:0:0:0:
256,192,161561,1,0,0:0:0:0:
256,192,161655,1,8,0:0:0:0:
256,192,161748,1,8,0:0:0:0:
256,192,161842,1,0,0:0:0:0:
256,192,162030,1,8,0:0:0:0:
256,192,162123,1,8,0:0:0:0:
256,192,162217,1,0,0:0:0:0:
256,192,162311,1,0,0:0:0:0:
256,192,162405,1,8,0:0:0:0:
256,192,162498,1,0,0:0:0:0:
256,192,162592,1,0,0:0:0:0:
256,192,162686,1,0,0:0:0:0:
256,192,162780,1,8,0:0:0:0:
256,192,162873,1,0,0:0:0:0:
256,192,162967,1,0,0:0:0:0:
256,192,163061,1,8,0:0:0:0:
256,192,163155,1,0,0:0:0:0:
256,192,163248,1,0,0:0:0:0:
256,192,163342,1,8,0:0:0:0:
256,192,163436,1,0,0:0:0:0:
256,192,163530,1,8,0:0:0:0:
256,192,163623,1,0,0:0:0:0:
256,192,163717,1,0,0:0:0:0:
256,192,163811,1,0,0:0:0:0:
256,192,163905,1,8,0:0:0:0:
256,192,163998,1,8,0:0:0:0:
256,192,164092,1,0,0:0:0:0:
256,192,164186,1,0,0:0:0:0:
256,192,164280,1,8,0:0:0:0:
256,192,164373,1,8,0:0:0:0:
256,192,164467,1,8,0:0:0:0:
256,192,164561,1,0,0:0:0:0:
256,192,164655,1,0,0:0:0:0:
256,192,164748,1,0,0:0:0:0:
256,192,164842,1,8,0:0:0:0:
256,192,164936,1,8,0:0:0:0:
256,192,165030,1,0,0:0:0:0:
256,192,165123,1,8,0:0:0:0:
256,192,165217,1,8,0:0:0:0:
256,192,165311,1,8,0:0:0:0:
256,192,165405,1,0,0:0:0:0:
256,192,165498,1,0,0:0:0:0:
256,192,165592,1,8,0:0:0:0:
256,192,165686,1,8,0:0:0:0:
256,192,165780,1,0,0:0:0:0:
256,192,165873,1,0,0:0:0:0:
256,192,165967,1,0,0:0:0:0:
256,192,166061,1,8,0:0:0:0:
256,192,166155,1,8,0:0:0:0:
256,192,166248,1,8,0:0:0:0:
256,192,166342,1,0,0:0:0:0:
256,192,166436,1,8,0:0:0:0:
256,192,166530,1,0,0:0:0:0:
256,192,166717,1,8,0:0:0:0:
256,192,166905,1,0,0:0:0:0:
256,192,167092,1,8,0:0:0:0:
256,192,167280,1,0,0:0:0:0:
256,192,167373,1,0,0:0:0:0:
256,192,167467,1,0,0:0:0:0:
256,192,167655,1,8,0:0:0:0:
256,192,167842,1,0,0:0:0:0:
256,192,168030,1,0,0:0:0:0:
256,192,170280,1,8,0:0:0:0:
256,192,171030,1,8,0:0:0:0:
256,192,172530,1,0,0:0:0:0:
256,192,173280,1,8,0:0:0:0:
256,192,174030,1,0,0:0:0:0:
256,192,175905,1,8,0:0:0:0:
256,192,177030,1,8,0:0:0:0:
256,192,178155,1,0,0:0:0:0:
256,192,179280,1,8,0:0:0:0:
256,192,180030,1,0,0:0:0:0:
256,192,183030,1,8,0:0:0:0:
256,192,184530,1,8,0:0:0:0:
256,192,186030,1,0,0:0:0:0:
