osu file format v14

[General]
AudioFilename: audio.mp3
AudioLeadIn: 0
PreviewTime: -1
Countdown: 1
SampleSet: None
StackLeniency: 0.4
Mode: 0
LetterboxInBreaks: 0
WidescreenStoryboard: 1

[Editor]
Bookmarks: 8273,15023,17273,22523,35648,48023,96023,144023,145523,147023,150023,158273,158366,158460,164835,168023,170273,175898,183023,186023
DistanceSpacing: 1.4
BeatDivisor: 4
GridSize: 16
TimelineZoom: 3.799999

[Metadata]
Title:me & u
TitleUnicode:me & u
Artist:succducc
ArtistUnicode:succducc
Creator:Duboon
Version:new me
Source:succducc future
Tags:succducc me n u EDM future Electrovoid Duboon
BeatmapID:1626931
BeatmapSetID:736137

[Difficulty]
HPDrainRate:6.6
CircleSize:3.5
OverallDifficulty:8.4
ApproachRate:9.3
SliderMultiplier:2.3
SliderTickRate:1

[Events]
//Background and Video events
0,0,"833480.png",0,0
//Break Periods
//Storyboard Layer 0 (Background)
//Storyboard Layer 1 (Fail)
//Storyboard Layer 2 (Pass)
//Storyboard Layer 3 (Foreground)
//Storyboard Sound Samples

[TimingPoints]
23,375,4,3,0,40,1,0
4523,-133.333333333333,4,3,0,40,0,0
4804,-66.6666666666667,4,3,0,40,0,0
5273,-133.333333333333,4,3,0,40,0,0
6023,-200,4,3,0,40,0,0
9023,-133.333333333333,4,3,0,40,0,0
10523,-100,4,3,0,40,0,0
18023,-66.6666666666667,4,3,0,40,0,0
21023,-100,4,3,0,40,0,0
24023,-50,4,3,0,40,0,0
30023,-153.846153846153,4,3,0,40,0,0
30210,-153.846153846153,4,3,0,40,0,0
31335,-50,4,3,0,40,0,0
36023,-66.6666666666667,4,3,0,40,0,0
48023,-181.818181818181,4,1,2,100,0,0
51023,-100,4,1,2,100,0,0
51210,-100,4,1,2,100,0,0
54585,-90.9090909090909,4,1,2,100,0,0
58335,-133.333333333333,4,1,2,100,0,0
67335,-133.333333333333,4,1,2,100,0,0
67523,-200,4,1,2,100,0,0
70804,-133.333333333333,4,1,2,100,0,0
90023,-100,4,1,2,100,0,0
93398,-133.333333333333,4,1,2,100,0,0
94335,-133.333333333333,4,1,2,100,0,0
94382,-52.6315789473684,4,1,2,100,0,0
94523,-50,4,1,2,100,0,0
94710,-52.6315789473684,4,1,2,100,0,0
96398,-200,4,1,2,100,0,0
97148,-66.6666666666667,4,1,2,100,0,0
102400,-117.647058823529,4,1,2,100,0,0
102960,-66.6666666666667,4,1,2,100,0,0
103148,-66.6666666666667,4,1,2,100,0,0
104273,-100,4,1,2,100,0,0
108023,-100,4,1,2,100,0,1
109429,-90.9090909090909,4,1,2,100,0,1
119648,-90.9090909090909,4,3,0,40,0,0
144023,-66.6666666666667,4,3,0,40,0,0
156023,-66.6666666666667,4,3,0,40,0,1
168023,-100,4,3,0,40,0,0
180023,-100,4,3,0,40,0,0

[HitObjects]
80,208,23,6,0,B|144:207|176:143,1,115
176,128,398,1,0,0:0:0:0:
176,112,491,1,0,0:0:0:0:
272,224,585,2,0,B|304:304|377:273,1,115
379,268,866,1,0,0:0:0:0:
389,252,960,1,0,0:0:0:0:
356,182,1148,1,0,0:0:0:0:
345,164,1241,1,0,0:0:0:0:
343,150,1335,2,0,P|383:98|433:92,2,115
271,274,1898,2,0,P|186:300|157:292,1,115
70,194,2273,2,0,P|104:179|177:198,1,115
385,291,2648,2,0,P|353:224|287:216,1,115
286,207,2929,1,0,0:0:0:0:
256,222,3023,1,0,0:0:0:0:
385,291,3210,2,0,P|300:274|271:300,1,115
256,306,3491,1,0,0:0:0:0:
208,293,3585,1,0,0:0:0:0:
157,291,3679,1,0,0:0:0:0:
105,275,3773,2,0,P|70:209|89:165,2,115
229,177,4335,5,0,0:0:0:0:
337,117,4523,2,0,P|399:136|419:166,1,86.2500032901765
337,117,4804,2,0,P|361:200|350:209,2,86.2500032901765
337,117,5085,1,0,0:0:0:0:
213,240,5273,2,0,L|165:240,2,43.1250016450883
64,144,5648,2,0,L|107:144,1,43.1250016450883
295,77,6023,2,0,L|266:77,1,28.75
179,171,6398,2,0,L|227:171,1,28.75
339,305,6773,2,0,L|291:305,1,28.75
111,237,7148,2,0,L|159:237,1,28.75
296,217,7523,6,0,P|273:196|264:169,1,57.5
389,142,7898,2,0,P|421:174|421:206,1,57.5
378,307,8273,2,0,P|347:326|309:329,1,57.5
230,320,8648,2,0,P|187:306|175:291,1,57.5
108,210,9023,2,0,B|197:144|253:222|251:284|387:205,1,301.875011515618
296,151,9773,2,0,B|354:144|351:57|351:57|372:129|432:124|496:113|493:44,1,301.875011515618
453,198,10523,2,0,P|431:259|357:292,1,115
89,243,10898,2,0,P|151:276|156:339,1,115
265,313,11273,2,0,P|286:251|360:218,1,115
282,131,11648,2,0,P|220:97|214:34,1,115
337,64,12023,1,0,0:0:0:0:
355,77,12116,1,0,0:0:0:0:
367,94,12210,2,0,P|379:181|361:202,1,115
337,216,12491,1,0,0:0:0:0:
309,237,12585,1,0,0:0:0:0:
291,259,12679,1,0,0:0:0:0:
271,280,12773,1,0,0:0:0:0:
246,294,12866,1,0,0:0:0:0:
217,292,12960,2,0,P|146:241|149:203,1,115
176,79,13335,2,0,L|224:131,1,57.5
238,147,13523,1,0,0:0:0:0:
252,178,13616,1,0,0:0:0:0:
276,202,13710,2,0,P|363:229|383:289,1,115
199,309,14085,1,0,0:0:0:0:
104,130,14273,1,0,0:0:0:0:
152,156,14366,1,0,0:0:0:0:
201,163,14460,1,0,0:0:0:0:
247,134,14554,1,0,0:0:0:0:
293,110,14648,2,0,P|355:136|374:190,1,115
171,91,15023,2,0,P|110:110|99:132,1,57.5
93,125,15210,1,0,0:0:0:0:
88,166,15304,1,0,0:0:0:0:
296,221,15398,2,0,P|254:270|247:271,1,57.5
182,336,15585,2,0,P|163:310|182:224,1,115
18,145,15960,2,0,P|9:199|32:226,1,57.5
103,306,16148,5,0,0:0:0:0:
130,332,16241,1,0,0:0:0:0:
167,342,16335,2,0,P|217:327|234:273,1,57.5
266,163,16523,2,0,P|206:140|169:154,2,57.5
53,193,16898,2,0,P|110:226|166:214,1,115
227,79,17273,2,0,P|139:101|123:134,1,115
256,176,17648,2,0,P|321:184|359:247,1,115
48,304,18023,2,0,P|110:248|194:253,1,172.500006580353
416,160,18398,2,0,P|347:208|266:188,1,172.500006580353
64,80,18773,2,0,P|96:64|164:76,1,86.2500032901765
320,112,18960,2,0,P|272:96|233:105,1,86.2500032901765
112,192,19148,2,0,P|157:276|237:292,1,172.500006580353
368,304,19523,2,0,P|367:220|430:165,1,172.500006580353
320,144,19898,2,0,P|286:68|204:55,1,172.500006580353
224,272,20273,2,0,P|273:337|354:325,1,172.500006580353
416,96,20648,2,0,P|368:80|304:96,1,86.2500032901765
304,96,20835,1,0,0:0:0:0:
288,112,20929,1,0,0:0:0:0:
67,154,21023,2,0,P|90:137|118:133,1,57.5
240,224,21210,2,0,P|214:235|185:235,1,57.5
65,326,21398,2,0,P|91:338|120:338,1,57.5
260,322,21585,2,0,P|286:310|304:288,1,57.5
368,96,21773,1,0,0:0:0:0:
364,86,21866,2,0,P|300:102|284:118,1,57.5
112,208,22054,2,0,P|160:224|176:224,1,57.5
176,80,22335,2,0,P|132:81|90:130,1,57.5
80,128,22523,1,0,0:0:0:0:
80,176,22616,1,0,0:0:0:0:
112,224,22710,1,0,0:0:0:0:
160,240,22804,1,0,0:0:0:0:
208,224,22898,1,0,0:0:0:0:
272,208,22991,1,0,0:0:0:0:
336,240,23085,1,0,0:0:0:0:
416,240,23179,1,0,0:0:0:0:
480,192,23272,1,0,0:0:0:0:
480,112,23366,1,0,0:0:0:0:
416,64,23460,1,0,0:0:0:0:
336,96,23554,1,0,0:0:0:0:
320,176,23648,1,0,0:0:0:0:
384,224,23741,1,0,0:0:0:0:
464,208,23835,2,0,P|480:144|464:128,1,57.5
384,64,24023,2,0,P|304:96|256:144,1,115
