osu file format v14

[General]
AudioFilename: audio.mp3
AudioLeadIn: 0
PreviewTime: 24813
Countdown: 0
SampleSet: Soft
StackLeniency: 0.2
Mode: 0
LetterboxInBreaks: 0
WidescreenStoryboard: 0

[Editor]
Bookmarks: 813,12813,24813,36813,48813,60813,72813,84813,96813,108813,120813,132813,144813,156813,168813
DistanceSpacing: 1.2
BeatDivisor: 4
GridSize: 32
TimelineZoom: 4.1

[Metadata]
Title:me & u
TitleUnicode:me & u
Artist:succducc
ArtistUnicode:succducc
Creator:Doguu
Version:doki
Source:
Tags:
BeatmapID:1481402
BeatmapSetID:699601

[Difficulty]
HPDrainRate:5.1
CircleSize:3.3
OverallDifficulty:8.6
ApproachRate:9.7
SliderMultiplier:2.6
SliderTickRate:1

[Events]
//Background and Video events
0,0,"succdate a live.jpg",0,0
//Break Periods
//Storyboard Layer 0 (Background)
//Storyboard Layer 1 (Fail)
//Storyboard Layer 2 (Pass)
//Storyboard Layer 3 (Foreground)
//Storyboard Sound Samples

[TimingPoints]
813,375,4,2,0,50,1,0
6813,-133.333333333333,4,2,0,50,0,0
9063,-100,4,2,0,50,0,0
9813,-66.6666666666667,4,2,0,50,0,1
12813,-100,4,2,0,50,0,0
18438,-86.9565217391304,4,2,0,50,0,0
18813,-90.9090909090909,4,2,0,50,0,1
24438,-51.9480519480519,4,2,0,50,0,1
24813,-66.6666666666667,4,2,0,5,0,0
27625,-33.3333333333333,4,2,0,5,0,0
27813,-66.6666666666667,4,2,0,5,0,0
30438,-80,4,2,0,5,0,0
30625,-57.1428571428571,4,2,0,5,0,0
30813,-66.6666666666667,4,2,0,5,0,0
33438,-185.185185185185,4,2,0,5,0,0
33813,-50,4,2,0,5,0,0
34000,-185.185185185185,4,2,0,5,0,0
34188,-66.6666666666667,4,2,0,5,0,0
34375,-185.185185185185,4,2,0,5,0,0
34563,-50,4,2,0,5,0,0
34844,-66.6666666666667,4,2,0,5,0,0
34938,-66.6666666666667,4,2,0,5,0,0
35313,-76.9230769230769,4,2,0,5,0,0
36063,-36.90036900369,4,2,0,5,0,0
36813,-74.0740740740741,4,2,0,5,0,1
39813,-66.6666666666667,4,2,0,5,0,1
40938,-42.857142857149,4,2,0,5,0,1
41125,-80,4,2,0,5,0,1
41313,-66.6666666666667,4,2,0,5,0,1
42438,-60.6060606060606,4,2,0,5,0,1
46188,-52.6315789473684,4,2,0,5,0,1
46563,-46.5116279069767,4,2,0,5,0,1
46938,-33.3333333333333,4,2,0,5,0,1
47125,-60.6060606060606,4,2,0,5,0,1
47313,-43.4782608695652,4,2,0,5,0,1
47688,-40.8163265306122,4,2,0,5,0,1
48063,-38.4615384615385,4,2,0,5,0,1
48438,-35.7142857142857,4,2,0,5,0,1
48813,-100,4,2,0,50,0,0
54438,-133.333333333333,4,2,0,50,0,0
54625,-114.285714285714,4,2,0,50,0,0
54813,-100,4,2,0,50,0,0
60813,-200,4,2,0,50,0,0
63063,-133.333333333333,4,2,0,50,0,0
63813,-157.48031496063,4,2,0,50,0,0
65313,-133.333333333333,4,2,0,50,0,0
72813,-300,4,2,0,50,0,0
79563,-150.000000000015,4,2,0,50,0,0
81813,-133.333333333333,4,2,0,50,0,0
83313,-150.000000000015,4,2,0,50,0,0
84063,-166.666666666667,4,2,0,50,0,0
84813,-117.647058823529,4,2,0,50,0,0
85938,-105.263157894737,4,2,0,50,0,0
87063,-95.2380952380952,4,2,0,50,0,0
89313,-86.9565217391304,4,2,0,50,0,0
95313,-30.7692307692308,4,2,0,50,0,0
95500,-61.5384615384615,4,2,0,50,0,0
96063,-50,4,2,0,50,0,0
96438,-42.1052631578947,4,2,0,50,0,0
96813,-60.6060606060606,4,2,0,5,0,0
98688,-185.185185185185,4,2,0,5,0,0
99250,-36.3636363636364,4,2,0,50,0,0
99813,-50,4,2,0,50,0,1
102813,-80,4,2,0,5,0,1
105063,-66.6666666666667,4,2,0,5,0,1
105438,-50,4,2,0,5,0,1
105813,-66.6666666666667,4,2,0,5,0,1
106563,-100,4,2,0,5,0,1
107313,-50,4,2,0,5,0,1
108813,-75,4,2,0,50,0,1
111813,-69.2307692307692,4,2,0,50,0,1
113313,-71.4285714285714,4,2,0,50,0,1
114813,-64.2857142857143,4,2,0,50,0,1
117063,-57.1428571428571,4,2,0,50,0,1
120156,-64.2857142857143,4,2,0,50,0,1
120250,-69.2307692307692,4,2,0,50,0,1
120344,-75,4,2,0,50,0,1
120438,-25,4,2,0,50,0,0
120813,-66.6666666666667,4,2,0,5,0,0
121188,-133.333333333333,4,2,0,5,0,0
121750,-66.6666666666667,4,2,0,5,0,0
122313,-133.333333333333,4,2,0,5,0,0
123063,-66.6666666666667,4,2,0,5,0,0
123438,-80,4,2,0,5,0,0
123625,-100,4,2,0,5,0,0
123813,-66.6666666666667,4,2,0,5,0,0
124188,-133.333333333333,4,2,0,5,0,0
124750,-66.6666666666667,4,2,0,5,0,0
125313,-133.333333333333,4,2,0,5,0,0
126250,-100,4,2,0,5,0,0
126438,-80,4,2,0,5,0,0
126625,-66.6666666666667,4,2,0,5,0,0
126813,-50,4,2,0,5,0,0
127188,-66.6666666666667,4,2,0,5,0,0
127750,-100,4,2,0,5,0,0
127938,-50,4,2,0,5,0,0
128313,-66.6666666666667,4,2,0,5,0,0
129063,-50,4,2,0,5,0,0
129438,-185.185185185185,4,2,0,5,0,0
129813,-50,4,2,0,5,0,0
130000,-185.185185185185,4,2,0,5,0,0
130188,-133.333333333333,4,2,0,5,0,0
130375,-185.185185185185,4,2,0,5,0,0
130563,-50,4,2,0,5,0,0
130750,-185.185185185185,4,2,0,5,0,0
130844,-133.333333333333,4,2,0,5,0,0
130938,-50,4,2,0,5,0,0
131313,-36.90036900369,4,2,0,5,0,0
132813,-133.333333333333,4,2,0,5,0,0
133938,-80,4,2,0,5,0,0
135063,-166.666666666667,4,2,0,5,0,0
135438,-109.89010989011,4,2,0,5,0,0
135625,-52.9100529100529,4,2,0,5,0,0
137125,-79.3650793650794,4,2,0,5,0,0
141250,-52.9100529100529,4,2,0,5,0,0
144813,-76.9230769230769,4,2,0,5,0,1
192719,-1000,4,2,0,50,0,0
192813,-10,4,2,0,50,0,0

[HitObjects]
310,243,813,6,0,B|248:211|186:243|186:243|123:274|61:243,1,260
57,240,1281,1,0,0:0:0:0:
60,242,1375,2,0,B|-2:207|-12:138,2,130
248,350,1938,5,0,0:0:0:0:
248,350,2031,1,0,0:0:0:0:
248,350,2125,2,0,P|372:356|448:256,1,260
279,90,2688,1,0,0:0:0:0:
155,151,2875,5,0,0:0:0:0:
155,151,2969,1,0,0:0:0:0:
155,151,3063,2,0,B|131:84|169:26,1,130
391,155,3438,2,0,B|355:214|285:222,1,130
328,51,3813,6,0,P|452:64|510:175,1,260
285,222,4375,1,0,0:0:0:0:
160,207,4563,2,0,P|117:159|102:97,2,130
391,155,5125,5,0,0:0:0:0:
485,224,5313,2,0,L|306:300,2,195
391,155,6063,2,0,P|334:124|304:67,1,130
512,105,6438,2,0,P|518:169|485:224,1,130
255,316,6813,6,0,P|192:299|145:241,1,97.50000371933
257,68,7188,2,0,P|320:85|367:143,1,97.50000371933
255,316,7563,1,0,0:0:0:0:
132,191,7938,1,0,0:0:0:0:
257,68,8313,5,0,0:0:0:0:
380,193,8688,1,0,0:0:0:0:
167,278,9063,6,0,P|135:223|136:158,1,130
344,105,9438,2,0,P|376:160|375:226,1,130
255,316,9813,6,0,P|256:67|256:316,1,780.00002975464
149,129,10750,1,0,0:0:0:0:
363,130,10938,1,0,0:0:0:0:
223,310,11313,6,0,P|148:254|137:159,1,195.00000743866
375,224,11688,2,0,P|318:299|223:310,1,195.00000743866
289,71,12063,2,0,P|364:129|375:224,1,195.00000743866
137,158,12438,2,0,P|194:83|290:71,1,195.00000743866
235,269,12813,6,0,P|203:324|147:356,1,130
115,360,13094,1,0,0:0:0:0:
83,355,13188,1,0,0:0:0:0:
137,158,13375,6,0,P|148:127|168:102,1,65
297,117,13563,2,0,P|266:129|242:150,1,65
335,196,13750,6,0,P|400:195|455:228,2,130
300,205,14219,1,0,0:0:0:0:
268,212,14313,2,0,P|203:213|148:180,1,130
370,308,14688,6,0,P|314:341|250:340,1,130
233,100,15063,2,0,P|288:66|352:67,1,130
298,361,15438,5,0,0:0:0:0:
255,365,15531,1,0,0:0:0:0:
213,354,15625,1,0,0:0:0:0:
178,329,15719,1,0,0:0:0:0:
281,87,15813,2,0,P|401:118|425:239,1,260
178,329,16375,6,0,P|158:302|148:271,1,65
152,173,16563,2,0,P|165:142|186:119,1,65
155,313,16750,2,0,P|140:283|136:252,1,65
156,155,16938,2,0,P|175:127|200:108,1,65
293,77,17125,6,0,P|325:79|355:91,1,65
312,85,17313,2,0,P|371:109|402:165,1,130
199,298,17688,2,0,P|140:274|109:218,1,130
368,120,18063,6,0,P|406:170|406:234,1,130
142,262,18438,2,0,B|104:238|90:186|104:147|104:147|110:165,1,149.500002851486
109,363,18813,6,0,P|232:314|211:184,1,286.000008728028
108,161,19375,1,0,0:0:0:0:
315,160,19563,2,0,P|210:78|108:161,1,286.000008728028
140,262,20125,1,0,0:0:0:0:
16,215,20313,6,0,P|69:260|139:262,1,143.000004364014
210,77,20688,2,0,P|144:101|108:161,1,143.000004364014
232,314,21063,2,0,P|244:244|210:183,1,143.000004364014
16,215,21438,1,0,0:0:0:0:
232,314,21625,1,0,0:0:0:0:
210,77,21813,6,0,P|213:41|228:9,1,71.5000021820069
380,41,22000,2,0,P|347:54|320:77,1,71.5000021820069
397,154,22188,2,0,P|432:157|464:172,1,71.5000021820069
431,324,22375,2,0,P|418:291|396:264,1,71.5000021820069
201,194,22563,6,0,P|236:188|272:194,1,71.5000021820069
440,296,22750,2,0,P|422:265|394:242,1,71.5000021820069
191,207,22938,6,0,P|224:194|260:194,1,71.5000021820069
389,220,23125,6,0,P|419:238|443:266,1,71.5000021820069
416,366,23313,5,0,0:0:0:0:
363,318,23406,1,0,0:0:0:0:
294,307,23500,1,0,0:0:0:0:
229,334,23594,1,0,0:0:0:0:
164,361,23687,1,0,0:0:0:0:
94,349,23781,1,0,0:0:0:0:
41,302,23875,1,0,0:0:0:0:
22,234,23969,1,0,0:0:0:0:
42,167,24063,6,0,P|66:140|96:121,1,71.5000021820069
200,121,24250,1,0,0:0:0:0:
200,121,24344,1,0,0:0:0:0:
95,121,24438,6,0,P|156:111|215:127,1,125.125001193285
315,226,24625,1,0,0:0:0:0:
315,226,24718,1,0,0:0:0:0:
489,98,24813,6,0,B|469:142|469:142|502:284,1,195.00000743866
363,86,25188,2,0,L|343:42,1,48.750001859665
286,184,25563,6,0,L|314:223,1,48.750001859665
363,218,25844,6,0,L|315:223,1,48.750001859665
294,267,26125,6,0,L|314:223,2,48.750001859665
168,334,26313,6,0,L|119:338,1,48.750001859665
123,211,26688,2,0,L|94:171,1,48.750001859665
189,88,27063,6,0,P|283:75|364:127,1,195.00000743866
403,96,27344,6,0,L|363:124,2,48.750001859665
293,87,27531,1,0,0:0:0:0:
183,79,27625,2,0,L|372:121,1,195.00000743866
67,35,27813,6,0,B|113:183|113:183|146:204,1,195.00000743866
111,326,28188,2,0,L|158:315,1,48.750001859665
321,278,28563,6,0,L|307:324,1,48.750001859665
271,96,28750,5,0,0:0:0:0:
271,96,28844,2,0,L|304:131,1,48.750001859665
285,133,28938,2,0,L|96:84,1,195.00000743866
207,215,29313,6,0,L|221:261,1,48.750001859665
124,119,29688,2,0,L|91:154,1,48.750001859665
337,197,30063,6,0,P|431:185|495:114,1,195.00000743866
495,114,30344,2,0,L|447:114,1,48.750001859665
500,95,30438,6,0,L|524:172,1,81.25
413,259,30625,2,0,L|377:367,1,113.750001084805
291,324,30813,6,0,B|270:280|270:280|140:214,1,195.00000743866
381,233,31188,2,0,L|427:245,1,48.750001859665
287,206,31375,5,0,0:0:0:0:
358,139,31563,2,0,L|392:105,1,48.750001859665
216,273,31750,5,0,0:0:0:0:
193,178,31844,2,0,L|239:190,1,48.750001859665
287,206,31938,2,0,P|381:194|445:123,1,195.00000743866
381,194,32219,1,0,0:0:0:0:
344,281,32313,6,0,L|358:327,1,48.750001859665
314,186,32500,1,0,0:0:0:0:
407,208,32688,6,0,L|454:218,1,48.750001859665
314,186,32875,1,0,0:0:0:0:
184,326,33063,6,0,B|36:372|36:372|0:357,1,195.00000743866
112,141,33438,6,0,L|97:132,1,17.5500004284668
168,69,33531,2,0,L|159:54,1,17.5500004284668
256,42,33625,2,0,L|256:25,1,17.5500004284668
346,58,33719,2,0,L|354:43,1,17.5500004284668
415,116,33813,2,0,B|456:91|456:91|486:15,1,130
329,200,34000,6,0,L|319:186,1,17.5500004284668
97,116,34188,2,0,B|55:91,1,48.750001859665
183,200,34375,6,0,L|192:187,1,17.5500004284668
291,104,34563,2,0,B|372:92|372:92|414:115,1,130
349,200,34750,5,0,0:0:0:0:
353,204,34844,2,0,L|388:236,1,48.750001859665
367,239,34938,2,0,L|175:203,1,195.00000743866
295,326,35219,1,0,0:0:0:0:
430,191,35313,6,0,L|443:108,1,84.4999961318971
443,107,35500,2,0,L|430:190,1,84.4999961318971
430,191,35688,2,0,L|443:108,1,84.4999961318971
443,107,35875,2,0,L|430:190,1,84.4999961318971
430,191,36063,2,0,B|451:271|456:260|436:13,1,176.150006047631
443,107,36250,2,0,B|423:28|417:37|438:284,1,176.150006047631
430,191,36438,2,0,B|383:259|382:249|483:13,1,176.150006047631
443,107,36625,2,0,B|490:40|492:50|395:273,1,176.150006047631
308,166,36813,5,0,0:0:0:0:
230,125,36906,1,0,0:0:0:0:
146,151,37000,2,0,P|121:184|104:229,1,87.7500003347397
355,240,37188,5,0,0:0:0:0:
396,162,37281,1,0,0:0:0:0:
370,78,37375,2,0,P|336:53|291:36,1,87.7500003347397
209,63,37563,6,0,P|184:96|167:141,2,87.7500003347397
254,136,37844,6,0,P|226:102|209:63,2,87.7500003347397,0|0|0,2:0|2:0|2:0,2:0:0:0:
209,63,38125,6,0,P|250:67|297:59,1,87.7500003347397,0|0,2:0|2:0,2:0:0:0:
467,16,38313,5,0,0:0:0:0:
507,93,38406,1,0,0:0:0:0:
481,176,38500,2,0,P|447:200|402:217,1,87.7500003347397
280,113,38688,5,0,0:0:0:0:
357,73,38781,1,0,0:0:0:0:
440,99,38875,2,0,P|464:132|481:177,1,87.7500003347397
377,299,39063,5,0,0:0:0:0:
377,299,39156,2,0,P|351:263|336:222,1,87.7500003347397
291,296,39344,5,0,0:0:0:0:
291,296,39437,2,0,P|308:256|336:222,1,87.7500003347397
337,222,39625,6,0,P|294:215|251:220,1,87.7500003347397
63,164,39813,5,0,0:0:0:0:
115,245,39906,1,0,0:0:0:0:
209,265,40000,2,0,P|253:246|291:216,1,97.50000371933
365,118,40188,5,0,0:0:0:0:
446,170,40281,1,0,0:0:0:0:
466,264,40375,1,0,0:0:0:0:
439,304,40469,1,0,0:0:0:0:
345,324,40563,2,0,P|301:301|266:268,1,97.50000371933
232,178,40750,5,0,0:0:0:0:
232,178,40844,1,0,0:0:0:0:
232,178,40938,2,0,P|178:126|105:106,1,151.666664738125
197,119,41125,6,0,L|300:89,1,81.25
393,64,41313,5,0,0:0:0:0:
438,150,41406,1,0,0:0:0:0:
409,242,41500,2,0,P|372:271|322:289,1,97.50000371933
144,205,41688,5,0,0:0:0:0:
229,161,41781,1,0,0:0:0:0:
322,189,41875,2,0,P|350:226|368:276,1,97.50000371933
86,316,42063,6,0,P|43:298|2:264,2,97.50000371933
276,302,42344,5,0,0:0:0:0:
368,273,42438,2,0,P|399:231|414:179,1,107.250001022816
386,86,42625,2,0,P|344:55|292:40,1,107.250001022816
155,26,42813,5,0,0:0:0:0:
61,73,42906,1,0,0:0:0:0:
24,174,43000,2,0,P|39:225|68:269,1,107.250001022816
267,260,43188,5,0,0:0:0:0:
300,160,43281,1,0,0:0:0:0:
254,62,43375,2,0,P|207:36|155:25,1,107.250001022816
161,164,43563,6,0,P|162:217|178:267,2,107.250001022816
254,62,43844,5,0,0:0:0:0:
254,62,43938,2,0,P|306:73|353:98,1,107.250001022816
394,229,44125,6,0,P|358:268|312:296,1,107.250001022816
115,211,44313,5,0,0:0:0:0:
202,154,44406,1,0,0:0:0:0:
308,171,44500,2,0,P|344:210|368:257,1,107.250001022816
193,282,44688,5,0,0:0:0:0:
115,211,44781,1,0,0:0:0:0:
103,105,44875,2,0,P|131:59|171:24,1,107.250001022816
248,95,45063,6,0,P|299:112|353:113,1,107.250001022816
455,78,45250,1,0,0:0:0:0:
349,55,45344,5,0,0:0:0:0:
384,157,45438,2,0,P|383:211|367:262,1,107.250001022816
162,286,45625,2,0,P|136:239|124:186,1,107.250001022816
349,55,45813,6,0,P|394:83|430:122,1,107.250001022816
466,237,46000,1,0,0:0:0:0:
466,237,46094,1,0,0:0:0:0:
430,122,46188,6,0,P|457:176|466:238,1,123.499996702194
443,348,46375,1,0,0:0:0:0:
443,348,46469,1,0,0:0:0:0:
231,35,46563,6,0,P|261:98|268:168,1,139.750002132416
268,166,46750,2,0,P|260:97|231:35,1,139.750002132416
231,35,46938,6,0,B|242:50|252:73|252:73|229:115|182:146|132:157,1,195.00000743866
0,31,47125,6,0,P|12:83|9:136,1,107.250001022816
32,251,47313,6,0,P|100:200|124:119,1,149.500002851486
116,4,47500,1,0,0:0:0:0:
116,4,47594,1,0,0:0:0:0:
116,4,47688,6,0,P|130:98|199:157,1,159.250001518726
204,270,47875,1,0,0:0:0:0:
204,270,47969,1,0,0:0:0:0:
204,270,48063,6,0,P|111:235|18:274,1,168.999992263794
18,274,48250,2,0,P|110:235|203:269,1,168.999992263794
320,303,48438,6,0,P|406:251|432:137,1,181.999994445801
394,70,48625,1,0,0:0:0:0:
394,70,48719,1,0,0:0:0:0:
271,209,48813,6,0,P|278:84|182:3,1,260
361,82,49375,1,0,0:0:0:0:
468,35,49563,2,0,L|452:164,1,130
332,214,49938,2,0,L|316:343,1,130
316,343,50219,1,0,0:0:0:0:
332,214,50688,6,0,P|383:175|446:162,1,130
366,139,51063,2,0,P|283:92|248:4,2,195
284,93,51813,6,0,L|28:45,1,260
28,45,52281,1,0,0:0:0:0:
28,45,52375,1,0,0:0:0:0:
28,45,52469,1,0,0:0:0:0:
149,97,52750,5,0,0:0:0:0:
149,97,52844,2,0,P|188:148|200:210,1,130
199,244,53125,2,0,P|211:307|250:358,2,130
257,43,53688,6,0,P|296:94|309:158,1,130
308,157,53969,1,0,0:0:0:0:
100,99,54250,5,0,0:0:0:0:
84,83,54344,1,0,0:0:0:0:
80,60,54438,2,0,P|86:37|97:16,1,48.750001859665
201,49,54625,2,0,P|228:42|256:43,1,56.8750005424023
272,147,54813,6,0,P|294:170|308:199,4,65
145,270,55375,2,0,P|134:301|116:328,4,65
272,147,55938,6,0,P|304:141|336:143,4,65
53,268,56500,2,0,P|19:274|-11:272,4,65
43,120,57063,6,0,L|168:83,2,130
279,149,57625,2,0,L|217:168,1,65
31,225,57813,5,0,0:0:0:0:
59,260,57907,1,0,0:0:0:0:
98,280,58001,1,0,0:0:0:0:
144,286,58094,1,0,0:0:0:0:
187,272,58188,1,0,0:0:0:0:
231,258,58282,1,0,0:0:0:0:
277,263,58375,1,0,0:0:0:0:
316,284,58469,1,0,0:0:0:0:
344,319,58563,5,0,0:0:0:0:
394,314,58656,1,0,0:0:0:0:
442,291,58750,1,0,0:0:0:0:
476,252,58844,1,0,0:0:0:0:
491,202,58938,1,0,0:0:0:0:
488,150,59032,1,0,0:0:0:0:
465,104,59125,1,0,0:0:0:0:
426,70,59219,1,0,0:0:0:0:
377,53,59313,5,0,0:0:0:0:
317,47,59406,1,0,0:0:0:0:
267,77,59499,1,0,0:0:0:0:
244,130,59593,1,0,0:0:0:0:
256,186,59687,1,0,0:0:0:0:
268,242,59782,1,0,0:0:0:0:
245,295,59876,1,0,0:0:0:0:
195,325,59969,1,0,0:0:0:0:
135,319,60063,5,0,0:0:0:0:
82,281,60156,1,0,0:0:0:0:
62,219,60250,1,0,0:0:0:0:
82,157,60344,1,0,0:0:0:0:
135,118,60438,2,0,P|166:113|201:118,1,65
273,219,60625,2,0,P|267:250|252:281,1,65
82,281,60813,6,0,B|12:179|116:44|274:100|273:219|273:219|276:341|380:387|462:325,1,650
134,119,63063,2,0,P|112:129|93:144,6,48.750001859665
291,81,63813,6,0,B|361:9|509:5|526:197|366:311|257:174|303:69|113:143|134:306|277:249|270:182,1,577.849995591354
12,309,65313,6,0,L|4:356,4,48.750001859665
110,305,65875,2,0,L|127:347,4,48.750001859665
194,253,66438,2,0,L|232:282,2,48.750001859665
386,230,66813,6,0,B|526:201|548:21|368:0|307:129|296:218|296:218|285:308|223:438|44:415|66:236|206:207|206:207|346:179|368:0,1,1170.00004463196
3,236,69813,6,0,B|107:88|256:192|256:192|404:295|508:147,2,585.00002231598
473,220,72813,6,0,L|521:240,5,43.3333333333333
389,284,73938,2,0,L|395:336,9,43.3333333333333
292,244,75813,2,0,L|249:275,6,43.3333333333333
279,140,77125,6,0,L|254:129,4,21.6666666666667
375,180,77688,1,0,0:0:0:0:
292,244,77875,1,0,0:0:0:0:
279,140,78063,5,0,0:0:0:0:
361,76,78250,1,0,0:0:0:0:
375,180,78438,1,0,0:0:0:0:
292,244,78625,1,0,0:0:0:0:
208,307,78813,5,0,0:0:0:0:
111,265,79000,1,0,0:0:0:0:
208,307,79188,1,0,0:0:0:0:
111,265,79375,1,0,0:0:0:0:
98,164,79563,6,0,L|166:111,1,86.6666666666667
166,111,79938,2,0,B|97:163|97:163|363:131,1,346.666666666667
352,256,81063,5,0,0:0:0:0:
192,352,81250,1,0,0:0:0:0:
320,352,81438,1,0,0:0:0:0:
160,256,81625,1,0,0:0:0:0:
424,38,81813,6,0,B|458:327,1,292.50001115799
424,38,82563,6,0,B|458:327,1,292.50001115799
80,92,83313,6,0,P|190:33|312:70,1,260
324,168,84063,2,0,P|213:137|148:43,1,233.999992858887
388,92,84813,6,0,B|443:146|406:230|406:230|340:369|483:461|603:342|512:220,1,552.500010538101
388,92,85938,2,0,B|486:-3|620:100|546:253|399:205|399:205|270:157|202:261,1,617.499983510972
152,357,87063,2,0,B|-5:364|-36:195|121:127|201:261,1,409.499987503052
344,367,87813,6,0,B|499:374|530:208|374:141|295:273|295:273|215:405|59:338|67:184|188:121,1,818.999975006104
294,71,89125,1,0,0:0:0:0:
401,32,89313,6,0,B|556:25|586:190|431:258|352:126|352:126|272:-6|116:61|124:215|279:220|294:71|294:71|298:35|314:0,1,897.000017108918
256,192,90813,12,0,93063,0:0:0:0:
340,132,93438,5,0,0:0:0:0:
340,132,93625,1,0,0:0:0:0:
340,132,93813,1,0,0:0:0:0:
294,214,94188,1,0,0:0:0:0:
200,214,94563,1,0,0:0:0:0:
152,132,94938,1,0,0:0:0:0:
200,50,95313,6,0,P|99:77|0:45,1,211.250006043911
54,116,95500,2,0,L|66:220,1,105.625003021956
185,282,95688,6,0,L|173:178,1,105.625003021956
173,177,95875,2,0,L|186:282,1,105.625003021956
284,195,96063,6,0,L|276:130,2,65
306,156,96250,2,0,L|313:220,2,65
394,146,96438,6,0,L|398:184,4,38.5937503680587
457,75,96625,1,0,0:0:0:0:
457,75,96719,1,0,0:0:0:0:
271,35,96813,6,0,B|218:44|218:44|95:157,1,214.500002045631
294,270,97188,2,0,L|312:219,1,53.6250005114079
78,172,97563,6,0,L|112:213,1,53.6250005114079
165,205,97844,6,0,L|112:213,1,53.6250005114079
94,264,98125,6,0,L|112:213,2,53.6250005114079
1,292,98313,2,0,L|22:362,3,71.5000006818772
166,324,98688,6,0,L|163:341,1,17.5500004284668
257,314,98781,2,0,L|264:329,1,17.5500004284668
325,253,98875,2,0,L|339:261,1,17.5500004284668
360,168,98969,2,0,L|377:169,1,17.5500004284668
322,27,99063,5,0,0:0:0:0:
230,140,99250,2,0,B|224:156|224:156|227:150|227:150|216:168|216:168|220:163|220:163|208:179|208:179|214:172|214:172|196:188|196:188|205:182|205:182|183:196|183:196|187:193|187:193|172:200|172:200|177:199|177:199|135:210|126:209|126:209|0:212|-22:337|65:372|106:371|154:328,1,536.250005114079
251,189,99625,5,0,0:0:0:0:
153,328,99813,2,0,B|62:418|-45:288|39:209|129:209|129:209|222:202|254:129|219:73,2,520
232,107,100750,5,0,0:0:0:0:
165,312,100938,2,0,B|144:351|84:376|42:335|42:335|34:200|182:114|283:235|282:290,1,520
32,128,101500,1,0,0:0:0:0:
282,285,101875,5,0,0:0:0:0:
32,128,102063,2,0,B|191:67|191:67|320:189|320:189|480:128,1,520
349,45,102625,1,0,0:0:0:0:
163,209,102813,6,0,P|139:243|129:282,1,81.25
238,290,103000,2,0,P|245:329|265:364,1,81.25
347,293,103188,2,0,P|380:316|419:326,1,81.25
426,218,103375,2,0,P|465:210|500:190,1,81.25
294,210,103563,6,0,P|254:199|221:176,1,81.25
279,54,103750,2,0,P|318:64|351:87,1,81.25
294,210,103938,2,0,P|254:199|221:176,1,81.25
133,77,104125,2,0,P|112:41|105:2,6,81.25
426,218,104875,5,0,0:0:0:0:
255,196,105063,2,0,P|161:213|92:280,1,195.00000743866
384,295,105438,2,0,B|423:244|429:169|394:111|394:111|411:139|443:151,1,260
255,196,105813,6,0,P|161:179|92:112,2,195.00000743866
394,111,106375,1,0,0:0:0:0:
356,270,106563,6,0,L|333:296,6,32.5
450,231,106938,2,0,L|452:265,6,32.5
262,232,107313,6,0,B|157:280|79:161|180:60|284:138|284:138|373:212|456:148,1,520
158,55,108063,2,0,B|95:79|54:151|75:223|109:265|109:265|121:268|135:267|135:267|161:262|161:262|148:265|148:265|180:255|180:255|170:259|170:259|197:247|197:247|189:251|189:251|211:238|211:238|204:243|204:243|222:230|222:230|217:234|217:234|229:224|229:224|226:227|226:227|235:217|235:217|232:220|232:220|236:216|236:216|239:213|239:213|237:215|237:215|240:212|240:212|246:218|246:218|243:215|243:215|254:226|254:226|249:221|249:221|263:237|263:237|258:231|258:231|278:249|278:249|270:243|270:243|299:262|299:262|286:255|286:255|325:273|325:273|306:266|306:266|340:279|358:280,1,780
250,101,108813,5,0,0:0:0:0:
235,185,108906,1,0,0:0:0:0:
278,261,109000,1,0,0:0:0:0:
359,291,109094,1,0,0:0:0:0:
442,262,109188,6,0,P|469:228|484:188,1,86.6666666666667
362,164,109375,2,0,P|319:156|276:163,1,86.6666666666667
317,282,109563,2,0,P|331:322|359:355,1,86.6666666666667
442,262,109750,2,0,P|469:228|484:188,1,86.6666666666667
362,164,109938,5,0,0:0:0:0:
262,76,110125,5,0,0:0:0:0:
262,76,110219,1,0,0:0:0:0:
262,76,110313,1,0,0:0:0:0:
277,162,110406,1,0,0:0:0:0:
233,239,110500,1,0,0:0:0:0:
151,267,110594,1,0,0:0:0:0:
70,236,110688,6,0,P|40:205|25:164,1,86.6666666666667
148,139,110875,2,0,P|179:110|220:95,1,86.6666666666667
245,217,111063,2,0,P|274:249|289:290,1,86.6666666666667
167,314,111250,2,0,P|135:344|94:359,1,86.6666666666667
70,236,111438,5,0,0:0:0:0:
407,176,111625,5,0,0:0:0:0:
407,176,111719,1,0,0:0:0:0:
407,176,111813,1,0,0:0:0:0:
375,88,111907,1,0,0:0:0:0:
293,41,112000,1,0,0:0:0:0:
201,57,112094,1,0,0:0:0:0:
140,129,112188,6,0,P|131:174|139:221,1,93.8888928684189
250,317,112375,2,0,P|258:271|250:224,1,93.8888928684189
28,125,112563,6,0,P|19:170|27:217,1,93.8888928684189
138,313,112750,2,0,P|146:267|138:220,1,93.8888928684189
250,317,112938,6,0,P|258:271|250:224,1,93.8888928684189
140,129,113125,2,0,P|131:174|139:221,1,93.8888928684189
364,229,113313,6,0,P|409:237|456:229,3,90.9999972229005
148,155,113688,2,0,P|102:146|55:154,3,90.9999972229005
280,119,114063,6,0,P|288:73|280:26,1,90.9999972229005
230,263,114250,6,0,P|221:308|229:355,1,90.9999972229005
326,256,114438,2,0,P|349:296|384:326,1,90.9999972229005
395,188,114625,2,0,P|438:204|485:204,1,90.9999972229005
224,309,114813,5,0,0:0:0:0:
124,325,114906,1,0,0:0:0:0:
36,274,115000,1,0,0:0:0:0:
1,180,115094,1,0,0:0:0:0:
36,85,115188,6,0,P|74:52|121:34,1,101.11111282537
218,193,115375,2,0,P|180:226|133:244,1,101.11111282537
36,85,115563,2,0,P|74:52|121:34,1,101.11111282537
218,193,115750,2,0,P|180:226|133:244,1,101.11111282537
36,85,115938,5,0,0:0:0:0:
406,89,116125,5,0,0:0:0:0:
406,89,116219,1,0,0:0:0:0:
406,89,116313,1,0,0:0:0:0:
441,184,116407,1,0,0:0:0:0:
406,278,116501,1,0,0:0:0:0:
318,329,116595,1,0,0:0:0:0:
218,313,116688,6,0,P|178:281|152:238,1,101.11111282537
38,253,116875,2,0,P|45:203|69:158,1,101.11111282537
294,71,117063,6,0,P|337:107|363:157,1,113.750001084805
474,131,117250,2,0,P|464:186|433:234,1,113.750001084805
512,316,117438,2,0,P|459:335|402:332,1,113.750001084805
470,128,117625,5,0,0:0:0:0:
470,128,117719,1,0,0:0:0:0:
470,128,117813,1,0,0:0:0:0:
433,233,117907,1,0,0:0:0:0:
335,291,118000,1,0,0:0:0:0:
222,274,118094,1,0,0:0:0:0:
146,188,118188,6,0,P|134:128|142:76,1,113.750001084805
366,196,118375,2,0,P|377:255|369:307,1,113.750001084805
260,82,118563,6,0,P|319:70|371:78,1,113.750001084805
252,302,118750,2,0,P|192:313|140:305,1,113.750001084805
290,276,118938,6,0,P|230:287|178:279,1,113.750001084805
222,108,119125,2,0,P|281:96|333:104,1,113.750001084805
160,256,119313,5,0,0:0:0:0:
160,256,119406,1,0,0:0:0:0:
320,352,119500,5,0,0:0:0:0:
320,352,119593,1,0,0:0:0:0:
192,352,119688,5,0,0:0:0:0:
192,352,119781,1,0,0:0:0:0:
352,256,119875,5,0,0:0:0:0:
352,256,119968,1,0,0:0:0:0:
86,199,120063,6,0,L|22:199,1,56.8750005424023
78,186,120156,2,0,L|28:186,1,50.5555564126851
174,165,120250,6,0,L|238:165,1,46.9444464342095
182,152,120344,2,0,L|232:152,1,43.3333333333333
75,69,120438,6,0,L|193:14,1,130
320,222,120813,6,0,P|414:222|480:154,1,195.00000743866
364,100,121188,2,0,P|368:111|374:122,1,24.3750009298325
248,45,121563,6,0,P|243:33|237:22,1,24.3750009298325
179,110,121750,6,0,P|206:70|248:45,1,97.50000371933
342,49,121938,2,0,P|247:44|179:110,1,195.00000743866
450,169,122313,6,0,P|458:178|465:188,1,24.3750009298325
409,283,122688,2,0,P|405:294|399:305,1,24.3750009298325
290,304,123063,6,0,P|242:303|198:283,1,97.50000371933
149,201,123250,6,0,P|165:246|197:282,1,97.50000371933
246,198,123438,2,0,P|251:157|271:122,1,81.25
392,153,123625,2,0,P|362:165|336:186,1,65
403,239,123813,6,0,P|380:330|297:375,1,195.00000743866
198,283,124188,2,0,P|210:279|222:278,1,24.3750009298325
120,183,124563,6,0,P|109:186|97:187,1,24.3750009298325
297,195,124750,6,0,P|297:165|298:141,1,48.750001859665
273,152,124844,2,0,P|287:172|297:195,1,48.750001859665
243,167,124938,2,0,B|281:225|355:237|415:197,1,195.00000743866
297,195,125313,6,0,P|292:206|290:218,1,24.3750009298325
297,195,125688,2,0,P|292:206|290:218,1,24.3750009298325
297,195,126063,6,0,P|290:219|290:243,1,48.750001859665
359,351,126250,2,0,P|389:341|414:320,1,65
485,209,126438,2,0,P|454:183|414:176,1,81.25
239,149,126625,2,0,P|233:196|255:239,1,97.50000371933
512,366,126813,6,0,P|519:302|490:246,1,130
368,223,127000,1,0,0:0:0:0:
368,223,127188,6,0,P|320:231|273:219,1,97.50000371933
218,143,127375,1,0,0:0:0:0:
218,143,127563,6,0,P|238:187|274:219,1,97.50000371933
368,223,127750,6,0,P|398:231|426:248,1,65
368,223,127938,2,0,P|304:230|248:201,1,130
224,79,128125,1,0,0:0:0:0:
224,79,128313,6,0,P|214:126|227:173,1,97.50000371933
303,229,128500,1,0,0:0:0:0:
303,229,128688,6,0,P|258:209|227:172,1,97.50000371933
224,79,128875,1,0,0:0:0:0:
224,79,129063,6,0,P|216:142|246:199,1,130
368,223,129250,1,0,0:0:0:0:
368,223,129438,6,0,L|368:206,1,17.5500004284668
335,227,129531,2,0,L|328:211,1,17.5500004284668
306,245,129625,2,0,L|293:232,1,17.5500004284668
285,271,129719,2,0,L|269:264,1,17.5500004284668
224,79,129813,2,0,P|184:28|125:4,1,130
229,170,130000,6,0,L|237:184,1,17.5500004284668
185,28,130188,2,0,P|175:20|164:15,1,24.3750009298325
229,170,130375,6,0,L|242:179,1,17.5500004284668
125,4,130563,2,0,P|61:15|13:58,1,130
229,170,130750,6,0,L|246:173,1,17.5500004284668
297,164,130844,2,0,P|284:163|272:161,1,24.3750009298325
269,141,130938,2,0,B|184:241,2,130
149,114,131313,6,0,B|142:162|142:162|119:37,1,176.150006047631
119,37,131500,2,0,B|126:-11|126:-11|149:114,1,176.150006047631
149,114,131688,2,0,B|188:144|188:144|119:37,1,176.150006047631
43,0,131875,5,0,0:0:0:0:
43,0,131969,1,0,0:0:0:0:
60,2,132063,1,0,0:0:0:0:
92,13,132156,1,0,0:0:0:0:
121,46,132250,1,0,0:0:0:0:
127,98,132344,1,0,0:0:0:0:
131,168,132438,5,0,0:0:0:0:
172,244,132531,1,0,0:0:0:0:
268,286,132625,1,0,0:0:0:0:
389,262,132719,1,0,0:0:0:0:
450,134,132813,5,0,0:0:0:0:
389,262,133000,1,0,0:0:0:0:
268,286,133188,1,0,0:0:0:0:
450,134,133375,5,0,0:0:0:0:
389,262,133562,1,0,0:0:0:0:
268,286,133750,1,0,0:0:0:0:
450,134,133938,6,0,L|511:82,1,81.25
389,262,134125,1,0,0:0:0:0:
268,286,134219,1,0,0:0:0:0:
172,244,134313,5,0,0:0:0:0:
109,139,134500,1,0,0:0:0:0:
163,7,134688,1,0,0:0:0:0:
172,244,134875,5,0,0:0:0:0:
109,139,135063,2,0,L|129:172,1,38.9999988098145
163,7,135250,1,0,0:0:0:0:
163,7,135344,1,0,0:0:0:0:
163,7,135438,6,0,L|138:67,1,59.1500019856263
109,139,135625,2,0,L|172:244,1,122.84999920332
450,134,135813,5,0,0:0:0:0:
309,154,136001,1,0,0:0:0:0:
251,263,136189,1,0,0:0:0:0:
450,134,136375,5,0,0:0:0:0:
309,154,136563,1,0,0:0:0:0:
251,263,136750,6,0,L|209:212,1,61.4249996016598
140,113,136938,2,0,L|107:240,1,122.84999920332
38,334,137125,2,0,L|14:238,1,81.8999975006104
40,175,137313,5,0,0:0:0:0:
181,155,137501,1,0,0:0:0:0:
239,46,137689,1,0,0:0:0:0:
40,175,137875,5,0,0:0:0:0:
181,155,138063,1,0,0:0:0:0:
239,46,138251,1,0,0:0:0:0:
359,209,138438,5,0,0:0:0:0:
318,285,138531,1,0,0:0:0:0:
222,327,138625,1,0,0:0:0:0:
101,303,138719,1,0,0:0:0:0:
40,175,138813,5,0,0:0:0:0:
48,176,138906,1,0,0:0:0:0:
56,177,139000,1,0,0:0:0:0:
64,178,139094,1,0,0:0:0:0:
72,179,139188,1,0,0:0:0:0:
80,180,139281,1,0,0:0:0:0:
88,181,139375,1,0,0:0:0:0:
96,182,139469,1,0,0:0:0:0:
182,257,139563,5,0,0:0:0:0:
190,255,139656,1,0,0:0:0:0:
199,254,139750,1,0,0:0:0:0:
208,253,139844,1,0,0:0:0:0:
217,252,139938,1,0,0:0:0:0:
226,251,140031,1,0,0:0:0:0:
234,250,140125,1,0,0:0:0:0:
243,249,140219,1,0,0:0:0:0:
468,290,140313,5,0,0:0:0:0:
466,280,140406,1,0,0:0:0:0:
465,270,140500,1,0,0:0:0:0:
464,261,140594,1,0,0:0:0:0:
463,251,140688,1,0,0:0:0:0:
462,242,140781,1,0,0:0:0:0:
460,232,140875,1,0,0:0:0:0:
459,222,140969,1,0,0:0:0:0:
457,45,141063,6,0,L|433:141,1,81.8999975006104
366,283,141250,2,0,L|335:163,1,122.84999920332
209,8,141438,5,0,0:0:0:0:
187,90,141531,1,0,0:0:0:0:
166,173,141625,1,0,0:0:0:0:
145,255,141719,1,0,0:0:0:0:
123,338,141813,5,0,0:0:0:0:
287,292,142188,1,0,0:0:0:0:
166,173,142375,5,0,0:0:0:0:
226,232,142469,1,0,0:0:0:0:
287,292,142563,1,0,0:0:0:0:
330,127,142938,1,0,0:0:0:0:
256,192,143313,12,0,144625,0:0:0:0:
237,240,144813,5,0,0:0:0:0:
158,272,144906,1,0,0:0:0:0:
80,240,145000,1,0,0:0:0:0:
48,161,145094,1,0,0:0:0:0:
86,66,145188,5,0,0:0:0:0:
164,34,145281,1,0,0:0:0:0:
243,66,145375,1,0,0:0:0:0:
275,144,145469,1,0,0:0:0:0:
237,240,145563,6,0,P|193:255|158:271,2,84.4999961318971
464,223,145844,6,0,P|422:242|386:255,2,84.4999961318971
368,106,146126,1,0,0:0:0:0:
275,144,146219,1,0,0:0:0:0:
237,240,146313,5,0,0:0:0:0:
269,318,146407,1,0,0:0:0:0:
348,350,146501,1,0,0:0:0:0:
426,318,146594,1,0,0:0:0:0:
464,223,146688,5,0,0:0:0:0:
432,144,146782,1,0,0:0:0:0:
354,112,146876,1,0,0:0:0:0:
275,144,146969,1,0,0:0:0:0:
237,240,147063,6,0,P|194:258|158:270,1,84.4999961318971
351,232,147250,2,0,P|308:250|272:262,1,84.4999961318971
464,223,147438,2,0,P|421:241|385:253,1,84.4999961318971
368,106,147626,1,0,0:0:0:0:
275,144,147719,1,0,0:0:0:0:
237,240,147813,5,0,0:0:0:0:
158,272,147906,1,0,0:0:0:0:
80,240,148000,1,0,0:0:0:0:
48,161,148094,1,0,0:0:0:0:
86,66,148188,5,0,0:0:0:0:
164,34,148281,1,0,0:0:0:0:
243,66,148375,1,0,0:0:0:0:
275,144,148469,1,0,0:0:0:0:
237,240,148563,5,0,0:0:0:0:
269,318,148657,1,0,0:0:0:0:
348,350,148751,1,0,0:0:0:0:
426,318,148844,1,0,0:0:0:0:
464,223,148938,5,0,0:0:0:0:
432,144,149032,1,0,0:0:0:0:
354,112,149126,1,0,0:0:0:0:
275,144,149219,1,0,0:0:0:0:
