osu file format v14

[General]
AudioFilename: audio.mp3
AudioLeadIn: 0
PreviewTime: 108029
Countdown: 0
SampleSet: Soft
StackLeniency: 0.7
Mode: 0
LetterboxInBreaks: 0
WidescreenStoryboard: 0

[Editor]
Bookmarks: 72029,97529,120029,131654,132029,154529,158654,168029
DistanceSpacing: 3.5
BeatDivisor: 4
GridSize: 4
TimelineZoom: 0.9

[Metadata]
Title:me & u
TitleUnicode:me & u
Artist:succducc
ArtistUnicode:succducc
Creator:-RealG
Version:secret
Source:
Tags:edms future bass edm me & u
BeatmapID:1964551
BeatmapSetID:940654

[Difficulty]
HPDrainRate:4.5
CircleSize:3.7
OverallDifficulty:8.7
ApproachRate:9.4
SliderMultiplier:1.6
SliderTickRate:1

[Events]
//Background and Video events
0,0,"Background.png",0,0
//Break Periods
2,72229,83301
//Storyboard Layer 0 (Background)
//Storyboard Layer 1 (Fail)
//Storyboard Layer 2 (Pass)
//Storyboard Layer 3 (Foreground)
//Storyboard Sound Samples

[TimingPoints]
29,375,4,2,0,60,1,0
9029,-90.9090909090909,4,2,28,80,0,0
12029,-83.3333333333333,4,2,28,50,0,0
18029,-83.3333333333333,4,2,28,70,0,0
21029,-83.3333333333333,4,2,28,80,0,0
22529,-83.3333333333333,4,2,28,90,0,0
23279,-83.3333333333333,4,2,28,100,0,0
24029,-83.3333333333333,4,2,20,60,0,0
28154,-66.6666666666667,4,2,20,60,0,0
28529,-83.3333333333333,4,2,20,60,0,0
30029,-83.3333333333333,4,2,20,70,0,0
36029,-71.4285714285714,4,2,20,80,0,0
46529,-68.9655172413793,4,2,20,70,0,0
46904,-66.6666666666667,4,2,20,70,0,0
47279,-64.5161290322581,4,2,20,70,0,0
47654,-66.6666666666667,4,2,20,70,0,0
47841,-71.4285714285714,4,2,20,70,0,0
48029,-100,4,2,0,70,0,0
54029,-100,4,2,20,40,0,0
56091,-66.6666666666667,4,2,20,40,0,0
57029,-66.6666666666667,4,2,20,60,0,0
57779,-66.6666666666667,4,2,20,50,0,0
58529,-66.6666666666667,4,2,20,40,0,0
59279,-66.6666666666667,4,2,20,30,0,0
60029,-133.333333333333,4,2,7,25,0,0
62091,-133.333333333333,4,2,7,25,0,0
62279,-100,4,2,0,50,0,0
63029,-133.333333333333,4,2,7,30,0,0
64341,-133.333333333333,4,2,7,20,0,0
64529,-100,4,2,0,50,0,0
66029,-200,4,2,7,50,0,0
66404,-181.818181818182,4,2,7,55,0,0
66779,-166.666666666667,4,2,7,60,0,0
67154,-153.846153846154,4,2,7,65,0,0
67529,-142.857142857143,4,2,7,70,0,0
67904,-125,4,2,7,80,0,0
68279,-111.111111111111,4,2,7,90,0,0
68654,-100,4,2,7,100,0,0
69029,-133.333333333333,4,2,7,50,0,0
69404,-125,4,2,7,55,0,0
69779,-117.647058823529,4,2,7,60,0,0
70154,-111.111111111111,4,2,7,65,0,0
70529,-105.263157894737,4,2,7,70,0,0
70904,-100,4,2,7,80,0,0
71279,-95.2380952380952,4,2,7,90,0,0
71654,-90.9090909090909,4,2,7,100,0,0
83841,-100,4,2,7,65,0,0
89654,-83.3333333333333,4,2,7,65,0,0
90029,-133.333333333333,4,2,28,50,0,0
93029,-100,4,2,28,35,0,0
94154,-83.3333333333333,4,2,28,50,0,0
94529,-50,4,2,28,90,0,0
94716,-66.6666666666667,4,2,28,40,0,0
95091,-62.5,4,2,28,50,0,0
95466,-58.8235294117647,4,2,28,60,0,0
95841,-55.5555555555556,4,2,28,75,0,0
96029,-66.6666666666667,4,2,28,90,0,0
97529,-66.6666666666667,4,2,28,70,0,0
97622,-66.6666666666667,4,2,14,50,0,0
97904,-66.6666666666667,4,2,28,65,0,0
98091,-66.6666666666667,4,2,28,75,0,0
98279,-50,4,2,28,85,0,0
99029,-57.1428571428571,4,2,28,90,0,0
106529,-50,4,2,28,90,0,0
107279,-57.1428571428571,4,2,28,90,0,0
108029,-50,4,2,28,100,0,1
119654,-50,4,2,20,100,0,1
120029,-66.6666666666667,4,2,20,60,0,0
126029,-66.6666666666667,4,2,20,70,0,0
131091,-66.6666666666667,4,2,20,65,0,0
131654,-66.6666666666667,4,2,20,75,0,0
132029,-66.6666666666667,4,2,20,70,0,0
137654,-66.6666666666667,4,2,20,70,0,0
138779,-66.6666666666667,4,2,20,80,0,0
139154,-66.6666666666667,4,2,20,60,0,0
139529,-66.6666666666667,4,2,20,75,0,0
139904,-66.6666666666667,4,2,20,80,0,0
140279,-66.6666666666667,4,2,20,85,0,0
140654,-66.6666666666667,4,2,20,90,0,0
140841,-57.1428571428571,4,2,20,90,0,0
141029,-50,4,2,20,90,0,0
142529,-66.6666666666667,4,2,20,70,0,0
142904,-66.6666666666667,4,2,20,60,0,0
143279,-66.6666666666667,4,2,20,50,0,0
143654,-66.6666666666667,4,2,20,40,0,0
144029,-57.1428571428571,4,2,20,90,0,1
154529,-57.1428571428571,4,2,20,80,0,0
154904,-57.1428571428571,4,2,20,60,0,0
155279,-57.1428571428571,4,2,20,40,0,0
155654,-57.1428571428571,4,2,20,60,0,0
156029,-57.1428571428571,4,2,20,90,0,1
158654,-50,4,2,20,100,0,1
159029,-57.1428571428571,4,2,20,90,0,1
166529,-57.1428571428571,4,2,20,80,0,1
166904,-60.6060606060606,4,2,20,70,0,1
167279,-64.5161290322581,4,2,20,60,0,1
167654,-68.9655172413793,4,2,20,50,0,1
168029,-200,4,2,7,40,0,0
180029,-200,4,2,7,20,0,0
186029,-200,4,2,7,10,0,0
191279,-200,4,2,7,5,0,0

[Colours]
Combo1 : 98,0,196
Combo2 : 221,0,133
Combo3 : 255,149,255
Combo4 : 165,2,242
Combo5 : 175,129,254
Combo6 : 255,15,135

[HitObjects]
123,77,29,70,0,B|86:161|151:145|108:249,1,160,2|0,0:0|0:0,0:0:0:0:
109,247,497,1,0,0:0:0:0:
109,247,591,1,0,0:0:0:0:
224,330,779,2,0,P|233:273|230:227,1,80
343,33,1154,1,0,0:0:0:0:
352,40,1247,1,0,0:0:0:0:
357,50,1341,6,0,P|376:109|372:228,1,160,2|2,0:0|0:0,0:0:0:0:
255,320,1904,2,0,P|255:258|266:215,1,80
271,211,2185,1,0,0:0:0:0:
271,211,2279,1,2,0:0:0:0:
376,298,2466,1,0,0:0:0:0:
139,317,2654,2,0,B|103:230|168:246|131:162,1,160,0|2,0:0|0:0,0:0:0:0:
215,49,3216,5,0,0:0:0:0:
227,59,3310,1,0,0:0:0:0:
235,72,3404,2,0,P|246:130|241:182,1,80
164,289,3779,2,0,P|144:240|147:196,1,80,0|2,0:0|0:0,0:0:0:0:
238,84,4154,1,0,0:0:0:0:
356,190,4341,1,0,0:0:0:0:
214,332,4529,6,0,B|187:265|238:277|207:206,2,120,2|2|2,0:0|0:0|0:0,0:0:0:0:
371,302,5279,1,2,0:0:0:0:
370,129,5466,1,0,0:0:0:0:
263,237,5654,2,0,P|242:292|238:330,1,80,2|0,0:0|0:0,0:0:0:0:
401,307,6029,6,0,P|411:222|391:128,1,160,2|0,0:0|0:0,0:0:0:0:
241,46,6591,1,2,0:0:0:0:
239,171,6779,2,0,P|225:237|214:262,1,80,0|2,0:0|0:0,0:0:0:0:
84,278,7154,1,0,0:0:0:0:
174,347,7341,6,0,B|249:359|245:317|347:339,1,160,2|0,0:0|0:0,0:0:0:0:
458,314,7904,2,0,P|443:233|431:210,1,80,2|0,0:0|0:0,0:0:0:0:
417,77,8279,2,0,P|362:124|347:145,1,80,2|0,0:0|0:0,0:0:0:0:
348,296,8654,2,0,P|291:207|257:189,1,120,2|0,0:0|0:0,0:0:0:0:
149,158,9029,6,0,B|106:145|78:182|96:239|150:260|175:202|232:182|281:201,1,264.000008056641,4|0,0:0|0:0,0:0:0:0:
409,235,9779,2,0,B|450:219|481:253|468:312|416:337|387:282|328:267|279:291,1,264.000008056641,4|0,0:0|0:0,0:0:0:0:
154,333,10529,6,0,P|148:258|156:226,1,88.000002685547,4|0,0:0|0:0,0:0:0:0:
272,119,10904,2,0,P|281:178|276:226,1,88.000002685547,4|0,0:0|0:0,0:0:0:0:
160,177,11279,5,0,0:0:0:0:
245,23,11466,1,0,0:0:0:0:
313,185,11654,1,0,0:0:0:0:
399,32,11841,1,0,0:0:0:0:
414,47,11935,1,0,0:0:0:0:
428,66,12029,6,0,P|449:106|454:120,1,47.9999985351563
362,222,12216,2,0,P|374:177|383:159,1,47.9999985351563
480,254,12404,2,0,P|436:314|398:328,1,95.9999970703126
274,338,12779,1,0,0:0:0:0:
274,338,12872,1,0,0:0:0:0:
274,338,12966,1,0,0:0:0:0:
209,209,13154,1,0,0:0:0:0:
287,88,13341,5,0,0:0:0:0:
287,88,13435,1,0,0:0:0:0:
287,88,13529,2,0,P|345:86|393:93,1,95.9999970703126
454,226,13904,2,0,P|396:228|348:221,1,95.9999970703126
355,81,14279,1,0,0:0:0:0:
276,201,14466,1,0,0:0:0:0:
216,69,14654,5,0,0:0:0:0:
194,58,14747,1,0,0:0:0:0:
170,51,14841,1,0,0:0:0:0:
145,51,14935,1,0,0:0:0:0:
122,58,15029,70,0,P|67:102|50:217,1,191.999994140625
193,307,15591,1,0,0:0:0:0:
217,164,15779,2,0,P|273:160|330:182,1,95.9999970703126
431,253,16154,1,0,0:0:0:0:
431,253,16341,6,0,B|324:292|350:215|233:251,1,191.999994140625
138,321,16904,1,0,0:0:0:0:
127,190,17091,1,0,0:0:0:0:
289,139,17279,2,0,P|305:203|298:261,1,95.9999970703126
160,107,17654,2,0,P|185:67|226:37,1,95.9999970703126
392,117,18029,70,4,B|430:228|357:194|399:313,1,191.999994140625
254,290,18591,1,0,0:0:0:0:
261,267,18685,1,0,0:0:0:0:
261,242,18779,1,0,0:0:0:0:
206,58,18966,1,0,0:0:0:0:
89,210,19154,2,0,P|83:258|98:329,1,95.9999970703126,4|0,0:0|0:0,0:0:0:0:
232,111,19529,6,0,P|226:63|205:11,1,95.9999970703126,4|0,0:0|0:0,0:0:0:0:
191,258,19904,2,0,P|246:280|306:284,1,95.9999970703126
423,295,20279,1,4,0:0:0:0:
357,117,20466,1,0,0:0:0:0:
232,263,20654,2,0,P|236:324|264:370,1,95.9999970703126,4|0,0:0|0:0,0:0:0:0:
375,229,21029,54,0,L|353:178,1,47.9999985351563,4|0,0:0|0:0,0:0:0:0:
252,53,21216,2,0,L|233:107,1,47.9999985351563,4|0,0:0|0:0,0:0:0:0:
368,251,21404,6,0,L|343:194,1,47.9999985351563,4|0,0:0|0:0,0:0:0:0:
232,57,21591,2,0,L|211:116,1,47.9999985351563,4|0,0:0|0:0,0:0:0:0:
208,334,21779,54,0,L|230:268,1,47.9999985351563,4|0,0:0|0:0,0:0:0:0:
58,120,21967,2,0,L|84:181,1,47.9999985351563,4|0,0:0|0:0,0:0:0:0:
244,343,22154,6,0,L|269:271,1,47.9999985351563,4|0,0:0|0:0,0:0:0:0:
79,107,22342,2,0,L|108:174,1,47.9999985351563,4|4,0:0|0:0,0:0:0:0:
296,332,22529,53,0,0:0:0:0:
310,299,22622,1,4,0:0:0:0:
320,264,22716,1,4,0:0:0:0:
321,228,22810,1,4,0:0:0:0:
315,193,22904,1,4,0:0:0:0:
309,157,22997,1,4,0:0:0:0:
308,121,23091,1,4,0:0:0:0:
313,86,23185,1,4,0:0:0:0:
321,51,23279,53,0,0:0:0:0:
319,98,23372,1,4,0:0:0:0:
292,136,23466,1,4,0:0:0:0:
247,151,23560,1,4,0:0:0:0:
199,144,23654,5,4,0:0:0:0:
255,134,23747,1,4,0:0:0:0:
302,166,23841,1,4,0:0:0:0:
313,223,23935,1,4,0:0:0:0:
294,278,24029,5,8,0:0:0:0:
114,208,24404,1,0,0:0:0:0:
250,73,24779,1,0,0:0:0:0:
247,216,25060,2,0,P|207:177|180:86,1,143.999995605469
192,48,25435,1,0,0:0:0:0:
192,48,25529,5,0,0:0:0:0:
323,187,25904,1,0,0:0:0:0:
138,238,26279,1,8,0:0:0:0:
236,133,26560,1,0,0:0:0:0:
258,125,26654,2,2,P|302:120|322:123,1,47.9999985351563
328,262,26841,2,2,P|304:228|299:208,1,47.9999985351563
394,120,27029,5,8,0:0:0:0:
233,225,27404,1,0,0:0:0:0:
302,46,27779,1,0,0:0:0:0:
391,259,27966,2,0,L|336:288,1,47.9999985351563
157,318,28154,2,0,P|117:299|167:279,1,120.000004577637,8|0,0:0|0:0,0:0:0:0:
342,321,28529,5,0,0:0:0:0:
313,131,28904,1,0,0:0:0:0:
171,260,29279,1,8,0:0:0:0:
314,250,29560,1,0,0:0:0:0:
317,226,29654,2,2,P|316:197|309:173,1,47.9999985351563
207,74,29841,2,2,P|186:100|181:128,1,47.9999985351563
276,237,30029,5,4,0:0:0:0:
386,180,30216,1,0,0:0:0:0:
276,237,30404,1,0,0:0:0:0:
381,302,30591,1,0,0:0:0:0:
243,345,30779,53,0,0:0:0:0:
143,241,30966,1,0,0:0:0:0:
269,172,31154,2,0,P|265:231|254:278,1,95.9999970703126,8|0,0:0|0:0,0:0:0:0:
216,292,31435,1,0,0:0:0:0:
216,292,31529,5,0,0:0:0:0:
195,149,31716,1,0,0:0:0:0:
78,234,31904,1,0,0:0:0:0:
195,149,32091,1,0,0:0:0:0:
125,328,32279,5,10,0:0:0:0:
268,329,32466,2,0,P|297:327|320:319,1,47.9999985351563,8|0,0:0|0:0,0:0:0:0:
201,185,32654,2,0,P|184:207|173:235,1,47.9999985351563,8|0,0:0|0:0,0:0:0:0:
343,212,32841,1,2,0:0:0:0:
336,193,32935,1,2,0:0:0:0:
327,175,33029,54,0,P|280:115|235:102,1,95.9999970703126,4|0,0:0|0:0,0:0:0:0:
130,83,33404,1,0,0:0:0:0:
108,214,33591,1,0,0:0:0:0:
238,152,33779,2,0,P|298:154|336:177,1,95.9999970703126,8|2,0:0|0:0,0:0:0:0:
451,243,34060,1,2,0:0:0:0:
451,243,34154,2,0,P|477:167|469:134,1,95.9999970703126,8|0,0:0|0:0,0:0:0:0:
361,42,34435,1,2,0:0:0:0:
361,42,34529,6,0,L|325:95,1,47.9999985351563,8|0,0:0|0:0,0:0:0:0:
236,216,34716,1,0,0:0:0:0:
386,39,34904,54,0,L|342:102,1,47.9999985351563,8|0,0:0|0:0,0:0:0:0:
236,247,35091,1,0,0:0:0:0:
415,34,35279,22,0,L|363:110,1,47.9999985351563,8|0,0:0|0:0,0:0:0:0:
236,275,35466,2,0,L|201:325,1,47.9999985351563
405,269,35654,5,2,0:0:0:0:
417,232,35747,1,2,0:0:0:0:
424,194,35841,1,2,0:0:0:0:
427,155,35935,1,2,0:0:0:0:
420,110,36029,22,0,P|380:67|316:53,1,111.999996582031,4|0,0:0|0:0,0:0:0:0:
167,164,36310,1,2,0:0:0:0:
167,164,36404,2,0,P|183:249|204:282,1,111.999996582031,8|0,0:0|0:0,0:0:0:0:
372,298,36685,1,2,0:0:0:0:
372,298,36779,1,8,0:0:0:0:
99,136,36966,6,2,L|108:210,1,55.9999982910157
233,279,37154,2,2,L|237:207,1,55.9999982910157
253,101,37341,1,2,0:0:0:0:
233,81,37435,1,2,0:0:0:0:
206,70,37529,6,0,P|176:131|175:190,1,111.999996582031,8|0,0:0|0:0,0:0:0:0:
242,320,37810,1,2,0:0:0:0:
256,311,37904,2,0,P|296:270|321:206,1,111.999996582031,8|0,0:0|0:0,0:0:0:0:
281,61,38185,1,2,0:0:0:0:
281,61,38279,1,8,0:0:0:0:
398,264,38466,54,2,L|392:328,1,55.9999982910157
275,169,38654,2,2,L|333:120,1,55.9999982910157
254,318,38841,1,2,0:0:0:0:
243,322,38935,1,2,0:0:0:0:
232,325,39029,6,0,P|161:333|113:320,1,111.999996582031,4|0,0:0|0:0,0:0:0:0:
195,157,39311,1,2,0:0:0:0:
205,160,39404,2,0,P|285:197|314:236,1,111.999996582031,8|0,0:0|0:0,0:0:0:0:
160,308,39685,1,2,0:0:0:0:
160,308,39778,1,8,0:0:0:0:
129,70,39966,6,2,L|105:140,1,55.9999982910157
281,190,40154,2,2,L|252:131,1,55.9999982910157
164,286,40341,1,2,0:0:0:0:
179,291,40435,1,2,0:0:0:0:
195,293,40529,54,0,P|280:291|324:275,1,111.999996582031,8|0,0:0|0:0,0:0:0:0:
403,89,40810,1,2,0:0:0:0:
403,89,40904,2,0,L|445:207,1,111.999996582031,8|0,0:0|0:0,0:0:0:0:
393,328,41185,1,2,0:0:0:0:
393,328,41279,1,8,0:0:0:0:
272,178,41466,6,2,L|248:238,1,55.9999982910157
409,226,41654,2,2,L|377:154,1,55.9999982910157
187,101,41841,2,2,L|164:160,1,55.9999982910157
474,123,42029,6,0,P|417:91|346:78,1,111.999996582031,4|0,0:0|0:0,0:0:0:0:
208,215,42310,1,2,0:0:0:0:
208,215,42404,2,0,P|292:206|350:183,1,111.999996582031,8|0,0:0|0:0,0:0:0:0:
203,50,42685,1,2,0:0:0:0:
203,50,42779,1,8,0:0:0:0:
240,307,42966,53,2,0:0:0:0:
257,284,43060,1,2,0:0:0:0:
266,257,43154,2,2,P|270:186|261:133,1,111.999996582031
59,160,43435,1,2,0:0:0:0:
58,187,43529,6,0,P|67:268|88:309,1,111.999996582031,8|0,0:0|0:0,0:0:0:0:
259,319,43810,1,2,0:0:0:0:
287,319,43904,2,0,P|386:295|414:279,1,111.999996582031,8|0,0:0|0:0,0:0:0:0:
234,125,44185,1,2,0:0:0:0:
231,152,44279,1,8,0:0:0:0:
403,137,44466,6,2,P|416:118|426:83,1,55.9999982910157
217,87,44654,2,2,P|194:90|160:110,1,55.9999982910157
266,273,44841,2,2,P|284:286|320:296,1,55.9999982910157
495,209,45029,6,0,P|461:193|423:192,1,55.9999982910157,4|0,0:0|0:0,0:0:0:0:
344,327,45216,5,2,0:0:0:0:
365,322,45310,1,2,0:0:0:0:
385,314,45404,2,0,P|437:285|444:277,1,55.9999982910157,4|0,0:0|0:0,0:0:0:0:
273,237,45591,5,2,0:0:0:0:
282,221,45685,1,2,0:0:0:0:
289,206,45779,2,0,P|302:160|301:152,1,55.9999982910157,4|0,0:0|0:0,0:0:0:0:
137,93,45966,2,2,P|134:127|143:161,1,55.9999982910157,2|0,0:0|0:0,0:0:0:0:
304,46,46154,1,0,0:0:0:0:
90,35,46341,5,2,0:0:0:0:
76,59,46435,1,2,0:0:0:0:
68,86,46529,2,0,P|57:148|66:207,1,116.000003540039,4|0,0:0|0:0,0:0:0:0:
261,247,46810,1,2,0:0:0:0:
252,227,46904,2,0,P|215:176|165:142,1,120.000004577637,4|0,0:0|0:0,0:0:0:0:
47,316,47185,1,2,0:0:0:0:
66,306,47279,2,0,P|116:268|155:220,1,124.000000946045,4|0,0:0|0:0,0:0:0:0:
153,66,47560,1,2,0:0:0:0:
144,81,47654,6,0,P|127:127|125:150,1,60.0000022888184,8|0,0:0|0:0,0:0:0:0:
290,244,47841,2,2,P|283:199|272:178,1,55.9999982910157
40,240,48029,70,0,B|135:218|106:274|203:247,1,160
311,51,48591,1,0,0:0:0:0:
135,45,48779,2,0,P|91:65|49:105,2,80
233,170,49341,6,0,P|255:246|244:324,1,160
96,264,49904,2,0,P|94:224|97:184,1,80
333,232,50279,2,0,B|346:288|308:287|324:349,2,120
444,116,51029,2,0,P|504:138|443:164,1,160
422,159,51497,1,0,0:0:0:0:
397,145,51591,1,0,0:0:0:0:
289,25,51779,2,0,P|249:19|209:20,1,80
151,169,52154,1,0,0:0:0:0:
310,160,52341,6,0,B|334:241|281:235|316:321,1,160
459,249,52904,1,0,0:0:0:0:
314,127,53091,1,0,0:0:0:0:
292,115,53185,1,0,0:0:0:0:
268,108,53279,2,0,P|213:102|168:106,1,80
190,324,53654,1,0,0:0:0:0:
210,193,53841,1,0,0:0:0:0:
85,76,54029,54,2,P|72:102|69:124,1,40
161,249,54216,1,2,0:0:0:0:
343,209,54404,53,2,0:0:0:0:
244,35,54591,1,2,0:0:0:0:
216,39,54685,1,2,0:0:0:0:
190,51,54779,1,2,0:0:0:0:
369,136,54966,53,2,0:0:0:0:
170,156,55153,1,2,0:0:0:0:
173,186,55248,1,2,0:0:0:0:
185,212,55342,1,2,0:0:0:0:
206,235,55435,1,2,0:0:0:0:
235,246,55529,53,2,0:0:0:0:
250,87,55716,1,2,0:0:0:0:
220,90,55811,1,2,0:0:0:0:
194,104,55905,1,2,0:0:0:0:
119,255,56091,22,2,P|152:272|187:280,1,60.0000022888184
326,178,56279,2,2,P|299:167|270:160,1,60.0000022888184
277,311,56466,2,2,P|318:302|347:289,1,60.0000022888184
348,114,56654,2,2,P|309:107|274:106,1,60.0000022888184
142,150,56841,2,2,P|164:206|178:220,1,60.0000022888184
335,346,57028,69,2,0:0:0:0:
371,313,57122,1,2,0:0:0:0:
370,264,57216,1,2,0:0:0:0:
333,233,57309,1,2,0:0:0:0:
285,239,57404,2,2,P|232:250|208:261,1,60.0000022888184
100,334,57591,5,2,0:0:0:0:
89,290,57684,1,2,0:0:0:0:
90,245,57779,2,2,P|102:194|110:173,1,60.0000022888184
210,81,57966,1,2,0:0:0:0:
240,118,58060,1,2,0:0:0:0:
264,159,58154,2,2,P|290:216|294:240,1,60.0000022888184
350,352,58341,2,2,P|386:327|413:289,1,60.0000022888184
477,171,58529,5,2,0:0:0:0:
509,132,58622,1,2,0:0:0:0:
506,82,58716,1,2,0:0:0:0:
471,46,58810,1,2,0:0:0:0:
420,44,58904,1,2,0:0:0:0:
382,77,58997,1,2,0:0:0:0:
376,127,59091,1,2,0:0:0:0:
405,168,59185,1,2,0:0:0:0:
427,210,59279,6,2,P|393:231|361:238,1,60.0000022888184
243,39,59466,2,2,P|296:42|317:50,1,60.0000022888184
263,166,59654,2,2,B|231:187|194:189,1,60.0000022888184
87,37,59841,2,2,P|128:52|148:68,1,60.0000022888184
221,278,60029,22,0,B|213:308|186:330|159:338|129:337|107:324|82:300|78:265|87:220|125:210|160:193|181:154|177:102|168:44|112:29|39:47|21:78|23:147|49:189|118:198|185:221|249:182|285:150,1,660.000025177003,0|8,0:0|0:0,0:0:0:0:
398,79,62279,1,0,0:0:0:0:
300,216,62466,2,0,P|312:231|320:249,4,40
452,259,63029,70,0,B|440:248|387:228|387:228|419:205|426:150|416:102|338:77|288:102|275:174|285:205|285:205|321:227|323:268,1,420.000016021729
210,314,64529,6,0,P|190:317|160:317,4,40
62,185,65091,2,0,P|82:188|109:188,4,40
187,60,65654,5,0,0:0:0:0:
201,57,65747,1,0,0:0:0:0:
216,55,65841,1,0,0:0:0:0:
231,54,65935,1,0,0:0:0:0:
244,53,66029,70,0,P|273:51|290:56,1,40
398,118,66404,2,0,P|367:123|335:119,1,44.0000013427735
231,198,66779,2,0,P|266:204|292:197,1,47.9999985351563
420,265,67154,2,0,P|378:259|357:262,1,51.999997619629
209,316,67529,6,0,P|235:332|267:340,1,55.9999982910157
131,194,67904,2,0,P|102:218|84:256,1,64
268,118,68279,2,0,P|284:72|281:40,1,71.9999978027344
276,289,68654,2,0,P|335:301|368:295,1,80
412,50,69029,70,0,L|386:113,1,60.0000022888184
231,30,69404,2,0,L|240:98,1,64
65,172,69779,2,0,P|99:189|134:196,1,68.0000012969971
104,338,70154,2,0,P|139:339|182:326,1,71.9999978027344
348,300,70529,6,0,P|364:244|366:219,1,75.9999979705811
201,87,70904,2,0,P|184:138|182:169,1,80
331,264,71279,2,0,P|386:260|416:249,1,83.9999974365235
169,220,71654,2,0,P|109:211|80:216,1,88.000002685547
262,342,72029,53,0,0:0:0:0:
146,78,83841,85,0,0:0:0:0:
146,78,83935,1,0,0:0:0:0:
146,78,84029,2,0,P|144:114|149:144,3,40
241,220,84404,2,0,P|232:249|221:269,3,40
89,293,84779,54,0,L|103:234,1,40
80,129,84966,2,0,L|117:97,1,40
203,25,85154,2,0,L|249:41,1,40
355,73,85341,22,0,P|376:108|391:155,1,80
229,211,85716,2,0,P|232:163|253:106,1,80
346,260,86091,1,0,0:0:0:0:
245,346,86279,2,0,P|209:357|142:361,1,80
167,188,86654,1,0,0:0:0:0:
383,244,86841,1,0,0:0:0:0:
383,244,86935,1,0,0:0:0:0:
383,244,87029,54,0,P|392:298|389:348,1,80
215,234,87404,1,0,0:0:0:0:
288,88,87591,2,0,B|387:56|351:124|463:90,1,160
391,244,88154,2,0,L|299:251,1,80
126,255,88529,22,0,P|123:216|131:177,1,80
287,63,88904,1,0,0:0:0:0:
140,220,89091,54,0,P|143:184|161:140,1,80
317,79,89466,1,0,0:0:0:0:
438,318,89654,2,0,B|348:342|388:282|258:322,1,143.999995605469
195,339,90029,54,8,P|192:301|222:209,2,120.000004577637
438,318,91154,1,8,0:0:0:0:
340,152,91529,70,8,P|295:149|222:160,1,120.000004577637
126,293,92279,2,8,P|178:298|269:283,1,120.000004577637
116,136,92841,1,8,0:0:0:0:
44,244,93029,6,0,L|30:343,1,80,8|0,0:0|0:0,0:0:0:0:
227,157,93404,2,0,P|177:104|154:92,1,80,8|0,0:0|0:0,0:0:0:0:
185,302,93779,2,0,P|247:321|281:317,1,80,8|0,0:0|0:0,0:0:0:0:
332,155,94154,2,0,P|298:149|256:150,1,47.9999985351563,8|0,0:0|0:0,0:0:0:0:
427,330,94341,2,0,P|431:293|424:257,1,47.9999985351563
247,89,94529,38,0,P|246:78|233:102,1,80,4|0,0:0|0:0,0:0:0:0:
310,313,94716,6,0,P|331:276|336:257,1,60.0000022888184
129,103,94904,2,0,P|110:145|108:169,1,60.0000022888184
352,282,95091,6,0,P|360:236|358:214,1,64
86,133,95279,2,0,P|82:184|89:209,1,64
385,234,95466,6,0,P|375:184|365:162,1,68.0000012969971
53,181,95654,2,0,P|69:234|85:258,1,68.0000012969971
384,176,95841,6,0,P|358:132|339:115,1,71.9999978027344
58,253,96029,5,4,0:0:0:0:
168,205,96404,1,4,0:0:0:0:
267,272,96779,1,4,0:0:0:0:
348,309,97060,1,4,0:0:0:0:
376,318,97154,2,0,P|416:319|439:317,1,60.0000022888184
432,189,97341,2,0,P|359:187|333:194,1,60.0000022888184,4|0,0:0|0:0,0:0:0:0:
249,221,97529,53,4,0:0:0:0:
244,244,97622,2,2,L|237:276,2,30.0000011444092,2|0|8,0:0|0:0|0:0,0:0:0:0:
401,125,97904,6,0,L|333:93,1,60.0000022888184
179,206,98091,2,0,L|245:183,1,60.0000022888184
403,300,98279,2,0,B|371:291|371:291|333:303|333:303|304:290|256:303|256:303|229:297|229:297|206:307|206:307|179:290|141:306|141:306|109:313|88:294|88:294,1,320
252,178,98841,2,0,P|263:146|285:124,1,60.0000022888184,4|0,0:0|0:0,0:0:0:0:
417,89,99029,70,0,P|420:133|409:177,1,70.000000667572,4|0,0:0|0:0,0:0:0:0:
279,194,99216,2,0,P|250:227|211:250,1,70.000000667572
135,135,99404,2,0,P|90:138|46:127,1,70.000000667572
253,38,99591,2,0,P|297:35|341:45,1,70.000000667572
374,274,99779,5,8,0:0:0:0:
157,324,99966,1,4,0:0:0:0:
229,123,100154,6,0,P|261:117|304:118,1,70.000000667572,4|0,0:0|0:0,0:0:0:0:
482,223,100341,2,0,P|414:227|389:222,1,70.000000667572
248,92,100529,2,0,P|280:94|321:106,1,70.000000667572
417,267,100716,2,0,P|451:278|486:282,1,70.000000667572,8|0,0:0|0:0,0:0:0:0:
327,39,100904,54,0,P|294:50|266:70,1,70.000000667572
125,73,101091,2,0,P|109:104|102:139,1,70.000000667572,4|0,0:0|0:0,0:0:0:0:
26,250,101279,2,0,P|37:283|57:312,1,70.000000667572,8|0,0:0|0:0,0:0:0:0:
200,280,101466,2,0,P|231:296|266:303,1,70.000000667572
378,174,101654,22,0,P|397:144|406:110,1,70.000000667572,4|0,0:0|0:0,0:0:0:0:
271,125,101841,2,0,P|263:91|245:61,1,70.000000667572
135,200,102029,69,4,0:0:0:0:
225,331,102216,70,0,P|250:306|271:278,1,70.000000667572
189,102,102404,2,0,P|157:147|147:172,1,70.000000667572
255,316,102591,2,0,P|271:285|283:252,1,70.000000667572
217,85,102779,5,8,0:0:0:0:
188,342,102966,1,4,0:0:0:0:
430,231,103154,5,4,0:0:0:0:
228,146,103341,54,0,P|183:156|149:171,1,70.000000667572,8|0,0:0|0:0,0:0:0:0:
277,342,103529,2,0,P|317:328|345:313,1,70.000000667572
214,150,103716,2,0,P|171:172|141:197,1,70.000000667572
317,335,103904,2,0,P|354:310|378:287,1,70.000000667572
388,76,104091,5,4,0:0:0:0:
175,49,104279,6,0,P|131:48|89:58,1,70.000000667572,8|0,0:0|0:0,0:0:0:0:
79,190,104466,2,0,P|47:220|24:257,1,70.000000667572
163,295,104654,2,0,P|162:339|172:381,1,70.000000667572
300,250,104841,2,0,P|291:200|269:161,1,70.000000667572
86,100,105029,5,4,0:0:0:0:
259,217,105216,2,0,P|300:221|335:214,1,70.000000667572
442,82,105404,2,0,P|401:78|366:85,1,70.000000667572
161,202,105591,53,4,0:0:0:0:
275,68,105779,2,0,P|234:64|199:71,1,70.000000667572,8|0,0:0|0:0,0:0:0:0:
93,185,105966,2,0,P|134:189|169:182,1,70.000000667572
121,21,106154,2,0,P|113:52|119:113,1,70.000000667572
255,231,106342,2,0,P|262:200|259:144,1,70.000000667572
198,59,106529,6,0,B|178:50|178:50|154:62|154:62|127:50|100:63|100:63|73:49|73:49|50:60,1,160
120,196,106904,2,0,B|143:185|143:185|170:199|170:199|197:186|224:198|224:198|248:186|248:186|275:197,1,160
382,306,107279,6,0,P|316:313|289:304,1,70.000000667572,8|0,0:0|0:0,0:0:0:0:
348,162,107466,2,0,P|404:152|434:155,1,70.000000667572,4|0,0:0|0:0,0:0:0:0:
210,295,107654,2,0,P|200:231|202:201,1,70.000000667572
289,44,107841,2,0,P|297:93|294:130,1,70.000000667572
148,241,108029,5,4,0:0:0:0:
123,197,108122,1,0,0:0:0:0:
116,148,108216,1,0,0:0:0:0:
127,99,108310,1,0,0:0:0:0:
155,58,108404,6,0,P|199:51|248:53,1,80
386,185,108591,2,0,P|321:191|289:187,1,80
169,37,108779,2,0,P|215:37|265:48,1,80,8|0,0:0|0:0,0:0:0:0:
384,209,108966,2,0,P|316:204|283:194,1,80,0|0,0:0|0:0,0:0:0:0:
181,14,109154,2,0,P|229:23|279:43,1,80,4|0,0:0|0:0,0:0:0:0:
372,232,109341,5,0,0:0:0:0:
318,268,109434,1,0,0:0:0:0:
255,252,109528,1,0,0:0:0:0:
224,195,109622,1,0,0:0:0:0:
246,134,109716,1,4,0:0:0:0:
305,109,109809,1,0,0:0:0:0:
364,136,109904,6,0,P|387:168|406:214,1,80,4|0,0:0|0:0,0:0:0:0:
234,347,110091,2,0,P|237:276|248:247,1,80
384,157,110279,2,0,P|399:197|406:252,1,80,8|0,0:0|0:0,0:0:0:0:
185,344,110466,2,0,P|209:269|228:242,1,80
400,185,110654,2,0,P|405:232|397:292,1,80,4|0,0:0|0:0,0:0:0:0:
137,326,110841,5,0,0:0:0:0:
162,272,110934,1,0,0:0:0:0:
211,237,111028,5,4,0:0:0:0:
168,210,111122,1,0,0:0:0:0:
120,200,111216,1,0,0:0:0:0:
70,206,111310,1,0,0:0:0:0:
26,229,111404,6,0,P|19:282|23:315,1,80
210,240,111591,2,0,P|206:166|198:143,1,80,4|0,0:0|0:0,0:0:0:0:
21,263,111779,6,0,P|33:320|49:353,1,80,8|0,0:0|0:0,0:0:0:0:
215,205,111966,2,0,P|183:130|166:109,1,80
29,301,112154,6,0,P|62:355|92:383,1,80,4|0,0:0|0:0,0:0:0:0:
207,168,112341,2,0,P|146:102|120:87,1,80
57,327,112529,5,4,0:0:0:0:
108,357,112622,1,0,0:0:0:0:
168,362,112716,2,0,P|230:358|263:350,1,80
163,207,112904,2,0,P|103:207|77:214,1,80,4|0,0:0|0:0,0:0:0:0:
183,367,113091,2,0,P|249:351|283:336,1,80
174,119,113279,5,8,0:0:0:0:
150,341,113466,1,4,0:0:0:0:
305,209,113654,2,0,P|309:157|299:102,1,80
121,208,113841,2,0,P|121:250|138:289,1,80
308,163,114029,5,4,0:0:0:0:
286,108,114122,1,0,0:0:0:0:
242,68,114216,1,0,0:0:0:0:
185,50,114310,1,0,0:0:0:0:
126,59,114404,6,0,P|91:64|48:76,1,80
186,221,114591,2,0,P|221:216|264:204,1,80
291,78,114779,1,8,0:0:0:0:
69,168,114966,2,0,P|62:221|66:265,1,80,4|0,0:0|0:0,0:0:0:0:
256,316,115154,1,0,0:0:0:0:
371,154,115341,5,4,0:0:0:0:
309,117,115434,1,0,0:0:0:0:
236,105,115529,2,0,P|194:103|133:123,1,80
256,286,115716,2,0,P|311:283|351:269,1,80,4|0,0:0|0:0,0:0:0:0:
232,121,115904,2,0,P|185:121|120:149,1,80
269,315,116091,2,0,P|329:307|372:288,1,80,4|0,0:0|0:0,0:0:0:0:
228,137,116279,2,0,P|172:142|97:182,1,80,8|0,0:0|0:0,0:0:0:0:
292,365,116466,2,0,P|362:348|411:321,1,80,4|0,0:0|0:0,0:0:0:0:
422,140,116654,6,0,P|393:109|351:82,1,80
187,226,116841,2,0,P|232:214|274:184,1,80
58,99,117029,5,4,0:0:0:0:
40,168,117122,1,0,0:0:0:0:
44,240,117216,2,0,P|58:299|72:328,1,80
208,180,117404,2,0,L|208:78,1,80,4|0,0:0|0:0,0:0:0:0:
386,191,117591,2,0,P|390:234|386:279,1,80
194,332,117779,6,0,P|192:282|200:234,1,80,4|0,0:0|0:0,0:0:0:0:
317,92,117966,2,0,P|322:142|314:183,1,80
139,88,118154,1,4,0:0:0:0:
322,21,118341,1,0,0:0:0:0:
432,209,118529,6,0,P|390:220|344:217,1,80,4|0,0:0|0:0,0:0:0:0:
164,85,118716,2,0,P|208:76|248:77,1,80,4|0,0:0|0:0,0:0:0:0:
426,220,118904,6,0,P|383:227|337:220,1,80,4|0,0:0|0:0,0:0:0:0:
196,39,119091,2,0,P|241:47|277:63,1,80,4|0,0:0|0:0,0:0:0:0:
417,230,119279,6,4,P|374:233|329:222,1,80
241,1,119466,2,4,P|278:26|306:55,1,80
192,212,119654,5,4,0:0:0:0:
166,103,119841,1,0,0:0:0:0:
410,131,120029,5,8,0:0:0:0:
274,329,120404,1,0,0:0:0:0:
170,112,120779,1,0,0:0:0:0:
266,182,120966,2,0,P|266:223|255:257,1,60.0000022888184,8|0,0:0|0:0,0:0:0:0:
151,293,121154,1,8,0:0:0:0:
152,173,121341,1,0,0:0:0:0:
239,90,121529,5,0,0:0:0:0:
371,289,121904,1,0,0:0:0:0:
146,338,122279,6,0,P|116:337|88:329,1,60.0000022888184,8|0,0:0|0:0,0:0:0:0:
106,156,122466,2,0,P|136:156|165:159,1,60.0000022888184,8|0,0:0|0:0,0:0:0:0:
296,296,122654,2,0,P|314:270|321:241,1,60.0000022888184
243,72,122841,2,0,P|237:101|238:131,1,60.0000022888184
443,75,123029,5,8,0:0:0:0:
211,61,123404,1,0,0:0:0:0:
297,284,123779,1,0,0:0:0:0:
201,212,123966,2,0,P|225:188|259:164,1,60.0000022888184,8|0,0:0|0:0,0:0:0:0:
360,211,124154,1,8,0:0:0:0:
331,327,124341,1,0,0:0:0:0:
296,149,124529,5,0,0:0:0:0:
130,323,124904,1,0,0:0:0:0:
68,90,125279,6,0,P|106:87|138:88,1,60.0000022888184,8|0,0:0|0:0,0:0:0:0:
306,114,125466,2,0,P|325:158|324:195,1,60.0000022888184
205,305,125654,2,0,P|189:258|190:230,1,60.0000022888184
211,69,125841,1,2,0:0:0:0:
223,48,125935,1,2,0:0:0:0:
240,31,126029,5,4,0:0:0:0:
370,153,126216,1,0,0:0:0:0:
192,184,126404,1,0,0:0:0:0:
318,57,126591,1,0,0:0:0:0:
297,236,126779,1,0,0:0:0:0:
147,136,126966,2,2,L|153:103,1,30.0000011444092,2|0,0:0|0:0,0:0:0:0:
333,127,127154,5,4,0:0:0:0:
300,303,127341,1,0,0:0:0:0:
273,88,127529,5,0,0:0:0:0:
293,266,127716,1,0,0:0:0:0:
218,62,127904,5,0,0:0:0:0:
267,234,128091,1,0,0:0:0:0:
89,202,128279,6,0,L|117:191,1,30.0000011444092,6|0,0:0|0:0,0:0:0:0:
268,188,128466,1,0,0:0:0:0:
197,354,128654,2,2,P|184:324|177:297,1,60.0000022888184,10|2,0:0|0:0,0:0:0:0:
373,221,128841,2,2,P|362:249|348:275,1,60.0000022888184,10|2,0:0|0:0,0:0:0:0:
197,128,129029,5,4,0:0:0:0:
369,78,129216,1,0,0:0:0:0:
139,88,129404,5,0,0:0:0:0:
282,196,129591,1,0,0:0:0:0:
217,27,129779,6,0,B|198:43|198:43|182:122|182:122|159:140,1,120.000004577637,8|2,0:0|0:0,0:0:0:0:
145,159,130060,1,0,0:0:0:0:
145,159,130154,1,2,0:0:0:0:
219,295,130341,1,0,0:0:0:0:
336,192,130529,6,0,P|343:148|340:121,1,60.0000022888184,8|0,0:0|0:0,0:0:0:0:
186,110,130716,2,0,P|170:149|165:186,1,60.0000022888184
390,124,130904,2,0,P|376:77|364:58,1,60.0000022888184
242,124,131091,5,0,0:0:0:0:
205,156,131184,1,0,0:0:0:0:
203,203,131278,1,8,0:0:0:0:
227,245,131372,1,0,0:0:0:0:
274,256,131466,1,0,0:0:0:0:
317,233,131559,1,0,0:0:0:0:
334,188,131654,5,2,0:0:0:0:
282,182,131747,1,2,0:0:0:0:
230,182,131841,1,2,0:0:0:0:
178,187,131935,1,2,0:0:0:0:
126,198,132029,5,4,0:0:0:0:
199,363,132216,1,0,0:0:0:0:
230,284,132404,1,0,0:0:0:0:
107,216,132591,5,8,0:0:0:0:
219,356,132778,1,0,0:0:0:0:
236,273,132966,1,0,0:0:0:0:
207,193,133154,2,2,B|198:173|198:173|169:163|154:147,1,60.0000022888184
69,62,133341,2,2,B|69:83|51:107|51:107|51:131,1,60.0000022888184
112,289,133529,5,4,0:0:0:0:
204,68,133716,1,0,0:0:0:0:
98,125,133904,1,0,0:0:0:0:
146,291,134091,5,8,0:0:0:0:
177,54,134279,1,0,0:0:0:0:
135,68,134372,1,0,0:0:0:0:
103,99,134466,1,0,0:0:0:0:
89,141,134560,1,0,0:0:0:0:
95,185,134654,5,2,0:0:0:0:
146,173,134747,1,2,0:0:0:0:
198,169,134841,1,2,0:0:0:0:
250,175,134935,1,2,0:0:0:0:
301,189,135029,5,4,0:0:0:0:
121,347,135216,1,0,0:0:0:0:
145,229,135404,1,0,0:0:0:0:
314,220,135591,5,8,0:0:0:0:
99,326,135778,1,0,0:0:0:0:
150,217,135966,2,2,B|179:198|171:203,1,30.0000011444092
267,107,136154,2,0,B|291:122|291:122|294:135|294:135|311:147,1,60.0000022888184,4|0,0:0|0:0,0:0:0:0:
395,207,136341,1,2,0:0:0:0:
396,230,136435,1,2,0:0:0:0:
393,253,136529,5,8,0:0:0:0:
214,93,136716,1,0,0:0:0:0:
332,70,136904,1,0,0:0:0:0:
360,269,137091,5,8,0:0:0:0:
229,68,137278,1,0,0:0:0:0:
349,77,137466,2,0,B|365:81|365:81|393:74|412:89,1,60.0000022888184,8|0,0:0|0:0,0:0:0:0:
282,208,137654,1,2,0:0:0:0:
238,200,137747,1,2,0:0:0:0:
200,176,137841,1,2,0:0:0:0:
174,139,137935,1,2,0:0:0:0:
164,96,138029,5,8,0:0:0:0:
201,119,138122,1,0,0:0:0:0:
221,159,138216,1,0,0:0:0:0:
217,203,138310,1,0,0:0:0:0:
191,239,138404,1,0,0:0:0:0:
150,255,138497,1,0,0:0:0:0:
106,248,138591,1,8,0:0:0:0:
73,218,138685,1,0,0:0:0:0:
59,176,138779,5,0,0:0:0:0:
104,169,138872,1,0,0:0:0:0:
149,169,138966,1,0,0:0:0:0:
193,177,139060,1,0,0:0:0:0:
236,190,139154,1,8,0:0:0:0:
276,201,139247,1,0,0:0:0:0:
317,206,139341,1,0,0:0:0:0:
358,205,139435,1,0,0:0:0:0:
399,199,139529,5,8,0:0:0:0:
399,158,139622,1,0,0:0:0:0:
380,121,139716,1,0,0:0:0:0:
347,98,139810,1,0,0:0:0:0:
306,91,139904,1,0,0:0:0:0:
268,104,139997,1,0,0:0:0:0:
239,133,140091,1,8,0:0:0:0:
227,172,140185,1,0,0:0:0:0:
233,212,140279,5,2,0:0:0:0:
246,158,140372,1,2,0:0:0:0:
225,105,140466,1,2,0:0:0:0:
179,73,140560,1,2,0:0:0:0:
123,72,140654,6,2,P|93:73|61:83,1,60.0000022888184,10|2,0:0|0:0,0:0:0:0:
110,192,140841,2,2,P|81:220|68:258,1,70.000000667572
251,292,141029,6,0,P|274:259|290:214,1,80,4|0,0:0|0:0,0:0:0:0:
106,40,141216,5,0,0:0:0:0:
92,102,141310,1,0,0:0:0:0:
93,166,141404,2,0,P|97:233|105:261,1,80
383,190,141591,5,2,0:0:0:0:
354,123,141685,1,2,0:0:0:0:
311,64,141779,2,0,P|264:24|226:11,1,80,4|0,0:0|0:0,0:0:0:0:
214,336,141966,5,0,0:0:0:0:
292,354,142060,1,0,0:0:0:0:
371,341,142154,2,0,P|424:310|444:291,1,80
435,137,142341,2,0,P|383:161|350:189,1,80
270,273,142529,6,0,P|213:271|189:267,1,60.0000022888184,4|0,0:0|0:0,0:0:0:0:
108,138,142716,2,0,P|150:132|176:136,1,60.0000022888184
256,272,142904,6,0,B|229:271|205:266|184:260,1,60.0000022888184
121,138,143091,2,0,B|139:134|163:137|182:142,1,60.0000022888184
244,270,143279,6,0,B|224:272|224:272|198:261|180:254,1,60.0000022888184,8|0,0:0|0:0,0:0:0:0:
133,140,143466,2,0,B|146:135|146:135|168:141|194:149,1,60.0000022888184
233,268,143654,6,0,B|201:262|201:262|177:248,1,60.0000022888184
144,142,143841,2,0,B|176:142|176:142|204:155,1,60.0000022888184
353,244,144029,6,0,P|366:284|372:329,1,70.000000667572,4|0,0:0|0:0,0:0:0:0:
293,79,144216,1,0,0:0:0:0:
362,112,144310,1,0,0:0:0:0:
424,157,144404,2,0,P|448:196|457:227,1,70.000000667572,8|0,0:0|0:0,0:0:0:0:
269,335,144591,6,0,P|243:303|224:257,1,70.000000667572
181,151,144779,2,0,P|225:161|255:177,1,70.000000667572
105,326,144966,2,0,P|109:284|128:239,1,70.000000667572,8|0,0:0|0:0,0:0:0:0:
172,133,145154,2,0,P|196:171|205:203,1,70.000000667572,8|0,0:0|0:0,0:0:0:0:
56,109,145341,2,0,P|77:58|106:29,1,70.000000667572
227,23,145529,5,8,0:0:0:0:
282,31,145622,1,0,0:0:0:0:
336,50,145716,1,0,0:0:0:0:
387,78,145810,1,0,0:0:0:0:
431,114,145904,2,0,P|462:151|480:198,1,70.000000667572,8|0,0:0|0:0,0:0:0:0:
349,249,146091,2,0,P|338:182|339:154,1,70.000000667572
470,242,146279,6,0,P|457:303|449:322,1,70.000000667572,8|0,0:0|0:0,0:0:0:0:
247,184,146466,2,0,P|276:135|299:117,1,70.000000667572,8|0,0:0|0:0,0:0:0:0:
463,260,146654,6,2,P|439:318|428:336,1,70.000000667572,10|2,0:0|0:0,0:0:0:0:
253,165,146841,2,2,P|290:121|316:108,1,70.000000667572,10|2,0:0|0:0,0:0:0:0:
330,305,147029,5,4,0:0:0:0:
266,314,147122,1,0,0:0:0:0:
200,317,147216,2,0,P|154:317|122:310,1,70.000000667572
59,198,147404,2,0,L|141:194,1,70.000000667572,8|0,0:0|0:0,0:0:0:0:
274,103,147591,2,0,P|225:96|185:99,1,70.000000667572
312,237,147779,2,0,P|360:236|391:229,1,70.000000667572
340,61,147966,6,0,L|323:151,1,70.000000667572,8|0,0:0|0:0,0:0:0:0:
185,137,148154,2,0,L|224:208,1,70.000000667572,8|0,0:0|0:0,0:0:0:0:
102,276,148341,2,0,L|158:324,1,70.000000667572
270,344,148529,5,8,0:0:0:0:
305,305,148622,1,0,0:0:0:0:
332,256,148716,2,0,P|348:193|345:131,1,70.000000667572
221,231,148904,5,8,0:0:0:0:
218,178,148997,1,0,0:0:0:0:
203,124,149091,2,0,P|168:68|123:26,1,70.000000667572
67,229,149279,6,0,P|59:275|61:311,1,70.000000667572,8|0,0:0|0:0,0:0:0:0:
295,231,149466,2,0,P|282:167|271:142,1,70.000000667572
182,40,149654,5,2,0:0:0:0:
123,56,149747,1,2,0:0:0:0:
78,97,149841,1,2,0:0:0:0:
55,153,149935,1,2,0:0:0:0:
60,214,150029,2,0,P|69:259|83:291,1,70.000000667572,4|0,0:0|0:0,0:0:0:0:
273,361,150216,5,0,0:0:0:0:
294,294,150310,1,0,0:0:0:0:
304,224,150404,2,0,P|296:170|280:131,1,70.000000667572,8|0,0:0|0:0,0:0:0:0:
148,86,150591,2,0,P|136:134|136:165,1,70.000000667572
337,209,150779,2,0,P|311:149|280:109,1,70.000000667572
114,99,150966,2,0,P|115:158|124:194,1,70.000000667572,8|0,0:0|0:0,0:0:0:0:
219,321,151154,5,4,0:0:0:0:
275,332,151247,1,0,0:0:0:0:
334,335,151341,2,0,P|384:326|414:305,1,70.000000667572
307,160,151529,5,0,0:0:0:0:
251,168,151622,1,0,0:0:0:0:
197,184,151716,2,0,P|135:210|118:224,1,70.000000667572
105,38,151904,5,0,0:0:0:0:
71,83,151997,1,0,0:0:0:0:
44,133,152091,2,0,P|18:195|15:217,1,70.000000667572
119,342,152279,6,0,L|143:263,1,70.000000667572,12|0,0:0|0:0,0:0:0:0:
228,66,152466,2,0,L|249:154,1,70.000000667572
341,324,152654,5,10,0:0:0:0:
388,275,152747,1,2,0:0:0:0:
406,212,152841,1,2,0:0:0:0:
394,146,152935,1,2,0:0:0:0:
352,93,153029,6,0,P|320:65|269:36,1,70.000000667572,4|0,0:0|0:0,0:0:0:0:
106,98,153216,5,0,0:0:0:0:
106,154,153310,1,0,0:0:0:0:
109,210,153404,2,0,P|119:286|141:342,1,70.000000667572
326,321,153591,5,0,0:0:0:0:
315,267,153685,1,0,0:0:0:0:
302,212,153779,2,0,P|288:164|262:124,1,70.000000667572,8|0,0:0|0:0,0:0:0:0:
183,232,153966,2,0,P|140:209|103:200,1,70.000000667572,2|0,0:0|0:0,0:0:0:0:
126,337,154154,2,0,P|179:346|214:343,1,70.000000667572,4|0,0:0|0:0,0:0:0:0:
328,300,154341,2,0,P|346:266|355:222,1,70.000000667572
299,79,154529,5,10,0:0:0:0:
239,63,154622,1,2,0:0:0:0:
178,60,154716,1,0,0:0:0:0:
118,70,154810,1,0,0:0:0:0:
61,92,154904,5,2,0:0:0:0:
105,121,154997,1,2,0:0:0:0:
154,137,155091,1,0,0:0:0:0:
206,141,155185,1,0,0:0:0:0:
258,132,155279,5,10,0:0:0:0:
215,125,155372,1,2,0:0:0:0:
174,139,155466,1,2,0:0:0:0:
143,169,155560,1,2,0:0:0:0:
128,210,155654,2,2,P|125:252|130:289,1,70.000000667572
245,247,155841,2,2,P|271:286|292:305,1,70.000000667572
362,203,156029,6,0,P|400:215|443:212,1,70.000000667572,4|0,0:0|0:0,0:0:0:0:
367,56,156216,1,0,0:0:0:0:
319,41,156310,1,0,0:0:0:0:
270,46,156404,2,0,P|225:56|198:74,1,70.000000667572
130,255,156591,5,8,0:0:0:0:
194,282,156684,1,0,0:0:0:0:
263,283,156778,1,0,0:0:0:0:
328,259,156872,1,0,0:0:0:0:
380,212,156966,2,0,P|406:171|415:140,1,70.000000667572
338,50,157154,5,8,0:0:0:0:
290,58,157247,1,0,0:0:0:0:
247,82,157341,2,0,P|195:133|188:150,1,70.000000667572
306,330,157529,5,8,0:0:0:0:
295,261,157622,1,0,0:0:0:0:
249,210,157716,1,0,0:0:0:0:
182,192,157810,1,0,0:0:0:0:
113,199,157904,2,0,P|57:221|38:237,1,70.000000667572
237,313,158091,5,8,0:0:0:0:
250,265,158185,1,0,0:0:0:0:
255,216,158279,1,0,0:0:0:0:
253,167,158372,1,0,0:0:0:0:
244,118,158466,2,0,P|232:73|215:45,1,70.000000667572
119,214,158654,6,2,L|119:306,1,80
358,353,158841,2,2,L|358:261,1,80
307,87,159029,5,4,0:0:0:0:
241,105,159122,1,0,0:0:0:0:
196,158,159216,1,0,0:0:0:0:
188,226,159310,1,0,0:0:0:0:
218,288,159404,2,0,P|239:326|277:361,1,70.000000667572
418,204,159591,5,8,0:0:0:0:
371,188,159685,1,0,0:0:0:0:
322,181,159779,2,0,P|271:177|234:183,1,70.000000667572
140,301,159966,2,0,P|193:304|219:300,1,70.000000667572
310,151,160154,6,0,P|255:161|217:178,1,70.000000667572,12|0,0:0|0:0,0:0:0:0:
151,330,160341,2,0,P|208:318|235:307,1,70.000000667572
286,132,160529,5,8,0:0:0:0:
220,108,160622,1,0,0:0:0:0:
151,111,160716,1,0,0:0:0:0:
88,140,160810,1,0,0:0:0:0:
41,192,160904,2,0,P|27:231|23:265,1,70.000000667572
172,351,161091,2,0,P|176:289|171:252,1,70.000000667572,8|0,0:0|0:0,0:0:0:0:
23,211,161279,2,0,P|19:253|24:286,1,70.000000667572
149,365,161466,2,0,P|169:306|173:269,1,70.000000667572
5,230,161654,6,2,P|12:271|25:303,1,70.000000667572
127,378,161841,2,2,P|161:327|175:292,1,70.000000667572,10|2,0:0|0:0,0:0:0:0:
195,68,162029,5,4,0:0:0:0:
214,134,162122,1,0,0:0:0:0:
268,176,162216,1,0,0:0:0:0:
337,179,162310,1,0,0:0:0:0:
394,142,162404,2,0,P|423:104|432:76,1,70.000000667572
290,57,162591,5,8,0:0:0:0:
273,106,162684,1,0,0:0:0:0:
268,158,162778,1,0,0:0:0:0:
273,211,162872,1,0,0:0:0:0:
289,261,162966,2,0,P|309:300|332:325,1,70.000000667572
381,228,163154,2,0,P|422:241|456:242,1,70.000000667572,12|0,0:0|0:0,0:0:0:0:
427,140,163341,2,0,P|465:120|490:97,1,70.000000667572
350,60,163529,5,8,0:0:0:0:
281,46,163622,1,0,0:0:0:0:
211,50,163716,1,0,0:0:0:0:
144,70,163810,1,0,0:0:0:0:
84,106,163904,2,0,P|37:143|20:162,1,70.000000667572
179,342,164091,5,8,0:0:0:0:
204,296,164184,1,0,0:0:0:0:
221,246,164278,1,0,0:0:0:0:
230,194,164372,1,0,0:0:0:0:
230,142,164466,2,0,P|226:102|214:62,1,70.000000667572
44,108,164654,6,2,P|51:163|64:199,1,70.000000667572
240,134,164841,2,2,P|232:91|215:48,1,70.000000667572
229,335,165029,5,4,0:0:0:0:
306,331,165122,1,0,0:0:0:0:
371,288,165216,1,0,0:0:0:0:
402,217,165310,1,0,0:0:0:0:
392,140,165404,2,0,P|377:85|362:63,1,70.000000667572
58,190,165591,5,4,0:0:0:0:
111,219,165684,1,0,0:0:0:0:
170,234,165778,1,0,0:0:0:0:
231,232,165872,1,0,0:0:0:0:
289,213,165966,2,0,P|328:193|356:166,1,70.000000667572
117,31,166154,5,4,0:0:0:0:
134,71,166247,1,0,0:0:0:0:
162,104,166341,1,0,0:0:0:0:
199,127,166435,1,0,0:0:0:0:
241,137,166529,6,0,P|286:140|319:137,1,70.000000667572
196,239,166716,2,0,P|159:239|120:254,1,70.000000667572
248,134,166904,6,0,P|297:141|327:139,1,66.0000006294251
188,241,167091,2,0,P|148:238|108:247,1,66.0000006294251
256,133,167279,6,0,P|308:145|343:146,1,62.0000004730225,8|0,0:0|0:0,0:0:0:0:
181,243,167466,2,0,P|137:235|93:241,1,62.0000004730225
264,132,167654,6,0,P|319:150|345:155,1,58.0000017700196
173,244,167841,2,0,P|126:231|96:233,1,58.0000017700196
277,126,168029,6,0,B|286:110|307:105|307:105|324:116|335:149|346:187|341:227|320:240|299:238|299:238|290:212|306:185|334:169|366:169|390:185|390:185|395:241|381:278|371:301|335:326,1,480
103,337,171029,2,0,P|87:260|108:184,1,160
336,257,172529,2,0,B|248:285|271:222|163:253,2,160
292,325,175904,6,0,P|237:307|129:325,1,160
107,231,177029,2,0,B|96:195|94:165|92:126|107:80|145:63|145:63|164:84|167:120,1,240
215,269,179279,2,0,P|261:272|300:280,1,80
405,320,180029,6,0,B|388:286|388:286|404:256|408:226|395:181|363:156|314:156|314:156|300:196|307:231|327:242|327:242|326:219|298:187|267:176|213:181|176:202|176:202|208:217|225:243,1,560
119,301,183029,2,0,B|90:301|55:283|34:251|34:251|53:214|98:190|127:184|127:184|154:193|182:203|238:183,1,320
353,137,186029,6,0,B|308:119|265:139|239:166|229:204|235:255|248:296|288:288|288:288|298:271|285:248|258:239|198:247|169:272|169:272|131:182|194:208|162:119,1,560
256,192,189029,12,0,191279,0:0:0:0:
