osu file format v14

[General]
AudioFilename: audio.mp3
AudioLeadIn: 0
PreviewTime: 108029
Countdown: 0
SampleSet: Soft
StackLeniency: 0.7
Mode: 0
LetterboxInBreaks: 0
WidescreenStoryboard: 1

[Editor]
Bookmarks: 72029,97529,120029,131654,132029,154529,158654,168029
DistanceSpacing: 2.5
BeatDivisor: 4
GridSize: 4
TimelineZoom: 1.1

[Metadata]
Title:me & u
TitleUnicode:me & u
Artist:succducc
ArtistUnicode:succducc
Creator:-RealG
Version:insane
Source:
Tags:edms future bass edm me & u
BeatmapID:2015892
BeatmapSetID:940654

[Difficulty]
HPDrainRate:4.2
CircleSize:3.5
OverallDifficulty:7.5
ApproachRate:9
SliderMultiplier:1.6
SliderTickRate:1

[Events]
//Background and Video events
0,0,"Background.png",0,0
//Break Periods
2,72228,83241
//Storyboard Layer 0 (Background)
//Storyboard Layer 1 (Fail)
//Storyboard Layer 2 (Pass)
//Storyboard Layer 3 (Foreground)
//Storyboard Sound Samples

[TimingPoints]
29,375,4,2,0,90,1,0
9029,-133.333333333333,4,2,28,80,0,0
10529,-100,4,2,28,80,0,0
12029,-133.333333333333,4,2,28,80,0,0
18029,-100,4,2,28,80,0,0
24029,-133.333333333333,4,2,20,60,0,0
30029,-117.647058823529,4,2,20,60,0,0
36029,-100,4,2,20,60,0,0
48029,-125,4,2,0,70,0,0
54029,-111.111111111111,4,2,20,75,0,0
57029,-100,4,2,20,80,0,0
60029,-200,4,2,7,30,0,0
62091,-200,4,2,7,30,0,0
62279,-133.333333333333,4,2,0,50,0,0
63029,-200,4,2,7,30,0,0
64341,-100,4,2,7,20,0,0
64529,-133.333333333333,4,2,0,50,0,0
66029,-133.333333333333,4,2,7,50,0,0
66404,-125,4,2,7,50,0,0
66779,-117.647058823529,4,2,7,50,0,0
67154,-111.111111111111,4,2,7,50,0,0
67529,-105.263157894737,4,2,7,50,0,0
67904,-100,4,2,7,50,0,0
68279,-95.2380952380951,4,2,7,50,0,0
68654,-90.9090909090909,4,2,7,50,0,0
69029,-133.333333333333,4,2,7,50,0,0
69404,-125,4,2,7,50,0,0
69779,-117.647058823529,4,2,7,50,0,0
70154,-111.111111111111,4,2,7,50,0,0
70529,-105.263157894737,4,2,7,50,0,0
70904,-100,4,2,7,50,0,0
71279,-95.2380952380952,4,2,7,50,0,0
71654,-90.9090909090909,4,2,7,50,0,0
84029,-133.333333333333,4,2,7,50,0,0
90029,-117.647058823529,4,2,28,50,0,0
96029,-100,4,2,28,50,0,0
97622,-100,4,2,14,50,0,0
97904,-100,4,2,28,65,0,0
98279,-80,4,2,28,65,0,0
106529,-66.6666666666667,4,2,28,65,0,0
108029,-66.6666666666667,4,2,28,100,0,1
119654,-80,4,2,20,100,0,1
120029,-100,4,2,20,60,0,0
144029,-66.6666666666667,4,2,20,90,0,1
154529,-80,4,2,20,80,0,0
154904,-80,4,2,20,60,0,0
155279,-80,4,2,20,40,0,0
155654,-80,4,2,20,60,0,0
156029,-66.6666666666667,4,2,20,90,0,1
158654,-57.1428571428571,4,2,20,90,0,1
159029,-66.6666666666667,4,2,20,90,0,1
167654,-100,4,2,20,50,0,1
168029,-200,4,2,7,40,0,0
180029,-200,4,2,7,20,0,0
191279,-200,4,2,7,10,0,0

[Colours]
Combo1 : 98,0,196
Combo2 : 221,0,133
Combo3 : 255,149,255
Combo4 : 165,2,242
Combo5 : 175,129,254
Combo6 : 255,15,135

[HitObjects]
94,132,29,6,0,P|154:116|256:126,1,160,2|0,0:0|0:0,0:0:0:0:
274,133,497,1,0,0:0:0:0:
274,133,591,1,0,0:0:0:0:
326,241,779,2,0,P|340:185|365:152,1,80,0|0,0:0|0:0,0:0:0:0:
437,250,1154,1,0,0:0:0:0:
437,250,1247,1,0,0:0:0:0:
437,250,1341,6,0,P|422:314|330:326,1,160,2|2,0:0|0:0,0:0:0:0:
226,287,1904,1,0,0:0:0:0:
244,168,2091,1,0,0:0:0:0:
244,168,2185,1,0,0:0:0:0:
244,168,2279,2,0,P|304:168|341:174,1,80,2|0,0:0|0:0,0:0:0:0:
421,99,2654,2,0,P|349:82|319:83,1,80
222,71,3029,6,0,P|169:106|153:208,1,160,2|0,0:0|0:0,0:0:0:0:
195,306,3591,1,0,0:0:0:0:
307,263,3779,2,0,P|366:264|418:275,1,80,0|2,0:0|0:0,0:0:0:0:
485,335,4154,1,0,0:0:0:0:
487,215,4341,2,0,P|439:175|328:149,2,160,2|2|2,0:0|0:0|0:0,0:0:0:0:
411,309,5279,2,0,P|384:246|385:219,1,80,2|0,0:0|0:0,0:0:0:0:
384,115,5654,2,0,P|401:63|424:37,1,80,2|0,0:0|0:0,0:0:0:0:
483,189,6029,6,0,B|395:220|418:162|314:182,1,160,2|0,0:0|0:0,0:0:0:0:
222,242,6591,1,2,0:0:0:0:
108,201,6779,2,0,P|113:144|130:108,1,80,0|2,0:0|0:0,0:0:0:0:
227,66,7154,1,0,0:0:0:0:
332,121,7341,2,0,P|353:167|360:299,1,160,2|0,0:0|0:0,0:0:0:0:
248,311,7904,6,0,P|256:242|270:218,1,80,2|0,0:0|0:0,0:0:0:0:
361,168,8279,2,0,P|408:164|449:172,1,80,2|0,0:0|0:0,0:0:0:0:
441,289,8654,1,2,0:0:0:0:
326,324,8841,1,0,0:0:0:0:
326,324,8935,1,0,0:0:0:0:
326,324,9029,6,0,B|220:296|248:350|135:327,1,180.000006866455,4|0,0:0|0:0,0:0:0:0:
43,231,9779,2,0,B|149:203|121:257|234:234,1,180.000006866455,4|0,0:0|0:0,0:0:0:0:
316,165,10529,6,0,P|252:146|218:149,1,80,4|0,0:0|0:0,0:0:0:0:
119,152,10904,2,0,P|123:106|145:67,1,80,4|0,0:0|0:0,0:0:0:0:
254,47,11279,2,0,P|308:48|345:57,1,80,0|0,0:0|0:0,0:0:0:0:
426,129,11654,1,0,0:0:0:0:
368,234,11841,1,0,0:0:0:0:
368,234,11935,1,0,0:0:0:0:
368,234,12029,6,0,P|309:240|235:230,1,120,0|0,0:0|0:0,0:0:0:0:
210,151,12591,1,0,0:0:0:0:
152,220,12779,2,0,P|143:272|147:298,1,60.0000022888184,0|0,0:0|0:0,0:0:0:0:
73,335,13154,1,0,0:0:0:0:
51,247,13341,2,0,P|55:192|45:106,1,120.000004577637,0|0,0:0|0:0,0:0:0:0:
24,40,13904,2,0,P|70:35|110:37,1,60.0000022888184,0|0,0:0|0:0,0:0:0:0:
125,115,14279,2,0,P|173:117|202:109,1,60.0000022888184,0|0,0:0|0:0,0:0:0:0:
249,52,14654,2,0,P|271:99|274:124,1,60.0000022888184,0|0,0:0|0:0,0:0:0:0:
207,208,15029,6,0,P|205:255|233:322,1,120.000004577637,0|0,0:0|0:0,0:0:0:0:
317,291,15591,1,0,0:0:0:0:
402,318,15779,2,0,P|413:279|416:249,1,60.0000022888184,0|0,0:0|0:0,0:0:0:0:
346,126,16154,2,0,P|333:174|335:203,1,60.0000022888184,0|0,0:0|0:0,0:0:0:0:
474,133,16529,6,0,P|455:95|396:46,1,120.000004577637,0|0,0:0|0:0,0:0:0:0:
277,63,17091,1,0,0:0:0:0:
209,162,17279,2,0,P|206:215|213:245,1,60.0000022888184,0|0,0:0|0:0,0:0:0:0:
113,296,17654,2,0,P|124:245|121:223,1,60.0000022888184,0|0,0:0|0:0,0:0:0:0:
104,78,18029,6,0,P|146:64|202:62,1,80,4|0,0:0|0:0,0:0:0:0:
338,94,18404,1,4,0:0:0:0:
238,218,18591,1,0,0:0:0:0:
393,256,18779,2,0,P|415:210|420:178,1,80,0|0,0:0|0:0,0:0:0:0:
290,86,19154,1,4,0:0:0:0:
259,242,19341,1,0,0:0:0:0:
137,137,19529,6,0,P|130:205|132:239,1,80,4|0,0:0|0:0,0:0:0:0:
279,157,19904,2,0,P|271:95|263:69,1,80,0|0,0:0|0:0,0:0:0:0:
191,220,20279,1,4,0:0:0:0:
291,285,20466,1,0,0:0:0:0:
408,259,20654,2,0,P|420:193|418:173,1,80,4|0,0:0|0:0,0:0:0:0:
301,71,21029,5,4,0:0:0:0:
281,65,21122,1,0,0:0:0:0:
260,64,21216,1,4,0:0:0:0:
240,67,21310,1,0,0:0:0:0:
220,72,21404,2,0,P|199:79|161:102,1,40,4|0,0:0|0:0,0:0:0:0:
239,169,21591,2,0,P|226:210|223:227,1,40,4|0,0:0|0:0,0:0:0:0:
288,311,21779,5,4,0:0:0:0:
288,311,21872,1,0,0:0:0:0:
288,311,21966,2,0,P|318:304|348:306,1,40,4|0,0:0|0:0,0:0:0:0:
417,222,22154,1,4,0:0:0:0:
417,222,22247,1,0,0:0:0:0:
417,222,22341,2,0,P|367:217|354:221,1,40,4|4,0:0|0:0,0:0:0:0:
256,225,22529,5,0,0:0:0:0:
253,190,22622,1,4,0:0:0:0:
256,155,22716,1,4,0:0:0:0:
266,121,22810,1,4,0:0:0:0:
282,90,22904,1,4,0:0:0:0:
316,112,22997,1,4,0:0:0:0:
342,142,23091,1,4,0:0:0:0:
359,178,23185,1,4,0:0:0:0:
365,217,23279,6,0,L|358:269,1,40,0|4,0:0|0:0,0:0:0:0:
253,314,23466,2,0,L|261:265,1,40,4|4,0:0|0:0,0:0:0:0:
166,196,23654,2,0,L|159:238,1,40,4|4,0:0|0:0,0:0:0:0:
59,301,23841,2,0,L|69:251,1,40,4|4,0:0|0:0,0:0:0:0:
78,140,24029,6,0,P|80:67|52:24,2,120.000004577637,8|0|0,0:0|0:0|0:0,0:0:0:0:
49,272,25060,2,0,P|121:256|146:256,1,90.0000034332277,0|0,0:0|0:0,0:0:0:0:
166,259,25435,1,0,0:0:0:0:
195,265,25529,2,0,P|267:268|321:258,2,120.000004577637,0|0|8,0:0|0:0|0:0,0:0:0:0:
202,145,26466,2,0,P|236:103|256:89,1,60.0000022888184,0|2,0:0|0:0,0:0:0:0:
334,175,26841,1,2,0:0:0:0:
334,175,26935,1,2,0:0:0:0:
334,175,27029,6,0,B|352:238|311:238|339:308,2,120.000004577637,8|0|0,0:0|0:0|0:0,0:0:0:0:
407,79,27966,2,0,P|430:114|431:146,1,60.0000022888184,0|8,0:0|0:0,0:0:0:0:
416,250,28341,1,0,0:0:0:0:
319,321,28529,2,0,P|229:336|180:323,2,120.000004577637,0|0|8,0:0|0:0|0:0,0:0:0:0:
252,220,29466,1,0,0:0:0:0:
325,124,29654,1,2,0:0:0:0:
208,98,29841,1,2,0:0:0:0:
208,98,29935,1,2,0:0:0:0:
208,98,30029,6,0,P|168:109|131:126,1,68.0000012969971,4|0,0:0|0:0,0:0:0:0:
173,266,30404,2,0,P|188:212|190:188,1,68.0000012969971,0|0,0:0|0:0,0:0:0:0:
62,249,30779,2,0,P|72:309|83:327,1,68.0000012969971,0|0,0:0|0:0,0:0:0:0:
206,350,31154,1,8,0:0:0:0:
310,263,31341,1,0,0:0:0:0:
310,263,31435,1,0,0:0:0:0:
310,263,31529,6,0,P|337:297|351:344,1,68.0000012969971,0|0,0:0|0:0,0:0:0:0:
431,212,31904,2,0,P|428:167|436:135,1,68.0000012969971,0|0,0:0|0:0,0:0:0:0:
345,40,32279,2,0,P|334:87|324:106,1,68.0000012969971,10|8,0:0|0:0,0:0:0:0:
301,129,32560,1,0,0:0:0:0:
301,129,32654,1,8,0:0:0:0:
182,62,32841,1,2,0:0:0:0:
182,62,32935,1,2,0:0:0:0:
182,62,33029,6,0,P|132:69|101:87,1,68.0000012969971,4|0,0:0|0:0,0:0:0:0:
140,210,33404,2,0,P|157:165|160:132,1,68.0000012969971,0|0,0:0|0:0,0:0:0:0:
244,260,33779,2,0,P|245:320|236:350,1,68.0000012969971,8|2,0:0|0:0,0:0:0:0:
230,359,34060,1,2,0:0:0:0:
230,359,34154,1,8,0:0:0:0:
118,281,34341,1,0,0:0:0:0:
118,281,34435,1,2,0:0:0:0:
118,281,34529,6,0,P|150:257|175:243,1,68.0000012969971,8|0,0:0|0:0,0:0:0:0:
373,194,34904,2,0,P|341:170|316:156,1,68.0000012969971,8|0,0:0|0:0,0:0:0:0:
186,115,35279,2,0,P|218:91|243:77,1,68.0000012969971,8|0,0:0|0:0,0:0:0:0:
378,72,35654,5,2,0:0:0:0:
400,96,35747,1,2,0:0:0:0:
414,126,35841,1,2,0:0:0:0:
415,160,35935,1,2,0:0:0:0:
406,193,36029,5,4,0:0:0:0:
281,138,36216,1,0,0:0:0:0:
281,138,36310,1,2,0:0:0:0:
281,138,36404,2,0,P|224:131|185:132,1,80,8|0,0:0|0:0,0:0:0:0:
163,143,36685,1,2,0:0:0:0:
163,143,36779,1,8,0:0:0:0:
81,279,36966,5,2,0:0:0:0:
81,279,37060,1,2,0:0:0:0:
81,279,37154,1,2,0:0:0:0:
238,255,37341,1,2,0:0:0:0:
238,255,37435,1,2,0:0:0:0:
238,255,37529,6,0,P|246:203|244:163,1,80,8|0,0:0|0:0,0:0:0:0:
238,136,37810,1,2,0:0:0:0:
238,136,37904,1,8,0:0:0:0:
366,41,38091,1,0,0:0:0:0:
366,41,38185,1,2,0:0:0:0:
366,41,38279,1,8,0:0:0:0:
402,154,38466,6,0,L|398:210,1,40,2|2,0:0|0:0,0:0:0:0:
278,206,38654,2,0,L|294:255,1,40,2|2,0:0|0:0,0:0:0:0:
181,294,38841,1,2,0:0:0:0:
181,294,38935,1,2,0:0:0:0:
181,294,39029,6,0,P|222:320|266:330,1,80,4|0,0:0|0:0,0:0:0:0:
292,330,39310,1,2,0:0:0:0:
292,330,39404,1,8,0:0:0:0:
273,171,39591,1,0,0:0:0:0:
273,171,39685,1,2,0:0:0:0:
273,171,39779,1,8,0:0:0:0:
131,96,39966,1,2,0:0:0:0:
133,256,40154,1,2,0:0:0:0:
242,87,40341,5,2,0:0:0:0:
242,87,40435,1,2,0:0:0:0:
242,87,40529,2,0,P|287:69|329:63,1,80,8|0,0:0|0:0,0:0:0:0:
357,62,40810,1,2,0:0:0:0:
357,62,40904,1,8,0:0:0:0:
411,176,41091,1,0,0:0:0:0:
411,176,41185,1,2,0:0:0:0:
411,176,41279,1,8,0:0:0:0:
262,234,41466,5,2,0:0:0:0:
234,229,41560,1,2,0:0:0:0:
210,214,41654,2,0,P|176:184|166:170,1,40,2|2,0:0|0:0,0:0:0:0:
236,59,41841,2,0,P|250:101|251:126,1,40,2|2,0:0|0:0,0:0:0:0:
107,91,42029,5,4,0:0:0:0:
43,246,42216,1,0,0:0:0:0:
43,246,42310,1,2,0:0:0:0:
43,246,42404,2,0,P|83:270|127:276,1,80,8|0,0:0|0:0,0:0:0:0:
155,277,42685,1,2,0:0:0:0:
155,277,42779,1,8,0:0:0:0:
312,249,42966,2,0,P|360:256|373:261,2,40,2|2|2,0:0|0:0|0:0,0:0:0:0:
167,179,43341,2,0,P|191:168|213:163,1,40,2|2,0:0|0:0,0:0:0:0:
358,114,43529,6,0,P|310:92|278:80,1,80,8|0,0:0|0:0,0:0:0:0:
245,75,43810,1,2,0:0:0:0:
245,75,43904,1,8,0:0:0:0:
207,230,44091,1,0,0:0:0:0:
207,230,44185,1,2,0:0:0:0:
207,230,44279,6,0,P|254:227|303:236,1,80,8|2,0:0|0:0,0:0:0:0:
324,245,44560,1,2,0:0:0:0:
324,245,44654,2,2,L|360:282,1,40
247,334,44841,2,2,L|219:306,1,40
103,191,45029,6,0,P|130:171|146:163,1,40,4|0,0:0|0:0,0:0:0:0:
249,130,45216,2,0,P|301:132|315:132,2,40,2|2|4,0:0|0:0|0:0,0:0:0:0:
242,282,45591,1,2,0:0:0:0:
273,274,45685,1,2,0:0:0:0:
301,258,45779,1,4,0:0:0:0:
370,114,45966,2,0,P|406:90|412:88,2,40,2|0|0,0:0|0:0|0:0,0:0:0:0:
424,264,46341,2,0,P|422:229|420:212,1,40,2|2,0:0|0:0,0:0:0:0:
311,275,46529,6,0,P|308:332|318:367,1,80,4|0,0:0|0:0,0:0:0:0:
343,380,46810,1,2,0:0:0:0:
343,380,46904,1,4,0:0:0:0:
475,291,47091,1,0,0:0:0:0:
479,271,47185,1,2,0:0:0:0:
480,250,47279,2,0,P|479:195|470:157,1,80,4|0,0:0|0:0,0:0:0:0:
465,152,47560,1,2,0:0:0:0:
465,152,47654,6,0,P|442:145|411:150,1,40,8|0,0:0|0:0,0:0:0:0:
292,241,47841,2,0,P|316:241|336:236,1,40,2|2,0:0|0:0,0:0:0:0:
289,114,48029,6,0,P|239:100|161:123,1,128,0|0,0:0|0:0,0:0:0:0:
108,232,48591,1,0,0:0:0:0:
178,339,48779,2,0,P|219:348|251:346,1,64,0|0,0:0|0:0,0:0:0:0:
285,227,49154,1,0,0:0:0:0:
412,234,49341,2,0,P|425:296|408:357,1,128
326,257,49904,2,0,P|323:225|329:193,1,64
408,92,50279,2,0,P|409:123|402:155,1,64
269,135,50654,2,0,P|279:72|315:19,1,128
386,230,51591,5,0,0:0:0:0:
263,269,51779,2,0,P|216:272|180:266,1,64,0|0,0:0|0:0,0:0:0:0:
132,160,52154,1,0,0:0:0:0:
245,102,52341,2,0,B|321:88|295:125|376:110,2,128,0|0|0,0:0|0:0|0:0,0:0:0:0:
230,230,53279,2,0,P|229:268|233:306,1,64,0|0,0:0|0:0,0:0:0:0:
349,244,53654,2,0,P|350:195|342:161,1,64,0|0,0:0|0:0,0:0:0:0:
221,110,54029,5,2,0:0:0:0:
141,229,54216,2,0,P|130:278|131:313,1,71.9999978027344,2|2,0:0|0:0,0:0:0:0:
267,257,54591,1,2,0:0:0:0:
408,226,54779,2,0,P|418:265|420:309,1,71.9999978027344,2|2,0:0|0:0,0:0:0:0:
336,178,55154,1,2,0:0:0:0:
435,74,55341,2,2,P|485:80|518:91,1,71.9999978027344
384,164,55716,2,2,P|319:152|303:144,1,71.9999978027344
287,7,56091,5,2,0:0:0:0:
230,163,56279,1,2,0:0:0:0:
176,29,56466,1,2,0:0:0:0:
110,157,56654,1,2,0:0:0:0:
241,98,56841,1,2,0:0:0:0:
357,208,57029,6,0,L|352:250,3,40,2|2|2|2,0:0|0:0|0:0|0:0,0:0:0:0:
426,279,57404,2,0,L|420:331,3,40,2|2|2|2,0:0|0:0|0:0|0:0,0:0:0:0:
337,341,57779,5,2,0:0:0:0:
312,342,57872,1,2,0:0:0:0:
287,341,57966,1,2,0:0:0:0:
262,336,58060,1,2,0:0:0:0:
238,328,58154,1,2,0:0:0:0:
216,317,58247,1,2,0:0:0:0:
195,304,58341,1,2,0:0:0:0:
176,288,58435,1,2,0:0:0:0:
156,268,58529,6,0,P|152:236|153:218,3,40,2|2|2|2,0:0|0:0|0:0|0:0,0:0:0:0:
249,205,58904,2,0,P|256:167|264:150,3,40,2|2|2|2,0:0|0:0|0:0|0:0,0:0:0:0:
350,201,59279,2,0,P|357:190|369:179,14,20,2|0|2|0|2|0|2|0|2|0|2|0|2|0|2,0:0|0:0|0:0|0:0|0:0|0:0|0:0|0:0|0:0|0:0|0:0|0:0|0:0|0:0|0:0,0:0:0:0:
341,219,60029,6,0,B|316:232|282:244|248:245|207:239|184:231|184:231|201:194|219:120|174:53|174:53|118:77|118:125,1,440,0|8,0:0|0:0,0:0:0:0:
94,237,62279,6,0,P|90:264|91:283,4,30.0000011444092,0|0|0|0|0,0:0|0:0|0:0|0:0|0:0,0:0:0:0:
183,316,62841,2,0,P|213:320|228:320,1,30.0000011444092,0|0,0:0|0:0,0:0:0:0:
321,251,63029,6,0,B|363:245|411:246|458:274|458:274|419:297|370:307|312:310,1,280,0|0,0:0|0:0,0:0:0:0:
225,242,64529,6,0,P|226:211|229:197,4,30.0000011444092,0|0|0|0|0,0:0|0:0|0:0|0:0|0:0,0:0:0:0:
324,130,65091,2,0,P|327:164|326:173,4,30.0000011444092,0|0|0|0|0,0:0|0:0|0:0|0:0|0:0,0:0:0:0:
230,52,65654,2,0,P|221:87|220:93,3,30.0000011444092,0|0|0|0,0:0|0:0|0:0|0:0,0:0:0:0:
196,97,66029,6,0,P|163:122|147:145,1,60.0000022888184,0|0,0:0|0:0,0:0:0:0:
226,187,66404,2,0,P|222:225|227:260,1,64,0|0,0:0|0:0,0:0:0:0:
312,228,66779,2,0,P|342:251|374:257,1,68.0000012969971,0|0,0:0|0:0,0:0:0:0:
397,173,67154,2,0,P|432:172|468:160,1,71.9999978027344,0|0,0:0|0:0,0:0:0:0:
360,92,67529,6,0,P|326:132|313:157,1,75.9999979705811
242,96,67904,2,0,P|233:150|236:176,1,80,0|0,0:0|0:0,0:0:0:0:
144,172,68279,2,0,P|158:207|189:240,1,83.9999974365235
100,280,68654,2,0,P|129:303|185:316,1,88.000002685547,0|0,0:0|0:0,0:0:0:0:
264,239,69029,6,0,P|245:232|199:229,1,60.0000022888184
231,148,69404,2,0,P|201:147|158:154,1,64
158,66,69779,2,0,P|127:76|96:105,1,68.0000012969971
70,9,70154,2,0,P|18:65|9:82,1,71.9999978027344
98,287,70529,6,0,P|118:222|121:182,1,75.9999979705811
206,250,70904,2,0,P|202:182|191:144,1,80
305,185,71279,2,0,P|278:122|256:96,1,83.9999974365235
382,96,71654,2,0,P|335:46|302:26,2,88.000002685547
429,72,83841,5,0,0:0:0:0:
429,72,83935,1,0,0:0:0:0:
429,72,84029,2,0,B|458:144|416:126|438:198,1,120.000004577637,0|0,0:0|0:0,0:0:0:0:
297,305,84779,2,0,P|287:259|290:231,1,60.0000022888184,0|0,0:0|0:0,0:0:0:0:
215,149,85154,2,0,P|208:203|197:232,1,60.0000022888184,0|0,0:0|0:0,0:0:0:0:
46,290,85716,6,0,B|33:219|69:235|52:166,1,120.000004577637,0|0,0:0|0:0,0:0:0:0:
98,93,86279,2,0,P|140:131|149:147,1,60.0000022888184,0|0,0:0|0:0,0:0:0:0:
187,210,86654,2,0,P|216:173|239:158,1,60.0000022888184,0|0,0:0|0:0,0:0:0:0:
270,155,86935,1,0,0:0:0:0:
270,155,87029,6,0,B|292:226|242:204|277:291,1,120.000004577637,0|0,0:0|0:0,0:0:0:0:
371,335,87591,2,0,P|386:280|382:212,1,120.000004577637,0|0,0:0|0:0,0:0:0:0:
334,106,88154,2,0,P|377:92|402:91,1,60.0000022888184,0|0,0:0|0:0,0:0:0:0:
472,179,88529,2,0,L|479:259,2,60.0000022888184,0|0|0,0:0|0:0|0:0,0:0:0:0:
351,186,89091,2,0,L|341:117,2,60.0000022888184,0|0|0,0:0|0:0|0:0,0:0:0:0:
304,297,89654,2,0,P|252:291|212:256,1,90.0000034332277,0|0,0:0|0:0,0:0:0:0:
197,237,90029,6,0,P|185:182|194:100,2,136.000002593994,8|8|8,0:0|0:0|0:0,0:0:0:0:
323,186,91154,1,8,0:0:0:0:
287,54,91529,2,0,P|234:42|151:56,1,136.000002593994,8|8,0:0|0:0,0:0:0:0:
82,170,92279,2,0,P|123:186|219:174,1,136.000002593994,8|8,0:0|0:0,0:0:0:0:
334,117,92841,1,8,0:0:0:0:
453,182,93029,6,0,P|458:230|455:262,1,68.0000012969971,8|0,0:0|0:0,0:0:0:0:
353,338,93404,2,0,P|350:290|357:258,1,68.0000012969971,8|0,0:0|0:0,0:0:0:0:
278,156,93779,2,0,P|275:216|268:245,1,68.0000012969971,8|0,0:0|0:0,0:0:0:0:
182,325,94154,2,0,P|175:278|180:246,1,68.0000012969971,8|0,0:0|0:0,0:0:0:0:
227,59,94529,5,4,0:0:0:0:
359,89,94716,1,0,0:0:0:0:
390,101,94810,1,0,0:0:0:0:
419,118,94904,2,0,P|454:140|465:149,3,34.0000006484985,0|0|0|0,0:0|0:0|0:0|0:0,0:0:0:0:
400,226,95279,2,0,P|405:268|405:285,3,34.0000006484985,0|0|0|0,0:0|0:0|0:0|0:0,0:0:0:0:
308,295,95654,5,0,0:0:0:0:
294,305,95747,1,0,0:0:0:0:
279,314,95841,1,0,0:0:0:0:
263,321,95935,1,0,0:0:0:0:
246,326,96029,6,0,P|205:338|91:322,1,160,4|4,0:0|0:0,0:0:0:0:
94,81,96779,2,0,P|137:108|179:169,1,120,4|4,0:0|0:0,0:0:0:0:
188,202,97154,2,0,P|222:172|256:155,1,80,0|4,0:0|0:0,0:0:0:0:
312,260,97529,5,4,0:0:0:0:
313,279,97622,2,0,L|314:312,2,20,2|0|8,0:0|0:0|0:0,0:0:0:0:
381,179,97904,6,0,P|393:218|394:234,1,40,0|0,0:0|0:0,0:0:0:0:
475,274,98091,2,0,P|459:317|452:326,1,40,0|0,0:0|0:0,0:0:0:0:
363,334,98279,2,0,B|249:370|285:284|157:328,1,200,0|0,0:0|0:0,0:0:0:0:
63,218,98841,1,4,0:0:0:0:
190,138,99029,6,0,P|219:187|226:235,1,100,4|0,0:0|0:0,0:0:0:0:
90,163,99404,2,0,P|105:104|139:62,1,100,0|0,0:0|0:0,0:0:0:0:
274,39,99779,1,8,0:0:0:0:
331,176,99966,1,4,0:0:0:0:
420,55,100154,2,0,P|457:99|472:142,1,100,4|0,0:0|0:0,0:0:0:0:
359,238,100529,1,0,0:0:0:0:
212,102,100716,6,0,P|270:88|319:92,1,100,8|0,0:0|0:0,0:0:0:0:
266,234,101091,1,4,0:0:0:0:
80,158,101279,2,0,P|102:98|131:51,1,100,8|0,0:0|0:0,0:0:0:0:
211,245,101654,2,0,P|226:301|225:358,1,100,4|0,0:0|0:0,0:0:0:0:
63,316,102029,5,4,0:0:0:0:
114,175,102216,2,0,P|164:138|215:126,1,100
338,186,102591,1,0,0:0:0:0:
277,323,102779,2,0,P|243:286|223:240,1,100,8|4,0:0|0:0,0:0:0:0:
289,105,103154,1,4,0:0:0:0:
437,87,103341,6,0,P|462:159|463:202,1,100,8|0,0:0|0:0,0:0:0:0:
335,261,103716,2,0,P|336:211|348:162,1,100
431,287,104091,1,4,0:0:0:0:
294,349,104279,2,0,P|234:322|194:293,1,100,8|0,0:0|0:0,0:0:0:0:
76,226,104654,2,0,P|115:195|161:176,1,100
310,157,105029,5,4,0:0:0:0:
369,299,105216,2,0,P|298:299|261:287,1,100,0|0,0:0|0:0,0:0:0:0:
348,128,105591,1,4,0:0:0:0:
158,168,105779,2,0,P|152:112|158:63,1,100,8|0,0:0|0:0,0:0:0:0:
277,158,106154,2,0,P|263:237|243:273,1,100,0|0,0:0|0:0,0:0:0:0:
89,326,106529,6,0,B|109:259|52:278|91:187,1,120.000004577637
209,72,106904,2,0,B|229:145|179:122|207:211,1,120.000004577637
206,367,107279,5,8,0:0:0:0:
272,200,107466,1,4,0:0:0:0:
388,337,107654,2,0,P|422:246|421:215,1,120.000004577637,0|0,0:0|0:0,0:0:0:0:
371,72,108029,5,4,0:0:0:0:
371,72,108122,1,0,0:0:0:0:
371,72,108216,2,0,P|322:93|305:105,1,60.0000022888184,0|0,0:0|0:0,0:0:0:0:
342,246,108404,6,0,P|358:213|361:180,1,60.0000022888184,0|0,0:0|0:0,0:0:0:0:
279,63,108591,2,0,P|271:83|266:128,1,60.0000022888184,0|0,0:0|0:0,0:0:0:0:
335,255,108779,2,0,P|351:222|354:189,1,60.0000022888184,8|0,0:0|0:0,0:0:0:0:
272,72,108966,2,0,P|264:92|259:137,1,60.0000022888184,0|0,0:0|0:0,0:0:0:0:
326,266,109154,2,0,P|342:233|345:200,1,60.0000022888184,4|0,0:0|0:0,0:0:0:0:
263,83,109341,1,0,0:0:0:0:
263,83,109435,1,0,0:0:0:0:
263,83,109529,6,0,P|243:75|198:70,1,60.0000022888184,0|0,0:0|0:0,0:0:0:0:
56,172,109716,2,0,P|106:177|135:168,1,60.0000022888184,4|0,0:0|0:0,0:0:0:0:
276,89,109904,2,0,P|256:81|211:76,1,60.0000022888184,4|0,0:0|0:0,0:0:0:0:
69,178,110091,2,0,P|119:183|148:174,1,60.0000022888184,0|0,0:0|0:0,0:0:0:0:
290,97,110279,2,0,P|270:89|225:84,1,60.0000022888184,8|0,0:0|0:0,0:0:0:0:
83,186,110466,2,0,P|133:191|162:182,1,60.0000022888184,0|0,0:0|0:0,0:0:0:0:
95,44,110654,5,4,0:0:0:0:
62,220,110841,1,0,0:0:0:0:
62,220,110935,1,0,0:0:0:0:
62,220,111029,6,0,P|58:289|60:306,1,60.0000022888184,4|0,0:0|0:0,0:0:0:0:
173,183,111216,2,0,P|168:134|160:109,1,60.0000022888184,0|0,0:0|0:0,0:0:0:0:
274,229,111404,2,0,P|268:265|272:305,1,60.0000022888184,0|0,0:0|0:0,0:0:0:0:
383,191,111591,2,0,P|380:147|369:119,1,60.0000022888184,4|0,0:0|0:0,0:0:0:0:
218,38,111779,5,8,0:0:0:0:
161,208,111966,2,0,P|201:212|238:209,1,60.0000022888184,0|0,0:0|0:0,0:0:0:0:
211,301,112154,2,0,P|251:297|287:288,1,60.0000022888184,4|0,0:0|0:0,0:0:0:0:
383,152,112341,1,0,0:0:0:0:
229,56,112529,6,0,P|212:120|211:137,1,60.0000022888184,4|0,0:0|0:0,0:0:0:0:
337,244,112716,2,0,P|339:198|332:170,1,60.0000022888184,0|0,0:0|0:0,0:0:0:0:
161,235,112904,2,0,P|161:288|165:310,1,60.0000022888184,4|0,0:0|0:0,0:0:0:0:
264,184,113091,2,0,P|243:157|220:139,1,60.0000022888184,0|0,0:0|0:0,0:0:0:0:
62,191,113279,5,8,0:0:0:0:
218,278,113466,1,4,0:0:0:0:
218,97,113654,2,0,P|199:125|187:153,1,60.0000022888184,0|0,0:0|0:0,0:0:0:0:
273,178,113841,2,0,P|267:211|268:241,1,60.0000022888184,0|0,0:0|0:0,0:0:0:0:
388,218,114029,5,4,0:0:0:0:
399,190,114122,1,0,0:0:0:0:
405,160,114216,1,0,0:0:0:0:
403,129,114310,1,0,0:0:0:0:
394,100,114404,2,0,P|386:70|372:43,1,60.0000022888184,0|0,0:0|0:0,0:0:0:0:
272,111,114591,2,0,P|260:157|255:184,1,60.0000022888184,0|0,0:0|0:0,0:0:0:0:
316,293,114779,1,8,0:0:0:0:
184,318,114966,5,4,0:0:0:0:
159,301,115060,1,0,0:0:0:0:
139,271,115154,2,0,P|120:207|135:153,1,120.000004577637,0|4,0:0|0:0,0:0:0:0:
162,134,115435,1,0,0:0:0:0:
162,134,115529,6,0,P|221:140|237:146,1,60.0000022888184,0|0,0:0|0:0,0:0:0:0:
323,251,115716,2,0,P|251:250|232:244,1,60.0000022888184,4|0,0:0|0:0,0:0:0:0:
148,153,115904,2,0,P|207:159|223:165,1,60.0000022888184,0|0,0:0|0:0,0:0:0:0:
309,270,116091,2,0,P|237:269|218:263,1,60.0000022888184,4|0,0:0|0:0,0:0:0:0:
131,175,116279,2,0,P|190:181|206:187,1,60.0000022888184,8|0,0:0|0:0,0:0:0:0:
292,292,116466,2,0,P|220:291|201:285,1,60.0000022888184,4|0,0:0|0:0,0:0:0:0:
78,241,116654,5,0,0:0:0:0:
111,86,116841,1,0,0:0:0:0:
138,72,116935,1,0,0:0:0:0:
167,66,117029,2,0,P|207:64|231:65,1,60.0000022888184,4|0,0:0|0:0,0:0:0:0:
344,158,117216,2,0,P|307:161|267:148,1,60.0000022888184,0|0,0:0|0:0,0:0:0:0:
396,52,117404,2,0,P|424:89|431:114,1,60.0000022888184,4|0,0:0|0:0,0:0:0:0:
443,251,117591,1,0,0:0:0:0:
318,120,117779,5,4,0:0:0:0:
307,239,117966,1,0,0:0:0:0:
209,168,118154,2,0,P|208:127|241:48,1,120.000004577637,4|0,0:0|0:0,0:0:0:0:
342,110,118529,6,0,P|357:151|356:183,1,60.0000022888184,4|0,0:0|0:0,0:0:0:0:
220,283,118716,2,0,P|222:246|230:219,1,60.0000022888184,4|0,0:0|0:0,0:0:0:0:
335,118,118904,2,0,P|349:155|348:184,1,60.0000022888184,4|0,0:0|0:0,0:0:0:0:
226,274,119091,2,0,P|227:241|237:209,1,60.0000022888184,4|0,0:0|0:0,0:0:0:0:
404,283,119279,1,4,0:0:0:0:
404,283,119372,1,4,0:0:0:0:
404,283,119466,1,4,0:0:0:0:
381,83,119654,2,0,P|338:73|267:75,1,100,4|0,0:0|0:0,0:0:0:0:
178,289,120029,5,8,0:0:0:0:
104,60,120404,1,0,0:0:0:0:
341,91,120779,1,0,0:0:0:0:
416,183,120966,2,0,P|419:229|412:263,1,80,8|8,0:0|0:0,0:0:0:0:
309,324,121341,1,0,0:0:0:0:
198,276,121529,5,0,0:0:0:0:
272,47,121904,1,0,0:0:0:0:
447,210,122279,1,8,0:0:0:0:
328,224,122466,2,0,P|278:220|243:204,1,80,8|0,0:0|0:0,0:0:0:0:
186,106,122841,1,0,0:0:0:0:
186,106,122935,1,0,0:0:0:0:
186,106,123029,5,8,0:0:0:0:
255,335,123404,1,0,0:0:0:0:
337,109,123779,1,0,0:0:0:0:
369,224,123966,2,0,P|375:243|390:270,2,40,8|0|8,0:0|0:0|0:0,0:0:0:0:
457,142,124341,1,0,0:0:0:0:
497,255,124529,5,0,0:0:0:0:
257,252,124904,1,0,0:0:0:0:
407,65,125279,6,0,L|418:118,1,40,8|0,0:0|0:0,0:0:0:0:
315,113,125466,2,0,L|326:166,1,40,0|0,0:0|0:0,0:0:0:0:
222,145,125654,2,0,L|233:198,1,40,0|0,0:0|0:0,0:0:0:0:
226,284,125841,1,2,0:0:0:0:
226,284,125935,1,2,0:0:0:0:
226,284,126029,6,0,P|186:253|150:238,1,80,4|0,0:0|0:0,0:0:0:0:
20,320,126404,2,0,P|91:318|123:310,1,80,0|0,0:0|0:0,0:0:0:0:
80,140,126779,1,0,0:0:0:0:
166,222,126966,1,2,0:0:0:0:
236,73,127154,6,0,P|199:54|154:51,1,80,4|0,0:0|0:0,0:0:0:0:
230,195,127529,2,0,P|273:194|313:183,1,80,0|0,0:0|0:0,0:0:0:0:
387,44,127904,1,0,0:0:0:0:
440,194,128091,1,0,0:0:0:0:
314,93,128279,6,0,P|365:108|394:138,1,80,6|0,0:0|0:0,0:0:0:0:
416,282,128654,1,10,0:0:0:0:
416,282,128747,1,2,0:0:0:0:
416,282,128841,2,0,L|403:329,1,40,10|2,0:0|0:0,0:0:0:0:
279,327,129029,6,0,P|273:290|274:238,1,80,4|0,0:0|0:0,0:0:0:0:
384,132,129404,2,0,P|334:107|304:100,1,80,0|0,0:0|0:0,0:0:0:0:
123,172,129779,1,8,0:0:0:0:
233,338,129966,1,2,0:0:0:0:
233,338,130060,1,0,0:0:0:0:
233,338,130154,2,0,P|236:277|232:246,1,80,2|0,0:0|0:0,0:0:0:0:
210,99,130529,5,8,0:0:0:0:
117,233,130716,1,0,0:0:0:0:
50,87,130904,1,0,0:0:0:0:
198,29,131091,5,0,0:0:0:0:
237,38,131185,1,0,0:0:0:0:
274,51,131279,2,0,P|297:62|313:73,1,40,8|0,0:0|0:0,0:0:0:0:
247,224,131466,2,0,P|245:184|251:161,1,40,0|0,0:0|0:0,0:0:0:0:
405,161,131654,1,2,0:0:0:0:
411,200,131747,1,2,0:0:0:0:
405,239,131841,1,2,0:0:0:0:
387,275,131935,1,2,0:0:0:0:
358,305,132029,6,0,P|302:326|254:331,1,80,4|0,0:0|0:0,0:0:0:0:
123,304,132404,1,0,0:0:0:0:
164,108,132591,6,0,P|186:152|190:194,1,80,8|0,0:0|0:0,0:0:0:0:
29,187,132966,1,0,0:0:0:0:
93,40,133154,2,0,P|132:33|154:34,1,40,2|2,0:0|0:0,0:0:0:0:
234,97,133341,2,0,P|267:100|282:99,1,40,2|2,0:0|0:0,0:0:0:0:
426,46,133529,6,0,P|436:93|435:142,1,80,4|0,0:0|0:0,0:0:0:0:
318,233,133904,1,0,0:0:0:0:
196,74,134091,6,0,P|266:64|292:66,1,80,8|0,0:0|0:0,0:0:0:0:
380,185,134466,2,0,L|415:227,1,40,0|0,0:0|0:0,0:0:0:0:
327,330,134654,2,0,L|314:291,1,40,2|2,0:0|0:0,0:0:0:0:
233,206,134841,2,0,L|208:266,1,40,2|2,0:0|0:0,0:0:0:0:
109,245,135029,6,0,P|99:188|102:149,1,80,4|0,0:0|0:0,0:0:0:0:
262,48,135404,1,0,0:0:0:0:
337,275,135591,6,0,P|287:284|256:281,1,80,8|0,0:0|0:0,0:0:0:0:
166,58,135966,1,2,0:0:0:0:
59,228,136154,2,0,P|98:277|126:294,1,80,4|2,0:0|0:0,0:0:0:0:
149,299,136435,1,2,0:0:0:0:
149,299,136529,6,0,P|155:244|167:205,1,80,8|0,0:0|0:0,0:0:0:0:
335,120,136904,1,0,0:0:0:0:
409,304,137091,6,0,P|370:315|331:313,1,80,8|0,0:0|0:0,0:0:0:0:
142,244,137466,2,0,L|160:202,1,40
197,113,137654,1,0,0:0:0:0:
232,108,137747,1,0,0:0:0:0:
266,102,137841,1,0,0:0:0:0:
301,97,137935,1,0,0:0:0:0:
336,91,138029,5,0,0:0:0:0:
351,120,138122,1,0,0:0:0:0:
357,149,138216,1,0,0:0:0:0:
360,179,138310,1,0,0:0:0:0:
358,209,138404,1,0,0:0:0:0:
353,238,138497,1,0,0:0:0:0:
343,267,138591,1,8,0:0:0:0:
330,294,138685,1,0,0:0:0:0:
314,320,138779,6,0,L|267:350,3,40,0|0|0|0,0:0|0:0|0:0|0:0,0:0:0:0:
232,333,139154,2,0,L|183:325,3,40,8|0|0|0,0:0|0:0|0:0|0:0,0:0:0:0:
145,337,139529,5,8,0:0:0:0:
139,307,139622,1,0,0:0:0:0:
136,277,139716,1,0,0:0:0:0:
138,247,139810,1,0,0:0:0:0:
144,218,139904,1,0,0:0:0:0:
152,189,139997,1,0,0:0:0:0:
155,159,140091,1,8,0:0:0:0:
154,129,140185,1,0,0:0:0:0:
149,100,140279,6,0,P|129:75|117:64,3,40,2|2|2|2,0:0|0:0|0:0|0:0,0:0:0:0:
79,48,140654,2,0,P|66:91|66:101,3,40,10|2|2|2,0:0|0:0|0:0|0:0,0:0:0:0:
53,132,141029,6,0,P|47:179|61:235,1,80,4|0,0:0|0:0,0:0:0:0:
80,249,141310,1,0,0:0:0:0:
80,249,141404,1,0,0:0:0:0:
216,331,141591,1,2,0:0:0:0:
216,331,141685,1,2,0:0:0:0:
216,331,141779,6,0,P|231:288|230:241,1,80,4|0,0:0|0:0,0:0:0:0:
224,214,142060,1,0,0:0:0:0:
224,214,142154,1,0,0:0:0:0:
205,55,142341,1,0,0:0:0:0:
205,55,142435,1,0,0:0:0:0:
205,55,142529,6,0,P|248:53|286:58,1,80,4|0,0:0|0:0,0:0:0:0:
323,213,142904,2,0,P|272:213|217:203,1,80,0|0,0:0|0:0,0:0:0:0:
358,97,143279,2,0,P|403:161|412:179,1,80,8|0,0:0|0:0,0:0:0:0:
248,121,143654,2,0,P|266:77|292:45,1,80,0|0,0:0|0:0,0:0:0:0:
465,61,144029,5,4,0:0:0:0:
396,227,144216,1,0,0:0:0:0:
396,227,144310,1,0,0:0:0:0:
396,227,144404,2,0,P|330:238|262:230,1,120.000004577637,8|0,0:0|0:0,0:0:0:0:
170,88,144779,1,0,0:0:0:0:
129,262,144966,1,8,0:0:0:0:
256,134,145154,2,0,P|310:118|384:123,1,120.000004577637,8|0,0:0|0:0,0:0:0:0:
457,279,145529,5,8,0:0:0:0:
476,124,145716,1,0,0:0:0:0:
332,186,145904,1,8,0:0:0:0:
486,201,146091,1,0,0:0:0:0:
374,292,146279,5,8,0:0:0:0:
364,116,146466,1,8,0:0:0:0:
242,211,146654,5,10,0:0:0:0:
257,58,146841,1,10,0:0:0:0:
257,58,146935,1,2,0:0:0:0:
257,58,147029,6,0,P|183:43|123:41,1,120.000004577637,4|0,0:0|0:0,0:0:0:0:
242,211,147404,2,0,P|327:205|367:192,1,120.000004577637,8|0,0:0|0:0,0:0:0:0:
430,28,147779,1,0,0:0:0:0:
491,196,147966,2,0,P|499:260|496:324,2,120.000004577637,8|8|0,0:0|0:0|0:0,0:0:0:0:
360,321,148529,6,0,P|292:324|224:299,1,120.000004577637,8|0,0:0|0:0,0:0:0:0:
318,145,148904,2,0,P|386:141|453:159,1,120.000004577637,8|0,0:0|0:0,0:0:0:0:
292,260,149279,1,8,0:0:0:0:
273,81,149466,1,0,0:0:0:0:
120,178,149654,1,2,0:0:0:0:
113,207,149747,1,2,0:0:0:0:
107,236,149841,1,2,0:0:0:0:
105,266,149935,1,2,0:0:0:0:
104,296,150029,6,0,P|146:335|219:346,1,120.000004577637,4|0,0:0|0:0,0:0:0:0:
235,340,150310,1,0,0:0:0:0:
235,340,150404,2,0,P|288:331|313:333,1,60.0000022888184,8|0,0:0|0:0,0:0:0:0:
258,248,150591,2,0,P|311:248|336:254,1,60.0000022888184,0|0,0:0|0:0,0:0:0:0:
297,160,150779,1,0,0:0:0:0:
426,300,150966,1,8,0:0:0:0:
451,109,151154,2,0,P|411:68|331:51,1,120.000004577637,4|0,0:0|0:0,0:0:0:0:
292,56,151435,1,0,0:0:0:0:
292,56,151529,5,0,0:0:0:0:
244,229,151716,1,0,0:0:0:0:
144,78,151904,1,0,0:0:0:0:
308,149,152091,1,0,0:0:0:0:
171,266,152279,2,0,P|160:183|169:137,1,120.000004577637,12|0,0:0|0:0,0:0:0:0:
295,44,152654,5,10,0:0:0:0:
331,36,152747,1,2,0:0:0:0:
368,39,152841,1,2,0:0:0:0:
403,52,152935,1,2,0:0:0:0:
434,74,153029,2,0,P|450:138|450:207,1,120.000004577637,4|0,0:0|0:0,0:0:0:0:
281,251,153404,2,0,P|314:188|371:153,1,120.000004577637,0|0,0:0|0:0,0:0:0:0:
407,332,153779,5,8,0:0:0:0:
227,341,153966,1,0,0:0:0:0:
227,341,154060,1,0,0:0:0:0:
227,341,154154,2,0,B|152:353|180:304|96:322,1,120.000004577637,4|0,0:0|0:0,0:0:0:0:
68,207,154529,5,10,0:0:0:0:
91,180,154622,1,2,0:0:0:0:
119,160,154716,1,0,0:0:0:0:
152,147,154810,1,0,0:0:0:0:
186,142,154904,2,0,P|227:141|247:143,3,50,2|2|0|0,0:0|0:0|0:0|0:0,0:0:0:0:
268,179,155279,5,10,0:0:0:0:
304,197,155372,1,2,0:0:0:0:
343,200,155466,1,2,0:0:0:0:
381,187,155560,1,2,0:0:0:0:
410,160,155654,2,0,P|423:132|429:114,1,50,2|2,0:0|0:0,0:0:0:0:
328,109,155841,2,0,P|328:77|324:53,1,50,2|2,0:0|0:0,0:0:0:0:
204,46,156029,5,4,0:0:0:0:
109,174,156216,1,0,0:0:0:0:
109,174,156310,1,0,0:0:0:0:
109,174,156404,2,0,P|159:226|222:253,1,120.000004577637,0|8,0:0|0:0,0:0:0:0:
259,262,156685,1,0,0:0:0:0:
259,262,156779,2,0,P|320:265|337:261,1,60.0000022888184,0|0,0:0|0:0,0:0:0:0:
469,166,156966,2,0,P|420:159|393:162,1,60.0000022888184,0|0,0:0|0:0,0:0:0:0:
227,161,157154,2,0,P|246:81|274:42,1,120.000004577637,8|0,0:0|0:0,0:0:0:0:
442,89,157529,5,8,0:0:0:0:
420,267,157716,1,0,0:0:0:0:
420,267,157810,1,0,0:0:0:0:
420,267,157904,2,0,P|350:259|289:270,1,120.000004577637,0|8,0:0|0:0,0:0:0:0:
245,289,158185,1,0,0:0:0:0:
245,289,158279,2,0,P|234:249|228:217,1,60.0000022888184,0|0,0:0|0:0,0:0:0:0:
314,71,158466,2,0,L|326:137,1,60.0000022888184,0|0,0:0|0:0,0:0:0:0:
186,162,158654,6,0,B|178:122|178:122|179:75,1,70.000000667572,2|2,0:0|0:0,0:0:0:0:
341,226,158841,2,0,B|341:266|341:266|331:307,1,70.000000667572,2|2,0:0|0:0,0:0:0:0:
188,339,159029,5,4,0:0:0:0:
194,178,159216,1,0,0:0:0:0:
194,178,159310,1,0,0:0:0:0:
194,178,159404,2,0,P|244:230|259:281,1,120.000004577637,0|8,0:0|0:0,0:0:0:0:
264,334,159685,1,0,0:0:0:0:
264,334,159779,2,0,P|309:314|328:310,1,60.0000022888184,0|0,0:0|0:0,0:0:0:0:
314,221,159966,2,0,P|364:226|389:234,1,60.0000022888184,0|0,0:0|0:0,0:0:0:0:
448,323,160154,6,0,P|465:255|466:194,1,120.000004577637,12|0,0:0|0:0,0:0:0:0:
449,147,160435,1,0,0:0:0:0:
449,147,160529,6,0,P|372:136|307:145,1,120.000004577637,8|0,0:0|0:0,0:0:0:0:
275,164,160810,1,0,0:0:0:0:
275,164,160904,2,0,P|217:165|206:162,1,60.0000022888184,0|0,0:0|0:0,0:0:0:0:
84,40,161091,2,0,P|148:47|157:50,1,60.0000022888184,8|0,0:0|0:0,0:0:0:0:
185,223,161279,2,0,P|188:164|195:148,1,60.0000022888184,0|0,0:0|0:0,0:0:0:0:
266,35,161466,2,0,P|321:55|339:65,1,60.0000022888184,0|0,0:0|0:0,0:0:0:0:
407,181,161654,5,2,0:0:0:0:
392,215,161747,1,2,0:0:0:0:
388,252,161841,1,10,0:0:0:0:
394,289,161935,1,2,0:0:0:0:
411,322,162029,6,0,P|362:312|281:330,1,120.000004577637,4|0,0:0|0:0,0:0:0:0:
239,349,162310,1,0,0:0:0:0:
239,349,162404,2,0,P|234:278|242:209,1,120.000004577637,0|8,0:0|0:0,0:0:0:0:
265,175,162685,1,0,0:0:0:0:
265,175,162779,2,0,P|322:179|353:188,1,60.0000022888184,0|0,0:0|0:0,0:0:0:0:
462,295,162966,2,0,P|388:297|374:295,1,60.0000022888184,0|0,0:0|0:0,0:0:0:0:
221,276,163154,1,12,0:0:0:0:
335,137,163341,5,0,0:0:0:0:
335,137,163435,1,0,0:0:0:0:
335,137,163529,2,0,P|292:108|219:96,1,120.000004577637,8|0,0:0|0:0,0:0:0:0:
165,98,163810,1,0,0:0:0:0:
165,98,163904,2,0,P|169:156|157:230,1,120.000004577637,0|8,0:0|0:0,0:0:0:0:
106,243,164185,1,0,0:0:0:0:
106,243,164279,6,0,L|167:280,1,60.0000022888184,0|0,0:0|0:0,0:0:0:0:
256,342,164466,2,0,L|318:316,1,60.0000022888184,0|0,0:0|0:0,0:0:0:0:
283,200,164654,2,2,L|368:234,1,60.0000022888184
388,112,164841,2,2,L|423:170,1,60.0000022888184,2|2,0:0|0:0,0:0:0:0:
440,313,165029,5,4,0:0:0:0:
239,181,165216,1,0,0:0:0:0:
239,181,165310,1,0,0:0:0:0:
239,181,165404,1,0,0:0:0:0:
445,59,165591,1,4,0:0:0:0:
445,59,165685,1,0,0:0:0:0:
445,59,165779,2,0,P|456:124|447:183,1,120.000004577637,0|0,0:0|0:0,0:0:0:0:
241,299,166154,2,0,P|266:228|296:181,1,120.000004577637,4|0,0:0|0:0,0:0:0:0:
389,288,166529,5,0,0:0:0:0:
368,123,166716,1,0,0:0:0:0:
267,250,166904,5,0,0:0:0:0:
275,120,167091,1,0,0:0:0:0:
162,184,167279,5,8,0:0:0:0:
193,81,167466,1,0,0:0:0:0:
91,117,167654,5,0,0:0:0:0:
142,66,167841,1,0,0:0:0:0:
160,138,168029,6,0,B|186:166|197:171|225:179|278:184|313:181|351:183|383:168|408:147|409:111|389:93|389:93|368:80|316:95|322:157|362:227|362:227,1,480
471,147,171029,2,0,P|482:226|474:305,1,160,0|0,0:0|0:0,0:0:0:0:
316,332,172529,2,0,B|226:303|247:362|153:333,2,160,0|0|0,0:0|0:0|0:0,0:0:0:0:
387,144,175904,6,0,P|345:174|305:283,1,160,0|0,0:0|0:0,0:0:0:0:
424,281,177029,2,0,P|395:241|223:129,1,240,0|0,0:0|0:0,0:0:0:0:
45,107,179279,2,0,P|35:147|33:194,1,80,0|0,0:0|0:0,0:0:0:0:
123,264,180029,6,0,B|199:242|258:321|258:321|322:263|412:300|412:300|370:185|451:194|408:65,1,560
311,138,183029,2,0,B|287:118|199:119|165:165|165:165|116:115|32:115|14:135,1,320,0|0,0:0|0:0,0:0:0:0:
129,295,186029,6,0,P|146:269|155:243,1,50,0|0,0:0|0:0,0:0:0:0:
256,192,186404,12,0,191279,0:0:0:0:
