osu file format v14

[General]
AudioFilename: audio.mp3
AudioLeadIn: 0
PreviewTime: 30835
Countdown: 0
SampleSet: Normal
StackLeniency: 0.2
Mode: 0
LetterboxInBreaks: 0
WidescreenStoryboard: 1

[Editor]
Bookmarks: 3407,17121,30835
DistanceSpacing: 1.1
BeatDivisor: 4
GridSize: 16
TimelineZoom: 8

[Metadata]
Title:ill wait vocaloid remix thing awawaawawa
TitleUnicode:ill wait vocaloid remix thing awawaawawa
Artist:succducc
ArtistUnicode:succducc
Creator:Doguu
Version:professional
Source:
Tags:
BeatmapID:1615973
BeatmapSetID:749166

[Difficulty]
HPDrainRate:8.8
CircleSize:3.5
OverallDifficulty:8.7
ApproachRate:9.6
SliderMultiplier:3.6
SliderTickRate:2

[Events]
//Background and Video events
0,0,"61750_vocaloid_hatsune_miku.jpg",0,0
//Break Periods
//Storyboard Layer 0 (Background)
//Storyboard Layer 1 (Fail)
//Storyboard Layer 2 (Pass)
//Storyboard Layer 3 (Foreground)
//Storyboard Sound Samples

[TimingPoints]
2978,428.571428571429,4,2,0,30,1,0
2978,-333.333333333333,4,2,0,30,0,0
3407,428.571428571429,4,2,0,30,1,0
3407,-333.333333333333,4,2,0,30,0,0
6835,-333.333333333333,4,2,0,40,0,0
9835,-333.333333333333,4,2,0,50,0,0
17121,-250,4,2,0,60,0,0
23978,-166.666666666667,4,2,0,70,0,0
26121,-333.333333333333,4,2,0,50,0,0
30835,-150,4,1,0,50,0,0
31692,-66.6666666666667,4,1,0,50,0,1
34264,-66.6666666666667,4,2,0,30,0,0
34692,-66.6666666666667,4,1,0,50,0,1
35978,-66.6666666666667,4,2,0,30,0,1
36192,-66.6666666666667,4,1,0,50,0,1
36621,-66.6666666666667,4,2,0,30,0,1
36835,-66.6666666666667,4,1,0,50,0,1
37692,-178.571428571429,4,2,0,30,0,0
37835,-119.047619047619,4,2,0,40,0,0
37978,-88.4955752212389,4,2,0,50,0,0
38121,-50,4,2,0,60,0,0
38335,-66.6666666666667,4,1,0,60,0,1
38549,-66.6666666666667,4,1,0,60,0,1
39192,-100,4,1,0,60,0,1
41121,-66.6666666666667,4,1,0,60,0,1
44549,-66.6666666666667,4,1,0,60,0,0
44764,-66.6666666666667,4,2,0,50,0,0
45192,-66.6666666666667,4,1,0,60,0,0
45299,-66.6666666666667,4,1,0,60,0,1
47978,-57.1428571428571,4,1,0,60,0,1
48407,-54.054054054054,4,1,0,60,0,1
48835,-60.6060606060606,4,1,0,60,0,1
49264,-66.6666666666667,4,1,0,60,0,1
49692,-50,4,1,0,60,0,1
50549,-66.6666666666667,4,1,0,60,0,1
51407,-66.6666666666667,4,2,0,85,0,0
52157,-57.1428571428571,4,1,0,60,0,1
52692,-66.6666666666667,4,1,0,60,0,1
53978,-75.187969924812,4,1,0,60,0,1
54835,-88.8888888888889,4,1,0,60,0,1
58264,-200,4,2,0,5,0,0
61264,-1000,4,2,0,30,0,0
61478,-10,4,2,0,30,0,0

[Colours]
Combo1 : 5,89,245
Combo2 : 13,243,255
Combo3 : 249,11,213
Combo4 : 124,255,6
Combo5 : 255,0,77

[HitObjects]
109,103,2978,5,0,0:0:0:0:
90,127,3192,2,0,P|141:110|194:105,1,107.999996704102
422,127,4049,2,0,P|370:110|317:105,1,107.999996704102
403,103,4692,53,0,0:0:0:0:
256,208,4907,2,0,P|250:261|257:315,1,107.999996704102
396,258,5549,2,0,L|344:270,2,53.9999983520508
168,270,6192,5,0,0:0:0:0:
96,157,6407,1,0,0:0:0:0:
117,172,6621,2,0,P|113:119|122:66,1,107.999996704102
389,66,7478,2,0,P|398:119|394:172,1,107.999996704102
344,270,8121,1,0,0:0:0:0:
416,157,8335,1,0,0:0:0:0:
256,334,8764,1,0,0:0:0:0:
256,327,8978,2,0,L|256:263,1,53.9999983520508
121,206,9407,54,0,P|147:201|173:194,1,53.9999983520508
92,194,9835,2,0,P|144:182|193:159,3,107.999996704102
419,190,11549,2,0,P|366:201|318:224,3,107.999996704102
391,178,13264,6,0,P|364:182|338:189,1,53.9999983520508
261,137,13692,2,0,P|251:162|244:188,1,53.9999983520508
163,259,14121,1,0,0:0:0:0:
160,229,14335,2,0,P|196:268|240:299,1,107.999996704102
352,155,14978,54,0,P|334:134|315:115,1,53.9999983520508
266,196,15407,1,0,0:0:0:0:
261,194,15621,1,0,0:0:0:0:
256,192,15835,2,0,P|229:196|203:203,1,53.9999983520508
29,148,16264,2,0,P|55:143|81:136,1,53.9999983520508
315,23,16692,1,0,0:0:0:0:
199,207,16907,1,0,0:0:0:0:
147,73,17121,5,8,0:0:0:0:
115,108,17335,2,0,P|183:87|255:89,1,144
369,81,17978,2,0,P|363:116|351:150,1,72
251,203,18407,2,0,P|256:238|268:272,1,72
183,105,18835,53,0,0:0:0:0:
172,262,19049,1,0,0:0:0:0:
104,164,19264,2,0,P|98:128|86:94,1,72
55,308,19692,2,0,P|123:287|195:289,1,144
426,230,20335,5,0,3:0:0:0:
447,206,20441,1,0,3:0:0:0:
292,193,20549,1,8,3:0:0:0:
211,184,21192,1,0,0:0:0:0:
85,123,21407,54,0,P|118:111|153:103,1,72
292,128,21835,2,0,P|322:146|349:170,1,72
154,103,22264,2,0,P|224:101|294:129,2,144
264,94,23549,1,0,0:0:0:0:
227,195,23764,1,0,0:0:0:0:
417,109,23978,5,10,0:0:0:0:
417,109,24407,1,0,0:0:0:0:
417,109,24835,2,0,P|400:160|394:213,1,107.999996704102
183,226,25264,2,0,P|284:259|361:333,1,215.999993408203
175,70,26121,2,0,P|227:59|276:36,3,107.999996704102
256,192,27621,12,0,30407,0:0:0:0:
366,217,30835,6,0,B|395:231|459:276|405:362|355:374|254:332|254:181,1,360,4|0,0:0|0:0,0:0:0:0:
318,97,31585,5,0,0:0:0:0:
318,97,31639,1,0,0:0:0:0:
318,97,31692,2,0,P|442:146|521:254,2,270.000010299683,8|0|0,0:0|0:0|0:0,0:0:0:0:
117,357,32335,5,0,0:0:0:0:
117,357,32389,1,0,0:0:0:0:
117,357,32442,2,0,P|86:340|54:329,1,67.5000025749208
29,326,32549,2,0,P|161:312|266:229,1,270.000010299683,0|4,0:0|0:0,0:0:0:0:
276,259,32871,2,0,P|325:213|386:184,3,135.000005149842
49,86,33407,2,0,P|63:151|58:218,3,135.000005149842,8|0|0|0,0:0|0:0|0:0|0:0,0:0:0:0:
256,192,33835,12,2,34264,0:0:0:0:
266,258,34692,38,0,P|315:212|376:183,1,135.000005149842,4|0,0:0|0:0,0:0:0:0:
376,183,34907,2,0,P|315:212|266:258,1,135.000005149842,4|0,0:0|0:0,0:0:0:0:
166,332,35121,2,0,P|151:266|156:199,3,135.000005149842,8|0|0|0,0:0|0:0|0:0|0:0,0:0:0:0:
221,84,35549,2,0,P|276:43|339:20,3,135.000005149842
62,193,35978,6,0,P|50:180|40:167,4,33.7500012874604
161,67,36192,6,0,P|148:133|156:200,1,135.000005149842,4|0,0:0|0:0,0:0:0:0:
156,200,36407,2,0,P|148:133|161:67,1,135.000005149842,4|0,0:0|0:0,0:0:0:0:
104,278,36621,38,0,P|98:294|92:309,4,33.7500012874604
304,345,36835,6,0,P|238:334|172:342,4,135.000005149842,8|0|0|0|0,0:0|0:0|0:0|0:0|0:0,0:0:0:0:
30,91,37478,2,0,P|97:98|164:86,1,135.000005149842
62,193,37692,38,0,P|53:208|44:222,1,33.6000004101563,2|0,0:0|0:0,0:0:0:0:
73,238,37835,54,0,P|87:217|99:196,1,50.3999984619141,2|0,0:0|0:0,0:0:0:0:
138,198,37978,6,0,P|126:219|93:253,1,67.8000002069092,2|0,0:0|0:0,0:0:0:0:
121,262,38121,38,0,B|208:170|268:134|384:158|338:335|205:256,1,360,0|4,0:0|0:0,0:0:0:0:
18,174,38549,38,0,B|-50:62|58:-112|361:38|82:303,1,540.000020599366,8|0,0:0|0:0,0:0:0:0:
18,174,39192,2,0,B|-50:62|58:-112|361:38|82:303,1,540.000020599366,4|2,0:0|2:0,0:0:0:0:
388,123,40049,1,4,0:0:0:0:
96,108,40264,6,0,B|-7:187|31:390|367:357|202:10,1,540.000020599366,8|0,0:0|0:0,0:0:0:0:
205,17,41121,6,0,B|270:148|274:303|185:326|77:333|51:144|213:137,1,540.000020599366,4|0,0:0|0:0,0:0:0:0:
406,137,41764,38,0,B|351:252|258:344|70:380|20:166|152:108|272:145,1,540.000020599366,4|0,0:0|0:0,0:0:0:0:
0,292,42407,6,0,P|243:182|508:211,1,540.000020599366,4|0,0:0|0:0,0:0:0:0:
270,36,43049,6,0,B|84:-3|3:161|111:292|268:254|272:2|-14:82,1,540.000020599366,4|4,0:0|0:0,0:0:0:0:
446,191,43692,38,0,B|547:218|535:300|515:408|326:404|281:161|84:350,2,540.000020599366,8|0|0,0:0|0:0|0:0,0:0:0:0:
199,51,44764,53,0,0:0:0:0:
199,51,44817,1,0,0:0:0:0:
199,51,44871,1,0,0:0:0:0:
198,51,44924,2,0,P|232:43|265:41,1,67.5000025749208,0|2,0:0|0:0,0:0:0:0:
243,274,45192,1,4,0:0:0:0:
81,160,45407,6,0,P|184:76|317:61,1,270.000010299683,8|0,0:0|0:0,0:0:0:0:
472,93,45728,1,0,0:0:0:0:
433,7,45835,2,0,P|370:29|303:32,3,135.000005149842,0|0|8|0,0:0|0:0|0:0|0:0,0:0:0:0:
472,93,46264,5,0,0:0:0:0:
88,43,46478,2,0,P|139:86|174:143,1,135.000005149842
190,238,46692,2,0,P|175:105|89:4,1,270.000010299683,0|4,0:0|0:0,0:0:0:0:
349,41,47014,5,0,0:0:0:0:
349,41,47067,1,0,0:0:0:0:
349,41,47121,2,0,P|238:115|190:239,1,270.000010299683,8|0,0:0|0:0,0:0:0:0:
377,120,47549,38,0,P|443:113|509:129,1,135.000005149842
443,366,47764,2,0,P|448:300|433:234,1,135.000005149842
159,158,47978,6,0,P|236:174|301:217,3,157.500001502037,4|0|0|0,0:0|0:0|0:0|0:0,0:0:0:0:
330,31,48407,2,0,P|296:106|293:189,3,166.499999364853
469,195,48835,6,0,P|394:185|322:201,3,148.500001416206,8|0|0|0,0:0|0:0|0:0|0:0,0:0:0:0:
196,0,49264,2,0,P|171:130|76:223,1,270.000010299683,4|8,0:0|0:0,0:0:0:0:
451,273,49692,38,0,P|511:134|360:139,2,360,0|8|0,0:0|0:2|0:0,0:0:0:0:
170,137,50335,1,4,0:0:0:0:
301,346,50549,6,0,P|364:366|432:367,3,135.000005149842,8|0|0|0,0:0|0:0|0:0|0:0,0:0:0:0:
315,377,50978,2,0,P|257:343|165:157,1,270.000010299683,0|4,0:0|0:0,0:0:0:0:
436,45,51407,37,2,0:0:0:0:
256,128,51621,1,0,0:0:0:0:
192,260,51835,1,0,0:0:0:0:
436,45,52049,38,0,P|441:113|426:178,1,135.000005149842,4|0,0:0|0:0,0:0:0:0:
324,318,52264,2,0,P|158:256|-14:294,1,315.000003004074,8|0,0:0|0:0,0:0:0:0:
247,56,52692,38,0,B|386:-3|457:138|423:256|164:276|44:154|44:154|-58:37|95:-30|155:23|186:137|33:320,1,1080.00004119873,4|0,0:0|0:0,0:0:0:0:
384,97,53764,5,4,0:0:0:0:
220,225,53978,2,0,B|299:386|535:300|387:60|169:95|37:241|-2:413,1,718.199970411073,8|0,0:0|0:0,0:0:0:0:
149,146,54835,6,0,B|164:-35|66:-63|-36:-9|-66:142|195:223|389:-11,1,607.500023174287,4|4,0:0|0:0,0:0:0:0:
0,201,55692,1,8,0:0:0:0:
256,192,56121,12,4,57192,0:0:0:0:
256,192,57407,12,0,58264,0:0:0:0:
