osu file format v14

[General]
AudioFilename: audio.mp3
AudioLeadIn: 0
PreviewTime: 30835
Countdown: 0
SampleSet: Soft
StackLeniency: 0.4
Mode: 0
LetterboxInBreaks: 0
WidescreenStoryboard: 1

[Editor]
Bookmarks: 3407,17121,30835
DistanceSpacing: 1
BeatDivisor: 4
GridSize: 32
TimelineZoom: 3.399999

[Metadata]
Title:ill wait vocaloid remix thing awawaawawa
TitleUnicode:ill wait vocaloid remix thing awawaawawa
Artist:succducc
ArtistUnicode:succducc
Creator:Doguu
Version:amateur
Source:
Tags:
BeatmapID:1582195
BeatmapSetID:749166

[Difficulty]
HPDrainRate:2.8
CircleSize:3.3
OverallDifficulty:6.4
ApproachRate:7.9
SliderMultiplier:2.4
SliderTickRate:1

[Events]
//Background and Video events
0,0,"61750_vocaloid_hatsune_miku.jpg",0,0
//Break Periods
//Storyboard Layer 0 (Background)
//Storyboard Layer 1 (Fail)
//Storyboard Layer 2 (Pass)
//Storyboard Layer 3 (Foreground)
//Storyboard Sound Samples

[TimingPoints]
2978,428.571428571429,4,2,0,50,1,0
2978,-333.333333333333,4,2,0,50,0,0
3407,428.571428571429,4,2,0,50,1,0
3407,-333.333333333333,4,2,0,50,0,0
6835,-343.642611683849,4,2,0,60,0,0
10264,-250,4,2,0,70,0,0
13692,-222.222222222222,4,2,0,80,0,0
17121,-166.666666666667,4,3,0,85,0,0
20549,-167.785234899329,4,3,0,85,0,0
23978,-133.333333333333,4,3,0,85,0,0
30407,-133.333333333333,4,2,0,50,0,0
30835,-400,4,1,0,65,0,0
31692,-100,4,1,0,65,0,1
37692,-100,4,1,0,65,0,0
38442,-200,4,1,0,65,0,1
44549,-400,4,1,0,65,0,0
45299,-100,4,1,0,65,0,1
49692,-150,4,1,0,65,0,1
51407,-400,4,1,0,65,0,0
52157,-100,4,1,0,65,0,1
58264,-1000,4,2,0,5,0,0

[Colours]
Combo1 : 5,89,245
Combo2 : 13,243,255
Combo3 : 249,11,213
Combo4 : 124,255,6
Combo5 : 255,0,77

[HitObjects]
154,96,3407,6,0,P|256:64|357:96,1,215.999993408203,2|0,0:0|0:0,0:0:0:0:
358,288,5121,2,0,P|256:320|155:288,1,215.999993408203,2|0,0:0|0:0,0:0:0:0:
128,121,6835,54,0,B|256:65|256:65|384:121,1,279.360002472363,2|2,0:0|0:0,0:0:0:0:
256,192,9407,1,2,0:0:0:0:
64,192,10264,6,0,P|100:161|144:141,1,96
228,186,11121,2,0,P|183:169|144:141,1,96
142,47,11978,2,0,P|150:94|144:141,1,96
64,192,12835,1,0,0:0:0:0:
147,236,13264,53,0,0:0:0:0:
226,186,13692,2,0,L|262:287,1,107.999996704102
338,210,14549,2,0,L|301:108,1,107.999996704102
376,30,15407,2,0,L|413:132,1,107.999996704102
444,236,16264,1,0,0:0:0:0:
64,160,17121,6,0,B|128:128|128:128|192:160,3,143.999995605469,4|0|0|0,0:0|0:0|0:0|0:0,0:0:0:0:
320,224,18835,2,0,B|384:256|384:256|448:224,3,143.999995605469
448,64,20549,54,0,B|320:128|320:128|192:64|192:64|64:128,1,429.120006024024,4|0,0:0|0:0,0:0:0:0:
192,192,22264,2,0,P|241:247|255:321,2,143.040002008008
64,127,23549,1,0,0:0:0:0:
274,87,23978,6,0,P|362:99|422:164,1,180.000006866455,4|0,0:0|0:0,0:0:0:0:
179,175,24835,2,0,P|146:92|172:8,1,180.000006866455
303,214,25692,2,0,P|248:283|162:302,1,180.000006866455,4|0,0:0|0:0,0:0:0:0:
179,175,26549,1,0,0:0:0:0:
274,87,26978,1,0,0:0:0:0:
303,214,27407,54,0,L|323:301,3,90.0000034332277,4|0|0|0,0:0|0:0|0:0|0:0,0:0:0:0:
179,175,28264,2,0,L|199:262,3,90.0000034332277,4|0|0|0,0:0|0:0|0:0|0:0,0:0:0:0:
256,192,29121,12,4,30407,0:0:0:0:
147,195,30835,22,0,P|158:222|163:252,2,60,4|0|8,0:0|0:0|0:0,0:0:0:0:
77,101,31907,6,0,P|134:83|193:87,1,120
291,155,32335,1,0,0:0:0:0:
399,105,32549,5,0,0:0:0:0:
388,223,32764,2,0,P|369:279|331:325,2,120,4|0|0,0:0|0:0|0:0,0:0:0:0:
291,155,33407,38,0,P|251:110|231:54,2,120,8|0|0,0:0|0:0|0:0,0:0:0:0:
57,216,34692,5,4,0:0:0:0:
110,320,34907,1,4,0:0:0:0:
220,363,35121,6,0,P|331:325|388:222,2,240,8|0|0,0:0|0:0|0:0,0:0:0:0:
110,320,36192,37,4,0:0:0:0:
57,216,36407,1,4,0:0:0:0:
87,103,36621,5,0,0:0:0:0:
91,107,36728,1,0,0:0:0:0:
95,111,36835,1,8,0:0:0:0:
168,190,37049,2,0,P|217:223|275:236,2,120
182,306,37692,1,4,0:0:0:0:
311,182,38335,5,4,0:0:0:0:
398,104,38549,2,0,P|421:158|423:217,1,120,8|0,0:0|0:0,0:0:0:0:
313,350,39192,38,0,P|386:300|423:219,1,180,4|2,0:0|0:0,0:0:0:0:
255,189,40049,5,4,0:0:0:0:
313,350,40264,2,0,P|386:300|423:219,1,180,8|0,0:0|0:0,0:0:0:0:
227,333,41121,6,0,P|286:325|338:296,1,120,4|0,0:0|0:0,0:0:0:0:
154,287,41764,38,0,P|212:300|271:292,1,120,4|0,0:0|0:0,0:0:0:0:
102,217,42407,6,0,P|151:250|209:264,1,120,4|0,0:0|0:0,0:0:0:0:
78,133,43049,6,0,P|111:182|161:215,1,120,4|4,0:0|0:0,0:0:0:0:
71,15,43692,1,8,0:0:0:0:
278,220,44549,6,0,L|304:206,2,30,4|0|0,0:0|0:0|0:0,0:0:0:0:
161,215,45192,21,4,0:0:0:0:
216,318,45407,2,0,P|333:324|424:250,1,240,8|0,0:0|0:0,0:0:0:0:
225,54,46049,5,8,0:0:0:0:
127,118,46264,2,0,P|133:235|216:318,1,240
424,250,46907,5,4,0:0:0:0:
333,324,47121,2,0,P|274:332|216:318,1,120,8|0,0:0|0:0,0:0:0:0:
99,312,47549,2,0,P|158:304|216:318,1,120
333,324,47978,38,0,P|385:295|424:250,3,120,4|0|0|0,0:0|0:0|0:0|0:0,0:0:0:0:
333,324,48835,2,0,P|215:317|133:234,1,240,8|4,0:0|0:0,0:0:0:0:
354,60,49478,5,8,0:0:0:0:
443,134,49692,2,0,L|430:213,2,80,0|8|0,0:0|0:2|0:0,0:0:0:0:
181,114,50335,5,4,0:0:0:0:
254,24,50550,2,0,P|369:42|443:133,1,240,8|4,0:0|0:0,0:0:0:0:
296,133,51407,6,0,L|266:128,2,30,6|0|0,0:0|3:0|3:0,0:0:0:0:
181,114,52049,21,4,0:0:0:0:
222,223,52264,2,0,P|211:281|180:332,1,120,8|0,0:0|0:0,0:0:0:0:
28,272,52692,6,0,B|-107:226|-62:90|68:52|150:193|73:226|179:332,1,480,4|0,0:0|0:0,0:0:0:0:
125,250,53764,5,4,0:0:0:0:
180,333,53978,2,0,B|309:393|371:264|304:146|147:191|179:268|29:271,2,480,8|4|8,0:0|0:0|0:0,0:0:0:0:
256,192,56121,12,0,58264,0:0:0:0:
