osu file format v14

[General]
AudioFilename: audiofutsuu170BPM.mp3
AudioLeadIn: 0
PreviewTime: -1
Countdown: 1
SampleSet: None
StackLeniency: 0.7
Mode: 1
LetterboxInBreaks: 0
WidescreenStoryboard: 0

[Editor]
DistanceSpacing: 1.5
BeatDivisor: 12
GridSize: 4
TimelineZoom: 3.999998

[Metadata]
Title:i really like u
TitleUnicode:i really like u
Artist:succducc
ArtistUnicode:succducc
Creator:Triumph
Version:futsuu170BPM
Source:
Tags:
BeatmapID:1745951
BeatmapSetID:804929

[Difficulty]
HPDrainRate:9
CircleSize:2
OverallDifficulty:6.5
ApproachRate:7
SliderMultiplier:1.4
SliderTickRate:1

[Events]
//Background and Video events
0,0,"maxresdefault (1).jpg",0,0
//Break Periods
//Storyboard Layer 0 (Background)
//Storyboard Layer 1 (Fail)
//Storyboard Layer 2 (Pass)
//Storyboard Layer 3 (Foreground)
//Storyboard Sound Samples

[TimingPoints]
0,352.9412,4,1,0,100,1,0
0,-45.45454,4,1,0,100,0,0
28235,-45.45454,4,1,0,100,0,1
31117,-45.45454,4,1,0,100,0,0
34058,-45.45454,4,1,0,100,0,1
36705,-45.45454,4,1,0,100,0,0
45176,-45.45454,4,1,0,100,0,1
47999,-45.45454,4,1,0,100,0,0

[HitObjects]
416,283,4764,5,8,0:0:0:0:
416,177,4940,1,8,0:0:0:0:
392,279,5117,1,8,0:0:0:0:
402,174,5293,1,8,0:0:0:0:
416,278,5470,1,8,0:0:0:0:
430,381,5646,1,0,0:0:0:0:
449,331,5735,1,0,0:0:0:0:
460,280,5823,1,8,0:0:0:0:
334,194,5999,1,0,0:0:0:0:
363,175,6058,1,0,0:0:0:0:
395,161,6117,1,0,0:0:0:0:
427,147,6176,1,8,0:0:0:0:
459,247,6352,1,8,0:0:0:0:
451,231,6381,1,8,0:0:0:0:
433,316,6528,1,0,0:0:0:0:
390,219,6705,1,8,0:0:0:0:
382,203,6735,1,8,0:0:0:0:
375,188,6764,1,8,0:0:0:0:
375,169,6793,1,0,0:0:0:0:
433,316,6881,1,0,0:0:0:0:
433,316,6970,1,0,0:0:0:0:
440,264,7058,1,8,0:0:0:0:
459,265,7235,1,8,0:0:0:0:
440,264,7411,1,0,0:0:0:0:
446,247,7440,1,0,0:0:0:0:
439,241,7455,1,8,0:0:0:0:
428,233,7477,1,8,0:0:0:0:
440,264,7499,1,0,0:0:0:0:
363,276,7588,1,8,0:0:0:0:
464,300,7764,1,8,0:0:0:0:
437,313,7940,1,8,0:0:0:0:
428,233,8117,1,0,0:0:0:0:
440,210,8161,1,0,0:0:0:0:
440,210,8205,1,0,0:0:0:0:
440,210,8249,1,0,0:0:0:0:
440,210,8293,1,8,0:0:0:0:
440,210,8337,1,8,0:0:0:0:
440,210,8381,1,8,0:0:0:0:
440,210,8426,1,8,0:0:0:0:
437,313,8470,1,0,0:0:0:0:
442,296,8499,1,0,0:0:0:0:
447,279,8528,1,8,0:0:0:0:
452,262,8558,1,8,0:0:0:0:
458,245,8588,1,0,0:0:0:0:
464,228,8617,1,0,0:0:0:0:
437,313,8646,1,8,0:0:0:0:
437,313,8735,1,0,0:0:0:0:
437,313,8823,1,8,0:0:0:0:
442,296,8999,1,0,0:0:0:0:
452,262,9176,1,8,0:0:0:0:
442,252,9198,1,8,0:0:0:0:
350,241,9352,1,0,0:0:0:0:
298,235,9440,1,8,0:0:0:0:
252,304,9528,1,0,0:0:0:0:
266,294,9558,1,0,0:0:0:0:
280,284,9588,1,0,0:0:0:0:
295,274,9617,1,8,0:0:0:0:
309,265,9646,1,8,0:0:0:0:
324,255,9676,1,8,0:0:0:0:
354,278,9705,1,0,0:0:0:0:
425,354,9881,1,0,0:0:0:0:
432,319,9940,1,0,0:0:0:0:
439,285,9999,1,0,0:0:0:0:
447,250,10058,1,0,0:0:0:0:
400,225,10146,1,0,0:0:0:0:
353,200,10235,1,0,0:0:0:0:
300,153,10352,1,0,0:0:0:0:
247,106,10470,1,0,0:0:0:0:
315,120,10588,1,8,0:0:0:0:
326,126,10609,1,8,0:0:0:0:
337,132,10632,1,8,0:0:0:0:
384,194,10764,1,0,0:0:0:0:
415,236,10852,1,0,0:0:0:0:
448,277,10940,1,8,0:0:0:0:
458,253,10984,1,8,0:0:0:0:
469,229,11028,1,8,0:0:0:0:
469,229,11072,1,0,0:0:0:0:
445,304,11293,1,8,0:0:0:0:
458,281,11337,1,8,0:0:0:0:
474,260,11381,1,0,0:0:0:0:
410,204,11470,1,8,0:0:0:0:
439,284,11646,1,0,0:0:0:0:
439,284,11735,1,0,0:0:0:0:
439,284,11823,1,8,0:0:0:0:
439,284,11999,1,8,0:0:0:0:
439,284,12176,1,0,0:0:0:0:
439,284,12352,1,0,0:0:0:0:
444,267,12381,1,0,0:0:0:0:
449,250,12411,1,0,0:0:0:0:
453,232,12440,1,0,0:0:0:0:
439,284,12528,1,8,0:0:0:0:
453,232,12705,1,0,0:0:0:0:
442,208,12749,1,0,0:0:0:0:
442,208,12793,1,0,0:0:0:0:
442,208,12837,1,8,0:0:0:0:
442,208,12881,1,8,0:0:0:0:
400,196,12940,1,8,0:0:0:0:
365,189,12999,1,8,0:0:0:0:
365,191,13058,1,0,0:0:0:0:
436,267,13235,1,8,0:0:0:0:
420,258,13264,1,0,0:0:0:0:
434,344,13411,1,8,0:0:0:0:
430,331,13433,1,8,0:0:0:0:
426,318,13455,1,0,0:0:0:0:
420,258,13588,1,8,0:0:0:0:
420,258,13764,1,0,0:0:0:0:
456,219,13808,1,0,0:0:0:0:
456,219,13852,1,0,0:0:0:0:
474,201,13896,1,0,0:0:0:0:
420,258,13940,1,8,0:0:0:0:
463,286,14028,1,8,0:0:0:0:
506,317,14117,1,0,0:0:0:0:
315,229,14470,1,8,0:0:0:0:
331,224,14499,1,8,0:0:0:0:
347,219,14528,1,0,0:0:0:0:
397,266,14646,1,8,0:0:0:0:
486,321,14823,1,8,0:0:0:0:
487,308,14844,1,8,0:0:0:0:
395,304,14999,1,0,0:0:0:0:
342,301,15088,1,8,0:0:0:0:
290,299,15176,1,0,0:0:0:0:
395,298,15352,1,8,0:0:0:0:
404,283,15381,1,8,0:0:0:0:
413,268,15411,1,0,0:0:0:0:
422,253,15440,1,0,0:0:0:0:
432,238,15470,1,8,0:0:0:0:
441,223,15499,1,8,0:0:0:0:
499,300,15528,1,0,0:0:0:0:
494,265,15588,1,0,0:0:0:0:
490,230,15646,1,0,0:0:0:0:
485,195,15705,1,8,0:0:0:0:
382,213,15881,1,8,0:0:0:0:
394,207,15904,1,8,0:0:0:0:
406,201,15926,1,0,0:0:0:0:
417,196,15948,1,0,0:0:0:0:
429,190,15970,1,8,0:0:0:0:
441,185,15992,1,8,0:0:0:0:
441,185,16014,1,0,0:0:0:0:
442,211,16058,1,8,0:0:0:0:
416,312,16235,1,0,0:0:0:0:
398,292,16264,1,8,0:0:0:0:
446,230,16411,1,0,0:0:0:0:
421,222,16455,1,0,0:0:0:0:
396,214,16499,1,0,0:0:0:0:
370,205,16544,1,0,0:0:0:0:
390,188,16588,1,8,0:0:0:0:
285,186,16764,1,0,0:0:0:0:
314,84,16940,1,8,0:0:0:0:
331,133,17028,1,8,0:0:0:0:
418,264,17117,1,0,0:0:0:0:
418,264,17205,1,0,0:0:0:0:
418,264,17293,1,8,0:0:0:0:
437,234,17352,1,8,0:0:0:0:
457,206,17411,1,8,0:0:0:0:
390,365,17470,1,0,0:0:0:0:
412,317,17558,1,0,0:0:0:0:
394,260,17646,1,8,0:0:0:0:
409,238,17676,1,8,0:0:0:0:
439,195,17705,1,0,0:0:0:0:
424,216,17735,1,0,0:0:0:0:
377,192,17823,1,8,0:0:0:0:
412,317,17911,1,8,0:0:0:0:
374,280,17999,1,0,0:0:0:0:
379,263,18021,1,0,0:0:0:0:
330,250,18088,1,8,0:0:0:0:
281,230,18176,1,8,0:0:0:0:
232,210,18264,1,0,0:0:0:0:
431,275,18352,1,8,0:0:0:0:
436,258,18381,1,8,0:0:0:0:
442,241,18411,1,0,0:0:0:0:
448,224,18440,1,0,0:0:0:0:
454,207,18470,1,8,0:0:0:0:
460,191,18499,1,8,0:0:0:0:
466,174,18528,1,0,0:0:0:0:
472,157,18558,1,0,0:0:0:0:
479,141,18588,1,8,0:0:0:0:
479,141,18617,1,8,0:0:0:0:
479,141,18646,1,0,0:0:0:0:
479,141,18676,1,0,0:0:0:0:
480,295,18705,1,8,0:0:0:0:
445,255,18793,1,8,0:0:0:0:
393,247,18881,1,0,0:0:0:0:
472,157,18940,1,0,0:0:0:0:
472,157,18999,1,0,0:0:0:0:
472,157,19058,1,8,0:0:0:0:
486,106,19146,1,8,0:0:0:0:
182,243,19235,1,0,0:0:0:0:
291,277,19323,1,0,0:0:0:0:
400,311,19411,1,8,0:0:0:0:
439,202,19499,1,8,0:0:0:0:
501,153,19588,1,0,0:0:0:0:
463,162,19617,1,0,0:0:0:0:
426,171,19646,1,0,0:0:0:0:
452,199,19676,1,0,0:0:0:0:
428,298,19764,1,8,0:0:0:0:
384,258,19808,1,8,0:0:0:0:
341,218,19852,1,8,0:0:0:0:
299,178,19896,1,8,0:0:0:0:
234,170,19940,1,0,0:0:0:0:
428,298,20028,1,0,0:0:0:0:
475,191,20117,1,8,0:0:0:0:
399,178,20176,1,8,0:0:0:0:
322,165,20235,1,0,0:0:0:0:
341,378,20293,1,0,0:0:0:0:
407,283,20381,1,0,0:0:0:0:
342,379,20470,1,8,0:0:0:0:
364,348,20492,1,8,0:0:0:0:
309,280,20558,1,0,0:0:0:0:
412,229,20646,1,0,0:0:0:0:
412,229,20735,1,0,0:0:0:0:
412,229,20823,1,8,0:0:0:0:
402,153,20881,1,8,0:0:0:0:
404,230,20940,1,8,0:0:0:0:
404,230,20999,1,0,0:0:0:0:
351,333,21088,1,0,0:0:0:0:
403,230,21176,1,8,0:0:0:0:
365,221,21205,1,0,0:0:0:0:
327,212,21235,1,0,0:0:0:0:
360,194,21264,1,8,0:0:0:0:
464,144,21352,1,0,0:0:0:0:
360,194,21440,1,8,0:0:0:0:
421,309,21528,1,0,0:0:0:0:
428,251,21572,1,0,0:0:0:0:
404,230,21617,1,8,0:0:0:0:
403,230,21661,1,8,0:0:0:0:
403,230,21705,1,0,0:0:0:0:
403,230,21749,1,0,0:0:0:0:
403,230,21793,1,0,0:0:0:0:
404,230,21837,1,0,0:0:0:0:
404,230,21881,1,8,0:0:0:0:
505,172,21970,1,0,0:0:0:0:
421,309,22058,1,8,0:0:0:0:
443,234,22117,1,8,0:0:0:0:
464,160,22176,1,8,0:0:0:0:
489,86,22235,1,0,0:0:0:0:
416,175,22323,1,0,0:0:0:0:
404,230,22411,1,8,0:0:0:0:
410,201,22433,1,8,0:0:0:0:
410,201,22499,1,0,0:0:0:0:
410,201,22521,1,0,0:0:0:0:
410,201,22588,1,8,0:0:0:0:
439,130,22646,1,8,0:0:0:0:
469,58,22705,1,8,0:0:0:0:
443,237,22764,1,0,0:0:0:0:
414,124,22852,1,0,0:0:0:0:
414,124,22940,1,8,0:0:0:0:
463,154,22984,1,8,0:0:0:0:
502,138,23028,1,0,0:0:0:0:
463,154,23117,1,8,0:0:0:0:
463,154,23205,1,0,0:0:0:0:
463,154,23293,1,0,0:0:0:0:
413,94,23352,1,0,0:0:0:0:
374,28,23411,1,0,0:0:0:0:
352,357,23470,1,8,0:0:0:0:
414,124,23558,1,0,0:0:0:0:
359,225,23646,1,8,0:0:0:0:
359,225,23668,1,8,0:0:0:0:
359,225,23690,1,0,0:0:0:0:
359,225,23712,1,0,0:0:0:0:
359,225,23735,1,8,0:0:0:0:
359,225,23756,1,8,0:0:0:0:
434,182,23823,1,0,0:0:0:0:
486,130,23911,1,0,0:0:0:0:
418,298,23999,1,8,0:0:0:0:
437,242,24044,1,8,0:0:0:0:
456,187,24088,1,8,0:0:0:0:
475,133,24132,1,8,0:0:0:0:
475,133,24176,1,8,0:0:0:0:
507,23,24220,1,8,0:0:0:0:
163,62,24264,1,0,0:0:0:0:
29,46,24352,1,8,0:0:0:0:
107,130,24440,1,8,0:0:0:0:
212,177,24528,1,0,0:0:0:0:
250,177,24558,1,0,0:0:0:0:
288,177,24588,1,0,0:0:0:0:
326,177,24617,1,0,0:0:0:0:
429,227,24705,1,8,0:0:0:0:
432,342,24793,1,0,0:0:0:0:
431,363,24881,1,8,0:0:0:0:
426,334,24904,1,8,0:0:0:0:
413,287,24940,1,8,0:0:0:0:
387,214,24999,1,0,0:0:0:0:
335,152,25058,1,0,0:0:0:0:
411,237,25146,1,8,0:0:0:0:
387,214,25235,1,0,0:0:0:0:
350,205,25264,1,0,0:0:0:0:
312,196,25293,1,8,0:0:0:0:
274,187,25323,1,8,0:0:0:0:
274,187,25352,1,0,0:0:0:0:
274,187,25381,1,0,0:0:0:0:
274,187,25411,1,8,0:0:0:0:
351,183,25470,1,8,0:0:0:0:
427,191,25528,1,8,0:0:0:0:
504,199,25588,1,8,0:0:0:0:
438,238,25646,1,0,0:0:0:0:
360,241,25705,1,0,0:0:0:0:
310,182,25764,1,8,0:0:0:0:
347,172,25793,1,8,0:0:0:0:
384,163,25823,1,0,0:0:0:0:
421,154,25852,1,0,0:0:0:0:
457,146,25881,1,8,0:0:0:0:
457,146,25911,1,8,0:0:0:0:
457,146,25940,1,0,0:0:0:0:
396,192,25999,1,0,0:0:0:0:
396,192,26058,1,0,0:0:0:0:
396,192,26117,1,0,0:0:0:0:
396,192,26176,1,8,0:0:0:0:
396,192,26235,1,8,0:0:0:0:
396,192,26293,1,0,0:0:0:0:
360,241,26323,1,0,0:0:0:0:
360,241,26352,1,8,0:0:0:0:
360,241,26381,1,8,0:0:0:0:
334,211,26411,1,0,0:0:0:0:
309,181,26440,1,0,0:0:0:0:
284,151,26470,1,8,0:0:0:0:
390,195,26558,1,0,0:0:0:0:
493,245,26646,1,8,0:0:0:0:
360,241,26668,1,8,0:0:0:0:
360,241,26690,1,0,0:0:0:0:
360,241,26712,1,0,0:0:0:0:
360,241,26735,1,8,0:0:0:0:
360,241,26756,1,8,0:0:0:0:
360,241,26779,1,0,0:0:0:0:
360,241,26800,1,0,0:0:0:0:
360,241,26823,1,8,0:0:0:0:
314,135,26911,1,0,0:0:0:0:
409,198,26999,1,0,0:0:0:0:
311,134,27088,1,0,0:0:0:0:
439,328,27176,1,8,0:0:0:0:
409,98,27352,1,0,0:0:0:0:
446,141,27396,1,8,0:0:0:0:
446,141,27440,1,8,0:0:0:0:
446,141,27484,1,8,0:0:0:0:
439,328,27528,1,0,0:0:0:0:
337,119,27705,1,0,0:0:0:0:
450,319,27881,1,8,0:0:0:0:
463,292,27904,1,8,0:0:0:0:
476,266,27926,1,8,0:0:0:0:
306,300,28058,1,0,0:0:0:0:
337,119,28235,1,0,0:0:0:0:
385,149,28279,1,0,0:0:0:0:
434,179,28323,1,0,0:0:0:0:
480,212,28367,1,0,0:0:0:0:
489,110,28411,1,8,0:0:0:0:
463,161,28455,1,8,0:0:0:0:
489,109,28499,1,8,0:0:0:0:
463,161,28544,1,8,0:0:0:0:
311,256,28588,1,0,0:0:0:0:
293,233,28609,1,0,0:0:0:0:
319,219,28632,1,0,0:0:0:0:
370,192,28676,1,8,0:0:0:0:
421,166,28720,1,0,0:0:0:0:
489,110,28764,1,8,0:0:0:0:
464,125,28808,1,8,0:0:0:0:
464,125,28852,1,0,0:0:0:0:
464,125,28896,1,8,0:0:0:0:
441,307,28940,1,0,0:0:0:0:
391,96,29117,1,8,0:0:0:0:
390,124,29139,1,8,0:0:0:0:
389,153,29161,1,8,0:0:0:0:
441,307,29293,1,0,0:0:0:0:
441,307,29316,1,0,0:0:0:0:
441,307,29337,1,8,0:0:0:0:
441,307,29470,1,8,0:0:0:0:
417,288,29492,1,8,0:0:0:0:
417,288,29514,1,0,0:0:0:0:
264,206,29646,1,0,0:0:0:0:
289,219,29668,1,8,0:0:0:0:
314,233,29690,1,8,0:0:0:0:
417,288,29823,1,8,0:0:0:0:
417,288,29844,1,0,0:0:0:0:
417,288,29867,1,0,0:0:0:0:
441,307,29999,1,8,0:0:0:0:
441,307,30021,1,8,0:0:0:0:
441,307,30044,1,8,0:0:0:0:
441,307,30176,1,0,0:0:0:0:
441,307,30198,1,0,0:0:0:0:
441,307,30220,1,0,0:0:0:0:
432,329,30352,1,8,0:0:0:0:
448,351,30374,1,8,0:0:0:0:
432,329,30396,1,0,0:0:0:0:
399,159,30528,1,0,0:0:0:0:
404,187,30551,1,8,0:0:0:0:
409,214,30572,1,8,0:0:0:0:
339,373,30705,1,0,0:0:0:0:
371,303,30764,1,0,0:0:0:0:
406,234,30823,1,0,0:0:0:0:
441,166,30881,1,8,0:0:0:0:
455,130,30911,1,8,0:0:0:0:
455,130,30940,1,0,0:0:0:0:
455,130,30970,1,0,0:0:0:0:
455,130,30999,1,8,0:0:0:0:
455,130,31028,1,8,0:0:0:0:
455,130,31058,1,0,0:0:0:0:
450,159,31080,1,0,0:0:0:0:
348,335,31235,1,8,0:0:0:0:
406,234,31264,1,8,0:0:0:0:
363,210,31293,1,8,0:0:0:0:
330,191,31323,1,8,0:0:0:0:
412,270,31411,1,0,0:0:0:0:
412,270,31440,1,0,0:0:0:0:
219,278,31588,1,8,0:0:0:0:
291,255,31646,1,8,0:0:0:0:
364,231,31705,1,8,0:0:0:0:
435,202,31764,1,0,0:0:0:0:
396,197,31793,1,0,0:0:0:0:
357,193,31823,1,8,0:0:0:0:
318,189,31852,1,8,0:0:0:0:
318,189,31881,1,0,0:0:0:0:
318,189,31911,1,0,0:0:0:0:
382,156,31940,1,8,0:0:0:0:
325,133,32028,1,0,0:0:0:0:
383,129,32117,1,0,0:0:0:0:
398,164,32205,1,0,0:0:0:0:
319,268,32293,1,8,0:0:0:0:
319,268,32323,1,8,0:0:0:0:
319,268,32352,1,0,0:0:0:0:
319,268,32381,1,0,0:0:0:0:
319,268,32411,1,8,0:0:0:0:
319,268,32440,1,8,0:0:0:0:
319,268,32470,1,0,0:0:0:0:
448,184,32528,1,8,0:0:0:0:
448,184,32588,1,8,0:0:0:0:
319,268,32646,1,0,0:0:0:0:
390,176,32735,1,0,0:0:0:0:
448,184,32823,1,0,0:0:0:0:
448,184,32911,1,0,0:0:0:0:
388,282,32999,1,8,0:0:0:0:
384,243,33021,1,8,0:0:0:0:
301,215,33088,1,0,0:0:0:0:
394,148,33176,1,8,0:0:0:0:
374,169,33198,1,8,0:0:0:0:
459,178,33264,1,0,0:0:0:0:
448,184,33352,1,8,0:0:0:0:
448,184,33411,1,8,0:0:0:0:
448,184,33470,1,8,0:0:0:0:
448,184,33528,1,0,0:0:0:0:
500,185,33705,1,8,0:0:0:0:
500,185,33749,1,0,0:0:0:0:
500,185,33793,1,8,0:0:0:0:
500,185,33837,1,0,0:0:0:0:
500,185,33881,1,8,0:0:0:0:
268,183,34058,1,0,0:0:0:0:
302,199,34088,1,0,0:0:0:0:
336,216,34117,1,0,0:0:0:0:
369,232,34146,1,0,0:0:0:0:
403,249,34176,1,8,0:0:0:0:
447,312,34235,1,0,0:0:0:0:
499,213,34411,1,8,0:0:0:0:
499,213,34433,1,8,0:0:0:0:
499,213,34455,1,8,0:0:0:0:
393,351,34588,1,0,0:0:0:0:
377,374,34609,1,0,0:0:0:0:
394,350,34632,1,8,0:0:0:0:
503,216,34764,1,8,0:0:0:0:
484,238,34786,1,8,0:0:0:0:
465,260,34808,1,0,0:0:0:0:
446,353,34940,1,0,0:0:0:0:
446,353,34963,1,8,0:0:0:0:
446,353,34984,1,8,0:0:0:0:
339,215,35117,1,8,0:0:0:0:
322,192,35139,1,0,0:0:0:0:
339,215,35161,1,0,0:0:0:0:
446,353,35293,1,8,0:0:0:0:
446,353,35316,1,8,0:0:0:0:
446,353,35337,1,8,0:0:0:0:
314,239,35470,1,0,0:0:0:0:
314,239,35492,1,0,0:0:0:0:
314,239,35514,1,0,0:0:0:0:
463,326,35646,1,8,0:0:0:0:
437,311,35668,1,8,0:0:0:0:
412,296,35690,1,0,0:0:0:0:
412,296,35823,1,0,0:0:0:0:
412,296,35844,1,8,0:0:0:0:
412,296,35867,1,8,0:0:0:0:
412,296,35999,1,0,0:0:0:0:
412,296,36021,1,0,0:0:0:0:
412,296,36044,1,8,0:0:0:0:
241,326,36176,1,8,0:0:0:0:
269,320,36198,1,0,0:0:0:0:
296,315,36220,1,0,0:0:0:0:
461,260,36352,1,8,0:0:0:0:
437,207,36411,1,8,0:0:0:0:
437,207,36470,1,8,0:0:0:0:
469,159,36528,1,0,0:0:0:0:
493,189,36558,1,0,0:0:0:0:
454,193,36588,1,8,0:0:0:0:
415,197,36617,1,8,0:0:0:0:
377,201,36646,1,0,0:0:0:0:
338,205,36676,1,0,0:0:0:0:
506,130,36705,1,8,0:0:0:0:
400,170,36823,1,0,0:0:0:0:
421,96,36881,1,0,0:0:0:0:
421,96,36940,1,0,0:0:0:0:
416,260,36999,1,0,0:0:0:0:
431,224,37088,1,0,0:0:0:0:
416,260,37176,1,0,0:0:0:0:
277,192,37293,1,0,0:0:0:0:
138,124,37411,1,8,0:0:0:0:
431,224,37440,1,8,0:0:0:0:
431,224,37470,1,8,0:0:0:0:
277,192,37588,1,0,0:0:0:0:
315,191,37632,1,0,0:0:0:0:
390,189,37676,1,0,0:0:0:0:
428,188,37720,1,0,0:0:0:0:
392,255,37764,1,8,0:0:0:0:
476,175,37852,1,8,0:0:0:0:
460,289,37940,1,0,0:0:0:0:
474,214,37999,1,0,0:0:0:0:
474,214,38058,1,0,0:0:0:0:
460,289,38117,1,8,0:0:0:0:
451,252,38146,1,8,0:0:0:0:
451,252,38176,1,0,0:0:0:0:
447,213,38205,1,0,0:0:0:0:
447,213,38235,1,8,0:0:0:0:
447,213,38264,1,8,0:0:0:0:
229,239,38293,1,0,0:0:0:0:
460,289,38352,1,8,0:0:0:0:
397,244,38411,1,0,0:0:0:0:
229,239,38470,1,8,0:0:0:0:
447,213,38558,1,0,0:0:0:0:
355,282,38646,1,8,0:0:0:0:
458,228,38735,1,0,0:0:0:0:
496,119,38823,1,8,0:0:0:0:
498,157,38852,1,8,0:0:0:0:
502,194,38881,1,0,0:0:0:0:
350,165,38999,1,8,0:0:0:0:
379,160,39021,1,8,0:0:0:0:
453,99,39176,1,0,0:0:0:0:
453,99,39220,1,0,0:0:0:0:
453,99,39264,1,0,0:0:0:0:
453,99,39308,1,0,0:0:0:0:
465,203,39352,1,0,0:0:0:0:
307,275,39528,1,8,0:0:0:0:
270,206,39588,1,8,0:0:0:0:
270,206,39646,1,8,0:0:0:0:
270,206,39705,1,8,0:0:0:0:
270,206,39764,1,8,0:0:0:0:
270,206,39823,1,8,0:0:0:0:
270,206,39881,1,0,0:0:0:0:
372,150,39970,1,0,0:0:0:0:
482,116,40058,1,8,0:0:0:0:
438,222,40146,1,0,0:0:0:0:
365,312,40235,1,8,0:0:0:0:
390,284,40256,1,8,0:0:0:0:
416,255,40279,1,8,0:0:0:0:
449,235,40323,1,0,0:0:0:0:
496,208,40411,1,8,0:0:0:0:
470,156,40455,1,8,0:0:0:0:
470,156,40499,1,0,0:0:0:0:
470,156,40544,1,0,0:0:0:0:
470,156,40588,1,8,0:0:0:0:
354,151,40676,1,0,0:0:0:0:
238,148,40764,1,8,0:0:0:0:
267,151,40786,1,8,0:0:0:0:
470,156,40852,1,8,0:0:0:0:
449,235,40940,1,0,0:0:0:0:
467,201,40984,1,0,0:0:0:0:
433,259,41028,1,0,0:0:0:0:
433,142,41117,1,8,0:0:0:0:
407,169,41146,1,8,0:0:0:0:
381,198,41176,1,0,0:0:0:0:
433,259,41205,1,0,0:0:0:0:
433,259,41293,1,8,0:0:0:0:
434,324,41411,1,0,0:0:0:0:
434,324,41528,1,0,0:0:0:0:
434,324,41646,1,8,0:0:0:0:
443,286,41676,1,8,0:0:0:0:
457,209,41735,1,0,0:0:0:0:
387,301,41823,1,8,0:0:0:0:
414,229,41881,1,0,0:0:0:0:
441,156,41940,1,0,0:0:0:0:
469,84,41999,1,8,0:0:0:0:
463,200,42088,1,0,0:0:0:0:
410,307,42176,1,8,0:0:0:0:
441,156,42205,1,8,0:0:0:0:
441,156,42235,1,8,0:0:0:0:
446,266,42264,1,0,0:0:0:0:
337,224,42352,1,8,0:0:0:0:
446,266,42440,1,0,0:0:0:0:
437,35,42528,1,8,0:0:0:0:
438,73,42558,1,8,0:0:0:0:
439,111,42588,1,0,0:0:0:0:
440,149,42617,1,0,0:0:0:0:
442,186,42646,1,8,0:0:0:0:
445,225,42676,1,8,0:0:0:0:
446,266,42705,1,0,0:0:0:0:
337,226,42793,1,8,0:0:0:0:
450,242,42881,1,0,0:0:0:0:
450,242,42940,1,8,0:0:0:0:
450,242,42999,1,8,0:0:0:0:
445,225,43058,1,0,0:0:0:0:
442,186,43146,1,0,0:0:0:0:
414,285,43235,1,8,0:0:0:0:
414,285,43256,1,8,0:0:0:0:
469,218,43323,1,0,0:0:0:0:
385,237,43411,1,0,0:0:0:0:
393,264,43455,1,0,0:0:0:0:
350,224,43499,1,0,0:0:0:0:
445,225,43588,1,8,0:0:0:0:
445,225,43617,1,8,0:0:0:0:
445,225,43646,1,8,0:0:0:0:
445,225,43676,1,8,0:0:0:0:
419,337,43764,1,0,0:0:0:0:
467,110,43940,1,8,0:0:0:0:
467,139,43970,1,8,0:0:0:0:
429,132,43999,1,0,0:0:0:0:
390,126,44028,1,0,0:0:0:0:
468,253,44058,1,0,0:0:0:0:
468,253,44088,1,0,0:0:0:0:
424,293,44117,1,8,0:0:0:0:
396,221,44176,1,0,0:0:0:0:
417,220,44235,1,0,0:0:0:0:
263,212,44293,1,0,0:0:0:0:
424,293,44470,1,8,0:0:0:0:
404,272,44492,1,8,0:0:0:0:
384,251,44514,1,0,0:0:0:0:
364,230,44536,1,0,0:0:0:0:
229,153,44646,1,8,0:0:0:0:
229,153,44823,1,0,0:0:0:0:
200,153,44844,1,0,0:0:0:0:
170,152,44867,1,8,0:0:0:0:
140,150,44889,1,8,0:0:0:0:
283,155,44999,1,0,0:0:0:0:
398,145,45088,1,8,0:0:0:0:
455,138,45176,1,0,0:0:0:0:
455,138,45220,1,0,0:0:0:0:
455,138,45264,1,0,0:0:0:0:
455,138,45308,1,0,0:0:0:0:
455,138,45352,1,8,0:0:0:0:
356,346,45528,1,8,0:0:0:0:
362,317,45551,1,8,0:0:0:0:
368,289,45572,1,8,0:0:0:0:
496,161,45705,1,0,0:0:0:0:
484,187,45727,1,0,0:0:0:0:
473,214,45749,1,8,0:0:0:0:
355,340,45881,1,8,0:0:0:0:
374,317,45904,1,8,0:0:0:0:
393,295,45926,1,0,0:0:0:0:
495,155,46058,1,0,0:0:0:0:
477,178,46080,1,8,0:0:0:0:
459,200,46102,1,8,0:0:0:0:
354,338,46235,1,8,0:0:0:0:
371,315,46256,1,0,0:0:0:0:
389,291,46279,1,0,0:0:0:0:
420,279,46411,1,8,0:0:0:0:
420,279,46433,1,8,0:0:0:0:
420,279,46455,1,8,0:0:0:0:
449,330,46588,1,0,0:0:0:0:
449,330,46609,1,0,0:0:0:0:
449,330,46632,1,0,0:0:0:0:
449,330,46764,1,8,0:0:0:0:
449,330,46786,1,8,0:0:0:0:
434,304,46808,1,0,0:0:0:0:
420,279,46940,1,0,0:0:0:0:
420,279,46963,1,8,0:0:0:0:
420,279,46984,1,8,0:0:0:0:
434,304,47117,1,0,0:0:0:0:
434,304,47139,1,0,0:0:0:0:
434,304,47161,1,8,0:0:0:0:
261,298,47293,1,8,0:0:0:0:
261,298,47316,1,0,0:0:0:0:
261,298,47337,1,0,0:0:0:0:
434,288,47470,1,8,0:0:0:0:
405,289,47492,1,8,0:0:0:0:
375,291,47514,1,8,0:0:0:0:
447,344,47646,1,0,0:0:0:0:
446,266,47705,1,0,0:0:0:0:
446,189,47764,1,0,0:0:0:0:
446,189,47823,1,8,0:0:0:0:
470,159,47852,1,8,0:0:0:0:
470,159,47881,1,0,0:0:0:0:
470,159,47911,1,0,0:0:0:0:
470,159,47940,1,8,0:0:0:0:
470,159,47970,1,8,0:0:0:0:
434,288,47999,1,0,0:0:0:0:
458,234,48044,1,0,0:0:0:0:
482,181,48088,1,0,0:0:0:0:
482,181,48132,1,0,0:0:0:0:
431,208,48176,1,8,0:0:0:0:
363,245,48235,1,8,0:0:0:0:
363,245,48293,1,8,0:0:0:0:
363,245,48352,1,0,0:0:0:0:
470,159,48440,1,0,0:0:0:0:
470,159,48528,1,8,0:0:0:0:
485,234,48588,1,0,0:0:0:0:
485,234,48646,1,0,0:0:0:0:
375,370,48705,1,8,0:0:0:0:
408,259,48793,1,8,0:0:0:0:
485,234,48881,1,0,0:0:0:0:
470,159,48926,1,0,0:0:0:0:
470,159,48970,1,0,0:0:0:0:
470,159,49014,1,0,0:0:0:0:
441,266,49058,1,8,0:0:0:0:
444,294,49235,1,0,0:0:0:0:
470,159,49256,1,0,0:0:0:0:
470,159,49279,1,8,0:0:0:0:
470,159,49300,1,8,0:0:0:0:
470,159,49323,1,0,0:0:0:0:
470,159,49344,1,0,0:0:0:0:
470,159,49367,1,8,0:0:0:0:
470,159,49389,1,8,0:0:0:0:
470,159,49411,1,0,0:0:0:0:
444,294,49588,1,8,0:0:0:0:
444,294,49940,1,0,0:0:0:0:
434,179,50028,1,0,0:0:0:0:
444,294,50117,1,8,0:0:0:0:
444,294,50293,1,8,0:0:0:0:
444,294,50470,1,0,0:0:0:0:
381,300,50823,1,0,0:0:0:0:
381,300,50999,1,8,0:0:0:0:
424,260,51044,1,8,0:0:0:0:
496,314,51088,1,8,0:0:0:0:
