osu file format v14

[General]
AudioFilename: stereo mooon.mp3
AudioLeadIn: 0
PreviewTime: 104942
Countdown: 0
SampleSet: None
StackLeniency: 0.3
Mode: 0
LetterboxInBreaks: 0
WidescreenStoryboard: 0

[Editor]
Bookmarks: 26989,50895,73395,104895
DistanceSpacing: 0.6
BeatDivisor: 16
GridSize: 4
TimelineZoom: 2.799999

[Metadata]
Title:destination moon but it has amen breaks
TitleUnicode:destination moon but it has amen breaks
Artist:succducc
ArtistUnicode:succducc
Creator:Ancelysia
Version:euphoria
Source:
Tags:for Mathyu Dementation _DUSK_ Vulkin stereo cube surreal recordings electronic neuro ambient airuei
BeatmapID:1769365
BeatmapSetID:845984

[Difficulty]
HPDrainRate:5
CircleSize:3
OverallDifficulty:8
ApproachRate:9.4
SliderMultiplier:2.3
SliderTickRate:0.5

[Events]
//Background and Video events
0,0,"BG.jpg",0,0
//Break Periods
//Storyboard Layer 0 (Background)
//Storyboard Layer 1 (Fail)
//Storyboard Layer 2 (Pass)
//Storyboard Layer 3 (Foreground)
//Storyboard Sound Samples

[TimingPoints]
26989,375,4,3,0,30,1,0
26989,-333.333333333333,4,3,0,30,0,0
38989,-166.666666666667,4,2,0,30,0,0
50989,-100,4,2,0,60,0,0
73465,-100,4,2,0,5,0,0
73489,375,4,2,0,80,1,0
74989,-50,4,2,0,80,0,1
75364,-400,4,2,0,80,0,1
75739,-400,4,2,0,80,0,0
76020,-40,4,2,0,80,0,1
76301,-36.3636363636364,4,2,0,80,0,1
76582,-33.3333333333333,4,2,0,80,0,1
76864,-30.7692307692308,4,2,0,80,0,1
77614,-100,4,2,0,80,0,1
77989,-44.4444444444445,4,2,0,100,0,0
78926,-50,4,2,0,80,0,0
79301,-28.5714285714286,4,2,0,80,0,1
79489,-50,4,2,0,80,0,0
79676,-100,4,2,0,80,0,0
79864,-50,4,2,0,80,0,1
79910,-50,4,2,0,80,0,0
80426,-50,4,2,0,80,0,1
80473,-50,4,2,0,80,0,0
81364,-66.6666666666667,4,2,0,80,0,0
81926,-40,4,2,0,80,0,0
82020,-40,4,2,0,80,0,1
83239,-66.6666666666667,4,2,0,80,0,1
83989,-66.6666666666667,4,2,0,80,0,0
84270,-66.6666666666667,4,2,0,5,0,0
84364,-133.333333333333,4,2,0,80,0,0
84645,-133.333333333333,4,2,0,5,0,0
84739,-100,4,2,0,80,0,0
86614,-50,4,2,0,80,0,0
87270,-50,4,2,0,5,0,0
87364,-100,4,2,0,100,0,1
87739,-43.4782608695652,4,2,0,100,0,1
88489,-100,4,2,0,100,0,1
89051,-500,4,2,0,100,0,1
89192,-100,4,2,0,5,0,1
89239,-100,4,2,0,100,0,1
89942,-50,4,2,0,100,0,0
89989,-50,4,2,0,100,0,1
90739,-100,4,2,0,100,0,1
91489,-50,4,2,0,100,0,1
92614,-100,4,2,0,100,0,1
92989,-100,4,2,0,100,0,0
93739,-66.6666666666667,4,2,0,100,0,1
95942,-66.6666666666667,4,2,0,100,0,0
95989,-133.333333333333,4,2,0,100,0,1
98989,750,4,2,0,100,1,0
99176,-333.333333333333,4,2,1,40,0,0

[Colours]
Combo1 : 192,192,192
Combo2 : 84,205,102
Combo3 : 60,163,238
Combo4 : 220,56,69
Combo5 : 222,198,56
Combo6 : 192,192,192
Combo7 : 192,192,192
Combo8 : 192,192,192

[HitObjects]
40,136,26989,70,0,P|64:150|112:152,1,68.9999978942872
340,128,27739,1,2,1:2:0:0:
296,58,27926,2,0,P|274:75|256:120,1,68.9999978942872
191,317,28676,2,0,P|212:299|228:256,1,68.9999978942872
200,184,29239,5,0,1:0:0:0:
200,184,29520,1,0,0:0:0:0:
200,184,29802,1,0,0:0:0:0:
272,256,29989,6,0,L|348:244,1,68.9999978942872
500,32,30739,1,2,1:2:0:0:
432,84,30926,2,0,L|416:160,1,68.9999978942872
492,324,31676,2,0,L|444:262,1,68.9999978942872
404,368,32239,5,0,1:0:0:0:
404,368,32520,1,0,0:0:0:0:
404,368,32802,1,0,0:0:0:0:
312,272,32989,70,0,P|308:312|288:336,1,68.9999978942872
140,244,33739,1,2,1:2:0:0:
212,200,33926,2,0,P|224:240|219:271,1,68.9999978942872
83,212,34676,2,0,P|121:222|141:246,1,68.9999978942872
176,360,35239,5,0,1:0:0:0:
176,360,35520,1,0,0:0:0:0:
176,360,35801,1,0,0:0:0:0:
244,292,35989,6,0,L|228:212,1,68.9999978942872
304,124,36739,1,2,1:2:0:0:
360,232,36926,2,0,P|354:272|344:312,1,68.9999978942872
464,224,37676,2,0,L|448:144,1,68.9999978942872
491,68,38239,5,0,1:0:0:0:
491,68,38520,1,0,0:0:0:0:
491,68,38801,1,0,0:0:0:0:
492,68,38989,70,0,L|488:120,3,34.4999989471436,0|0|0|0,3:0|0:0|0:0|0:0,0:0:0:0:
396,56,39364,2,0,L|392:108,3,34.4999989471436,0|0|0|0,1:0|0:0|0:0|0:0,0:0:0:0:
300,80,39739,2,0,L|302:45,2,34.4999989471436,2|0|0,1:2|0:0|0:0,0:0:0:0:
204,70,40020,2,0,L|208:36,2,34.4999989471436,0|0|0,3:0|0:0|0:0,0:0:0:0:
112,52,40301,2,0,L|114:17,2,34.4999989471436,0|0|0,3:0|0:0|0:0,0:0:0:0:
204,70,40770,6,0,L|208:36,2,34.4999989471436,0|0|0,3:0|0:0|0:0,0:0:0:0:
112,52,41051,2,0,L|114:17,1,34.4999989471436,0|0,3:0|0:0,0:0:0:0:
80,236,41239,6,0,L|82:201,2,34.4999989471436,0|0|0,1:0|0:0|0:0,0:0:0:0:
166,209,41520,2,0,L|164:244,2,34.4999989471436,0|0|0,3:0|0:0|1:0,0:0:0:0:
250,217,41801,2,0,L|248:252,1,34.4999989471436,0|0,3:0|0:0,0:0:0:0:
392,368,41989,6,0,L|436:364,3,34.4999989471436,0|0|0|0,1:0|0:0|0:0|0:0,0:0:0:0:
384,280,42364,2,0,L|340:276,3,34.4999989471436,0|0|0|0,1:0|0:0|0:0|0:0,0:0:0:0:
424,192,42739,2,0,L|389:195,2,34.4999989471436,2|0|0,1:2|0:0|0:0,0:0:0:0:
376,112,43020,2,0,L|332:108,2,34.4999989471436,0|0|0,3:0|0:0|0:0,0:0:0:0:
408,36,43301,2,0,L|452:32,2,34.4999989471436,0|0|0,3:0|0:0|0:0,0:0:0:0:
376,112,43770,70,0,L|332:108,2,34.4999989471436,0|0|0,3:0|0:0|0:0,0:0:0:0:
408,36,44051,2,0,L|452:32,1,34.4999989471436,0|0,3:0|0:0,0:0:0:0:
248,177,44239,6,0,L|256:144,2,34.4999989471436,0|0|0,1:0|0:0|0:0,0:0:0:0:
172,128,44520,2,0,L|164:161,2,34.4999989471436,0|0|0,3:0|0:0|0:0,0:0:0:0:
92,104,44801,2,0,L|84:137,1,34.4999989471436,0|0,3:0|0:0,0:0:0:0:
32,296,44989,6,0,L|39:346,3,34.4999989471436,0|0|0|0,3:0|0:0|0:0|0:0,0:0:0:0:
130,263,45364,2,0,L|132:297,3,34.4999989471436,0|0|0|0,3:0|0:0|0:0|0:0,0:0:0:0:
228,334,45739,2,0,L|222:299,2,34.4999989471436,2|0|0,1:2|0:0|0:0,0:0:0:0:
315,276,46020,2,0,L|322:326,2,34.4999989471436,0|0|0,3:0|0:0|0:0,0:0:0:0:
409,317,46301,2,0,L|411:351,2,34.4999989471436,0|0|0,3:0|0:0|0:0,0:0:0:0:
315,276,46770,6,0,L|322:326,2,34.4999989471436,0|0|0,3:0|0:0|0:0,0:0:0:0:
409,317,47051,2,0,L|411:351,1,34.4999989471436,0|0,3:0|0:0,0:0:0:0:
482,169,47239,70,0,L|488:204,2,34.4999989471436,0|0|0,1:0|0:0|0:0,0:0:0:0:
394,163,47520,2,0,L|391:128,2,34.4999989471436,0|0|0,3:0|0:0|0:0,0:0:0:0:
304,140,47801,2,0,L|301:105,1,34.4999989471436,0|0,3:0|0:0,0:0:0:0:
156,24,47989,6,0,L|100:16,3,34.4999989471436,0|0|0|2,3:0|0:0|0:0|0:0,0:0:0:0:
148,108,48364,2,0,L|92:100,3,34.4999989471436,0|0|0|0,3:0|0:0|0:0|0:0,0:0:0:0:
104,184,48739,2,0,L|138:188,2,34.4999989471436,2|0|0,1:2|0:0|0:0,0:0:0:0:
132,272,49020,2,0,L|76:264,2,34.4999989471436,0|0|0,3:0|0:0|0:0,0:0:0:0:
128,356,49301,2,0,L|72:348,2,34.4999989471436,0|0|0,3:0|0:0|0:0,0:0:0:0:
132,272,49770,6,0,L|76:264,2,34.4999989471436,0|0|0,3:0|0:0|0:0,0:0:0:0:
128,356,50051,2,0,L|72:348,1,34.4999989471436,0|0,3:0|0:0,0:0:0:0:
272,320,50239,6,0,L|266:285,2,34.4999989471436,0|0|0,1:0|0:0|0:0,0:0:0:0:
356,256,50520,2,0,L|361:290,2,34.4999989471436,0|0|0,1:0|0:0|0:0,0:0:0:0:
450,215,50801,2,0,L|455:249,1,34.4999989471436,0|0,1:0|0:0,0:0:0:0:
408,104,50989,69,8,0:0:0:0:
408,104,51364,1,8,0:0:0:0:
336,164,51739,2,0,L|344:232,3,57.5,10|2|2|4,0:0|0:0|0:0|3:0,0:0:0:0:
316,76,52114,5,8,0:0:0:0:
244,136,52301,2,0,L|252:204,3,57.5,4|2|10|0,3:0|0:0|0:0|0:0,0:0:0:0:
224,48,52676,5,0,0:0:0:0:
148,108,52770,1,4,3:0:0:0:
148,108,52864,2,0,L|156:176,3,57.5,10|2|4|0,0:0|0:0|3:0|0:0,0:0:0:0:
128,20,53239,5,8,0:0:0:0:
52,80,53426,2,0,L|60:148,4,57.5,2|4|10|0|4,0:0|3:0|0:0|0:0|3:0,0:0:0:0:
12,272,53989,69,8,0:0:0:0:
12,272,54364,1,8,0:0:0:0:
148,336,54739,2,0,L|80:344,3,57.5,10|2|2|4,0:0|0:0|0:0|3:0,0:0:0:0:
100,256,55114,5,8,0:0:0:0:
232,176,55301,2,0,L|164:168,3,57.5,4|2|10|0,3:0|0:0|0:0|3:0,0:0:0:0:
248,328,55770,1,4,3:0:0:0:
248,328,55864,2,0,L|316:320,3,57.5,14|2|4|0,0:0|0:0|3:0|0:0,0:0:0:0:
276,244,56239,5,8,0:0:0:0:
377,178,56332,2,0,L|320:172,2,57.5,2|0|4,0:0|3:0|3:0,0:0:0:0:
456,264,56614,5,8,0:0:0:0:
392,64,56801,1,4,3:0:0:0:
392,64,56989,69,8,0:0:0:0:
392,64,57364,1,8,0:0:0:0:
249,240,57739,5,8,0:0:0:0:
270,256,57832,1,2,0:0:0:0:
296,264,57926,1,2,0:0:0:0:
328,264,58020,1,6,3:0:0:0:
349,254,58114,2,0,P|376:216|378:197,1,57.5,8|2,0:0|0:0,0:0:0:0:
198,185,58301,5,4,3:0:0:0:
181,206,58395,1,2,0:0:0:0:
174,232,58489,1,8,0:0:0:0:
174,260,58582,1,2,0:0:0:0:
184,285,58676,2,0,P|222:312|240:314,1,57.5,2|4,0:0|3:0,0:0:0:0:
268,169,58864,5,8,0:0:0:0:
285,148,58957,1,2,0:0:0:0:
292,122,59051,1,4,3:0:0:0:
292,95,59145,1,2,0:0:0:0:
283,69,59239,2,0,P|244:42|226:40,1,57.5,8|2,0:0|0:0,0:0:0:0:
144,112,59426,69,2,0:0:0:0:
127,154,59520,1,4,3:0:0:0:
130,200,59613,1,8,0:0:0:0:
151,241,59707,1,2,0:0:0:0:
157,286,59801,1,4,3:0:0:0:
142,329,59895,1,2,0:0:0:0:
108,360,59989,5,8,0:0:0:0:
108,360,60364,1,8,0:0:0:0:
52,248,60739,5,8,0:0:0:0:
58,220,60832,1,2,0:0:0:0:
65,192,60926,1,2,0:0:0:0:
72,164,61020,1,4,3:0:0:0:
79,136,61114,2,2,L|160:120,1,57.5,10|2,0:0|0:0,0:0:0:0:
276,300,61301,5,4,3:0:0:0:
248,293,61394,1,2,0:0:0:0:
220,286,61488,1,8,0:0:0:0:
192,279,61582,1,2,0:0:0:0:
164,272,61676,2,0,L|147:191,1,57.5,0|4,0:0|3:0,0:0:0:0:
308,32,61864,69,8,0:0:0:0:
301,60,61957,1,2,0:0:0:0:
294,88,62051,1,4,3:0:0:0:
287,116,62145,1,2,0:0:0:0:
280,144,62239,2,0,L|199:160,1,57.5,0|2,1:0|0:0,0:0:0:0:
60,64,62426,5,0,0:0:0:0:
64,96,62519,1,4,3:0:0:0:
69,128,62614,1,8,0:0:0:0:
74,161,62707,1,0,0:0:0:0:
79,193,62801,1,4,3:0:0:0:
84,226,62894,1,0,0:0:0:0:
89,258,62988,5,8,0:0:0:0:
422,258,63364,1,8,0:0:0:0:
220,184,63739,5,8,0:0:0:0:
230,218,63832,1,2,0:0:0:0:
264,225,63926,1,2,0:0:0:0:
289,200,64020,1,4,3:0:0:0:
279,166,64114,1,8,0:0:0:0:
244,158,64207,1,2,0:0:0:0:
209,184,64301,69,4,3:0:0:0:
224,228,64394,1,2,0:0:0:0:
268,238,64488,1,8,0:0:0:0:
299,206,64582,1,2,0:0:0:0:
287,161,64676,1,2,0:0:0:0:
242,150,64769,1,4,3:0:0:0:
193,181,64864,5,8,0:0:0:0:
212,242,64957,1,2,0:0:0:0:
274,256,65051,1,4,3:0:0:0:
318,210,65145,1,2,0:0:0:0:
302,148,65239,1,8,0:0:0:0:
238,132,65332,1,2,0:0:0:0:
181,178,65426,5,2,0:0:0:0:
203,250,65519,1,4,3:0:0:0:
277,267,65613,1,8,0:0:0:0:
330,213,65707,1,2,0:0:0:0:
310,138,65801,1,8,3:0:0:0:
234,119,65894,1,2,0:0:0:0:
256,192,65989,5,8,0:0:0:0:
256,192,66364,1,8,0:0:0:0:
211,183,66739,69,2,0:0:0:0:
224,224,66832,1,6,0:0:0:0:
266,234,66926,1,2,0:0:0:0:
297,203,67020,1,4,3:0:0:0:
284,160,67114,1,8,0:0:0:0:
241,149,67207,1,2,0:0:0:0:
198,183,67301,5,4,3:0:0:0:
216,237,67394,1,2,0:0:0:0:
271,250,67488,1,8,0:0:0:0:
310,209,67582,1,2,0:0:0:0:
295,154,67676,1,2,0:0:0:0:
239,140,67769,1,4,3:0:0:0:
178,179,67864,5,8,0:0:0:0:
201,255,67957,1,2,0:0:0:0:
279,272,68051,1,4,3:0:0:0:
334,215,68145,1,2,0:0:0:0:
313,137,68239,1,8,0:0:0:0:
234,117,68332,1,2,0:0:0:0:
163,175,68426,5,2,0:0:0:0:
190,265,68519,1,4,3:0:0:0:
282,286,68613,1,8,0:0:0:0:
349,218,68707,1,2,0:0:0:0:
324,124,68801,1,8,3:0:0:0:
228,100,68894,1,2,0:0:0:0:
140,171,68989,70,0,L|160:264,1,57.5,0|0,1:0|0:0,0:0:0:0:
180,352,69176,1,2,3:0:0:0:
372,171,69364,6,0,L|352:264,1,57.5,0|0,1:0|0:0,0:0:0:0:
332,352,69551,1,2,3:0:0:0:
81,196,69739,6,0,L|131:276,1,57.5,0|0,1:0|0:0,0:0:0:0:
180,352,69926,1,2,3:0:0:0:
431,196,70114,6,0,L|380:276,1,57.5,0|0,1:0|0:0,0:0:0:0:
332,352,70301,1,2,3:0:0:0:
32,240,70489,70,0,L|107:298,1,57.5,0|0,1:0|0:0,0:0:0:0:
180,352,70676,1,2,3:0:0:0:
478,240,70864,6,0,L|402:298,1,57.5,0|0,1:0|0:0,0:0:0:0:
332,352,71051,1,2,3:0:0:0:
5,297,71239,6,0,L|95:325,1,57.5,0|0,1:0|0:0,0:0:0:0:
180,352,71426,1,2,3:0:0:0:
507,297,71614,6,0,L|416:325,1,57.5,0|0,1:0|0:0,0:0:0:0:
332,352,71801,1,2,3:0:0:0:
256,192,71989,12,0,73465,0:0:0:0:
256,208,73490,5,0,0:0:0:0:
272,192,73865,1,0,0:0:0:0:
256,176,74240,1,0,0:0:0:0:
240,192,74615,5,0,3:0:0:0:
416,336,74989,6,0,P|528:320|396:280,1,345,4|0,0:0|0:0,0:0:0:0:
392,256,75364,2,0,P|356:252|340:256,1,43.125,4|0,3:0|0:0,0:0:0:0:
204,312,75739,5,0,1:0:0:0:
228,352,75832,1,2,0:0:0:0:
260,312,75926,1,2,0:0:0:0:
236,268,76020,69,6,3:0:0:0:
184,184,76114,2,2,B|168:144|168:144|184:32,1,143.75
328,156,76301,5,6,3:0:0:0:
396,224,76395,2,2,B|432:156|432:156|392:80,1,158.125001507998
182,44,76582,5,6,3:0:0:0:
92,92,76676,2,0,B|84:160|84:160|140:328,1,172.500006580353
204,368,76864,5,6,3:0:0:0:
224,276,76957,2,0,P|140:296|116:404,2,186.875005346537,0|0|0,0:0|0:0|1:0,0:0:0:0:
472,340,77239,70,0,P|336:232|332:364,1,373.750010693074,8|0,1:0|1:0,0:0:0:0:
392,300,77520,1,4,3:0:0:0:
344,200,77614,6,0,L|244:212,1,57.5,4|0,3:0|0:0,0:0:0:0:
208,140,77801,1,0,3:3:0:0:
212,125,77847,1,0,3:3:0:0:
216,112,77894,1,0,3:3:0:0:
220,98,77941,1,0,3:3:0:0:
224,88,77989,6,0,B|244:16|244:16|332:104|332:104|96:160|96:160|136:40,2,517.500019741059,0|4|8,1:0|3:0|1:0,1:0:0:0:
184,320,78926,5,0,1:0:0:0:
184,320,79020,1,0,1:0:0:0:
184,320,79114,2,0,L|100:312,3,57.5,0|0|0|0,3:0|3:0|3:0|3:0,3:0:0:0:
248,256,79301,70,0,B|360:200|328:320|480:220,1,201.25000191927,4|0,1:0|2:0,0:0:0:0:
152,220,79489,5,0,1:0:0:0:
152,220,79581,1,0,1:0:0:0:
152,220,79676,2,0,L|68:212,1,57.5,0|0,3:0|3:0,3:0:0:0:
216,156,79864,6,0,B|264:128|312:128|360:152|360:152|404:176|480:172|512:104|496:24|412:-4|324:20|344:140,1,460,4|8,1:0|1:0,0:0:0:0:
288,232,80425,6,0,B|248:292|252:348|252:348|248:292|200:236|144:232|104:240|80:272|80:272|140:240|184:284,1,460,4|0,1:0|1:0,0:0:0:0:
352,324,80988,70,0,L|416:316,7,57.5,2|0|0|0|0|0|0|0,0:0|0:0|0:0|0:0|0:0|0:0|0:0|0:0,0:0:0:0:
480,236,81363,2,0,B|352:164|352:312|216:216,1,258.75000987053,4|0,3:0|0:0,0:0:0:0:
300,152,81739,1,0,1:0:0:0:
112,80,81926,5,0,1:0:0:0:
66,12,82020,2,0,L|72:156,1,143.75,4|0,1:0|0:0,0:0:0:0:
272,172,82207,5,0,1:0:0:0:
350,194,82301,2,0,L|252:87,1,143.75,4|0,1:0|0:0,0:0:0:0:
112,288,82489,5,0,1:0:0:0:
64,353,82582,2,0,L|197:298,1,143.75,4|0,1:0|0:0,0:0:0:0:
112,80,82769,69,0,1:0:0:0:
66,12,82863,2,0,L|72:156,1,143.75,4|0,1:0|0:0,0:0:0:0:
284,296,83050,5,0,1:0:0:0:
288,320,83144,1,0,1:0:0:0:
292,344,83239,2,0,L|296:208,7,86.2500032901765,8|0|0|0|0|0|0|0,1:0|0:0|0:0|0:0|0:0|0:0|0:0|0:0,0:0:0:0:
416,224,83989,6,0,B|116:216|116:216,1,258.75000987053,4|4,3:0|3:0,1:0:0:0:
112,132,84364,2,0,L|244:136,1,129.375004935265
288,331,84739,6,0,P|232:344|178:326,2,115,0|0|0,1:0|0:0|0:0,0:0:0:0:
348,241,85300,2,0,P|388:283|398:338,2,115,0|0|0,1:0|0:0|0:0,0:0:0:0:
236,231,85864,2,0,P|254:177|298:140,2,115,0|0|0,1:0|0:0|0:0,0:0:0:0:
340,336,86425,1,0,0:0:0:0:
456,224,86614,70,0,L|392:212,1,57.5,0|0,1:0|1:0,0:0:0:0:
456,200,86707,2,0,L|399:189,1,57.5,0|0,1:0|1:0,0:0:0:0:
456,176,86801,2,0,L|392:164,1,57.5,0|0,1:0|1:0,0:0:0:0:
456,152,86895,2,0,L|399:141,1,57.5,0|0,1:0|1:0,0:0:0:0:
456,124,86989,6,0,B|375:137|308:104|308:104|288:164|288:164|223:197|124:140,1,345
36,120,87364,6,0,L|28:224,1,57.5,6|2,1:2|1:2,0:0:0:0:
100,360,87551,2,0,L|92:256,1,57.5,2|0,1:2|1:2,0:0:0:0:
144,220,87739,6,0,B|276:144|268:320|432:184,1,264.500005044937,2|0,0:1|0:0,0:0:0:0:
424,136,88020,1,0,0:0:0:0:
471,205,88114,70,0,P|333:270|401:134,1,396.750007567406,8|0,1:0|0:0,0:0:0:0:
488,204,88489,5,8,3:0:0:0:
436,296,88582,1,0,3:0:0:0:
318,269,88675,1,0,0:0:0:0:
305,161,88769,1,0,3:0:0:0:
408,108,88864,2,0,L|396:28,1,57.5,8|0,1:0|0:0,0:0:0:0:
0,216,89051,6,0,L|4:236,1,17.25,0|0,0:0|0:0,1:0:0:0:
9,253,89239,5,4,3:0:0:0:
55,236,89332,1,0,0:0:0:0:
104,230,89426,1,4,3:0:0:0:
150,244,89520,1,0,0:0:0:0:
192,271,89614,1,8,1:0:0:0:
237,289,89707,1,0,0:0:0:0:
285,277,89801,1,8,1:3:0:0:
328,253,89895,1,0,0:0:0:0:
365,225,89989,70,0,B|409:249|421:277|421:321|421:321|437:249|481:217|481:217|417:145|449:77|433:49,1,345,4|0,1:0|2:0,1:0:0:0:
440,108,90364,5,8,1:0:0:0:
469,5,90457,1,0,0:0:0:0:
308,20,90551,1,0,0:0:0:0:
336,120,90644,1,0,0:0:0:0:
268,200,90739,5,2,0:1:0:0:
238,215,90832,1,0,0:0:0:0:
207,224,90926,1,4,3:0:0:0:
174,225,91020,1,0,0:0:0:0:
142,220,91114,1,8,1:0:0:0:
111,208,91207,1,0,0:0:0:0:
84,190,91301,1,0,0:0:0:0:
61,167,91395,1,0,0:0:0:0:
44,140,91489,6,0,B|152:100|152:100|272:140,1,230,4|0,3:0|0:0,0:0:0:0:
416,200,91770,69,2,0:1:0:0:
444,164,91864,2,0,L|420:36,1,115,8|0,1:0|0:0,0:0:0:0:
188,312,92051,6,0,P|132:236|228:244,1,230,2|0,0:1|0:0,0:0:0:0:
304,332,92332,5,2,0:1:0:0:
340,356,92426,2,0,L|468:332,1,115,4|0,3:0|0:0,0:0:0:0:
420,128,92614,6,0,L|440:224,1,57.5,8|0,1:0|0:0,0:0:0:0:
468,340,92801,2,0,L|448:244,1,57.5,2|0,0:0|0:0,0:0:0:0:
476,52,92989,6,0,B|388:12|336:88|336:88|292:64|232:80,1,230,4|4,3:0|3:0,1:0:0:0:
268,73,93739,54,0,L|264:161,1,86.2500032901765,8|0,1:0|0:0,0:0:0:0:
180,308,93926,5,0,0:0:0:0:
214,282,94019,1,2,0:0:0:0:
256,275,94113,1,2,0:0:0:0:
297,288,94207,1,2,0:0:0:0:
327,319,94301,1,0,1:0:0:0:
327,319,94489,5,2,0:0:0:0:
296,300,94582,1,2,0:0:0:0:
256,275,94676,1,2,0:0:0:0:
216,292,94770,1,2,0:0:0:0:
180,320,94864,1,0,1:0:0:0:
180,320,95050,5,2,0:0:0:0:
216,300,95145,1,2,0:0:0:0:
256,275,95239,1,2,0:0:0:0:
296,308,95331,1,2,0:0:0:0:
328,328,95425,1,0,1:0:0:0:
328,328,95613,69,2,0:0:0:0:
296,320,95706,1,2,0:0:0:0:
256,275,95800,1,2,0:0:0:0:
216,312,95894,1,2,0:0:0:0:
174,334,95989,6,0,B|122:262|122:262|155:184,1,172.500006580353,4|0,1:0|3:0,0:0:0:0:
350,186,96551,2,0,B|383:264|383:264|332:336,1,172.500006580353,4|0,1:0|1:0,0:0:0:0:
180,68,97114,6,0,B|256:104|256:104|348:64,1,172.500006580353,4|0,1:0|1:0,0:0:0:0:
332,335,97676,2,0,B|256:299|256:299|164:339,1,172.500006580353,4|0,1:0|1:0,0:0:0:0:
256,64,98239,5,0,1:0:0:0:
256,336,98426,1,0,0:0:0:0:
112,192,98614,1,4,3:0:0:0:
384,192,98801,1,4,3:0:0:0:
256,192,98989,5,0,3:0:0:0:
256,192,99082,12,0,104614,0:0:0:0:
120,152,104989,6,0,L|124:208,2,51.7499984207154,2|2|2,0:0|0:0|0:0,0:0:0:0:
192,76,107989,1,2,0:0:0:0:
308,192,108364,6,0,L|372:184,2,51.7499984207154,2|2|2,0:0|0:0|0:0,0:0:0:0:
308,192,110239,1,2,0:0:0:0:
456,104,110989,1,2,0:0:0:0:
440,92,111364,6,0,L|448:32,2,51.7499984207154,2|2|2,0:0|0:0|0:0,0:0:0:0:
96,328,113989,69,2,0:0:0:0:
56,236,114176,1,2,0:0:0:0:
124,156,114364,2,0,L|276:172,1,137.999995788574,2|2,0:0|0:0,0:0:0:0:
360,336,117177,5,2,0:0:0:0:
388,324,117364,1,2,0:0:0:0:
416,312,117551,1,2,0:0:0:0:
472,232,117739,6,0,L|464:172,2,51.7499984207154,2|2|2,0:0|0:0|0:0,0:0:0:0:
336,88,120364,6,0,B|272:84,2,51.7499984207154,2|2|2,0:0|0:0|0:0,0:0:0:0:
408,252,122614,69,2,0:0:0:0:
456,164,122801,1,2,0:0:0:0:
348,180,122989,2,0,B|248:224|256:120|140:180,1,206.999993682861,2|2,0:0|0:0,0:0:0:0:
